  0
SECTION
  2
HEADER
  9
$ACADVER
  1
AC1009
  9
$INSBASE
 10
0.0
 20
0.0
 30
0.0
  9
$EXTMIN
 10
250.0
 20
300.0
 30
0.0
  9
$EXTMAX
 10
1850.0
 20
2786.6522620000001
 30
0.0
  9
$LIMMIN
 10
0.0
 20
0.0
  9
$LIMMAX
 10
297.0
 20
210.0
  9
$ORTHOMODE
 70
     0
  9
$REGENMODE
 70
     1
  9
$FILLMODE
 70
     0
  9
$QTEXTMODE
 70
     0
  9
$MIRRTEXT
 70
     1
  9
$DRAGMODE
 70
     2
  9
$LTSCALE
 40
100.0
  9
$OSMODE
 70
    37
  9
$ATTMODE
 70
     1
  9
$TEXTSIZE
 40
180.0
  9
$TRACEWID
 40
0.05
  9
$TEXTSTYLE
  7
STANDARD
  9
$CLAYER
  8
3
  9
$CELTYPE
  6
BYLAYER
  9
$CECOLOR
 62
   256
  9
$DIMSCALE
 40
10.0
  9
$DIMASZ
 40
2.0
  9
$DIMEXO
 40
0.5
  9
$DIMDLI
 40
10.0
  9
$DIMRND
 40
0.0
  9
$DIMDLE
 40
0.0
  9
$DIMEXE
 40
1.0
  9
$DIMTP
 40
1.0
  9
$DIMTM
 40
1.0
  9
$DIMTXT
 40
3.0
  9
$DIMCEN
 40
0.0
  9
$DIMTSZ
 40
0.0
  9
$DIMTOL
 70
     0
  9
$DIMLIM
 70
     0
  9
$DIMTIH
 70
     0
  9
$DIMTOH
 70
     0
  9
$DIMSE1
 70
     0
  9
$DIMSE2
 70
     0
  9
$DIMTAD
 70
     1
  9
$DIMZIN
 70
     8
  9
$DIMBLK
  1

  9
$DIMASO
 70
     1
  9
$DIMSHO
 70
     1
  9
$DIMPOST
  1

  9
$DIMAPOST
  1

  9
$DIMALT
 70
     0
  9
$DIMALTD
 70
     2
  9
$DIMALTF
 40
0.039
  9
$DIMLFAC
 40
1.0
  9
$DIMTOFL
 70
     1
  9
$DIMTVP
 40
0.0
  9
$DIMTIX
 70
     0
  9
$DIMSOXD
 70
     0
  9
$DIMSAH
 70
     1
  9
$DIMBLK1
  1
OPEN
  9
$DIMBLK2
  1
OPEN
  9
$DIMSTYLE
  2
IGA
  9
$DIMCLRD
 70
     0
  9
$DIMCLRE
 70
     0
  9
$DIMCLRT
 70
     0
  9
$DIMTFAC
 40
10.0
  9
$DIMGAP
 40
1.0
  9
$LUNITS
 70
     2
  9
$LUPREC
 70
     3
  9
$SKETCHINC
 40
0.1
  9
$FILLETRAD
 40
50.0
  9
$AUNITS
 70
     0
  9
$AUPREC
 70
     0
  9
$MENU
  1
acad
  9
$ELEVATION
 40
0.0
  9
$PELEVATION
 40
0.0
  9
$THICKNESS
 40
0.0
  9
$LIMCHECK
 70
     0
  9
$BLIPMODE
 70
     0
  9
$CHAMFERA
 40
0.5
  9
$CHAMFERB
 40
0.5
  9
$SKPOLY
 70
     0
  9
$TDCREATE
 40
2450773.5417376151
  9
$TDUPDATE
 40
2454953.8586853119
  9
$TDINDWG
 40
0.0037732407
  9
$TDUSRTIMER
 40
0.0037732407
  9
$USRTIMER
 70
     1
  9
$ANGBASE
 50
0.0
  9
$ANGDIR
 70
     0
  9
$PDMODE
 70
     0
  9
$PDSIZE
 40
0.0
  9
$PLINEWID
 40
0.0
  9
$COORDS
 70
     1
  9
$SPLFRAME
 70
     0
  9
$SPLINETYPE
 70
     6
  9
$SPLINESEGS
 70
     8
  9
$ATTDIA
 70
     0
  9
$ATTREQ
 70
     1
  9
$HANDLING
 70
 10241
  9
$HANDSEED
  5
7EFB
  9
$SURFTAB1
 70
     6
  9
$SURFTAB2
 70
     6
  9
$SURFTYPE
 70
     6
  9
$SURFU
 70
     6
  9
$SURFV
 70
     6
  9
$UCSNAME
  2

  9
$UCSORG
 10
0.0
 20
0.0
 30
0.0
  9
$UCSXDIR
 10
1.0
 20
0.0
 30
0.0
  9
$UCSYDIR
 10
0.0
 20
1.0
 30
0.0
  9
$PUCSNAME
  2

  9
$PUCSORG
 10
0.0
 20
0.0
 30
0.0
  9
$PUCSXDIR
 10
1.0
 20
0.0
 30
0.0
  9
$PUCSYDIR
 10
0.0
 20
1.0
 30
0.0
  9
$USERI1
 70
     0
  9
$USERI2
 70
     0
  9
$USERI3
 70
     0
  9
$USERI4
 70
     0
  9
$USERI5
 70
     0
  9
$USERR1
 40
0.0
  9
$USERR2
 40
0.0
  9
$USERR3
 40
0.0
  9
$USERR4
 40
0.0
  9
$USERR5
 40
0.0
  9
$WORLDVIEW
 70
     1
  9
$SHADEDGE
 70
     3
  9
$SHADEDIF
 70
    70
  9
$TILEMODE
 70
     1
  9
$MAXACTVP
 70
    16
  9
$PLIMCHECK
 70
     0
  9
$PEXTMIN
 10
1.0000000000000000E+020
 20
1.0000000000000000E+020
 30
1.0000000000000000E+020
  9
$PEXTMAX
 10
-1.0000000000000000E+020
 20
-1.0000000000000000E+020
 30
-1.0000000000000000E+020
  9
$PLIMMIN
 10
0.0
 20
0.0
  9
$PLIMMAX
 10
12.0
 20
9.0
  9
$UNITMODE
 70
     0
  9
$VISRETAIN
 70
     0
  9
$PLINEGEN
 70
     0
  9
$PSLTSCALE
 70
     1
  0
ENDSEC
  0
SECTION
  2
TABLES
  0
TABLE
  2
VPORT
 70
     2
  0
VPORT
  2
*ACTIVE
 70
     0
 10
0.0
 20
0.0
 11
1.0
 21
1.0
 12
2732.601155591281
 22
1899.8490623527859
 13
0.0
 23
0.0
 14
10.0
 24
10.0
 15
10.0
 25
10.0
 16
0.0
 26
0.0
 36
1.0
 17
0.0
 27
0.0
 37
0.0
 40
3552.2128564519348
 41
1.5051150895140659
 42
50.0
 43
0.0
 44
0.0
 50
0.0
 51
0.0
 71
     0
 72
   100
 73
     1
 74
     0
 75
     0
 76
     0
 77
     0
 78
     0
  0
ENDTAB
  0
TABLE
  2
LTYPE
 70
     2
  0
LTYPE
  2
CONTINUOUS
 70
     0
  3
Solid line
 72
    65
 73
     0
 40
0.0
  0
LTYPE
  2
CENTER
 70
     0
  3
____ _ ____ _ ____ _ ____ _ ____ _ ____ _ ____ 
 72
    65
 73
     4
 40
2.0
 49
1.25
 49
-0.25
 49
0.25
 49
-0.25
  0
ENDTAB
  0
TABLE
  2
LAYER
 70
     6
  0
LAYER
  2
0
 70
     0
 62
     7
  6
CONTINUOUS
  0
LAYER
  2
3
 70
     0
 62
     2
  6
CONTINUOUS
  0
LAYER
  2
2
 70
     0
 62
     3
  6
CENTER
  0
LAYER
  2
1
 70
     0
 62
     4
  6
CONTINUOUS
  0
LAYER
  2
4
 70
     0
 62
     7
  6
CONTINUOUS
  0
LAYER
  2
DEFPOINTS
 70
     0
 62
     7
  6
CONTINUOUS
  0
ENDTAB
  0
TABLE
  2
STYLE
 70
     1
  0
STYLE
  2
STANDARD
 70
     0
 40
0.0
 41
1.0
 50
0.0
 71
     0
 42
180.0
  3
simplex.shx
  4
extfont.shx
  0
ENDTAB
  0
TABLE
  2
VIEW
 70
     0
  0
ENDTAB
  0
TABLE
  2
UCS
 70
     0
  0
ENDTAB
  0
TABLE
  2
APPID
 70
     1
  0
APPID
  2
ACAD
 70
     0
  0
ENDTAB
  0
TABLE
  2
DIMSTYLE
 70
     1
  0
DIMSTYLE
  2
IGA
 70
     0
  3

  4

  5

  6
OPEN
  7
OPEN
 40
2.0
 41
2.0
 42
0.5
 43
10.0
 44
1.0
 45
0.0
 46
0.0
 47
1.0
 48
1.0
140
3.0
141
0.0
142
0.0
143
0.03937
144
1.0
145
0.0
146
10.0
147
1.0
 71
     0
 72
     0
 73
     0
 74
     0
 75
     0
 76
     0
 77
     1
 78
     8
170
     0
171
     2
172
     0
173
     1
174
     0
175
     0
176
     0
177
     0
178
     0
  0
ENDTAB
  0
ENDSEC
  0
SECTION
  2
BLOCKS
  0
BLOCK
  8
0
  2
$MODEL_SPACE
 70
     0
 10
0.0
 20
0.0
 30
0.0
  3
$MODEL_SPACE
  1

  0
ENDBLK
  5
1B
  8
0
  0
BLOCK
 67
     1
  8
0
  2
$PAPER_SPACE
 70
     0
 10
0.0
 20
0.0
 30
0.0
  3
$PAPER_SPACE
  1

  0
ENDBLK
  5
18
 67
     1
  8
0
  0
BLOCK
  8
0
  2
_OPEN
 70
     0
 10
0.0
 20
0.0
 30
0.0
  3
_OPEN
  1

  0
LINE
  5
7B55
  8
0
  6
BYBLOCK
 62
     0
 10
-1.0
 20
0.166667
 30
0.0
 11
0.0
 21
0.0
 31
0.0
  0
LINE
  5
7B56
  8
0
  6
BYBLOCK
 62
     0
 10
0.0
 20
0.0
 30
0.0
 11
-1.0
 21
-0.166667
 31
0.0
  0
LINE
  5
7B57
  8
0
  6
BYBLOCK
 62
     0
 10
0.0
 20
0.0
 30
0.0
 11
-1.0
 21
0.0
 31
0.0
  0
ENDBLK
  5
7B58
  8
0
  0
BLOCK
  8
0
  2
*D1
 70
     1
 10
0.0
 20
0.0
 30
0.0
  3
*D1
  1

  0
LINE
  5
7E6C
  8
3
  6
CONTINUOUS
 62
     0
 10
973.44434923631388
 20
1127.909630179475
 30
0.0
 11
1045.293686236314
 21
1127.909630179475
 31
0.0
  0
LINE
  5
7E6D
  8
3
  6
CONTINUOUS
 62
     0
 10
973.44434923631388
 20
967.9096301794757
 30
0.0
 11
1045.293686236314
 21
967.9096301794757
 31
0.0
  0
LINE
  5
7E6E
  8
3
  6
CONTINUOUS
 62
     0
 10
1035.293686236314
 20
1147.909630179475
 30
0.0
 11
1035.293686236314
 21
1167.909630179475
 31
0.0
  0
LINE
  5
7E6F
  8
3
  6
CONTINUOUS
 62
     0
 10
1035.293686236314
 20
947.90963017947581
 30
0.0
 11
1035.293686236314
 21
927.90963017947581
 31
0.0
  0
LINE
  5
7E70
  8
3
  6
CONTINUOUS
 62
     0
 10
1035.293686236314
 20
1127.909630179475
 30
0.0
 11
1035.293686236314
 21
967.9096301794757
 31
0.0
  0
INSERT
  5
7E71
  8
3
  6
CONTINUOUS
 62
     0
  2
_OPEN
 10
1035.293686236314
 20
1127.909630179475
 30
0.0
 41
20.0
 42
20.0
 43
20.0
 50
270.0
  0
INSERT
  5
7E72
  8
3
  6
CONTINUOUS
 62
     0
  2
_OPEN
 10
1035.293686236314
 20
967.9096301794757
 30
0.0
 41
20.0
 42
20.0
 43
20.0
 50
90.0
  0
TEXT
  8
3
  40
30
  5
7EEC
  62
0
  72
0
  71
0
 10
950.294
 20
980.524
 30
0.000000
  1
160
  0
POINT
  5
7E74
  8
DEFPOINTS
  6
CONTINUOUS
 62
     0
 10
968.44434923631377
 20
1127.909630179475
 30
0.0
  0
POINT
  5
7E75
  8
DEFPOINTS
  6
CONTINUOUS
 62
     0
 10
968.44434923631377
 20
967.9096301794757
 30
0.0
  0
POINT
  5
7E76
  8
DEFPOINTS
  6
CONTINUOUS
 62
     0
 10
1035.293686236314
 20
967.9096301794757
 30
0.0
  0
ENDBLK
  5
7B65
  8
0
  0
BLOCK
  8
0
  2
*D2
 70
     1
 10
0.0
 20
0.0
 30
0.0
  3
*D2
  1

  0
LINE
  5
7E77
  8
3
  6
CONTINUOUS
 62
     0
 10
1034.3867452363129
 20
1127.909630179475
 30
0.0
 11
1112.6397952363141
 21
1127.909630179475
 31
0.0
  0
LINE
  5
7E78
  8
3
  6
CONTINUOUS
 62
     0
 10
958.44434923631377
 20
956.90963017947581
 30
0.0
 11
1112.6397952363141
 21
956.90963017947581
 31
0.0
  0
LINE
  5
7E79
  8
3
  6
CONTINUOUS
 62
     0
 10
1102.6397952363141
 20
1107.909630179475
 30
0.0
 11
1102.6397952363141
 21
976.90963017947593
 31
0.0
  0
INSERT
  5
7E7A
  8
3
  6
CONTINUOUS
 62
     0
  2
_OPEN
 10
1102.6397952363141
 20
1127.909630179475
 30
0.0
 41
20.0
 42
20.0
 43
20.0
 50
90.0
  0
INSERT
  5
7E7B
  8
3
  6
CONTINUOUS
 62
     0
  2
_OPEN
 10
1102.6397952363141
 20
956.90963017947581
 30
0.0
 41
20.0
 42
20.0
 43
20.0
 50
270.0
  0
TEXT
  8
3
  40
30
  5
7EED
  62
0
  72
0
  71
0
 10
1017.64
 20
979.267
 30
0.000000
  1
171
  0
POINT
  5
7E7D
  8
DEFPOINTS
  6
CONTINUOUS
 62
     0
 10
1029.3867452363129
 20
1127.909630179475
 30
0.0
  0
POINT
  5
7E7E
  8
DEFPOINTS
  6
CONTINUOUS
 62
     0
 10
953.44434923631377
 20
956.90963017947581
 30
0.0
  0
POINT
  5
7E7F
  8
DEFPOINTS
  6
CONTINUOUS
 62
     0
 10
1102.6397952363141
 20
956.90963017947581
 30
0.0
  0
ENDBLK
  5
7B72
  8
0
  0
BLOCK
  8
0
  2
*D3
 70
     1
 10
0.0
 20
0.0
 30
0.0
  3
*D3
  1

  0
LINE
  5
7D1D
  8
0
  6
BYBLOCK
 62
     0
 10
832.44434923631388
 20
1250.909630179475
 30
0.0
 11
1190.189868236313
 21
1250.909630179475
 31
0.0
  0
LINE
  5
7D1E
  8
0
  6
BYBLOCK
 62
     0
 10
1034.3867452363129
 20
1127.909630179475
 30
0.0
 11
1190.189868236313
 21
1127.909630179475
 31
0.0
  0
LINE
  5
7D1F
  8
0
  6
BYBLOCK
 62
     0
 10
1180.189868236313
 20
1230.909630179475
 30
0.0
 11
1180.189868236313
 21
1147.909630179475
 31
0.0
  0
TEXT
  5
7D20
  8
3
 62
     0
 10
1167.9194320655661
 20
1153.6953444651899
 30
0.0
 40
30.0
  1
123
 50
90.0
  0
INSERT
  5
7D21
  8
0
  6
BYBLOCK
 62
     0
  2
_OPEN
 10
1180.189868236313
 20
1250.909630179475
 30
0.0
 41
20.0
 42
20.0
 43
20.0
 50
90.0
  0
INSERT
  5
7D22
  8
0
  6
BYBLOCK
 62
     0
  2
_OPEN
 10
1180.189868236313
 20
1127.909630179475
 30
0.0
 41
20.0
 42
20.0
 43
20.0
 50
270.0
  0
POINT
  5
7D23
  8
DEFPOINTS
  6
BYBLOCK
 62
     0
 10
827.44434923631377
 20
1250.909630179475
 30
0.0
  0
POINT
  5
7D24
  8
DEFPOINTS
  6
BYBLOCK
 62
     0
 10
1029.3867452363129
 20
1127.909630179475
 30
0.0
  0
POINT
  5
7D25
  8
DEFPOINTS
  6
BYBLOCK
 62
     0
 10
1180.189868236313
 20
1127.909630179475
 30
0.0
  0
ENDBLK
  5
7D26
  8
0
  0
BLOCK
  8
0
  2
*D4
 70
     1
 10
0.0
 20
0.0
 30
0.0
  3
*D4
  1

  0
LINE
  5
7E80
  8
3
  6
CONTINUOUS
 62
     0
 10
978.44434923631377
 20
892.9096301794757
 30
0.0
 11
1190.189868236313
 21
892.9096301794757
 31
0.0
  0
LINE
  5
7E81
  8
3
  6
CONTINUOUS
 62
     0
 10
1180.189868236313
 20
1107.909630179475
 30
0.0
 11
1180.189868236313
 21
912.90963017947581
 31
0.0
  0
INSERT
  5
7E82
  8
3
  6
CONTINUOUS
 62
     0
  2
_OPEN
 10
1180.189868236313
 20
1127.909630179475
 30
0.0
 41
20.0
 42
20.0
 43
20.0
 50
90.0
  0
INSERT
  5
7E83
  8
3
  6
CONTINUOUS
 62
     0
  2
_OPEN
 10
1180.189868236313
 20
892.9096301794757
 30
0.0
 41
20.0
 42
20.0
 43
20.0
 50
270.0
  0
TEXT
  8
3
  40
30
  5
7EEE
  62
0
  72
0
  71
0
 10
1095.19
 20
957.310
 30
0.000000
  1
235
  0
POINT
  5
7E85
  8
DEFPOINTS
  6
CONTINUOUS
 62
     0
 10
1029.3867452363129
 20
1127.909630179475
 30
0.0
  0
POINT
  5
7E86
  8
DEFPOINTS
  6
CONTINUOUS
 62
     0
 10
973.44434923631388
 20
892.9096301794757
 30
0.0
  0
POINT
  5
7E87
  8
DEFPOINTS
  6
CONTINUOUS
 62
     0
 10
1180.189868236313
 20
892.9096301794757
 30
0.0
  0
ENDBLK
  5
7B8D
  8
0
  0
BLOCK
  8
0
  2
*D5
 70
     1
 10
0.0
 20
0.0
 30
0.0
  3
*D5
  1

  0
LINE
  5
7D5B
  8
0
  6
BYBLOCK
 62
     0
 10
1003.444349236313
 20
845.90963017947581
 30
0.0
 11
1190.189868236313
 21
845.90963017947581
 31
0.0
  0
LINE
  5
7D5C
  8
0
  6
BYBLOCK
 62
     0
 10
1180.189868236313
 20
912.90963017947581
 30
0.0
 11
1180.189868236313
 21
932.9096301794757
 31
0.0
  0
LINE
  5
7D5D
  8
0
  6
BYBLOCK
 62
     0
 10
1180.189868236313
 20
825.9096301794757
 30
0.0
 11
1180.189868236313
 21
805.90963017947581
 31
0.0
  0
TEXT
  5
7D5E
  8
3
 62
     0
 10
1235.189868236313
 20
845.12391589376136
 30
0.0
 40
30.0
  1
47
 50
90.0
  0
LINE
  5
7D5F
  8
0
  6
BYBLOCK
 62
     0
 10
1180.189868236313
 20
892.9096301794757
 30
0.0
 11
1180.189868236313
 21
845.90963017947581
 31
0.0
  0
INSERT
  5
7D60
  8
0
  6
BYBLOCK
 62
     0
  2
_OPEN
 10
1180.189868236313
 20
892.9096301794757
 30
0.0
 41
20.0
 42
20.0
 43
20.0
 50
270.0
  0
INSERT
  5
7D61
  8
0
  6
BYBLOCK
 62
     0
  2
_DOT
 10
1180.189868236313
 20
845.90963017947581
 30
0.0
 41
20.0
 42
20.0
 43
20.0
 50
90.0
  0
POINT
  5
7D62
  8
DEFPOINTS
  6
BYBLOCK
 62
     0
 10
973.44434923631388
 20
892.9096301794757
 30
0.0
  0
POINT
  5
7D63
  8
DEFPOINTS
  6
BYBLOCK
 62
     0
 10
998.44434923631388
 20
845.90963017947581
 30
0.0
  0
POINT
  5
7D64
  8
DEFPOINTS
  6
BYBLOCK
 62
     0
 10
1180.189868236313
 20
845.90963017947581
 30
0.0
  0
ENDBLK
  5
7D65
  8
0
  0
BLOCK
  8
0
  2
*D6
 70
     1
 10
0.0
 20
0.0
 30
0.0
  3
*D6
  1

  0
LINE
  5
7E88
  8
3
  6
CONTINUOUS
 62
     0
 10
1003.444349236313
 20
845.90963017947581
 30
0.0
 11
1190.189868236313
 21
845.90963017947581
 31
0.0
  0
LINE
  5
7E89
  8
3
  6
CONTINUOUS
 62
     0
 10
1003.444349236313
 20
820.90963017947581
 30
0.0
 11
1190.189868236313
 21
820.90963017947581
 31
0.0
  0
LINE
  5
7E8A
  8
3
  6
CONTINUOUS
 62
     0
 10
1180.1898682363139
 20
865.9096301794757
 30
0.0
 11
1180.1898682363139
 21
885.90963017947593
 31
0.0
  0
LINE
  5
7E8B
  8
3
  6
CONTINUOUS
 62
     0
 10
1180.1898682363139
 20
800.9096301794757
 30
0.0
 11
1180.1898682363139
 21
712.33820160804714
 31
0.0
  0
LINE
  5
7E8C
  8
3
  6
CONTINUOUS
 62
     0
 10
1180.1898682363139
 20
845.90963017947581
 30
0.0
 11
1180.1898682363139
 21
820.90963017947581
 31
0.0
  0
INSERT
  5
7E8D
  8
3
  6
CONTINUOUS
 62
     0
  2
_DOT
 10
1180.1898682363139
 20
845.90963017947581
 30
0.0
 41
20.0
 42
20.0
 43
20.0
 50
270.0
  0
INSERT
  5
7E8E
  8
3
  6
CONTINUOUS
 62
     0
  2
_OPEN
 10
1180.1898682363139
 20
820.90963017947581
 30
0.0
 41
20.0
 42
20.0
 43
20.0
 50
90.0
  0
TEXT
  8
3
  40
30
  5
7EEF
  62
0
  72
0
  71
0
 10
1095.19
 20
693.524
 30
0.000000
  1
25
  0
POINT
  5
7E90
  8
DEFPOINTS
  6
CONTINUOUS
 62
     0
 10
998.44434923631388
 20
845.90963017947581
 30
0.0
  0
POINT
  5
7E91
  8
DEFPOINTS
  6
CONTINUOUS
 62
     0
 10
998.44434923631388
 20
820.90963017947581
 30
0.0
  0
POINT
  5
7E92
  8
DEFPOINTS
  6
CONTINUOUS
 62
     0
 10
1180.1898682363139
 20
820.90963017947581
 30
0.0
  0
ENDBLK
  5
7D72
  8
0
  0
BLOCK
  8
0
  2
*D7
 70
     1
 10
0.0
 20
0.0
 30
0.0
  3
*D7
  1

  0
LINE
  5
7E93
  8
3
  6
CONTINUOUS
 62
     0
 10
388.44434923631371
 20
815.9096301794757
 30
0.0
 11
388.44434923631371
 21
749.06522917947575
 31
0.0
  0
LINE
  5
7E94
  8
3
  6
CONTINUOUS
 62
     0
 10
838.44434923631388
 20
779.18631617947574
 30
0.0
 11
838.44434923631388
 21
749.06522917947575
 31
0.0
  0
LINE
  5
7E95
  8
3
  6
CONTINUOUS
 62
     0
 10
408.44434923631383
 20
759.06522917947575
 30
0.0
 11
818.44434923631377
 21
759.06522917947575
 31
0.0
  0
INSERT
  5
7E96
  8
3
  6
CONTINUOUS
 62
     0
  2
_OPEN
 10
388.44434923631371
 20
759.06522917947575
 30
0.0
 41
20.0
 42
20.0
 43
20.0
 50
180.0
  0
INSERT
  5
7E97
  8
3
  6
CONTINUOUS
 62
     0
  2
_OPEN
 10
838.44434923631388
 20
759.06522917947575
 30
0.0
 41
20.0
 42
20.0
 43
20.0
  0
TEXT
  8
3
  40
30
  5
7EF0
  62
0
  72
0
  71
0
 10
558.972
 20
730.965
 30
0.000000
  1
450
  0
POINT
  5
7E99
  8
DEFPOINTS
  6
CONTINUOUS
 62
     0
 10
388.44434923631371
 20
820.90963017947581
 30
0.0
  0
POINT
  5
7E9A
  8
DEFPOINTS
  6
CONTINUOUS
 62
     0
 10
838.44434923631388
 20
784.18631617947574
 30
0.0
  0
POINT
  5
7E9B
  8
DEFPOINTS
  6
CONTINUOUS
 62
     0
 10
838.44434923631388
 20
759.06522917947575
 30
0.0
  0
ENDBLK
  5
7BD4
  8
0
  0
BLOCK
  8
0
  2
*D8
 70
     1
 10
0.0
 20
0.0
 30
0.0
  3
*D8
  1

  0
LINE
  5
7E9C
  8
3
  6
CONTINUOUS
 62
     0
 10
998.44434923631388
 20
815.9096301794757
 30
0.0
 11
998.44434923631388
 21
749.06522917947575
 31
0.0
  0
LINE
  5
7E9D
  8
3
  6
CONTINUOUS
 62
     0
 10
858.44434923631377
 20
759.06522917947575
 30
0.0
 11
978.44434923631377
 21
759.06522917947575
 31
0.0
  0
INSERT
  5
7E9E
  8
3
  6
CONTINUOUS
 62
     0
  2
_OPEN
 10
838.44434923631388
 20
759.06522917947575
 30
0.0
 41
20.0
 42
20.0
 43
20.0
 50
180.0
  0
INSERT
  5
7E9F
  8
3
  6
CONTINUOUS
 62
     0
  2
_OPEN
 10
998.44434923631388
 20
759.06522917947575
 30
0.0
 41
20.0
 42
20.0
 43
20.0
  0
TEXT
  8
3
  40
30
  5
7EF1
  62
0
  72
0
  71
0
 10
858.444
 20
730.965
 30
0.000000
  1
160
  0
POINT
  5
7EA1
  8
DEFPOINTS
  6
CONTINUOUS
 62
     0
 10
838.44434923631388
 20
784.18631617947574
 30
0.0
  0
POINT
  5
7EA2
  8
DEFPOINTS
  6
CONTINUOUS
 62
     0
 10
998.44434923631388
 20
820.90963017947581
 30
0.0
  0
POINT
  5
7EA3
  8
DEFPOINTS
  6
CONTINUOUS
 62
     0
 10
998.44434923631388
 20
759.06522917947575
 30
0.0
  0
ENDBLK
  5
7BE0
  8
0
  0
BLOCK
  8
0
  2
*D9
 70
     1
 10
0.0
 20
0.0
 30
0.0
  3
*D9
  1

  0
LINE
  5
7D12
  8
0
  6
BYBLOCK
 62
     0
 10
968.44434923631377
 20
1154.909630179475
 30
0.0
 11
968.44434923631377
 21
1329.945850179475
 31
0.0
  0
LINE
  5
7D13
  8
0
  6
BYBLOCK
 62
     0
 10
838.44434923631388
 20
1310.1206841794749
 30
0.0
 11
838.44434923631388
 21
1329.945850179475
 31
0.0
  0
LINE
  5
7D14
  8
0
  6
BYBLOCK
 62
     0
 10
948.44434923631388
 20
1319.945850179475
 30
0.0
 11
858.44434923631377
 21
1319.945850179475
 31
0.0
  0
TEXT
  5
7D15
  8
3
 62
     0
 10
867.73006352202799
 20
1328.585127580038
 30
0.0
 40
30.0
  1
130
  0
INSERT
  5
7D16
  8
0
  6
BYBLOCK
 62
     0
  2
_OPEN
 10
968.44434923631377
 20
1319.945850179475
 30
0.0
 41
20.0
 42
20.0
 43
20.0
  0
INSERT
  5
7D17
  8
0
  6
BYBLOCK
 62
     0
  2
_OPEN
 10
838.44434923631388
 20
1319.945850179475
 30
0.0
 41
20.0
 42
20.0
 43
20.0
 50
180.0
  0
POINT
  5
7D18
  8
DEFPOINTS
  6
BYBLOCK
 62
     0
 10
968.44434923631377
 20
1149.909630179475
 30
0.0
  0
POINT
  5
7D19
  8
DEFPOINTS
  6
BYBLOCK
 62
     0
 10
838.44434923631388
 20
1305.1206841794749
 30
0.0
  0
POINT
  5
7D1A
  8
DEFPOINTS
  6
BYBLOCK
 62
     0
 10
838.44434923631388
 20
1319.945850179475
 30
0.0
  0
ENDBLK
  5
7D1B
  8
0
  0
BLOCK
  8
0
  2
*D10
 70
     1
 10
0.0
 20
0.0
 30
0.0
  3
*D10
  1

  0
LINE
  5
7EA4
  8
3
  6
CONTINUOUS
 62
     0
 10
693.44434923631366
 20
1119.909630179475
 30
0.0
 11
693.44434923631366
 21
1329.945850179475
 31
0.0
  0
LINE
  5
7EA5
  8
3
  6
CONTINUOUS
 62
     0
 10
818.44434923631377
 20
1319.945850179475
 30
0.0
 11
713.44434923631366
 21
1319.945850179475
 31
0.0
  0
INSERT
  5
7EA6
  8
3
  6
CONTINUOUS
 62
     0
  2
_OPEN
 10
838.44434923631388
 20
1319.945850179475
 30
0.0
 41
20.0
 42
20.0
 43
20.0
  0
INSERT
  5
7EA7
  8
3
  6
CONTINUOUS
 62
     0
  2
_OPEN
 10
693.44434923631366
 20
1319.945850179475
 30
0.0
 41
20.0
 42
20.0
 43
20.0
 50
180.0
  0
TEXT
  8
3
  40
30
  5
7EF2
  62
0
  72
0
  71
0
 10
705.944
 20
1291.85
 30
0.000000
  1
145
  0
POINT
  5
7EA9
  8
DEFPOINTS
  6
CONTINUOUS
 62
     0
 10
838.44434923631388
 20
1305.1206841794749
 30
0.0
  0
POINT
  5
7EAA
  8
DEFPOINTS
  6
CONTINUOUS
 62
     0
 10
693.44434923631366
 20
1114.909630179475
 30
0.0
  0
POINT
  5
7EAB
  8
DEFPOINTS
  6
CONTINUOUS
 62
     0
 10
693.44434923631366
 20
1319.945850179475
 30
0.0
  0
ENDBLK
  5
7BFB
  8
0
  0
BLOCK
  8
0
  2
*D11
 70
     1
 10
0.0
 20
0.0
 30
0.0
  3
*D11
  1

  0
LINE
  5
7EAC
  8
3
  6
CONTINUOUS
 62
     0
 10
832.44434923631388
 20
1250.909630179475
 30
0.0
 11
1263.3184936754101
 21
1250.909630179475
 31
0.0
  0
LINE
  5
7EAD
  8
3
  6
CONTINUOUS
 62
     0
 10
1003.444349236313
 20
820.90963017947581
 30
0.0
 11
1263.3184936754101
 21
820.90963017947581
 31
0.0
  0
LINE
  5
7EAE
  8
3
  6
CONTINUOUS
 62
     0
 10
1253.3184936754101
 20
1230.909630179475
 30
0.0
 11
1253.3184936754101
 21
840.9096301794757
 31
0.0
  0
INSERT
  5
7EAF
  8
3
  6
CONTINUOUS
 62
     0
  2
_OPEN
 10
1253.3184936754101
 20
1250.909630179475
 30
0.0
 41
20.0
 42
20.0
 43
20.0
 50
90.0
  0
INSERT
  5
7EB0
  8
3
  6
CONTINUOUS
 62
     0
  2
_OPEN
 10
1253.3184936754101
 20
820.90963017947581
 30
0.0
 41
20.0
 42
20.0
 43
20.0
 50
270.0
  0
TEXT
  8
3
  40
30
  5
7EF3
  62
0
  72
0
  71
0
 10
1168.32
 20
1001.80
 30
0.000000
  1
430
  0
POINT
  5
7EB2
  8
DEFPOINTS
  6
CONTINUOUS
 62
     0
 10
827.44434923631377
 20
1250.909630179475
 30
0.0
  0
POINT
  5
7EB3
  8
DEFPOINTS
  6
CONTINUOUS
 62
     0
 10
998.44434923631388
 20
820.90963017947581
 30
0.0
  0
POINT
  5
7EB4
  8
DEFPOINTS
  6
CONTINUOUS
 62
     0
 10
1253.3184936754101
 20
820.90963017947581
 30
0.0
  0
ENDBLK
  5
7D82
  8
0
  0
BLOCK
  8
0
  2
*D12
 70
     1
 10
0.0
 20
0.0
 30
0.0
  3
*D12
  1

  0
LINE
  5
7EB5
  8
3
  6
CONTINUOUS
 62
     0
 10
1366.4443492363141
 20
815.9096301794757
 30
0.0
 11
1366.4443492363141
 21
738.86740317947567
 31
0.0
  0
LINE
  5
7EB6
  8
3
  6
CONTINUOUS
 62
     0
 10
1638.4443492363141
 20
772.1445901794757
 30
0.0
 11
1638.4443492363141
 21
738.86740317947567
 31
0.0
  0
LINE
  5
7EB7
  8
3
  6
CONTINUOUS
 62
     0
 10
1386.444349236313
 20
748.86740317947556
 30
0.0
 11
1618.4443492363141
 21
748.86740317947556
 31
0.0
  0
INSERT
  5
7EB8
  8
3
  6
CONTINUOUS
 62
     0
  2
_OPEN
 10
1366.4443492363141
 20
748.86740317947556
 30
0.0
 41
20.0
 42
20.0
 43
20.0
 50
180.0
  0
INSERT
  5
7EB9
  8
3
  6
CONTINUOUS
 62
     0
  2
_OPEN
 10
1638.4443492363141
 20
748.86740317947556
 30
0.0
 41
20.0
 42
20.0
 43
20.0
  0
TEXT
  8
3
  40
30
  5
7EF4
  62
0
  72
0
  71
0
 10
1452.84
 20
720.767
 30
0.000000
  1
272
  0
POINT
  5
7EBB
  8
DEFPOINTS
  6
CONTINUOUS
 62
     0
 10
1366.4443492363141
 20
820.90963017947581
 30
0.0
  0
POINT
  5
7EBC
  8
DEFPOINTS
  6
CONTINUOUS
 62
     0
 10
1638.4443492363141
 20
777.1445901794757
 30
0.0
  0
POINT
  5
7EBD
  8
DEFPOINTS
  6
CONTINUOUS
 62
     0
 10
1638.4443492363141
 20
748.86740317947556
 30
0.0
  0
ENDBLK
  5
7C15
  8
0
  0
BLOCK
  8
0
  2
*D13
 70
     1
 10
0.0
 20
0.0
 30
0.0
  3
*D13
  1

  0
LINE
  5
7EBE
  8
3
  6
CONTINUOUS
 62
     0
 10
1796.444349236313
 20
815.9096301794757
 30
0.0
 11
1796.444349236313
 21
738.86740317947567
 31
0.0
  0
LINE
  5
7EBF
  8
3
  6
CONTINUOUS
 62
     0
 10
1658.444349236313
 20
748.86740317947556
 30
0.0
 11
1776.4443492363141
 21
748.86740317947556
 31
0.0
  0
INSERT
  5
7EC0
  8
3
  6
CONTINUOUS
 62
     0
  2
_OPEN
 10
1638.4443492363141
 20
748.86740317947556
 30
0.0
 41
20.0
 42
20.0
 43
20.0
 50
180.0
  0
INSERT
  5
7EC1
  8
3
  6
CONTINUOUS
 62
     0
  2
_OPEN
 10
1796.444349236313
 20
748.86740317947556
 30
0.0
 41
20.0
 42
20.0
 43
20.0
  0
TEXT
  8
3
  40
30
  5
7EF5
  62
0
  72
0
  71
0
 10
1657.44
 20
720.767
 30
0.000000
  1
158
  0
POINT
  5
7EC3
  8
DEFPOINTS
  6
CONTINUOUS
 62
     0
 10
1638.4443492363141
 20
777.1445901794757
 30
0.0
  0
POINT
  5
7EC4
  8
DEFPOINTS
  6
CONTINUOUS
 62
     0
 10
1796.444349236313
 20
820.90963017947581
 30
0.0
  0
POINT
  5
7EC5
  8
DEFPOINTS
  6
CONTINUOUS
 62
     0
 10
1796.444349236313
 20
748.86740317947556
 30
0.0
  0
ENDBLK
  5
7C21
  8
0
  0
BLOCK
  8
0
  2
*D14
 70
     1
 10
0.0
 20
0.0
 30
0.0
  3
*D14
  1

  0
LINE
  5
7CFC
  8
0
  6
BYBLOCK
 62
     0
 10
1582.4443492363141
 20
1243.909630179475
 30
0.0
 11
1582.4443492363141
 21
1297.3127981794751
 31
0.0
  0
LINE
  5
7CFD
  8
0
  6
BYBLOCK
 62
     0
 10
1694.444349236313
 20
1243.909630179475
 30
0.0
 11
1694.444349236313
 21
1297.3127981794751
 31
0.0
  0
LINE
  5
7CFE
  8
0
  6
BYBLOCK
 62
     0
 10
1602.4443492363141
 20
1287.3127981794751
 30
0.0
 11
1674.444349236313
 21
1287.3127981794751
 31
0.0
  0
TEXT
  5
7CFF
  8
3
 62
     0
 10
1605.587206379171
 20
1295.525424313955
 30
0.0
 40
30.0
  1
112
  0
INSERT
  5
7D00
  8
0
  6
BYBLOCK
 62
     0
  2
_OPEN
 10
1582.4443492363141
 20
1287.3127981794751
 30
0.0
 41
20.0
 42
20.0
 43
20.0
 50
180.0
  0
INSERT
  5
7D01
  8
0
  6
BYBLOCK
 62
     0
  2
_OPEN
 10
1694.444349236313
 20
1287.3127981794751
 30
0.0
 41
20.0
 42
20.0
 43
20.0
  0
POINT
  5
7D02
  8
DEFPOINTS
  6
BYBLOCK
 62
     0
 10
1582.4443492363141
 20
1238.909630179475
 30
0.0
  0
POINT
  5
7D03
  8
DEFPOINTS
  6
BYBLOCK
 62
     0
 10
1694.444349236313
 20
1238.909630179475
 30
0.0
  0
POINT
  5
7D04
  8
DEFPOINTS
  6
BYBLOCK
 62
     0
 10
1694.444349236313
 20
1287.3127981794751
 30
0.0
  0
ENDBLK
  5
7D05
  8
0
  0
BLOCK
  8
0
  2
*D15
 70
     1
 10
0.0
 20
0.0
 30
0.0
  3
*D15
  1

  0
LINE
  5
7D07
  8
0
  6
BYBLOCK
 62
     0
 10
1707.4443492363141
 20
1207.909630179475
 30
0.0
 11
1786.100896236313
 21
1207.909630179475
 31
0.0
  0
LINE
  5
7D08
  8
0
  6
BYBLOCK
 62
     0
 10
1707.4443492363141
 20
1047.909630179475
 30
0.0
 11
1786.100896236313
 21
1047.909630179475
 31
0.0
  0
LINE
  5
7D09
  8
0
  6
BYBLOCK
 62
     0
 10
1776.1008962363139
 20
1187.909630179475
 30
0.0
 11
1776.1008962363139
 21
1067.909630179475
 31
0.0
  0
TEXT
  5
7D0A
  8
3
 62
     0
 10
1769.324439919337
 20
1077.1953444651899
 30
0.0
 40
30.0
  1
φ160
 50
90.0
  0
INSERT
  5
7D0B
  8
0
  6
BYBLOCK
 62
     0
  2
_OPEN
 10
1776.1008962363139
 20
1207.909630179475
 30
0.0
 41
20.0
 42
20.0
 43
20.0
 50
90.0
  0
INSERT
  5
7D0C
  8
0
  6
BYBLOCK
 62
     0
  2
_OPEN
 10
1776.1008962363139
 20
1047.909630179475
 30
0.0
 41
20.0
 42
20.0
 43
20.0
 50
270.0
  0
POINT
  5
7D0D
  8
DEFPOINTS
  6
BYBLOCK
 62
     0
 10
1702.4443492363141
 20
1207.909630179475
 30
0.0
  0
POINT
  5
7D0E
  8
DEFPOINTS
  6
BYBLOCK
 62
     0
 10
1702.4443492363141
 20
1047.909630179475
 30
0.0
  0
POINT
  5
7D0F
  8
DEFPOINTS
  6
BYBLOCK
 62
     0
 10
1776.1008962363139
 20
1047.909630179475
 30
0.0
  0
ENDBLK
  5
7D10
  8
0
  0
BLOCK
  8
0
  2
*D16
 70
     1
 10
0.0
 20
0.0
 30
0.0
  3
*D16
  1

  0
LINE
  5
7D34
  8
0
  6
BYBLOCK
 62
     0
 10
1702.4443492363141
 20
1232.909630179475
 30
0.0
 11
1702.4443492363141
 21
1358.499774179475
 31
0.0
  0
LINE
  5
7D35
  8
0
  6
BYBLOCK
 62
     0
 10
1638.4443492363141
 20
1340.8056851794749
 30
0.0
 11
1638.4443492363141
 21
1358.499774179475
 31
0.0
  0
LINE
  5
7D36
  8
0
  6
BYBLOCK
 62
     0
 10
1682.444349236313
 20
1348.499774179475
 30
0.0
 11
1658.444349236313
 21
1348.499774179475
 31
0.0
  0
TEXT
  5
7D37
  8
3
 62
     0
 10
1647.5800694171301
 20
1361.6448308461211
 30
0.0
 40
30.0
  1
64
  0
INSERT
  5
7D38
  8
0
  6
BYBLOCK
 62
     0
  2
_OPEN
 10
1702.4443492363141
 20
1348.499774179475
 30
0.0
 41
20.0
 42
20.0
 43
20.0
  0
INSERT
  5
7D39
  8
0
  6
BYBLOCK
 62
     0
  2
_OPEN
 10
1638.4443492363141
 20
1348.499774179475
 30
0.0
 41
20.0
 42
20.0
 43
20.0
 50
180.0
  0
POINT
  5
7D3A
  8
DEFPOINTS
  6
BYBLOCK
 62
     0
 10
1702.4443492363141
 20
1227.909630179475
 30
0.0
  0
POINT
  5
7D3B
  8
DEFPOINTS
  6
BYBLOCK
 62
     0
 10
1638.4443492363141
 20
1335.8056851794749
 30
0.0
  0
POINT
  5
7D3C
  8
DEFPOINTS
  6
BYBLOCK
 62
     0
 10
1638.4443492363141
 20
1348.499774179475
 30
0.0
  0
ENDBLK
  5
7D3D
  8
0
  0
BLOCK
  8
0
  2
*D17
 70
     1
 10
0.0
 20
0.0
 30
0.0
  3
*D17
  1

  0
LINE
  5
7EC6
  8
3
  6
CONTINUOUS
 62
     0
 10
1378.444349236313
 20
1227.909630179475
 30
0.0
 11
1378.444349236313
 21
1358.499774179475
 31
0.0
  0
LINE
  5
7EC7
  8
3
  6
CONTINUOUS
 62
     0
 10
1618.4443492363141
 20
1348.499774179475
 30
0.0
 11
1398.4443492363141
 21
1348.499774179475
 31
0.0
  0
INSERT
  5
7EC8
  8
3
  6
CONTINUOUS
 62
     0
  2
_OPEN
 10
1638.4443492363141
 20
1348.499774179475
 30
0.0
 41
20.0
 42
20.0
 43
20.0
  0
INSERT
  5
7EC9
  8
3
  6
CONTINUOUS
 62
     0
  2
_OPEN
 10
1378.444349236313
 20
1348.499774179475
 30
0.0
 41
20.0
 42
20.0
 43
20.0
 50
180.0
  0
TEXT
  8
3
  40
30
  5
7EF6
  62
0
  72
0
  71
0
 10
1448.44
 20
1345.40
 30
0.000000
  1
MAX
  0
TEXT
  8
3
  40
30
  5
7EF7
  62
0
  72
0
  71
0
 10
1448.44
 20
1306.40
 30
0.000000
  1
260
  0
POINT
  5
7ECB
  8
DEFPOINTS
  6
CONTINUOUS
 62
     0
 10
1638.4443492363141
 20
1335.8056851794749
 30
0.0
  0
POINT
  5
7ECC
  8
DEFPOINTS
  6
CONTINUOUS
 62
     0
 10
1378.444349236313
 20
1222.909630179475
 30
0.0
  0
POINT
  5
7ECD
  8
DEFPOINTS
  6
CONTINUOUS
 62
     0
 10
1378.444349236313
 20
1348.499774179475
 30
0.0
  0
ENDBLK
  5
7D99
  8
0
  0
BLOCK
  8
0
  2
*D18
 70
     1
 10
0.0
 20
0.0
 30
0.0
  3
*D18
  1

  0
LINE
  5
7ECE
  8
3
  6
CONTINUOUS
 62
     0
 10
388.44434923631371
 20
1698.8102305436221
 30
0.0
 11
388.44434923631371
 21
1608.170674543622
 31
0.0
  0
LINE
  5
7ECF
  8
3
  6
CONTINUOUS
 62
     0
 10
998.44434923631388
 20
1698.8102305436221
 30
0.0
 11
998.44434923631388
 21
1608.170674543622
 31
0.0
  0
LINE
  5
7ED0
  8
3
  6
CONTINUOUS
 62
     0
 10
408.44434923631383
 20
1618.170674543622
 30
0.0
 11
978.44434923631377
 21
1618.170674543622
 31
0.0
  0
INSERT
  5
7ED1
  8
3
  6
CONTINUOUS
 62
     0
  2
_OPEN
 10
388.44434923631371
 20
1618.170674543622
 30
0.0
 41
20.0
 42
20.0
 43
20.0
 50
180.0
  0
INSERT
  5
7ED2
  8
3
  6
CONTINUOUS
 62
     0
  2
_OPEN
 10
998.44434923631388
 20
1618.170674543622
 30
0.0
 41
20.0
 42
20.0
 43
20.0
  0
TEXT
  8
3
  40
30
  5
7EF8
  62
0
  72
0
  71
0
 10
614.074
 20
1590.07
 30
0.000000
  1
610
  0
POINT
  5
7ED4
  8
DEFPOINTS
  6
CONTINUOUS
 62
     0
 10
388.44434923631371
 20
1703.8102305436221
 30
0.0
  0
POINT
  5
7ED5
  8
DEFPOINTS
  6
CONTINUOUS
 62
     0
 10
998.44434923631388
 20
1703.8102305436221
 30
0.0
  0
POINT
  5
7ED6
  8
DEFPOINTS
  6
CONTINUOUS
 62
     0
 10
998.44434923631388
 20
1618.170674543622
 30
0.0
  0
ENDBLK
  5
7C8B
  8
0
  0
BLOCK
  8
0
  2
*D19
 70
     1
 10
0.0
 20
0.0
 30
0.0
  3
*D19
  1

  0
LINE
  5
7ED7
  8
3
  6
CONTINUOUS
 62
     0
 10
1003.444349236313
 20
2133.8102305436219
 30
0.0
 11
1104.4766342363141
 21
2133.8102305436209
 31
0.0
  0
LINE
  5
7ED8
  8
3
  6
CONTINUOUS
 62
     0
 10
1003.444349236313
 20
1703.8102305436221
 30
0.0
 11
1104.4766342363141
 21
1703.8102305436221
 31
0.0
  0
LINE
  5
7ED9
  8
3
  6
CONTINUOUS
 62
     0
 10
1094.4766342363141
 20
2113.8102305436209
 30
0.0
 11
1094.4766342363141
 21
1723.8102305436221
 31
0.0
  0
INSERT
  5
7EDA
  8
3
  6
CONTINUOUS
 62
     0
  2
_OPEN
 10
1094.4766342363141
 20
2133.8102305436209
 30
0.0
 41
20.0
 42
20.0
 43
20.0
 50
90.0
  0
INSERT
  5
7EDB
  8
3
  6
CONTINUOUS
 62
     0
  2
_OPEN
 10
1094.4766342363141
 20
1703.8102305436221
 30
0.0
 41
20.0
 42
20.0
 43
20.0
 50
270.0
  0
TEXT
  8
3
  40
30
  5
7EF9
  62
0
  72
0
  71
0
 10
1009.48
 20
1846.53
 30
0.000000
  1
430
  0
POINT
  5
7EDD
  8
DEFPOINTS
  6
CONTINUOUS
 62
     0
 10
998.44434923631388
 20
2133.8102305436219
 30
0.0
  0
POINT
  5
7EDE
  8
DEFPOINTS
  6
CONTINUOUS
 62
     0
 10
998.44434923631388
 20
1703.8102305436221
 30
0.0
  0
POINT
  5
7EDF
  8
DEFPOINTS
  6
CONTINUOUS
 62
     0
 10
1094.4766342363141
 20
1703.8102305436221
 30
0.0
  0
ENDBLK
  5
7C98
  8
0
  0
BLOCK
  8
0
  2
_DOT
 70
     0
 10
0.0
 20
0.0
 30
0.0
  3
_DOT
  1

  0
LINE
  5
7D73
  8
0
  6
BYBLOCK
 62
     0
 10
0.0
 20
0.0
 30
0.0
 11
-1.0
 21
-0.0000000000000284
 31
0.0
  0
POLYLINE
  5
7D74
  8
0
  6
BYBLOCK
 62
     0
 66
     1
 10
0.0
 20
0.0
 30
0.0
 70
     1
 40
0.1666666666666666
 41
0.1666666666666666
  0
VERTEX
  5
7EE0
  8
0
  6
BYBLOCK
 62
     0
 10
-0.0833333333333286
 20
-0.0000000000000284
 30
0.0
 42
1.0
  0
VERTEX
  5
7EE1
  8
0
  6
BYBLOCK
 62
     0
 10
0.0833333333333286
 20
-0.0000000000000284
 30
0.0
 42
1.0
  0
SEQEND
  5
7EE2
  8
0
  6
BYBLOCK
 62
     0
  0
ENDBLK
  5
7D59
  8
0
  0
BLOCK
  8
0
  2
*D21
 70
     1
 10
0.0
 20
0.0
 30
0.0
  3
*D21
  1

  0
LINE
  5
7EE3
  8
3
 62
     0
 10
968.44434923631377
 20
1159.909630179475
 30
0.0
 11
968.44434923631377
 21
1392.478899316764
 31
0.0
  0
LINE
  5
7EE4
  8
3
 62
     0
 10
388.44434923631371
 20
875.9096301794757
 30
0.0
 11
388.44434923631383
 21
1392.478899316764
 31
0.0
  0
LINE
  5
7EE5
  8
3
 62
     0
 10
948.44434923631388
 20
1382.478899316764
 30
0.0
 11
408.44434923631383
 21
1382.478899316764
 31
0.0
  0
INSERT
  5
7EE6
  8
3
 62
     0
  2
_OPEN
 10
968.44434923631377
 20
1382.478899316764
 30
0.0
 41
20.0
 42
20.0
 43
20.0
  0
INSERT
  5
7EE7
  8
3
 62
     0
  2
_OPEN
 10
388.44434923631383
 20
1382.478899316764
 30
0.0
 41
20.0
 42
20.0
 43
20.0
 50
180.0
  0
TEXT
  8
3
  40
30
  5
7EFA
  62
0
  72
0
  71
0
 10
633.594
 20
1354.38
 30
0.000000
  1
580
  0
POINT
  5
7EE9
  8
DEFPOINTS
 62
     0
 10
968.44434923631377
 20
1154.909630179475
 30
0.0
  0
POINT
  5
7EEA
  8
DEFPOINTS
 62
     0
 10
388.44434923631371
 20
870.90963017947581
 30
0.0
  0
POINT
  5
7EEB
  8
DEFPOINTS
 62
     0
 10
388.44434923631383
 20
1382.478899316764
 30
0.0
  0
ENDBLK
  5
7D8E
  8
0
  0
ENDSEC
  0
SECTION
  2
ENTITIES
  0
CIRCLE
  5
7A9E
  8
1
  6
CONTINUOUS
 10
838.44434923631388
 20
1127.909630179475
 30
0.0
 40
80.0
  0
LINE
  5
7A9F
  8
1
  6
CONTINUOUS
 10
1366.4443492363141
 20
845.90963017947581
 30
0.0
 11
1796.444349236313
 21
845.90963017947581
 31
0.0
  0
LINE
  5
7AA0
  8
1
  6
CONTINUOUS
 10
1674.444349236313
 20
870.90963017947581
 30
0.0
 11
1674.444349236313
 21
845.90963017947581
 31
0.0
  0
LINE
  5
7AA1
  8
1
  6
CONTINUOUS
 10
1450.444349236313
 20
870.90963017947581
 30
0.0
 11
1450.444349236313
 21
845.90963017947581
 31
0.0
  0
LINE
  5
7AA2
  8
1
  6
CONTINUOUS
 10
1450.444349236313
 20
870.90963017947581
 30
0.0
 11
1674.444349236313
 21
870.90963017947581
 31
0.0
  0
LINE
  5
7AA3
  8
1
  6
CONTINUOUS
 10
998.44434923631388
 20
820.90963017947581
 30
0.0
 11
998.44434923631388
 21
870.90963017947581
 31
0.0
  0
LINE
  5
7AA4
  8
1
  6
CONTINUOUS
 10
388.44434923631371
 20
870.90963017947581
 30
0.0
 11
388.44434923631371
 21
820.90963017947581
 31
0.0
  0
LINE
  5
7AA5
  8
1
  6
CONTINUOUS
 10
388.44434923631371
 20
845.90963017947581
 30
0.0
 11
998.44434923631388
 21
845.90963017947581
 31
0.0
  0
LINE
  5
7AA6
  8
1
  6
CONTINUOUS
 10
388.44434923631371
 20
870.90963017947581
 30
0.0
 11
998.44434923631388
 21
870.90963017947581
 31
0.0
  0
LINE
  5
7AA7
  8
1
  6
CONTINUOUS
 10
413.44434923631371
 20
1703.8102305436221
 30
0.0
 11
388.44434923631371
 21
1703.8102305436221
 31
0.0
  0
LINE
  5
7AA8
  8
1
  6
CONTINUOUS
 10
388.44434923631371
 20
2133.8102305436219
 30
0.0
 11
388.44434923631371
 21
1703.8102305436221
 31
0.0
  0
LINE
  5
7AA9
  8
1
  6
CONTINUOUS
 10
413.44434923631371
 20
2133.8102305436219
 30
0.0
 11
388.44434923631371
 21
2133.8102305436219
 31
0.0
  0
LINE
  5
7AAA
  8
1
  6
CONTINUOUS
 10
413.44434923631371
 20
2133.8102305436219
 30
0.0
 11
413.44434923631371
 21
1703.8102305436221
 31
0.0
  0
LINE
  5
7AAB
  8
1
  6
CONTINUOUS
 10
973.44434923631388
 20
2133.8102305436219
 30
0.0
 11
998.44434923631388
 21
2133.8102305436219
 31
0.0
  0
LINE
  5
7AAC
  8
1
  6
CONTINUOUS
 10
973.44434923631388
 20
2133.8102305436219
 30
0.0
 11
973.44434923631388
 21
1703.8102305436221
 31
0.0
  0
LINE
  5
7AAD
  8
1
  6
CONTINUOUS
 10
973.44434923631388
 20
1703.8102305436221
 30
0.0
 11
998.44434923631388
 21
1703.8102305436221
 31
0.0
  0
LINE
  5
7AAE
  8
1
  6
CONTINUOUS
 10
998.44434923631388
 20
2133.8102305436219
 30
0.0
 11
998.44434923631388
 21
1703.8102305436221
 31
0.0
  0
LINE
  5
7AAF
  8
1
  6
CONTINUOUS
 10
1366.4443492363141
 20
845.90963017947581
 30
0.0
 11
1366.4443492363141
 21
820.90963017947581
 31
0.0
  0
LINE
  5
7AB0
  8
1
  6
CONTINUOUS
 10
1796.444349236313
 20
845.90963017947581
 30
0.0
 11
1796.444349236313
 21
820.90963017947581
 31
0.0
  0
LINE
  5
7AB1
  8
1
  6
CONTINUOUS
 10
1366.4443492363141
 20
820.90963017947581
 30
0.0
 11
1796.444349236313
 21
820.90963017947581
 31
0.0
  0
LINE
  5
7AB2
  8
1
  6
CONTINUOUS
 10
413.44434923631371
 20
845.90963017947581
 30
0.0
 11
413.44434923631371
 21
820.90963017947581
 31
0.0
  0
LINE
  5
7AB3
  8
1
  6
CONTINUOUS
 10
388.44434923631371
 20
820.90963017947581
 30
0.0
 11
413.44434923631371
 21
820.90963017947581
 31
0.0
  0
LINE
  5
7AB4
  8
1
  6
CONTINUOUS
 10
998.44434923631388
 20
820.90963017947581
 30
0.0
 11
973.44434923631388
 21
820.90963017947581
 31
0.0
  0
LINE
  5
7AB5
  8
1
  6
CONTINUOUS
 10
973.44434923631388
 20
845.90963017947581
 30
0.0
 11
973.44434923631388
 21
820.90963017947581
 31
0.0
  0
LINE
  5
7AB6
  8
1
  6
CONTINUOUS
 10
953.44434923631377
 20
967.9096301794757
 30
0.0
 11
968.44434923631377
 21
967.9096301794757
 31
0.0
  0
LINE
  5
7AB7
  8
1
  6
CONTINUOUS
 10
968.44434923631377
 20
1127.909630179475
 30
0.0
 11
953.44434923631377
 21
1127.909630179475
 31
0.0
  0
LINE
  5
7AB8
  8
1
  6
CONTINUOUS
 10
953.44434923631377
 20
956.90963017947581
 30
0.0
 11
953.44434923631377
 21
967.9096301794757
 31
0.0
  0
LINE
  5
7AB9
  8
1
  6
CONTINUOUS
 10
953.44434923631377
 20
1127.909630179475
 30
0.0
 11
953.44434923631377
 21
1137.909630179475
 31
0.0
  0
LINE
  5
7ABA
  8
1
  6
CONTINUOUS
 10
1574.844349236314
 20
1170.0096301794749
 30
0.0
 11
1475.4443492363141
 21
1094.6096301794751
 31
0.0
  0
LINE
  5
7ABB
  8
1
  6
CONTINUOUS
 10
1475.4443492363141
 20
1094.6096301794751
 30
0.0
 11
1475.4443492363141
 21
942.9096301794757
 31
0.0
  0
LINE
  5
7ABC
  8
1
  6
CONTINUOUS
 10
1450.444349236313
 20
942.9096301794757
 30
0.0
 11
1450.444349236313
 21
892.9096301794757
 31
0.0
  0
LINE
  5
7ABD
  8
1
  6
CONTINUOUS
 10
1378.444349236313
 20
942.9096301794757
 30
0.0
 11
1674.444349236313
 21
942.9096301794757
 31
0.0
  0
LINE
  5
7ABE
  8
1
  6
CONTINUOUS
 10
1450.444349236313
 20
892.9096301794757
 30
0.0
 11
1674.444349236313
 21
892.9096301794757
 31
0.0
  0
LINE
  5
7ABF
  8
1
  6
CONTINUOUS
 10
1674.444349236313
 20
942.9096301794757
 30
0.0
 11
1674.444349236313
 21
892.9096301794757
 31
0.0
  0
LINE
  5
7AC0
  8
1
  6
CONTINUOUS
 10
1694.444349236313
 20
967.9096301794757
 30
0.0
 11
1582.4443492363141
 21
1127.909630179475
 31
0.0
  0
LINE
  5
7AC1
  8
1
  6
CONTINUOUS
 10
1694.444349236313
 20
1127.909630179475
 30
0.0
 11
1582.4443492363141
 21
967.9096301794757
 31
0.0
  0
ARC
  5
7AC2
  8
1
  6
CONTINUOUS
 10
1594.444349236313
 20
1238.909630179475
 30
0.0
 40
12.0
 50
90.0
 51
180.0
  0
ARC
  5
7AC3
  8
1
  6
CONTINUOUS
 10
1682.444349236313
 20
1238.909630179475
 30
0.0
 40
12.0
 50
0.0
 51
90.0
  0
LINE
  5
7AC4
  8
1
  6
CONTINUOUS
 10
1582.4443492363141
 20
967.9096301794757
 30
0.0
 11
1582.4443492363141
 21
1238.909630179475
 31
0.0
  0
LINE
  5
7AC5
  8
1
  6
CONTINUOUS
 10
1694.444349236313
 20
967.9096301794757
 30
0.0
 11
1582.4443492363141
 21
967.9096301794757
 31
0.0
  0
LINE
  5
7AC6
  8
1
  6
CONTINUOUS
 10
1694.444349236313
 20
1238.909630179475
 30
0.0
 11
1694.444349236313
 21
967.9096301794757
 31
0.0
  0
LINE
  5
7AC7
  8
1
  6
CONTINUOUS
 10
1582.4443492363141
 20
1127.909630179475
 30
0.0
 11
1694.444349236313
 21
1127.909630179475
 31
0.0
  0
LINE
  5
7AC8
  8
1
  6
CONTINUOUS
 10
1574.844349236314
 20
1027.909630179475
 30
0.0
 11
1582.844349236314
 21
1027.909630179475
 31
0.0
  0
LINE
  5
7AC9
  8
1
  6
CONTINUOUS
 10
1574.844349236314
 20
1227.909630179475
 30
0.0
 11
1574.844349236314
 21
942.9096301794757
 31
0.0
  0
LINE
  5
7ACA
  8
1
  6
CONTINUOUS
 10
1574.844349236314
 20
1227.909630179475
 30
0.0
 11
1582.844349236314
 21
1227.909630179475
 31
0.0
  0
LINE
  5
7ACB
  8
1
  6
CONTINUOUS
 10
1702.4443492363141
 20
1227.909630179475
 30
0.0
 11
1694.0443492363131
 21
1227.909630179475
 31
0.0
  0
LINE
  5
7ACC
  8
1
  6
CONTINUOUS
 10
1702.4443492363141
 20
1027.909630179475
 30
0.0
 11
1694.0443492363131
 21
1027.909630179475
 31
0.0
  0
LINE
  5
7ACD
  8
1
  6
CONTINUOUS
 10
1594.444349236313
 20
1250.909630179475
 30
0.0
 11
1682.444349236313
 21
1250.909630179475
 31
0.0
  0
LINE
  5
7ACE
  8
1
  6
CONTINUOUS
 10
1453.444349236313
 20
1222.909630179475
 30
0.0
 11
1378.444349236313
 21
1222.909630179475
 31
0.0
  0
LINE
  5
7ACF
  8
1
  6
CONTINUOUS
 10
1378.444349236313
 20
942.9096301794757
 30
0.0
 11
1378.444349236313
 21
1222.909630179475
 31
0.0
  0
LINE
  5
7AD0
  8
1
  6
CONTINUOUS
 10
1453.444349236313
 20
942.9096301794757
 30
0.0
 11
1453.444349236313
 21
1222.909630179475
 31
0.0
  0
LINE
  5
7AD1
  8
1
  6
CONTINUOUS
 10
1433.4443492363141
 20
1033.409630179475
 30
0.0
 11
1475.4443492363141
 21
1033.409630179475
 31
0.0
  0
LINE
  5
7AD2
  8
1
  6
CONTINUOUS
 10
1433.4443492363141
 20
1052.409630179475
 30
0.0
 11
1475.4443492363141
 21
1052.409630179475
 31
0.0
  0
LINE
  5
7AD3
  8
1
  6
CONTINUOUS
 10
1433.4443492363141
 20
1007.909630179475
 30
0.0
 11
1433.4443492363141
 21
1077.909630179475
 31
0.0
  0
LINE
  5
7AD4
  8
1
  6
CONTINUOUS
 10
1398.4443492363141
 20
1007.909630179475
 30
0.0
 11
1398.4443492363141
 21
1077.909630179475
 31
0.0
  0
LINE
  5
7AD5
  8
1
  6
CONTINUOUS
 10
1433.4443492363141
 20
1007.909630179475
 30
0.0
 11
1398.4443492363141
 21
1007.909630179475
 31
0.0
  0
LINE
  5
7AD6
  8
1
  6
CONTINUOUS
 10
1433.4443492363141
 20
1077.909630179475
 30
0.0
 11
1398.4443492363141
 21
1077.909630179475
 31
0.0
  0
LINE
  5
7AD7
  8
1
  6
CONTINUOUS
 10
1433.4443492363141
 20
1172.909630179475
 30
0.0
 11
1398.4443492363141
 21
1172.909630179475
 31
0.0
  0
LINE
  5
7AD8
  8
1
  6
CONTINUOUS
 10
1433.4443492363141
 20
1082.909630179475
 30
0.0
 11
1398.4443492363141
 21
1082.909630179475
 31
0.0
  0
LINE
  5
7AD9
  8
1
  6
CONTINUOUS
 10
1398.4443492363141
 20
1082.909630179475
 30
0.0
 11
1398.4443492363141
 21
1172.909630179475
 31
0.0
  0
LINE
  5
7ADA
  8
1
  6
CONTINUOUS
 10
1433.4443492363141
 20
1082.909630179475
 30
0.0
 11
1433.4443492363141
 21
1172.909630179475
 31
0.0
  0
LINE
  5
7ADB
  8
1
  6
CONTINUOUS
 10
1535.1443492363139
 20
1139.909630179475
 30
0.0
 11
1433.4443492363141
 21
1139.909630179475
 31
0.0
  0
LINE
  5
7ADC
  8
1
  6
CONTINUOUS
 10
1503.5443492363131
 20
1115.909630179475
 30
0.0
 11
1433.4443492363141
 21
1115.909630179475
 31
0.0
  0
LINE
  5
7ADD
  8
1
  6
CONTINUOUS
 10
1702.4443492363141
 20
1027.909630179475
 30
0.0
 11
1702.4443492363141
 21
1227.909630179475
 31
0.0
  0
LINE
  5
7ADE
  8
1
  6
CONTINUOUS
 10
562.44434923631377
 20
1788.3102305436221
 30
0.0
 11
826.44434923631377
 21
1788.3102305436221
 31
0.0
  0
LINE
  5
7ADF
  8
1
  6
CONTINUOUS
 10
693.44434923631366
 20
2012.3102305436221
 30
0.0
 11
388.44434923631371
 21
2012.3102305436221
 31
0.0
  0
LINE
  5
7AE0
  8
1
  6
CONTINUOUS
 10
517.94434923631366
 20
1772.2102305436219
 30
0.0
 11
517.94434923631366
 21
1737.2102305436219
 31
0.0
  0
LINE
  5
7AE1
  8
1
  6
CONTINUOUS
 10
587.94434923631377
 20
1772.2102305436219
 30
0.0
 11
587.94434923631377
 21
1737.2102305436219
 31
0.0
  0
LINE
  5
7AE2
  8
1
  6
CONTINUOUS
 10
587.94434923631377
 20
1737.2102305436219
 30
0.0
 11
517.94434923631366
 21
1737.2102305436219
 31
0.0
  0
LINE
  5
7AE3
  8
1
  6
CONTINUOUS
 10
587.94434923631377
 20
1772.2102305436219
 30
0.0
 11
517.94434923631366
 21
1772.2102305436219
 31
0.0
  0
LINE
  5
7AE4
  8
1
  6
CONTINUOUS
 10
850.44434923631377
 20
1788.3102305436221
 30
0.0
 11
998.44434923631388
 21
1788.3102305436221
 31
0.0
  0
LINE
  5
7AE5
  8
1
  6
CONTINUOUS
 10
935.74434923631384
 20
1716.3102305436221
 30
0.0
 11
935.74434923631384
 21
1791.3102305436221
 31
0.0
  0
LINE
  5
7AE6
  8
1
  6
CONTINUOUS
 10
455.74434923631372
 20
1791.3102305436221
 30
0.0
 11
455.74434923631372
 21
1716.3102305436221
 31
0.0
  0
LINE
  5
7AE7
  8
1
  6
CONTINUOUS
 10
850.44434923631377
 20
1912.7102305436219
 30
0.0
 11
850.44434923631377
 21
1772.2102305436219
 31
0.0
  0
LINE
  5
7AE8
  8
1
  6
CONTINUOUS
 10
826.44434923631377
 20
1912.7102305436219
 30
0.0
 11
826.44434923631377
 21
1772.2102305436219
 31
0.0
  0
LINE
  5
7AE9
  8
1
  6
CONTINUOUS
 10
883.44434923631377
 20
1772.2102305436219
 30
0.0
 11
793.44434923631377
 21
1772.2102305436219
 31
0.0
  0
LINE
  5
7AEA
  8
1
  6
CONTINUOUS
 10
883.44434923631377
 20
1737.2102305436219
 30
0.0
 11
793.44434923631377
 21
1737.2102305436219
 31
0.0
  0
LINE
  5
7AEB
  8
1
  6
CONTINUOUS
 10
883.44434923631377
 20
1772.2102305436219
 30
0.0
 11
883.44434923631377
 21
1737.2102305436219
 31
0.0
  0
LINE
  5
7AEC
  8
1
  6
CONTINUOUS
 10
793.44434923631377
 20
1772.2102305436219
 30
0.0
 11
793.44434923631377
 21
1737.2102305436219
 31
0.0
  0
LINE
  5
7AED
  8
1
  6
CONTINUOUS
 10
935.74434923631384
 20
1791.3102305436221
 30
0.0
 11
455.74434923631372
 21
1791.3102305436221
 31
0.0
  0
LINE
  5
7AEE
  8
1
  6
CONTINUOUS
 10
935.74434923631384
 20
1716.3102305436221
 30
0.0
 11
455.74434923631372
 21
1716.3102305436221
 31
0.0
  0
LINE
  5
7AEF
  8
1
  6
CONTINUOUS
 10
637.94434923631377
 20
1802.0102305436219
 30
0.0
 11
637.94434923631377
 21
1992.8102305436221
 31
0.0
  0
LINE
  5
7AF0
  8
1
  6
CONTINUOUS
 10
637.94434923631377
 20
1992.8102305436221
 30
0.0
 11
467.94434923631371
 21
1992.8102305436221
 31
0.0
  0
LINE
  5
7AF1
  8
1
  6
CONTINUOUS
 10
637.94434923631377
 20
1802.0102305436219
 30
0.0
 11
467.94434923631371
 21
1802.0102305436219
 31
0.0
  0
LINE
  5
7AF2
  8
1
  6
CONTINUOUS
 10
543.44434923631366
 20
1772.2102305436219
 30
0.0
 11
543.44434923631366
 21
1802.0102305436219
 31
0.0
  0
LINE
  5
7AF3
  8
1
  6
CONTINUOUS
 10
562.44434923631377
 20
1772.2102305436219
 30
0.0
 11
562.44434923631377
 21
1802.0102305436219
 31
0.0
  0
LINE
  5
7AF4
  8
1
  6
CONTINUOUS
 10
467.94434923631371
 20
1802.0102305436219
 30
0.0
 11
467.94434923631371
 21
1992.8102305436221
 31
0.0
  0
LINE
  5
7AF5
  8
1
  6
CONTINUOUS
 10
948.44434923631388
 20
1788.3102305436221
 30
0.0
 11
948.44434923631388
 21
1912.7102305436219
 31
0.0
  0
LINE
  5
7AF6
  8
1
  6
CONTINUOUS
 10
728.44434923631377
 20
1912.7102305436219
 30
0.0
 11
728.44434923631377
 21
1788.3102305436221
 31
0.0
  0
LINE
  5
7AF7
  8
1
  6
CONTINUOUS
 10
998.44434923631388
 20
2012.3102305436221
 30
0.0
 11
968.44434923631377
 21
2012.3102305436221
 31
0.0
  0
LINE
  5
7AF8
  8
1
  6
CONTINUOUS
 10
388.44434923631371
 20
1788.3102305436221
 30
0.0
 11
543.44434923631366
 21
1788.3102305436221
 31
0.0
  0
LINE
  5
7AF9
  8
1
  6
CONTINUOUS
 10
938.44434923631388
 20
2040.3102305436221
 30
0.0
 11
938.44434923631388
 21
2032.3102305436221
 31
0.0
  0
LINE
  5
7AFA
  8
1
  6
CONTINUOUS
 10
738.44434923631366
 20
2040.3102305436221
 30
0.0
 11
738.44434923631366
 21
2032.3102305436221
 31
0.0
  0
LINE
  5
7AFB
  8
1
  6
CONTINUOUS
 10
738.44434923631366
 20
1912.7102305436219
 30
0.0
 11
738.44434923631366
 21
1920.3102305436221
 31
0.0
  0
LINE
  5
7AFC
  8
1
  6
CONTINUOUS
 10
948.44434923631388
 20
1912.7102305436219
 30
0.0
 11
728.44434923631377
 21
1912.7102305436219
 31
0.0
  0
LINE
  5
7AFD
  8
1
  6
CONTINUOUS
 10
701.44434923631366
 20
2032.3102305436221
 30
0.0
 11
968.44434923631377
 21
2032.3102305436221
 31
0.0
  0
LINE
  5
7AFE
  8
1
  6
CONTINUOUS
 10
938.44434923631388
 20
1912.7102305436219
 30
0.0
 11
938.44434923631388
 21
1920.3102305436221
 31
0.0
  0
LINE
  5
7AFF
  8
1
  6
CONTINUOUS
 10
968.44434923631377
 20
2053.3102305436219
 30
0.0
 11
968.44434923631377
 21
1899.3102305436221
 31
0.0
  0
LINE
  5
7B00
  8
1
  6
CONTINUOUS
 10
701.44434923631366
 20
1920.3102305436221
 30
0.0
 11
968.44434923631377
 21
1920.3102305436221
 31
0.0
  0
ARC
  5
7B01
  8
1
  6
CONTINUOUS
 10
701.44434923631366
 20
1928.3102305436221
 30
0.0
 40
8.0
 50
180.0
 51
270.0
  0
ARC
  5
7B02
  8
1
  6
CONTINUOUS
 10
701.44434923631366
 20
2024.3102305436221
 30
0.0
 40
8.0
 50
90.0
 51
180.0
  0
LINE
  5
7B03
  8
1
  6
CONTINUOUS
 10
953.44434923631377
 20
2018.3102305436221
 30
0.0
 11
953.44434923631377
 21
1934.3102305436221
 31
0.0
  0
LINE
  5
7B04
  8
1
  6
CONTINUOUS
 10
693.44434923631366
 20
2024.3102305436221
 30
0.0
 11
693.44434923631366
 21
1928.3102305436221
 31
0.0
  0
LINE
  5
7B05
  8
1
  6
CONTINUOUS
 10
968.44434923631377
 20
2033.3102305436221
 30
0.0
 11
953.44434923631377
 21
2018.3102305436221
 31
0.0
  0
LINE
  5
7B06
  8
1
  6
CONTINUOUS
 10
968.44434923631377
 20
1919.3102305436209
 30
0.0
 11
953.44434923631377
 21
1934.3102305436221
 31
0.0
  0
LINE
  5
7B07
  8
1
  6
CONTINUOUS
 10
938.44434923631388
 20
2040.3102305436221
 30
0.0
 11
738.44434923631366
 21
2040.3102305436221
 31
0.0
  0
CIRCLE
  5
7B08
  8
1
  6
CONTINUOUS
 10
838.44434923631388
 20
1127.909630179475
 30
0.0
 40
100.0
  0
CIRCLE
  5
7B09
  8
1
  6
CONTINUOUS
 10
838.44434923631388
 20
1127.909630179475
 30
0.0
 40
45.0
  0
LINE
  5
7B0A
  8
2
  6
CENTER
 10
838.44434923631388
 20
784.18631617947574
 30
0.0
 11
838.44434923631388
 21
1305.1206841794749
 31
0.0
  0
LINE
  5
7B0B
  8
2
  6
CENTER
 10
425.02929523631383
 20
1127.909630179475
 30
0.0
 11
1029.3867452363129
 21
1127.909630179475
 31
0.0
  0
LINE
  5
7B0C
  8
2
  6
CENTER
 10
517.94434923631366
 20
1042.909630179475
 30
0.0
 11
587.94434923631377
 21
1042.909630179475
 31
0.0
  0
LINE
  5
7B0D
  8
2
  6
CENTER
 10
552.94434923631366
 20
1007.909630179475
 30
0.0
 11
552.94434923631366
 21
1077.909630179475
 31
0.0
  0
CIRCLE
  5
7B0E
  8
1
  6
CONTINUOUS
 10
552.94434923631366
 20
1042.909630179475
 30
0.0
 40
35.0
  0
LINE
  5
7B0F
  8
1
  6
CONTINUOUS
 10
541.84434923631375
 20
1076.1096301794751
 30
0.0
 11
824.14434923631393
 21
1170.6096301794751
 31
0.0
  0
LINE
  5
7B10
  8
1
  6
CONTINUOUS
 10
561.84434923631375
 20
1009.009630179475
 30
0.0
 11
849.84434923631375
 21
1084.409630179475
 31
0.0
  0
LINE
  5
7B11
  8
1
  6
CONTINUOUS
 10
953.44434923631377
 20
1137.909630179475
 30
0.0
 11
943.44434923631377
 21
1137.909630179475
 31
0.0
  0
LINE
  5
7B12
  8
1
  6
CONTINUOUS
 10
968.44434923631377
 20
945.90963017947581
 30
0.0
 11
968.44434923631377
 21
1149.909630179475
 31
0.0
  0
LINE
  5
7B13
  8
1
  6
CONTINUOUS
 10
953.44434923631377
 20
956.90963017947581
 30
0.0
 11
851.44434923631377
 21
956.90963017947581
 31
0.0
  0
ARC
  5
7B14
  8
1
  6
CONTINUOUS
 10
851.44434923631377
 20
1114.909630179475
 30
0.0
 40
158.0
 50
170.90000000000001
 51
270.0
  0
ARC
  5
7B15
  8
1
  6
CONTINUOUS
 10
829.44434923631388
 20
1136.909630179475
 30
0.0
 40
114.0
 50
0.5
 51
90.5
  0
ARC
  5
7B16
  8
1
  6
CONTINUOUS
 10
827.44434923631377
 20
1116.909630179475
 30
0.0
 40
134.0
 50
89.500000000000014
 51
170.09999999999999
  0
LINE
  5
7B17
  8
1
  6
CONTINUOUS
 10
968.44434923631377
 20
966.9096301794757
 30
0.0
 11
953.44434923631377
 21
981.90963017947581
 31
0.0
  0
LINE
  5
7B18
  8
1
  6
CONTINUOUS
 10
953.44434923631377
 20
981.90963017947581
 30
0.0
 11
953.44434923631377
 21
1113.909630179475
 31
0.0
  0
LINE
  5
7B19
  8
1
  6
CONTINUOUS
 10
968.44434923631377
 20
1128.909630179475
 30
0.0
 11
953.44434923631377
 21
1113.909630179475
 31
0.0
  0
LINE
  5
7B1A
  8
1
  6
CONTINUOUS
 10
948.44434923631388
 20
942.9096301794757
 30
0.0
 11
948.44434923631388
 21
1170.0096301794749
 31
0.0
  0
LINE
  5
7B1B
  8
1
  6
CONTINUOUS
 10
875.04434923631391
 20
1232.909630179475
 30
0.0
 11
801.84434923631375
 21
1232.909630179475
 31
0.0
  0
LINE
  5
7B1C
  8
1
  6
CONTINUOUS
 10
728.44434923631377
 20
1170.0096301794749
 30
0.0
 11
728.44434923631377
 21
942.9096301794757
 31
0.0
  0
LINE
  5
7B1D
  8
1
  6
CONTINUOUS
 10
728.44434923631377
 20
1094.6096301794751
 30
0.0
 11
948.44434923631388
 21
1094.6096301794751
 31
0.0
  0
LINE
  5
7B1E
  8
1
  6
CONTINUOUS
 10
948.44434923631388
 20
1170.0096301794749
 30
0.0
 11
875.04434923631391
 21
1232.909630179475
 31
0.0
  0
LINE
  5
7B1F
  8
1
  6
CONTINUOUS
 10
728.44434923631377
 20
1170.0096301794749
 30
0.0
 11
801.84434923631375
 21
1232.909630179475
 31
0.0
  0
LINE
  5
7B20
  8
1
  6
CONTINUOUS
 10
455.74434923631372
 20
1222.909630179475
 30
0.0
 11
455.74434923631372
 21
942.9096301794757
 31
0.0
  0
LINE
  5
7B21
  8
1
  6
CONTINUOUS
 10
935.74434923631384
 20
1222.909630179475
 30
0.0
 11
455.74434923631372
 21
1222.909630179475
 31
0.0
  0
LINE
  5
7B22
  8
1
  6
CONTINUOUS
 10
413.44434923631371
 20
942.9096301794757
 30
0.0
 11
973.44434923631388
 21
942.9096301794757
 31
0.0
  0
LINE
  5
7B23
  8
1
  6
CONTINUOUS
 10
413.44434923631371
 20
892.9096301794757
 30
0.0
 11
973.44434923631388
 21
892.9096301794757
 31
0.0
  0
LINE
  5
7B24
  8
1
  6
CONTINUOUS
 10
413.44434923631371
 20
962.90963017947581
 30
0.0
 11
413.44434923631371
 21
892.9096301794757
 31
0.0
  0
ARC
  5
7B25
  8
1
  6
CONTINUOUS
 10
552.94434923631366
 20
1042.909630179475
 30
0.0
 40
85.0
 50
324.69999999999987
 51
215.30000000000001
  0
LINE
  5
7B26
  8
1
  6
CONTINUOUS
 10
475.44434923631383
 20
970.90963017947581
 30
0.0
 11
483.6443492363137
 21
993.70963017947577
 31
0.0
  0
LINE
  5
7B27
  8
1
  6
CONTINUOUS
 10
630.44434923631366
 20
962.90963017947581
 30
0.0
 11
630.44434923631366
 21
970.90963017947581
 31
0.0
  0
LINE
  5
7B28
  8
1
  6
CONTINUOUS
 10
630.44434923631366
 20
970.90963017947581
 30
0.0
 11
622.24434923631372
 21
993.70963017947577
 31
0.0
  0
LINE
  5
7B29
  8
1
  6
CONTINUOUS
 10
475.44434923631383
 20
962.90963017947581
 30
0.0
 11
475.44434923631383
 21
970.90963017947581
 31
0.0
  0
LINE
  5
7B2A
  8
1
  6
CONTINUOUS
 10
413.44434923631371
 20
962.90963017947581
 30
0.0
 11
664.44434923631366
 21
962.90963017947581
 31
0.0
  0
LINE
  5
7B2B
  8
1
  6
CONTINUOUS
 10
664.44434923631366
 20
962.90963017947581
 30
0.0
 11
664.44434923631366
 21
942.9096301794757
 31
0.0
  0
LINE
  5
7B2C
  8
1
  6
CONTINUOUS
 10
935.74434923631384
 20
942.9096301794757
 30
0.0
 11
935.74434923631384
 21
1222.909630179475
 31
0.0
  0
LINE
  5
7B2D
  8
1
  6
CONTINUOUS
 10
973.44434923631388
 20
892.9096301794757
 30
0.0
 11
973.44434923631388
 21
942.9096301794757
 31
0.0
  0
LINE
  5
7B2E
  8
1
  6
CONTINUOUS
 10
388.44434923631371
 20
2012.3102305436221
 30
0.0
 11
388.44434923631371
 21
1788.3102305436221
 31
0.0
  0
LINE
  5
7B2F
  8
1
  6
CONTINUOUS
 10
998.44434923631388
 20
1788.3102305436221
 30
0.0
 11
998.44434923631388
 21
2012.3102305436221
 31
0.0
  0
LINE
  5
7B30
  8
2
  6
CENTER
 10
325.02928823631368
 20
1809.7652153641459
 30
0.0
 11
1050.240431236314
 21
1809.7652153641459
 31
0.0
  0
LINE
  5
7B31
  8
2
  6
CENTER
 10
1638.4443492363141
 20
1292.201449179475
 30
0.0
 11
1638.4443492363141
 21
777.1445901794757
 31
0.0
  0
LINE
  5
7B32
  8
2
  6
CENTER
 10
838.44434923631388
 20
1659.6738045436221
 30
0.0
 11
838.44434923631388
 21
2090.1741175436218
 31
0.0
  0
LINE
  5
7B33
  8
2
  6
CENTER
 10
1321.338300236313
 20
1127.909630179475
 30
0.0
 11
1720.999533236313
 21
1127.909630179475
 31
0.0
  0
LINE
  5
7B34
  8
4
  6
CONTINUOUS
 10
1850.0
 20
500.0
 30
0.0
 11
1850.0
 21
300.0
 31
0.0
  0
LINE
  5
7B35
  8
4
  6
CONTINUOUS
 10
1150.0
 20
500.0
 30
0.0
 11
1150.0
 21
300.0
 31
0.0
  0
LINE
  5
7B36
  8
4
  6
CONTINUOUS
 10
650.0
 20
500.0
 30
0.0
 11
650.0
 21
300.0
 31
0.0
  0
LINE
  5
7B39
  8
4
  6
CONTINUOUS
 10
650.0
 20
300.0
 30
0.0
 11
1850.0
 21
300.0
 31
0.0
  0
LINE
  5
7B3A
  8
4
  6
CONTINUOUS
 10
650.0
 20
400.0
 30
0.0
 11
1850.0
 21
400.0
 31
0.0
  0
TEXT
  5
7B3B
  8
4
  6
CONTINUOUS
 10
688.50208099999998
 20
431.543026
 30
0.0
 40
50.0
  1
機器名称
  0
TEXT
  5
7B3C
  8
4
  6
CONTINUOUS
 10
686.258106
 20
321.64515699999993
 30
0.0
 40
50.0
  1
機器型番
  0
TEXT
  5
7B3D
  8
4
  6
CONTINUOUS
 10
1178.313372999999
 20
422.63134600000001
 30
0.0
 40
45.0
  1
ミツヤニューマルチファン
  0
TEXT
  5
7B3E
  8
4
  6
CONTINUOUS
 10
1186.6544960000001
 20
317.159584
 30
0.0
 40
50.0
  1
NM#1-1
  0
TEXT
  5
7B40
  8
4
  6
CONTINUOUS
 10
751.11584500000004
 20
2383.4288409999999
 30
0.0
 40
54.0
  1
天井吊防振ベット
  0
TEXT
  5
7B41
  8
4
  6
CONTINUOUS
 10
316.16759300000001
 20
2533.8809759999999
 30
0.0
 40
72.0
  1
ベルト駆動式片吸込片持多翼ファン
  0
LINE
  5
7B42
  8
4
  6
CONTINUOUS
 10
250.0
 20
2469.408754
 30
0.0
 11
1850.0
 21
2469.408754
 31
0.0
  0
LINE
  5
7B43
  8
4
  6
CONTINUOUS
 10
250.0
 20
2669.408754
 30
0.0
 11
1850.0
 21
2669.408754
 31
0.0
  0
LINE
  5
7B44
  8
4
  6
CONTINUOUS
 10
650.0
 20
500.0
 30
0.0
 11
1850.0
 21
500.0
 31
0.0
  0
LINE
  5
7B45
  8
4
  6
CONTINUOUS
 10
250.0
 20
2669.408754
 30
0.0
 11
250.0
 21
2469.408754
 31
0.0
  0
TEXT
  5
7B46
  8
4
  6
CONTINUOUS
 10
315.25701199999997
 20
2382.3194779999999
 30
0.0
 40
54.0
  1
左回転右横向
  0
TEXT
  5
7B47
  8
4
  6
CONTINUOUS
 10
1468.9695589999999
 20
2706.0610809999998
 30
0.0
 40
56.0
  1
No.
  0
TEXT
  5
7B48
  8
4
  6
CONTINUOUS
 10
1311.296063
 20
2383.4288409999999
 30
0.0
 40
54.0
  1
縮尺：1/10
  0
LINE
  5
7B49
  8
4
  6
CONTINUOUS
 10
1850.0
 20
2669.408754
 30
0.0
 11
1850.0
 21
2469.408754
 31
0.0
  0
LINE
  5
7B4B
  8
4
  6
CONTINUOUS
 10
1440.617422
 20
2681.2635829999999
 30
0.0
 11
1440.617422
 21
2786.6522620000001
 31
0.0
  0
LINE
  5
7B4C
  8
4
  6
CONTINUOUS
 10
1440.617422
 20
2786.6522620000001
 30
0.0
 11
1850.0
 21
2786.6522620000001
 31
0.0
  0
LINE
  5
7B4D
  8
4
  6
CONTINUOUS
 10
1850.0
 20
2786.6522620000001
 30
0.0
 11
1850.0
 21
2681.2635829999999
 31
0.0
  0
LINE
  5
7B4E
  8
4
  6
CONTINUOUS
 10
1850.0
 20
2681.2635829999999
 30
0.0
 11
1440.617422
 21
2681.2635829999999
 31
0.0
  0
DIMENSION
  5
7B66
  8
3
  6
CONTINUOUS
  2
*D1
 10
1035.293686236314
 20
967.9096301794757
 30
0.0
 11
1035.2936862363131
 21
1033.623915179475
 31
0.0
 70
   128
 13
968.44434923631377
 23
1127.909630179475
 33
0.0
 14
968.44434923631377
 24
967.9096301794757
 34
0.0
 50
90.0
1001
ACAD
1000
DSTYLE
1002
{
1070
   287
1070
     3
1070
   287
1070
     3
1070
    40
1040
10.0
1070
   143
1040
0.039
1070
   172
1070
     1
1070
   271
1070
     0
1070
   279
1070
     0
1070
   288
1070
     1
1002
}
  0
DIMENSION
  5
7B73
  8
3
  6
CONTINUOUS
  2
*D2
 10
1102.6397952363141
 20
956.90963017947581
 30
0.0
 11
1102.6397952363129
 21
1032.3670621794761
 31
0.0
 70
   128
 13
1029.3867452363129
 23
1127.909630179475
 33
0.0
 14
953.44434923631377
 24
956.90963017947581
 34
0.0
 50
90.0
1001
ACAD
1000
DSTYLE
1002
{
1070
   287
1070
     3
1070
   287
1070
     3
1070
    40
1040
10.0
1070
   143
1040
0.039
1070
   172
1070
     1
1070
   271
1070
     0
1070
   279
1070
     0
1070
   288
1070
     1
1002
}
  0
DIMENSION
  5
7B82
  8
3
  6
CONTINUOUS
  2
*D3
 10
1180.189868236313
 20
1127.909630179475
 30
0.0
 11
1152.9194320655661
 21
1189.409630179475
 31
0.0
 70
   128
 13
827.44434923631377
 23
1250.909630179475
 33
0.0
 14
1029.3867452363129
 24
1127.909630179475
 34
0.0
 50
90.0
1001
ACAD
1000
DSTYLE
1002
{
1070
   288
1070
     1
1070
   172
1070
     1
1070
    40
1040
10.0
1070
   271
1070
     0
1070
   143
1040
0.039
1002
}
  0
DIMENSION
  5
7B8E
  8
3
  6
CONTINUOUS
  2
*D4
 10
1180.189868236313
 20
892.9096301794757
 30
0.0
 11
1155.189868236313
 21
1010.409630179475
 31
0.0
 70
     0
 13
1029.3867452363129
 23
1127.909630179475
 33
0.0
 14
973.44434923631388
 24
892.9096301794757
 34
0.0
 50
90.0
1001
ACAD
1000
DSTYLE
1002
{
1070
   287
1070
     4
1070
   287
1070
     4
1070
    40
1040
10.0
1070
    75
1070
     1
1070
   143
1040
0.039
1070
   172
1070
     1
1070
   271
1070
     0
1070
   279
1070
     1
1070
   288
1070
     1
1002
}
  0
DIMENSION
  5
7B9E
  8
3
  6
CONTINUOUS
  2
*D5
 10
1180.189868236313
 20
845.90963017947581
 30
0.0
 11
1220.189868236313
 21
869.40963017947581
 31
0.0
 70
     0
 13
973.44434923631388
 23
892.9096301794757
 33
0.0
 14
998.44434923631388
 24
845.90963017947581
 34
0.0
 50
90.0
1001
ACAD
1000
DSTYLE
1002
{
1070
   288
1070
     1
1070
   172
1070
     1
1070
    75
1070
     1
1070
    40
1040
10.0
1070
   271
1070
     0
1070
     7
1000
_DOT
1070
   143
1040
0.039
1002
}
  0
DIMENSION
  5
7BAE
  8
3
  6
CONTINUOUS
  2
*D6
 10
1180.1898682363139
 20
820.90963017947581
 30
0.0
 11
1180.189868236313
 21
746.62391589376148
 31
0.0
 70
   128
 13
998.44434923631388
 23
845.90963017947581
 33
0.0
 14
998.44434923631388
 24
820.90963017947581
 34
0.0
 50
90.0
1001
ACAD
1000
DSTYLE
1002
{
1070
   287
1070
     3
1070
   287
1070
     3
1070
    40
1040
10.0
1070
   143
1040
0.039
1070
   172
1070
     1
1070
   271
1070
     0
1070
   279
1070
     0
1070
   288
1070
     1
1070
     6
1000
DOT
1002
}
  0
DIMENSION
  5
7BD5
  8
3
  6
CONTINUOUS
  2
*D7
 10
838.44434923631388
 20
759.06522917947575
 30
0.0
 11
618.97228523631384
 21
759.06522917947575
 31
0.0
 70
   128
 13
388.44434923631371
 23
820.90963017947581
 33
0.0
 14
838.44434923631388
 24
784.18631617947574
 34
0.0
1001
ACAD
1000
DSTYLE
1002
{
1070
   287
1070
     3
1070
   287
1070
     3
1070
    40
1040
10.0
1070
   143
1040
0.039
1070
   172
1070
     1
1070
   271
1070
     0
1070
   279
1070
     0
1070
   288
1070
     1
1002
}
  0
DIMENSION
  5
7BE1
  8
3
  6
CONTINUOUS
  2
*D8
 10
998.44434923631388
 20
759.06522917947575
 30
0.0
 11
918.44434923631377
 21
784.06522917947575
 31
0.0
 70
     0
 13
838.44434923631388
 23
784.18631617947574
 33
0.0
 14
998.44434923631388
 24
820.90963017947581
 34
0.0
1001
ACAD
1000
DSTYLE
1002
{
1070
   287
1070
     4
1070
   287
1070
     4
1070
    40
1040
10.0
1070
    75
1070
     1
1070
   143
1040
0.039
1070
   172
1070
     1
1070
   271
1070
     0
1070
   279
1070
     1
1070
   288
1070
     1
1002
}
  0
DIMENSION
  5
7BF0
  8
3
  6
CONTINUOUS
  2
*D9
 10
838.44434923631388
 20
1319.945850179475
 30
0.0
 11
903.44434923631377
 21
1343.5851275800389
 31
0.0
 70
   128
 13
968.44434923631377
 23
1149.909630179475
 33
0.0
 14
838.44434923631388
 24
1305.1206841794749
 34
0.0
1001
ACAD
1000
DSTYLE
1002
{
1070
   288
1070
     1
1070
   172
1070
     1
1070
    40
1040
10.0
1070
   271
1070
     0
1070
   143
1040
0.039
1002
}
  0
DIMENSION
  5
7BFC
  8
3
  6
CONTINUOUS
  2
*D10
 10
693.44434923631366
 20
1319.945850179475
 30
0.0
 11
765.94434923631388
 21
1344.945850179475
 31
0.0
 70
     0
 13
838.44434923631388
 23
1305.1206841794749
 33
0.0
 14
693.44434923631366
 24
1114.909630179475
 34
0.0
1001
ACAD
1000
DSTYLE
1002
{
1070
   287
1070
     4
1070
   287
1070
     4
1070
    40
1040
10.0
1070
    75
1070
     1
1070
   143
1040
0.039
1070
   172
1070
     1
1070
   271
1070
     0
1070
   279
1070
     1
1070
   288
1070
     1
1002
}
  0
DIMENSION
  5
7C09
  8
3
  6
CONTINUOUS
  2
*D11
 10
1253.3184936754101
 20
820.90963017947581
 30
0.0
 11
1253.3184936754101
 21
1054.8971606892619
 31
0.0
 70
   128
 13
827.44434923631377
 23
1250.909630179475
 33
0.0
 14
998.44434923631388
 24
820.90963017947581
 34
0.0
 50
90.0
1001
ACAD
1000
DSTYLE
1002
{
1070
   287
1070
     3
1070
   287
1070
     3
1070
    40
1040
10.0
1070
   143
1040
0.039
1070
   172
1070
     1
1070
   271
1070
     0
1070
   279
1070
     0
1070
   288
1070
     1
1002
}
  0
DIMENSION
  5
7C16
  8
3
  6
CONTINUOUS
  2
*D12
 10
1638.4443492363141
 20
748.86740317947556
 30
0.0
 11
1512.838827236314
 21
748.86740317947556
 31
0.0
 70
   128
 13
1366.4443492363141
 23
820.90963017947581
 33
0.0
 14
1638.4443492363141
 24
777.1445901794757
 34
0.0
1001
ACAD
1000
DSTYLE
1002
{
1070
   287
1070
     3
1070
   287
1070
     3
1070
    40
1040
10.0
1070
   143
1040
0.039
1070
   172
1070
     1
1070
   271
1070
     0
1070
   279
1070
     0
1070
   288
1070
     1
1002
}
  0
DIMENSION
  5
7C22
  8
3
  6
CONTINUOUS
  2
*D13
 10
1796.444349236313
 20
748.86740317947556
 30
0.0
 11
1717.4443492363141
 21
773.86740317947556
 31
0.0
 70
     0
 13
1638.4443492363141
 23
777.1445901794757
 33
0.0
 14
1796.444349236313
 24
820.90963017947581
 34
0.0
1001
ACAD
1000
DSTYLE
1002
{
1070
   287
1070
     4
1070
   287
1070
     4
1070
    40
1040
10.0
1070
    75
1070
     1
1070
   143
1040
0.039
1070
   172
1070
     1
1070
   271
1070
     0
1070
   279
1070
     1
1070
   288
1070
     1
1002
}
  0
DIMENSION
  5
7C40
  8
3
  6
CONTINUOUS
  2
*D14
 10
1694.444349236313
 20
1287.3127981794751
 30
0.0
 11
1638.4443492363141
 21
1310.525424313955
 31
0.0
 70
   128
 13
1582.4443492363141
 23
1238.909630179475
 33
0.0
 14
1694.444349236313
 24
1238.909630179475
 34
0.0
1001
ACAD
1000
DSTYLE
1002
{
1070
   288
1070
     1
1070
   172
1070
     1
1070
    40
1040
10.0
1070
   271
1070
     0
1070
   143
1040
0.039
1002
}
  0
DIMENSION
  5
7C4F
  8
3
  6
CONTINUOUS
  2
*D15
 10
1776.1008962363139
 20
1047.909630179475
 30
0.0
 11
1754.324439919337
 21
1127.909630179475
 31
0.0
 70
   128
 13
1702.4443492363141
 23
1207.909630179475
 33
0.0
 14
1702.4443492363141
 24
1047.909630179475
 34
0.0
 50
90.0
1001
ACAD
1000
DSTYLE
1002
{
1070
   288
1070
     1
1070
   172
1070
     1
1070
    40
1040
10.0
1070
     3
1000
φ<>
1070
   271
1070
     0
1070
   143
1040
0.039
1002
}
  0
DIMENSION
  5
7C5D
  8
3
  6
CONTINUOUS
  2
*D16
 10
1638.4443492363141
 20
1348.499774179475
 30
0.0
 11
1672.5800694171301
 21
1376.6448308461211
 31
0.0
 70
   128
 13
1702.4443492363141
 23
1227.909630179475
 33
0.0
 14
1638.4443492363141
 24
1335.8056851794749
 34
0.0
1001
ACAD
1000
DSTYLE
1002
{
1070
   288
1070
     1
1070
   172
1070
     1
1070
    40
1040
10.0
1070
   271
1070
     0
1070
   143
1040
0.039
1002
}
  0
DIMENSION
  5
7C69
  8
3
  6
CONTINUOUS
  2
*D17
 10
1378.444349236313
 20
1348.499774179475
 30
0.0
 11
1508.444349236313
 21
1398.499774179475
 31
0.0
 70
     0
  1
MAX\P260
 13
1638.4443492363141
 23
1335.8056851794749
 33
0.0
 14
1378.444349236313
 24
1222.909630179475
 34
0.0
1001
ACAD
1000
DSTYLE
1002
{
1070
   287
1070
     4
1070
   287
1070
     4
1070
    40
1040
10.0
1070
    75
1070
     1
1070
   143
1040
0.039
1070
   172
1070
     1
1070
   271
1070
     0
1070
   279
1070
     1
1070
   288
1070
     1
1002
}
  0
DIMENSION
  5
7C8C
  8
3
  6
CONTINUOUS
  2
*D18
 10
998.44434923631388
 20
1618.170674543622
 30
0.0
 11
674.07364823631383
 21
1618.170674543622
 31
0.0
 70
   128
 13
388.44434923631371
 23
1703.8102305436221
 33
0.0
 14
998.44434923631388
 24
1703.8102305436221
 34
0.0
1001
ACAD
1000
DSTYLE
1002
{
1070
   287
1070
     3
1070
   287
1070
     3
1070
    40
1040
10.0
1070
   143
1040
0.039
1070
   172
1070
     1
1070
   271
1070
     0
1070
   279
1070
     0
1070
   288
1070
     1
1002
}
  0
DIMENSION
  5
7C99
  8
3
  6
CONTINUOUS
  2
*D19
 10
1094.4766342363141
 20
1703.8102305436221
 30
0.0
 11
1094.476634236313
 21
1899.6307655436219
 31
0.0
 70
   128
 13
998.44434923631388
 23
2133.8102305436219
 33
0.0
 14
998.44434923631388
 24
1703.8102305436221
 34
0.0
 50
90.0
1001
ACAD
1000
DSTYLE
1002
{
1070
   287
1070
     3
1070
   287
1070
     3
1070
    40
1040
10.0
1070
   143
1040
0.039
1070
   172
1070
     1
1070
   271
1070
     0
1070
   279
1070
     0
1070
   288
1070
     1
1002
}
  0
DIMENSION
  5
7D8F
  8
3
  2
*D21
 10
388.44434923631383
 20
1382.478899316764
 30
0.0
 11
693.59392406539882
 21
1382.478899316764
 31
0.0
 70
   128
 13
968.44434923631377
 23
1154.909630179475
 33
0.0
 14
388.44434923631371
 24
870.90963017947581
 34
0.0
1001
ACAD
1000
DSTYLE
1002
{
1070
   287
1070
     3
1070
   287
1070
     3
1070
    40
1040
10.0
1070
   143
1040
0.039
1070
   172
1070
     1
1070
   271
1070
     0
1070
   279
1070
     0
1070
   288
1070
     1
1002
}
  0
ENDSEC
  0
EOF
