  0
SECTION
  2
HEADER
  9
$ACADVER
  1
AC1009
  9
$INSBASE
 10
0.0
 20
0.0
 30
0.0
  9
$EXTMIN
 10
250.0
 20
300.0
 30
0.0
  9
$EXTMAX
 10
2155.2817719999989
 20
2786.6522620000001
 30
0.0
  9
$LIMMIN
 10
0.0
 20
0.0
  9
$LIMMAX
 10
297.0
 20
210.0
  9
$ORTHOMODE
 70
     0
  9
$REGENMODE
 70
     1
  9
$FILLMODE
 70
     0
  9
$QTEXTMODE
 70
     0
  9
$MIRRTEXT
 70
     1
  9
$DRAGMODE
 70
     2
  9
$LTSCALE
 40
100.0
  9
$OSMODE
 70
    37
  9
$ATTMODE
 70
     1
  9
$TEXTSIZE
 40
180.0
  9
$TRACEWID
 40
0.05
  9
$TEXTSTYLE
  7
STANDARD
  9
$CLAYER
  8
3
  9
$CELTYPE
  6
BYLAYER
  9
$CECOLOR
 62
   256
  9
$DIMSCALE
 40
10.0
  9
$DIMASZ
 40
2.0
  9
$DIMEXO
 40
0.5
  9
$DIMDLI
 40
10.0
  9
$DIMRND
 40
0.0
  9
$DIMDLE
 40
0.0
  9
$DIMEXE
 40
1.0
  9
$DIMTP
 40
1.0
  9
$DIMTM
 40
1.0
  9
$DIMTXT
 40
3.0
  9
$DIMCEN
 40
0.0
  9
$DIMTSZ
 40
0.0
  9
$DIMTOL
 70
     0
  9
$DIMLIM
 70
     0
  9
$DIMTIH
 70
     0
  9
$DIMTOH
 70
     0
  9
$DIMSE1
 70
     0
  9
$DIMSE2
 70
     0
  9
$DIMTAD
 70
     1
  9
$DIMZIN
 70
     8
  9
$DIMBLK
  1

  9
$DIMASO
 70
     1
  9
$DIMSHO
 70
     1
  9
$DIMPOST
  1

  9
$DIMAPOST
  1

  9
$DIMALT
 70
     0
  9
$DIMALTD
 70
     2
  9
$DIMALTF
 40
0.039
  9
$DIMLFAC
 40
1.0
  9
$DIMTOFL
 70
     1
  9
$DIMTVP
 40
0.0
  9
$DIMTIX
 70
     0
  9
$DIMSOXD
 70
     0
  9
$DIMSAH
 70
     1
  9
$DIMBLK1
  1
OPEN
  9
$DIMBLK2
  1
OPEN
  9
$DIMSTYLE
  2
IGA
  9
$DIMCLRD
 70
     0
  9
$DIMCLRE
 70
     0
  9
$DIMCLRT
 70
     0
  9
$DIMTFAC
 40
10.0
  9
$DIMGAP
 40
1.0
  9
$LUNITS
 70
     2
  9
$LUPREC
 70
     3
  9
$SKETCHINC
 40
0.1
  9
$FILLETRAD
 40
50.0
  9
$AUNITS
 70
     0
  9
$AUPREC
 70
     0
  9
$MENU
  1
acad
  9
$ELEVATION
 40
0.0
  9
$PELEVATION
 40
0.0
  9
$THICKNESS
 40
0.0
  9
$LIMCHECK
 70
     0
  9
$BLIPMODE
 70
     0
  9
$CHAMFERA
 40
0.5
  9
$CHAMFERB
 40
0.5
  9
$SKPOLY
 70
     0
  9
$TDCREATE
 40
2450736.6119538201
  9
$TDUPDATE
 40
2454953.8586246059
  9
$TDINDWG
 40
0.0099510417
  9
$TDUSRTIMER
 40
0.0099510417
  9
$USRTIMER
 70
     1
  9
$ANGBASE
 50
0.0
  9
$ANGDIR
 70
     0
  9
$PDMODE
 70
     0
  9
$PDSIZE
 40
0.0
  9
$PLINEWID
 40
0.0
  9
$COORDS
 70
     1
  9
$SPLFRAME
 70
     0
  9
$SPLINETYPE
 70
     6
  9
$SPLINESEGS
 70
     8
  9
$ATTDIA
 70
     0
  9
$ATTREQ
 70
     1
  9
$HANDLING
 70
 10241
  9
$HANDSEED
  5
80DC
  9
$SURFTAB1
 70
     6
  9
$SURFTAB2
 70
     6
  9
$SURFTYPE
 70
     6
  9
$SURFU
 70
     6
  9
$SURFV
 70
     6
  9
$UCSNAME
  2

  9
$UCSORG
 10
0.0
 20
0.0
 30
0.0
  9
$UCSXDIR
 10
1.0
 20
0.0
 30
0.0
  9
$UCSYDIR
 10
0.0
 20
1.0
 30
0.0
  9
$PUCSNAME
  2

  9
$PUCSORG
 10
0.0
 20
0.0
 30
0.0
  9
$PUCSXDIR
 10
1.0
 20
0.0
 30
0.0
  9
$PUCSYDIR
 10
0.0
 20
1.0
 30
0.0
  9
$USERI1
 70
     0
  9
$USERI2
 70
     0
  9
$USERI3
 70
     0
  9
$USERI4
 70
     0
  9
$USERI5
 70
     0
  9
$USERR1
 40
0.0
  9
$USERR2
 40
0.0
  9
$USERR3
 40
0.0
  9
$USERR4
 40
0.0
  9
$USERR5
 40
0.0
  9
$WORLDVIEW
 70
     1
  9
$SHADEDGE
 70
     3
  9
$SHADEDIF
 70
    70
  9
$TILEMODE
 70
     1
  9
$MAXACTVP
 70
    16
  9
$PLIMCHECK
 70
     0
  9
$PEXTMIN
 10
1.0000000000000000E+020
 20
1.0000000000000000E+020
 30
1.0000000000000000E+020
  9
$PEXTMAX
 10
-1.0000000000000000E+020
 20
-1.0000000000000000E+020
 30
-1.0000000000000000E+020
  9
$PLIMMIN
 10
0.0
 20
0.0
  9
$PLIMMAX
 10
12.0
 20
9.0
  9
$UNITMODE
 70
     0
  9
$VISRETAIN
 70
     0
  9
$PLINEGEN
 70
     0
  9
$PSLTSCALE
 70
     1
  0
ENDSEC
  0
SECTION
  2
TABLES
  0
TABLE
  2
VPORT
 70
     2
  0
VPORT
  2
*ACTIVE
 70
     0
 10
0.0
 20
0.0
 11
1.0
 21
1.0
 12
2669.0533451756401
 22
1861.720375341906
 13
0.0
 23
0.0
 14
10.0
 24
10.0
 15
10.0
 25
10.0
 16
0.0
 26
0.0
 36
1.0
 17
0.0
 27
0.0
 37
0.0
 40
3552.2128564519348
 41
1.5051150895140659
 42
50.0
 43
0.0
 44
0.0
 50
0.0
 51
0.0
 71
     0
 72
   100
 73
     1
 74
     0
 75
     0
 76
     0
 77
     0
 78
     0
  0
ENDTAB
  0
TABLE
  2
LTYPE
 70
     2
  0
LTYPE
  2
CONTINUOUS
 70
     0
  3
Solid line
 72
    65
 73
     0
 40
0.0
  0
LTYPE
  2
CENTER
 70
     0
  3
____ _ ____ _ ____ _ ____ _ ____ _ ____ _ ____ 
 72
    65
 73
     4
 40
2.0
 49
1.25
 49
-0.25
 49
0.25
 49
-0.25
  0
ENDTAB
  0
TABLE
  2
LAYER
 70
     6
  0
LAYER
  2
0
 70
     0
 62
     7
  6
CONTINUOUS
  0
LAYER
  2
3
 70
     0
 62
     2
  6
CONTINUOUS
  0
LAYER
  2
2
 70
     0
 62
     3
  6
CENTER
  0
LAYER
  2
1
 70
     0
 62
     4
  6
CONTINUOUS
  0
LAYER
  2
4
 70
     0
 62
     7
  6
CONTINUOUS
  0
LAYER
  2
DEFPOINTS
 70
     0
 62
     7
  6
CONTINUOUS
  0
ENDTAB
  0
TABLE
  2
STYLE
 70
     1
  0
STYLE
  2
STANDARD
 70
     0
 40
0.0
 41
1.0
 50
0.0
 71
     0
 42
180.0
  3
simplex.shx
  4
extfont.shx
  0
ENDTAB
  0
TABLE
  2
VIEW
 70
     0
  0
ENDTAB
  0
TABLE
  2
UCS
 70
     0
  0
ENDTAB
  0
TABLE
  2
APPID
 70
     1
  0
APPID
  2
ACAD
 70
     0
  0
ENDTAB
  0
TABLE
  2
DIMSTYLE
 70
     1
  0
DIMSTYLE
  2
IGA
 70
     0
  3

  4

  5

  6
OPEN
  7
OPEN
 40
2.0
 41
2.0
 42
0.5
 43
10.0
 44
1.0
 45
0.0
 46
0.0
 47
1.0
 48
1.0
140
3.0
141
0.0
142
0.0
143
0.03937
144
1.0
145
0.0
146
10.0
147
1.0
 71
     0
 72
     0
 73
     0
 74
     0
 75
     0
 76
     0
 77
     1
 78
     8
170
     0
171
     2
172
     0
173
     1
174
     0
175
     0
176
     0
177
     0
178
     0
  0
ENDTAB
  0
ENDSEC
  0
SECTION
  2
BLOCKS
  0
BLOCK
  8
0
  2
$MODEL_SPACE
 70
     0
 10
0.0
 20
0.0
 30
0.0
  3
$MODEL_SPACE
  1

  0
ENDBLK
  5
1B
  8
0
  0
BLOCK
 67
     1
  8
0
  2
$PAPER_SPACE
 70
     0
 10
0.0
 20
0.0
 30
0.0
  3
$PAPER_SPACE
  1

  0
ENDBLK
  5
18
 67
     1
  8
0
  0
BLOCK
  8
0
  2
_OPEN
 70
     0
 10
0.0
 20
0.0
 30
0.0
  3
_OPEN
  1

  0
LINE
  5
7B52
  8
0
  6
BYBLOCK
 62
     0
 10
-1.0
 20
0.166667
 30
0.0
 11
0.0
 21
0.0
 31
0.0
  0
LINE
  5
7B53
  8
0
  6
BYBLOCK
 62
     0
 10
0.0
 20
0.0
 30
0.0
 11
-1.0
 21
-0.166667
 31
0.0
  0
LINE
  5
7B54
  8
0
  6
BYBLOCK
 62
     0
 10
0.0
 20
0.0
 30
0.0
 11
-1.0
 21
0.0
 31
0.0
  0
ENDBLK
  5
7B55
  8
0
  0
BLOCK
  8
0
  2
*D1
 70
     1
 10
0.0
 20
0.0
 30
0.0
  3
*D1
  1

  0
LINE
  5
8045
  8
3
  6
CONTINUOUS
 62
     0
 10
471.30141583017161
 20
800.44179381413369
 30
0.0
 11
471.30141583017161
 21
747.06458881413357
 31
0.0
  0
LINE
  5
8046
  8
3
  6
CONTINUOUS
 62
     0
 10
631.30141583017155
 20
825.44179381413369
 30
0.0
 11
631.30141583017155
 21
747.06458881413357
 31
0.0
  0
LINE
  5
8047
  8
3
  6
CONTINUOUS
 62
     0
 10
491.30141583017172
 20
757.06458881413369
 30
0.0
 11
611.30141583017155
 21
757.06458881413369
 31
0.0
  0
INSERT
  5
8048
  8
3
  6
CONTINUOUS
 62
     0
  2
_OPEN
 10
471.30141583017161
 20
757.06458881413369
 30
0.0
 41
20.0
 42
20.0
 43
20.0
 50
180.0
  0
INSERT
  5
8049
  8
3
  6
CONTINUOUS
 62
     0
  2
_OPEN
 10
631.30141583017155
 20
757.06458881413369
 30
0.0
 41
20.0
 42
20.0
 43
20.0
  0
TEXT
  8
3
  40
30
  5
80CC
  62
0
  72
0
  71
0
 10
492.592
 20
728.965
 30
0.000000
  1
160
  0
POINT
  5
804B
  8
DEFPOINTS
  6
CONTINUOUS
 62
     0
 10
471.30141583017161
 20
805.44179381413369
 30
0.0
  0
POINT
  5
804C
  8
DEFPOINTS
  6
CONTINUOUS
 62
     0
 10
631.30141583017155
 20
830.44179381413369
 30
0.0
  0
POINT
  5
804D
  8
DEFPOINTS
  6
CONTINUOUS
 62
     0
 10
631.30141583017155
 20
757.06458881413369
 30
0.0
  0
ENDBLK
  5
7B62
  8
0
  0
BLOCK
  8
0
  2
*D2
 70
     1
 10
0.0
 20
0.0
 30
0.0
  3
*D2
  1

  0
LINE
  5
804E
  8
3
  6
CONTINUOUS
 62
     0
 10
1081.301415830171
 20
800.44179381413369
 30
0.0
 11
1081.301415830171
 21
747.06458881413357
 31
0.0
  0
LINE
  5
804F
  8
3
  6
CONTINUOUS
 62
     0
 10
651.30141583017155
 20
757.06458881413369
 30
0.0
 11
1061.301415830171
 21
757.06458881413369
 31
0.0
  0
INSERT
  5
8050
  8
3
  6
CONTINUOUS
 62
     0
  2
_OPEN
 10
631.30141583017155
 20
757.06458881413369
 30
0.0
 41
20.0
 42
20.0
 43
20.0
 50
180.0
  0
INSERT
  5
8051
  8
3
  6
CONTINUOUS
 62
     0
  2
_OPEN
 10
1081.301415830171
 20
757.06458881413369
 30
0.0
 41
20.0
 42
20.0
 43
20.0
  0
TEXT
  8
3
  40
30
  5
80CD
  62
0
  72
0
  71
0
 10
796.301
 20
728.965
 30
0.000000
  1
450
  0
POINT
  5
8053
  8
DEFPOINTS
  6
CONTINUOUS
 62
     0
 10
631.30141583017155
 20
830.44179381413369
 30
0.0
  0
POINT
  5
8054
  8
DEFPOINTS
  6
CONTINUOUS
 62
     0
 10
1081.301415830171
 20
805.44179381413369
 30
0.0
  0
POINT
  5
8055
  8
DEFPOINTS
  6
CONTINUOUS
 62
     0
 10
1081.301415830171
 20
757.06458881413369
 30
0.0
  0
ENDBLK
  5
7B6E
  8
0
  0
BLOCK
  8
0
  2
*D3
 70
     1
 10
0.0
 20
0.0
 30
0.0
  3
*D3
  1

  0
LINE
  5
8056
  8
3
  6
CONTINUOUS
 62
     0
 10
631.30141583017155
 20
1247.4417938141339
 30
0.0
 11
631.30141583017155
 21
1293.9253778141331
 31
0.0
  0
LINE
  5
8057
  8
3
  6
CONTINUOUS
 62
     0
 10
791.30141583017166
 20
1247.4417938141339
 30
0.0
 11
791.30141583017166
 21
1293.9253778141331
 31
0.0
  0
LINE
  5
8058
  8
3
  6
CONTINUOUS
 62
     0
 10
651.30141583017155
 20
1283.9253778141331
 30
0.0
 11
771.30141583017155
 21
1283.9253778141331
 31
0.0
  0
INSERT
  5
8059
  8
3
  6
CONTINUOUS
 62
     0
  2
_OPEN
 10
631.30141583017155
 20
1283.9253778141331
 30
0.0
 41
20.0
 42
20.0
 43
20.0
 50
180.0
  0
INSERT
  5
805A
  8
3
  6
CONTINUOUS
 62
     0
  2
_OPEN
 10
791.30141583017166
 20
1283.9253778141331
 30
0.0
 41
20.0
 42
20.0
 43
20.0
  0
TEXT
  8
3
  40
30
  5
80CE
  62
0
  72
0
  71
0
 10
649.768
 20
1255.83
 30
0.000000
  1
160
  0
POINT
  5
805C
  8
DEFPOINTS
  6
CONTINUOUS
 62
     0
 10
631.30141583017155
 20
1242.441793814133
 30
0.0
  0
POINT
  5
805D
  8
DEFPOINTS
  6
CONTINUOUS
 62
     0
 10
791.30141583017166
 20
1242.441793814133
 30
0.0
  0
POINT
  5
805E
  8
DEFPOINTS
  6
CONTINUOUS
 62
     0
 10
791.30141583017166
 20
1283.9253778141331
 30
0.0
  0
ENDBLK
  5
7C1F
  8
0
  0
BLOCK
  8
0
  2
*D4
 70
     1
 10
0.0
 20
0.0
 30
0.0
  3
*D4
  1

  0
LINE
  5
805F
  8
3
  6
CONTINUOUS
 62
     0
 10
1342.379322778092
 20
800.44179381413369
 30
0.0
 11
1342.379322778092
 21
729.79072581413379
 31
0.0
  0
LINE
  5
8060
  8
3
  6
CONTINUOUS
 62
     0
 10
1614.379322778092
 20
800.44179381413369
 30
0.0
 11
1614.379322778092
 21
729.79072581413379
 31
0.0
  0
LINE
  5
8061
  8
3
  6
CONTINUOUS
 62
     0
 10
1362.379322778092
 20
739.79072581413368
 30
0.0
 11
1594.379322778092
 21
739.79072581413368
 31
0.0
  0
INSERT
  5
8062
  8
3
  6
CONTINUOUS
 62
     0
  2
_OPEN
 10
1342.379322778092
 20
739.79072581413368
 30
0.0
 41
20.0
 42
20.0
 43
20.0
 50
180.0
  0
INSERT
  5
8063
  8
3
  6
CONTINUOUS
 62
     0
  2
_OPEN
 10
1614.379322778092
 20
739.79072581413368
 30
0.0
 41
20.0
 42
20.0
 43
20.0
  0
TEXT
  8
3
  40
30
  5
80CF
  62
0
  72
0
  71
0
 10
1415.90
 20
711.691
 30
0.000000
  1
272
  0
POINT
  5
8065
  8
DEFPOINTS
  6
CONTINUOUS
 62
     0
 10
1342.379322778092
 20
805.44179381413369
 30
0.0
  0
POINT
  5
8066
  8
DEFPOINTS
  6
CONTINUOUS
 62
     0
 10
1614.379322778092
 20
805.44179381413369
 30
0.0
  0
POINT
  5
8067
  8
DEFPOINTS
  6
CONTINUOUS
 62
     0
 10
1614.379322778092
 20
739.79072581413368
 30
0.0
  0
ENDBLK
  5
7C6C
  8
0
  0
BLOCK
  8
0
  2
*D5
 70
     1
 10
0.0
 20
0.0
 30
0.0
  3
*D5
  1

  0
LINE
  5
8068
  8
3
  6
CONTINUOUS
 62
     0
 10
1772.379322778092
 20
800.44179381413369
 30
0.0
 11
1772.379322778092
 21
729.79072581413379
 31
0.0
  0
LINE
  5
8069
  8
3
  6
CONTINUOUS
 62
     0
 10
1634.379322778092
 20
739.79072581413368
 30
0.0
 11
1752.379322778092
 21
739.79072581413368
 31
0.0
  0
INSERT
  5
806A
  8
3
  6
CONTINUOUS
 62
     0
  2
_OPEN
 10
1614.379322778092
 20
739.79072581413368
 30
0.0
 41
20.0
 42
20.0
 43
20.0
 50
180.0
  0
INSERT
  5
806B
  8
3
  6
CONTINUOUS
 62
     0
  2
_OPEN
 10
1772.379322778092
 20
739.79072581413368
 30
0.0
 41
20.0
 42
20.0
 43
20.0
  0
TEXT
  8
3
  40
30
  5
80D0
  62
0
  72
0
  71
0
 10
1633.38
 20
711.691
 30
0.000000
  1
158
  0
POINT
  5
806D
  8
DEFPOINTS
  6
CONTINUOUS
 62
     0
 10
1614.379322778092
 20
805.44179381413369
 30
0.0
  0
POINT
  5
806E
  8
DEFPOINTS
  6
CONTINUOUS
 62
     0
 10
1772.379322778092
 20
805.44179381413369
 30
0.0
  0
POINT
  5
806F
  8
DEFPOINTS
  6
CONTINUOUS
 62
     0
 10
1772.379322778092
 20
739.79072581413368
 30
0.0
  0
ENDBLK
  5
7C78
  8
0
  0
BLOCK
  8
0
  2
*D6
 70
     1
 10
0.0
 20
0.0
 30
0.0
  3
*D6
  1

  0
LINE
  5
7E33
  8
0
  6
BYBLOCK
 62
     0
 10
1558.379322778092
 20
1247.4417938141339
 30
0.0
 11
1558.379322778092
 21
1281.6203518141331
 31
0.0
  0
LINE
  5
7E34
  8
0
  6
BYBLOCK
 62
     0
 10
1670.379322778092
 20
1247.4417938141339
 30
0.0
 11
1670.379322778092
 21
1281.6203518141331
 31
0.0
  0
LINE
  5
7E35
  8
0
  6
BYBLOCK
 62
     0
 10
1578.379322778092
 20
1271.6203518141331
 30
0.0
 11
1650.379322778092
 21
1271.6203518141331
 31
0.0
  0
TEXT
  5
7E36
  8
3
 62
     0
 10
1581.5221799209489
 20
1279.795646277958
 30
0.0
 40
30.0
  1
112
  0
INSERT
  5
7E37
  8
0
  6
BYBLOCK
 62
     0
  2
_OPEN
 10
1558.379322778092
 20
1271.6203518141331
 30
0.0
 41
20.0
 42
20.0
 43
20.0
 50
180.0
  0
INSERT
  5
7E38
  8
0
  6
BYBLOCK
 62
     0
  2
_OPEN
 10
1670.379322778092
 20
1271.6203518141331
 30
0.0
 41
20.0
 42
20.0
 43
20.0
  0
POINT
  5
7E39
  8
DEFPOINTS
  6
BYBLOCK
 62
     0
 10
1558.379322778092
 20
1242.441793814133
 30
0.0
  0
POINT
  5
7E3A
  8
DEFPOINTS
  6
BYBLOCK
 62
     0
 10
1670.379322778092
 20
1242.441793814133
 30
0.0
  0
POINT
  5
7E3B
  8
DEFPOINTS
  6
BYBLOCK
 62
     0
 10
1670.379322778092
 20
1271.6203518141331
 30
0.0
  0
ENDBLK
  5
7E3C
  8
0
  0
BLOCK
  8
0
  2
*D7
 70
     1
 10
0.0
 20
0.0
 30
0.0
  3
*D7
  1

  0
LINE
  5
8070
  8
3
  6
CONTINUOUS
 62
     0
 10
1354.379322778092
 20
1212.4417938141339
 30
0.0
 11
1354.379322778092
 21
1346.339857814133
 31
0.0
  0
LINE
  5
8071
  8
3
  6
CONTINUOUS
 62
     0
 10
1614.379322778092
 20
1324.6114258141331
 30
0.0
 11
1614.379322778092
 21
1346.339857814133
 31
0.0
  0
LINE
  5
8072
  8
3
  6
CONTINUOUS
 62
     0
 10
1374.379322778092
 20
1336.339857814133
 30
0.0
 11
1594.379322778092
 21
1336.339857814133
 31
0.0
  0
INSERT
  5
8073
  8
3
  6
CONTINUOUS
 62
     0
  2
_OPEN
 10
1354.379322778092
 20
1336.339857814133
 30
0.0
 41
20.0
 42
20.0
 43
20.0
 50
180.0
  0
INSERT
  5
8074
  8
3
  6
CONTINUOUS
 62
     0
  2
_OPEN
 10
1614.379322778092
 20
1336.339857814133
 30
0.0
 41
20.0
 42
20.0
 43
20.0
  0
TEXT
  8
3
  40
30
  5
80D1
  62
0
  72
0
  71
0
 10
1424.15
 20
1333.24
 30
0.000000
  1
MAX
  0
TEXT
  8
3
  40
30
  5
80D2
  62
0
  72
0
  71
0
 10
1424.15
 20
1294.24
 30
0.000000
  1
260
  0
POINT
  5
8076
  8
DEFPOINTS
  6
CONTINUOUS
 62
     0
 10
1354.379322778092
 20
1207.441793814133
 30
0.0
  0
POINT
  5
8077
  8
DEFPOINTS
  6
CONTINUOUS
 62
     0
 10
1614.379322778092
 20
1319.6114258141331
 30
0.0
  0
POINT
  5
8078
  8
DEFPOINTS
  6
CONTINUOUS
 62
     0
 10
1614.379322778092
 20
1336.339857814133
 30
0.0
  0
ENDBLK
  5
7E9F
  8
0
  0
BLOCK
  8
0
  2
*D8
 70
     1
 10
0.0
 20
0.0
 30
0.0
  3
*D8
  1

  0
LINE
  5
8079
  8
3
  6
CONTINUOUS
 62
     0
 10
1678.379322778092
 20
1217.441793814133
 30
0.0
 11
1678.379322778092
 21
1346.339857814133
 31
0.0
  0
LINE
  5
807A
  8
3
  6
CONTINUOUS
 62
     0
 10
1634.379322778092
 20
1336.339857814133
 30
0.0
 11
1658.379322778092
 21
1336.339857814133
 31
0.0
  0
TEXT
  8
3
  40
30
  5
80D3
  62
0
  72
0
  71
0
 10
1585.91
 20
1308.24
 30
0.000000
  1
64
  0
INSERT
  5
807C
  8
3
  6
CONTINUOUS
 62
     0
  2
_OPEN
 10
1614.379322778092
 20
1336.339857814133
 30
0.0
 41
20.0
 42
20.0
 43
20.0
 50
180.0
  0
INSERT
  5
807D
  8
3
  6
CONTINUOUS
 62
     0
  2
_OPEN
 10
1678.379322778092
 20
1336.339857814133
 30
0.0
 41
20.0
 42
20.0
 43
20.0
  0
POINT
  5
807E
  8
DEFPOINTS
  6
CONTINUOUS
 62
     0
 10
1614.379322778092
 20
1319.6114258141331
 30
0.0
  0
POINT
  5
807F
  8
DEFPOINTS
  6
CONTINUOUS
 62
     0
 10
1678.379322778092
 20
1212.4417938141339
 30
0.0
  0
POINT
  5
8080
  8
DEFPOINTS
  6
CONTINUOUS
 62
     0
 10
1678.379322778092
 20
1336.339857814133
 30
0.0
  0
ENDBLK
  5
7DA0
  8
0
  0
BLOCK
  8
0
  2
*D9
 70
     1
 10
0.0
 20
0.0
 30
0.0
  3
*D9
  1

  0
LINE
  5
7E28
  8
0
  6
BYBLOCK
 62
     0
 10
1683.379322778092
 20
1192.441793814133
 30
0.0
 11
1759.5683697780919
 21
1192.441793814133
 31
0.0
  0
LINE
  5
7E29
  8
0
  6
BYBLOCK
 62
     0
 10
1683.379322778092
 20
1032.441793814133
 30
0.0
 11
1759.5683697780919
 21
1032.441793814133
 31
0.0
  0
LINE
  5
7E2A
  8
0
  6
BYBLOCK
 62
     0
 10
1749.5683697780919
 20
1172.4417938141339
 30
0.0
 11
1749.5683697780919
 21
1052.441793814133
 31
0.0
  0
TEXT
  5
7E2B
  8
3
 62
     0
 10
1742.4179874965901
 20
1061.7275080998479
 30
0.0
 40
30.0
  1
φ160
 50
90.0
  0
INSERT
  5
7E2C
  8
0
  6
BYBLOCK
 62
     0
  2
_OPEN
 10
1749.5683697780919
 20
1192.441793814133
 30
0.0
 41
20.0
 42
20.0
 43
20.0
 50
90.0
  0
INSERT
  5
7E2D
  8
0
  6
BYBLOCK
 62
     0
  2
_OPEN
 10
1749.5683697780919
 20
1032.441793814133
 30
0.0
 41
20.0
 42
20.0
 43
20.0
 50
270.0
  0
POINT
  5
7E2E
  8
DEFPOINTS
  6
BYBLOCK
 62
     0
 10
1678.379322778092
 20
1192.441793814133
 30
0.0
  0
POINT
  5
7E2F
  8
DEFPOINTS
  6
BYBLOCK
 62
     0
 10
1678.379322778092
 20
1032.441793814133
 30
0.0
  0
POINT
  5
7E30
  8
DEFPOINTS
  6
BYBLOCK
 62
     0
 10
1749.5683697780919
 20
1032.441793814133
 30
0.0
  0
ENDBLK
  5
7E31
  8
0
  0
BLOCK
  8
0
  2
*D10
 70
     1
 10
0.0
 20
0.0
 30
0.0
  3
*D10
  1

  0
LINE
  5
8081
  8
3
  6
CONTINUOUS
 62
     0
 10
471.30141583017161
 20
1698.9559978205241
 30
0.0
 11
471.30141583017161
 21
1625.065752820524
 31
0.0
  0
LINE
  5
8082
  8
3
  6
CONTINUOUS
 62
     0
 10
1081.301415830171
 20
1698.9559978205241
 30
0.0
 11
1081.301415830171
 21
1625.065752820524
 31
0.0
  0
LINE
  5
8083
  8
3
  6
CONTINUOUS
 62
     0
 10
491.30141583017172
 20
1635.065752820524
 30
0.0
 11
1061.301415830171
 21
1635.065752820524
 31
0.0
  0
INSERT
  5
8084
  8
3
  6
CONTINUOUS
 62
     0
  2
_OPEN
 10
471.30141583017161
 20
1635.065752820524
 30
0.0
 41
20.0
 42
20.0
 43
20.0
 50
180.0
  0
INSERT
  5
8085
  8
3
  6
CONTINUOUS
 62
     0
  2
_OPEN
 10
1081.301415830171
 20
1635.065752820524
 30
0.0
 41
20.0
 42
20.0
 43
20.0
  0
TEXT
  8
3
  40
30
  5
80D4
  62
0
  72
0
  71
0
 10
708.415
 20
1606.97
 30
0.000000
  1
610
  0
POINT
  5
8087
  8
DEFPOINTS
  6
CONTINUOUS
 62
     0
 10
471.30141583017161
 20
1703.9559978205241
 30
0.0
  0
POINT
  5
8088
  8
DEFPOINTS
  6
CONTINUOUS
 62
     0
 10
1081.301415830171
 20
1703.9559978205241
 30
0.0
  0
POINT
  5
8089
  8
DEFPOINTS
  6
CONTINUOUS
 62
     0
 10
1081.301415830171
 20
1635.065752820524
 30
0.0
  0
ENDBLK
  5
7CD7
  8
0
  0
BLOCK
  8
0
  2
*D11
 70
     1
 10
0.0
 20
0.0
 30
0.0
  3
*D11
  1

  0
LINE
  5
808A
  8
3
  6
CONTINUOUS
 62
     0
 10
1086.301415830171
 20
2133.9559978205239
 30
0.0
 11
1161.6231178301721
 21
2133.9559978205239
 31
0.0
  0
LINE
  5
808B
  8
3
  6
CONTINUOUS
 62
     0
 10
1086.301415830171
 20
1703.9559978205241
 30
0.0
 11
1161.6231178301721
 21
1703.9559978205241
 31
0.0
  0
LINE
  5
808C
  8
3
  6
CONTINUOUS
 62
     0
 10
1151.6231178301721
 20
2113.9559978205239
 30
0.0
 11
1151.6231178301721
 21
1723.9559978205241
 31
0.0
  0
INSERT
  5
808D
  8
3
  6
CONTINUOUS
 62
     0
  2
_OPEN
 10
1151.6231178301721
 20
2133.9559978205239
 30
0.0
 41
20.0
 42
20.0
 43
20.0
 50
90.0
  0
INSERT
  5
808E
  8
3
  6
CONTINUOUS
 62
     0
  2
_OPEN
 10
1151.6231178301721
 20
1703.9559978205241
 30
0.0
 41
20.0
 42
20.0
 43
20.0
 50
270.0
  0
TEXT
  8
3
  40
30
  5
80D5
  62
0
  72
0
  71
0
 10
1066.62
 20
1886.65
 30
0.000000
  1
430
  0
POINT
  5
8090
  8
DEFPOINTS
  6
CONTINUOUS
 62
     0
 10
1081.301415830171
 20
2133.9559978205239
 30
0.0
  0
POINT
  5
8091
  8
DEFPOINTS
  6
CONTINUOUS
 62
     0
 10
1081.301415830171
 20
1703.9559978205241
 30
0.0
  0
POINT
  5
8092
  8
DEFPOINTS
  6
CONTINUOUS
 62
     0
 10
1151.6231178301721
 20
1703.9559978205241
 30
0.0
  0
ENDBLK
  5
7CE4
  8
0
  0
BLOCK
  8
0
  2
*D12
 70
     1
 10
0.0
 20
0.0
 30
0.0
  3
*D12
  1

  0
LINE
  5
8093
  8
3
  6
CONTINUOUS
 62
     0
 10
631.30141583017155
 20
1247.4417938141339
 30
0.0
 11
631.30141583017155
 21
1344.4234388141331
 31
0.0
  0
LINE
  5
8094
  8
3
  6
CONTINUOUS
 62
     0
 10
802.30141583017155
 20
1232.4417938141339
 30
0.0
 11
802.30141583017155
 21
1344.4234388141331
 31
0.0
  0
LINE
  5
8095
  8
3
  6
CONTINUOUS
 62
     0
 10
651.30141583017155
 20
1334.4234388141331
 30
0.0
 11
782.30141583017166
 21
1334.4234388141331
 31
0.0
  0
INSERT
  5
8096
  8
3
  6
CONTINUOUS
 62
     0
  2
_OPEN
 10
631.30141583017155
 20
1334.4234388141331
 30
0.0
 41
20.0
 42
20.0
 43
20.0
 50
180.0
  0
INSERT
  5
8097
  8
3
  6
CONTINUOUS
 62
     0
  2
_OPEN
 10
802.30141583017155
 20
1334.4234388141331
 30
0.0
 41
20.0
 42
20.0
 43
20.0
  0
TEXT
  8
3
  40
30
  5
80D6
  62
0
  72
0
  71
0
 10
648.303
 20
1306.32
 30
0.000000
  1
171
  0
POINT
  5
8099
  8
DEFPOINTS
  6
CONTINUOUS
 62
     0
 10
631.30141583017155
 20
1242.441793814133
 30
0.0
  0
POINT
  5
809A
  8
DEFPOINTS
  6
CONTINUOUS
 62
     0
 10
802.30141583017155
 20
1227.4417938141339
 30
0.0
  0
POINT
  5
809B
  8
DEFPOINTS
  6
CONTINUOUS
 62
     0
 10
802.30141583017155
 20
1334.4234388141331
 30
0.0
  0
ENDBLK
  5
7D5A
  8
0
  0
BLOCK
  8
0
  2
*D13
 70
     1
 10
0.0
 20
0.0
 30
0.0
  3
*D13
  1

  0
LINE
  5
809C
  8
3
  6
CONTINUOUS
 62
     0
 10
508.65723383017161
 20
1117.441793814133
 30
0.0
 11
508.65723383017161
 21
1344.4234388141331
 31
0.0
  0
LINE
  5
809D
  8
3
  6
CONTINUOUS
 62
     0
 10
611.30141583017155
 20
1334.4234388141331
 30
0.0
 11
528.65723383017155
 21
1334.4234388141331
 31
0.0
  0
TEXT
  8
3
  40
30
  5
80D7
  62
0
  72
0
  71
0
 10
509.200
 20
1306.93
 30
0.000000
  1
123
  0
INSERT
  5
809F
  8
3
  6
CONTINUOUS
 62
     0
  2
_OPEN
 10
631.30141583017155
 20
1334.4234388141331
 30
0.0
 41
20.0
 42
20.0
 43
20.0
  0
INSERT
  5
80A0
  8
3
  6
CONTINUOUS
 62
     0
  2
_OPEN
 10
508.65723383017161
 20
1334.4234388141331
 30
0.0
 41
20.0
 42
20.0
 43
20.0
 50
180.0
  0
POINT
  5
80A1
  8
DEFPOINTS
  6
CONTINUOUS
 62
     0
 10
631.30141583017155
 20
1242.441793814133
 30
0.0
  0
POINT
  5
80A2
  8
DEFPOINTS
  6
CONTINUOUS
 62
     0
 10
508.65723383017161
 20
1112.441793814133
 30
0.0
  0
POINT
  5
80A3
  8
DEFPOINTS
  6
CONTINUOUS
 62
     0
 10
508.65723383017161
 20
1334.4234388141331
 30
0.0
  0
ENDBLK
  5
7D91
  8
0
  0
BLOCK
  8
0
  2
_DOT
 70
     0
 10
0.0
 20
0.0
 30
0.0
  3
_DOT
  1

  0
LINE
  5
7E90
  8
0
  6
BYBLOCK
 62
     0
 10
0.0
 20
0.0
 30
0.0
 11
-1.0
 21
-0.0000000000000284
 31
0.0
  0
POLYLINE
  5
7E91
  8
0
  6
BYBLOCK
 62
     0
 66
     1
 10
0.0
 20
0.0
 30
0.0
 70
     1
 40
0.1666666666666666
 41
0.1666666666666666
  0
VERTEX
  5
80A4
  8
0
  6
BYBLOCK
 62
     0
 10
-0.0833333333333286
 20
-0.0000000000000284
 30
0.0
 42
1.0
  0
VERTEX
  5
80A5
  8
0
  6
BYBLOCK
 62
     0
 10
0.0833333333333286
 20
-0.0000000000000284
 30
0.0
 42
1.0
  0
SEQEND
  5
80A6
  8
0
  6
BYBLOCK
 62
     0
  0
ENDBLK
  5
7E76
  8
0
  0
BLOCK
  8
0
  2
*D15
 70
     1
 10
0.0
 20
0.0
 30
0.0
  3
*D15
  1

  0
LINE
  5
80A7
  8
3
 62
     0
 10
508.65723383017161
 20
1349.4234388141331
 30
0.0
 11
508.65723383017161
 21
1409.2885511654299
 31
0.0
  0
LINE
  5
80A8
  8
3
 62
     0
 10
1081.301415830171
 20
860.44179381413358
 30
0.0
 11
1081.301415830171
 21
1409.2885511654299
 31
0.0
  0
LINE
  5
80A9
  8
3
 62
     0
 10
528.65723383017155
 20
1399.2885511654299
 30
0.0
 11
1061.301415830171
 21
1399.2885511654299
 31
0.0
  0
INSERT
  5
80AA
  8
3
 62
     0
  2
_OPEN
 10
508.65723383017161
 20
1399.2885511654299
 30
0.0
 41
20.0
 42
20.0
 43
20.0
 50
180.0
  0
INSERT
  5
80AB
  8
3
 62
     0
  2
_OPEN
 10
1081.301415830171
 20
1399.2885511654299
 30
0.0
 41
20.0
 42
20.0
 43
20.0
  0
TEXT
  8
3
  40
30
  5
80D8
  62
0
  72
0
  71
0
 10
768.776
 20
1371.19
 30
0.000000
  1
573
  0
POINT
  5
80AD
  8
DEFPOINTS
 62
     0
 10
508.65723383017161
 20
1344.4234388141331
 30
0.0
  0
POINT
  5
80AE
  8
DEFPOINTS
 62
     0
 10
1081.301415830171
 20
855.44179381413369
 30
0.0
  0
POINT
  5
80AF
  8
DEFPOINTS
 62
     0
 10
1081.301415830171
 20
1399.2885511654299
 30
0.0
  0
ENDBLK
  5
7EB7
  8
0
  0
BLOCK
  8
0
  2
*D16
 70
     1
 10
0.0
 20
0.0
 30
0.0
  3
*D16
  1

  0
LINE
  5
7F21
  8
0
  6
BYBLOCK
 62
     0
 10
476.64911030546449
 20
1242.441793814133
 30
0.0
 11
286.48960321351649
 21
1242.441793814133
 31
0.0
  0
LINE
  5
7F22
  8
0
  6
BYBLOCK
 62
     0
 10
357.35737230546448
 20
1112.441793814133
 30
0.0
 11
286.48960321351649
 21
1112.441793814133
 31
0.0
  0
LINE
  5
7F23
  8
0
  6
BYBLOCK
 62
     0
 10
296.4896032135166
 20
1222.4417938141339
 30
0.0
 11
296.4896032135166
 21
1132.4417938141339
 31
0.0
  0
TEXT
  5
7F24
  8
3
 62
     0
 10
290.21926353329212
 20
1141.7275080998479
 30
0.0
 40
30.0
  1
130
 50
90.0
  0
INSERT
  5
7F25
  8
0
  6
BYBLOCK
 62
     0
  2
_OPEN
 10
296.4896032135166
 20
1242.441793814133
 30
0.0
 41
20.0
 42
20.0
 43
20.0
 50
90.0
  0
INSERT
  5
7F26
  8
0
  6
BYBLOCK
 62
     0
  2
_OPEN
 10
296.4896032135166
 20
1112.441793814133
 30
0.0
 41
20.0
 42
20.0
 43
20.0
 50
270.0
  0
POINT
  5
7F27
  8
DEFPOINTS
  6
BYBLOCK
 62
     0
 10
481.64911030546449
 20
1242.441793814133
 30
0.0
  0
POINT
  5
7F28
  8
DEFPOINTS
  6
BYBLOCK
 62
     0
 10
362.35737230546448
 20
1112.441793814133
 30
0.0
  0
POINT
  5
7F29
  8
DEFPOINTS
  6
BYBLOCK
 62
     0
 10
296.4896032135166
 20
1112.441793814133
 30
0.0
  0
ENDBLK
  5
7F2A
  8
0
  0
BLOCK
  8
0
  2
*D17
 70
     1
 10
0.0
 20
0.0
 30
0.0
  3
*D17
  1

  0
LINE
  5
80B0
  8
3
 62
     0
 10
491.30141583017172
 20
877.44179381413358
 30
0.0
 11
414.14190873822372
 21
877.44179381413358
 31
0.0
  0
LINE
  5
80B1
  8
3
 62
     0
 10
424.14190873822372
 20
1092.441793814133
 30
0.0
 11
424.14190873822372
 21
897.44179381413369
 31
0.0
  0
INSERT
  5
80B2
  8
3
 62
     0
  2
_OPEN
 10
424.14190873822372
 20
1112.441793814133
 30
0.0
 41
20.0
 42
20.0
 43
20.0
 50
90.0
  0
INSERT
  5
80B3
  8
3
 62
     0
  2
_OPEN
 10
424.14190873822372
 20
877.44179381413358
 30
0.0
 41
20.0
 42
20.0
 43
20.0
 50
270.0
  0
TEXT
  8
3
  40
30
  5
80D9
  62
0
  72
0
  71
0
 10
339.142
 20
941.842
 30
0.000000
  1
235
  0
POINT
  5
80B5
  8
DEFPOINTS
 62
     0
 10
490.0096778301716
 20
1112.441793814133
 30
0.0
  0
POINT
  5
80B6
  8
DEFPOINTS
 62
     0
 10
496.30141583017161
 20
877.44179381413358
 30
0.0
  0
POINT
  5
80B7
  8
DEFPOINTS
 62
     0
 10
424.14190873822372
 20
877.44179381413358
 30
0.0
  0
ENDBLK
  5
7ED6
  8
0
  0
BLOCK
  8
0
  2
*D18
 70
     1
 10
0.0
 20
0.0
 30
0.0
  3
*D18
  1

  0
LINE
  5
7F51
  8
0
  6
BYBLOCK
 62
     0
 10
338.64911030546449
 20
830.44179381413369
 30
0.0
 11
286.48960321351649
 21
830.44179381413369
 31
0.0
  0
LINE
  5
7F52
  8
0
  6
BYBLOCK
 62
     0
 10
296.4896032135166
 20
897.44179381413369
 30
0.0
 11
296.4896032135166
 21
917.44179381413369
 31
0.0
  0
LINE
  5
7F53
  8
0
  6
BYBLOCK
 62
     0
 10
296.4896032135166
 20
810.44179381413358
 30
0.0
 11
296.4896032135166
 21
790.44179381413358
 31
0.0
  0
TEXT
  5
7F54
  8
3
 62
     0
 10
285.26089093277369
 20
829.65607952841935
 30
0.0
 40
30.0
  1
47
 50
90.0
  0
LINE
  5
7F55
  8
0
  6
BYBLOCK
 62
     0
 10
296.4896032135166
 20
877.44179381413358
 30
0.0
 11
296.4896032135166
 21
830.44179381413369
 31
0.0
  0
INSERT
  5
7F56
  8
0
  6
BYBLOCK
 62
     0
  2
_OPEN
 10
296.4896032135166
 20
877.44179381413358
 30
0.0
 41
20.0
 42
20.0
 43
20.0
 50
270.0
  0
INSERT
  5
7F57
  8
0
  6
BYBLOCK
 62
     0
  2
_DOT
 10
296.4896032135166
 20
830.44179381413369
 30
0.0
 41
20.0
 42
20.0
 43
20.0
 50
90.0
  0
POINT
  5
7F58
  8
DEFPOINTS
  6
BYBLOCK
 62
     0
 10
368.64911030546449
 20
877.44179381413358
 30
0.0
  0
POINT
  5
7F59
  8
DEFPOINTS
  6
BYBLOCK
 62
     0
 10
343.64911030546449
 20
830.44179381413369
 30
0.0
  0
POINT
  5
7F5A
  8
DEFPOINTS
  6
BYBLOCK
 62
     0
 10
296.4896032135166
 20
830.44179381413369
 30
0.0
  0
ENDBLK
  5
7F5B
  8
0
  0
BLOCK
  8
0
  2
*D19
 70
     1
 10
0.0
 20
0.0
 30
0.0
  3
*D19
  1

  0
LINE
  5
80B8
  8
3
 62
     0
 10
466.30141583017172
 20
830.44179381413369
 30
0.0
 11
414.14190873822372
 21
830.44179381413369
 31
0.0
  0
LINE
  5
80B9
  8
3
 62
     0
 10
466.30141583017172
 20
805.44179381413369
 30
0.0
 11
414.14190873822372
 21
805.44179381413369
 31
0.0
  0
LINE
  5
80BA
  8
3
 62
     0
 10
424.14190873822372
 20
850.44179381413369
 30
0.0
 11
424.14190873822372
 21
870.44179381413358
 31
0.0
  0
LINE
  5
80BB
  8
3
 62
     0
 10
424.14190873822372
 20
785.44179381413358
 30
0.0
 11
424.14190873822372
 21
696.87036524270502
 31
0.0
  0
LINE
  5
80BC
  8
3
 62
     0
 10
424.14190873822372
 20
830.44179381413369
 30
0.0
 11
424.14190873822372
 21
805.44179381413369
 31
0.0
  0
INSERT
  5
80BD
  8
3
 62
     0
  2
_DOT
 10
424.14190873822372
 20
830.44179381413369
 30
0.0
 41
20.0
 42
20.0
 43
20.0
 50
270.0
  0
INSERT
  5
80BE
  8
3
 62
     0
  2
_OPEN
 10
424.14190873822372
 20
805.44179381413369
 30
0.0
 41
20.0
 42
20.0
 43
20.0
 50
90.0
  0
TEXT
  8
3
  40
30
  5
80DA
  62
0
  72
0
  71
0
 10
339.142
 20
678.056
 30
0.000000
  1
25
  0
POINT
  5
80C0
  8
DEFPOINTS
 62
     0
 10
471.30141583017161
 20
830.44179381413369
 30
0.0
  0
POINT
  5
80C1
  8
DEFPOINTS
 62
     0
 10
471.30141583017161
 20
805.44179381413369
 30
0.0
  0
POINT
  5
80C2
  8
DEFPOINTS
 62
     0
 10
424.14190873822372
 20
805.44179381413369
 30
0.0
  0
ENDBLK
  5
7F68
  8
0
  0
BLOCK
  8
0
  2
*D20
 70
     1
 10
0.0
 20
0.0
 30
0.0
  3
*D20
  1

  0
LINE
  5
80C3
  8
3
 62
     0
 10
599.30141583017166
 20
1242.441793814133
 30
0.0
 11
350.3308689876996
 21
1242.4417938141339
 31
0.0
  0
LINE
  5
80C4
  8
3
 62
     0
 10
466.30141583017172
 20
805.44179381413369
 30
0.0
 11
350.33086898769949
 21
805.44179381413369
 31
0.0
  0
LINE
  5
80C5
  8
3
 62
     0
 10
360.3308689876996
 20
1222.4417938141339
 30
0.0
 11
360.33086898769949
 21
825.44179381413369
 31
0.0
  0
INSERT
  5
80C6
  8
3
 62
     0
  2
_OPEN
 10
360.3308689876996
 20
1242.4417938141339
 30
0.0
 41
20.0
 42
20.0
 43
20.0
 50
90.0
  0
INSERT
  5
80C7
  8
3
 62
     0
  2
_OPEN
 10
360.33086898769949
 20
805.44179381413369
 30
0.0
 41
20.0
 42
20.0
 43
20.0
 50
270.0
  0
TEXT
  8
3
  40
30
  5
80DB
  62
0
  72
0
  71
0
 10
275.331
 20
966.627
 30
0.000000
  1
437
  0
POINT
  5
80C9
  8
DEFPOINTS
 62
     0
 10
604.30141583017155
 20
1242.441793814133
 30
0.0
  0
POINT
  5
80CA
  8
DEFPOINTS
 62
     0
 10
471.30141583017161
 20
805.44179381413369
 30
0.0
  0
POINT
  5
80CB
  8
DEFPOINTS
 62
     0
 10
360.33086898769949
 20
805.44179381413369
 30
0.0
  0
ENDBLK
  5
7F4E
  8
0
  0
ENDSEC
  0
SECTION
  2
ENTITIES
  0
CIRCLE
  5
7A98
  8
1
  6
CONTINUOUS
 10
631.30141583017155
 20
1112.441793814133
 30
0.0
 40
80.0
  0
LINE
  5
7A99
  8
1
  6
CONTINUOUS
 10
534.00141583017171
 20
1207.441793814133
 30
0.0
 11
1014.001415830171
 21
1207.441793814133
 31
0.0
  0
LINE
  5
7A9A
  8
1
  6
CONTINUOUS
 10
1056.301415830171
 20
927.4417938141338
 30
0.0
 11
496.30141583017161
 21
927.4417938141338
 31
0.0
  0
LINE
  5
7A9B
  8
1
  6
CONTINUOUS
 10
1056.301415830171
 20
877.44179381413358
 30
0.0
 11
496.30141583017161
 21
877.44179381413358
 31
0.0
  0
LINE
  5
7A9C
  8
1
  6
CONTINUOUS
 10
741.30141583017166
 20
1079.1417938141331
 30
0.0
 11
521.30141583017155
 21
1079.1417938141331
 31
0.0
  0
LINE
  5
7A9D
  8
1
  6
CONTINUOUS
 10
741.30141583017166
 20
1154.5417938141341
 30
0.0
 11
667.90141583017157
 21
1217.441793814133
 31
0.0
  0
LINE
  5
7A9E
  8
1
  6
CONTINUOUS
 10
791.30141583017166
 20
1920.4559978205241
 30
0.0
 11
631.30141583017155
 21
2032.4559978205241
 31
0.0
  0
LINE
  5
7A9F
  8
1
  6
CONTINUOUS
 10
631.30141583017155
 20
1920.4559978205241
 30
0.0
 11
791.30141583017166
 21
2032.4559978205241
 31
0.0
  0
LINE
  5
7AA0
  8
1
  6
CONTINUOUS
 10
791.30141583017166
 20
2032.4559978205241
 30
0.0
 11
520.30141583017166
 21
2032.4559978205241
 31
0.0
  0
LINE
  5
7AA1
  8
1
  6
CONTINUOUS
 10
520.30141583017166
 20
1920.4559978205241
 30
0.0
 11
791.30141583017166
 21
1920.4559978205241
 31
0.0
  0
LINE
  5
7AA2
  8
1
  6
CONTINUOUS
 10
731.30141583017155
 20
2039.055997820524
 30
0.0
 11
531.30141583017155
 21
2039.055997820524
 31
0.0
  0
LINE
  5
7AA3
  8
1
  6
CONTINUOUS
 10
741.30141583017166
 20
1912.855997820523
 30
0.0
 11
521.30141583017155
 21
1912.855997820523
 31
0.0
  0
LINE
  5
7AA4
  8
1
  6
CONTINUOUS
 10
534.00141583017171
 20
1716.4559978205241
 30
0.0
 11
1014.001415830171
 21
1716.4559978205241
 31
0.0
  0
LINE
  5
7AA5
  8
1
  6
CONTINUOUS
 10
534.00141583017171
 20
1791.4559978205241
 30
0.0
 11
1014.001415830171
 21
1791.4559978205241
 31
0.0
  0
LINE
  5
7AA6
  8
1
  6
CONTINUOUS
 10
907.30141583017166
 20
1788.4559978205241
 30
0.0
 11
643.30141583017155
 21
1788.4559978205241
 31
0.0
  0
LINE
  5
7AA7
  8
1
  6
CONTINUOUS
 10
907.90141583017169
 20
993.54179381413383
 30
0.0
 11
619.90141583017146
 21
1068.941793814133
 31
0.0
  0
LINE
  5
7AA8
  8
1
  6
CONTINUOUS
 10
927.90141583017157
 20
1060.6417938141331
 30
0.0
 11
645.60141583017162
 21
1155.1417938141331
 31
0.0
  0
CIRCLE
  5
7AA9
  8
1
  6
CONTINUOUS
 10
631.30141583017155
 20
1112.441793814133
 30
0.0
 40
100.0
  0
LINE
  5
7AAA
  8
1
  6
CONTINUOUS
 10
1081.301415830171
 20
855.44179381413369
 30
0.0
 11
471.30141583017161
 21
855.44179381413369
 31
0.0
  0
LINE
  5
7AAB
  8
1
  6
CONTINUOUS
 10
1081.301415830171
 20
830.44179381413369
 30
0.0
 11
471.30141583017161
 21
830.44179381413369
 31
0.0
  0
ARC
  5
7AAC
  8
1
  6
CONTINUOUS
 10
644.30141583017155
 20
1125.441793814133
 30
0.0
 40
158.0
 50
260.89999999999992
 51
0.0
  0
LINE
  5
7AAD
  8
1
  6
CONTINUOUS
 10
777.30141583017155
 20
1227.4417938141339
 30
0.0
 11
645.30141583017166
 21
1227.4417938141339
 31
0.0
  0
LINE
  5
7AAE
  8
1
  6
CONTINUOUS
 10
813.30141583017155
 20
1242.441793814133
 30
0.0
 11
609.30141583017155
 21
1242.441793814133
 31
0.0
  0
LINE
  5
7AAF
  8
1
  6
CONTINUOUS
 10
496.30141583017161
 20
877.44179381413358
 30
0.0
 11
496.30141583017161
 21
927.4417938141338
 31
0.0
  0
LINE
  5
7AB0
  8
1
  6
CONTINUOUS
 10
496.30141583017161
 20
830.44179381413369
 30
0.0
 11
496.30141583017161
 21
805.44179381413369
 31
0.0
  0
LINE
  5
7AB1
  8
1
  6
CONTINUOUS
 10
471.30141583017161
 20
805.44179381413369
 30
0.0
 11
496.30141583017161
 21
805.44179381413369
 31
0.0
  0
LINE
  5
7AB2
  8
1
  6
CONTINUOUS
 10
471.30141583017161
 20
805.44179381413369
 30
0.0
 11
471.30141583017161
 21
855.44179381413369
 31
0.0
  0
LINE
  5
7AB3
  8
1
  6
CONTINUOUS
 10
631.30141583017155
 20
1227.4417938141339
 30
0.0
 11
631.30141583017155
 21
1242.441793814133
 31
0.0
  0
LINE
  5
7AB4
  8
1
  6
CONTINUOUS
 10
630.30141583017155
 20
1242.441793814133
 30
0.0
 11
645.30141583017166
 21
1227.4417938141339
 31
0.0
  0
ARC
  5
7AB5
  8
1
  6
CONTINUOUS
 10
622.30141583017155
 20
1103.4417938141339
 30
0.0
 40
114.0
 50
90.5
 51
180.49999999999989
  0
LINE
  5
7AB6
  8
1
  6
CONTINUOUS
 10
521.30141583017155
 20
1154.5417938141341
 30
0.0
 11
594.70141583017175
 21
1217.441793814133
 31
0.0
  0
ARC
  5
7AB7
  8
1
  6
CONTINUOUS
 10
642.30141583017155
 20
1101.441793814133
 30
0.0
 40
134.0
 50
179.49999999999989
 51
260.10000000000002
  0
LINE
  5
7AB8
  8
1
  6
CONTINUOUS
 10
534.00141583017171
 20
927.4417938141338
 30
0.0
 11
534.00141583017171
 21
1207.441793814133
 31
0.0
  0
LINE
  5
7AB9
  8
1
  6
CONTINUOUS
 10
521.30141583017155
 20
927.4417938141338
 30
0.0
 11
521.30141583017155
 21
1154.5417938141341
 31
0.0
  0
LINE
  5
7ABA
  8
1
  6
CONTINUOUS
 10
594.70141583017175
 20
1217.441793814133
 30
0.0
 11
667.90141583017157
 21
1217.441793814133
 31
0.0
  0
LINE
  5
7ABB
  8
2
 10
1687.496649778092
 20
1112.441793814133
 30
0.0
 11
1298.250546778092
 21
1112.441793814133
 31
0.0
  0
LINE
  5
7ABC
  8
2
 10
631.30141583017155
 20
783.50957881413365
 30
0.0
 11
631.30141583017155
 21
1300.1043278141331
 31
0.0
  0
CIRCLE
  5
7ABD
  8
1
  6
CONTINUOUS
 10
631.30141583017155
 20
1112.441793814133
 30
0.0
 40
45.0
  0
LINE
  5
7ABE
  8
1
  6
CONTINUOUS
 10
631.30141583017155
 20
1227.4417938141339
 30
0.0
 11
621.30141583017155
 21
1227.4417938141339
 31
0.0
  0
LINE
  5
7ABF
  8
1
  6
CONTINUOUS
 10
621.30141583017155
 20
1227.4417938141339
 30
0.0
 11
621.30141583017155
 21
1217.441793814133
 31
0.0
  0
LINE
  5
7AC0
  8
1
  6
CONTINUOUS
 10
471.30141583017161
 20
1788.4559978205241
 30
0.0
 11
471.30141583017161
 21
2012.4559978205241
 31
0.0
  0
LINE
  5
7AC1
  8
1
  6
CONTINUOUS
 10
631.30141583017155
 20
2032.4559978205241
 30
0.0
 11
631.30141583017155
 21
1920.4559978205241
 31
0.0
  0
LINE
  5
7AC2
  8
1
  6
CONTINUOUS
 10
508.30141583017161
 20
2020.4559978205241
 30
0.0
 11
508.30141583017161
 21
1932.4559978205241
 31
0.0
  0
LINE
  5
7AC3
  8
1
  6
CONTINUOUS
 10
471.30141583017161
 20
2133.9559978205239
 30
0.0
 11
471.30141583017161
 21
1703.9559978205241
 31
0.0
  0
LINE
  5
7AC4
  8
1
  6
CONTINUOUS
 10
496.30141583017161
 20
2133.9559978205239
 30
0.0
 11
496.30141583017161
 21
1703.9559978205241
 31
0.0
  0
LINE
  5
7AC5
  8
1
  6
CONTINUOUS
 10
619.30141583017155
 20
1788.4559978205241
 30
0.0
 11
496.30141583017161
 21
1788.4559978205241
 31
0.0
  0
ARC
  5
7AC6
  8
1
  6
CONTINUOUS
 10
520.30141583017166
 20
1932.4559978205241
 30
0.0
 40
12.0
 50
180.0
 51
270.0
  0
LINE
  5
7AC7
  8
1
  6
CONTINUOUS
 10
531.30141583017155
 20
1912.855997820523
 30
0.0
 11
531.30141583017155
 21
1920.855997820524
 31
0.0
  0
LINE
  5
7AC8
  8
1
  6
CONTINUOUS
 10
521.30141583017155
 20
1788.4559978205241
 30
0.0
 11
521.30141583017155
 21
1912.855997820523
 31
0.0
  0
LINE
  5
7AC9
  8
1
  6
CONTINUOUS
 10
534.00141583017171
 20
1716.4559978205241
 30
0.0
 11
534.00141583017171
 21
1791.4559978205241
 31
0.0
  0
LINE
  5
7ACA
  8
1
  6
CONTINUOUS
 10
496.30141583017161
 20
1703.9559978205241
 30
0.0
 11
471.30141583017161
 21
1703.9559978205241
 31
0.0
  0
LINE
  5
7ACB
  8
1
  6
CONTINUOUS
 10
676.30141583017155
 20
1772.355997820524
 30
0.0
 11
676.30141583017155
 21
1737.355997820524
 31
0.0
  0
LINE
  5
7ACC
  8
1
  6
CONTINUOUS
 10
586.30141583017155
 20
1772.355997820524
 30
0.0
 11
586.30141583017155
 21
1737.355997820524
 31
0.0
  0
LINE
  5
7ACD
  8
1
  6
CONTINUOUS
 10
586.30141583017155
 20
1737.355997820524
 30
0.0
 11
676.30141583017155
 21
1737.355997820524
 31
0.0
  0
LINE
  5
7ACE
  8
1
  6
CONTINUOUS
 10
586.30141583017155
 20
1772.355997820524
 30
0.0
 11
676.30141583017155
 21
1772.355997820524
 31
0.0
  0
LINE
  5
7ACF
  8
1
  6
CONTINUOUS
 10
643.30141583017155
 20
1912.855997820523
 30
0.0
 11
643.30141583017155
 21
1772.355997820524
 31
0.0
  0
LINE
  5
7AD0
  8
1
  6
CONTINUOUS
 10
619.30141583017155
 20
1912.855997820523
 30
0.0
 11
619.30141583017155
 21
1772.355997820524
 31
0.0
  0
ARC
  5
7AD1
  8
1
  6
CONTINUOUS
 10
520.30141583017166
 20
2020.4559978205241
 30
0.0
 40
12.0
 50
90.0
 51
180.0
  0
LINE
  5
7AD2
  8
1
  6
CONTINUOUS
 10
531.30141583017155
 20
2039.055997820524
 30
0.0
 11
531.30141583017155
 21
2032.055997820524
 31
0.0
  0
LINE
  5
7AD3
  8
1
  6
CONTINUOUS
 10
496.30141583017161
 20
2012.4559978205241
 30
0.0
 11
508.30141583017161
 21
2012.4559978205241
 31
0.0
  0
LINE
  5
7AD4
  8
1
  6
CONTINUOUS
 10
496.30141583017161
 20
2133.9559978205239
 30
0.0
 11
471.30141583017161
 21
2133.9559978205239
 31
0.0
  0
LINE
  5
7AD5
  8
1
  6
CONTINUOUS
 10
1056.301415830171
 20
947.44179381413369
 30
0.0
 11
1056.301415830171
 21
877.44179381413358
 31
0.0
  0
LINE
  5
7AD6
  8
1
  6
CONTINUOUS
 10
1081.301415830171
 20
805.44179381413369
 30
0.0
 11
1056.301415830171
 21
805.44179381413369
 31
0.0
  0
LINE
  5
7AD7
  8
1
  6
CONTINUOUS
 10
1056.301415830171
 20
830.44179381413369
 30
0.0
 11
1056.301415830171
 21
805.44179381413369
 31
0.0
  0
LINE
  5
7AD8
  8
1
  6
CONTINUOUS
 10
1081.301415830171
 20
855.44179381413369
 30
0.0
 11
1081.301415830171
 21
805.44179381413369
 31
0.0
  0
CIRCLE
  5
7AD9
  8
1
  6
CONTINUOUS
 10
916.80141583017155
 20
1027.441793814133
 30
0.0
 40
35.0
  0
LINE
  5
7ADA
  8
2
  6
CONTINUOUS
 10
951.80141583017166
 20
1027.441793814133
 30
0.0
 11
881.80141583017155
 21
1027.441793814133
 31
0.0
  0
LINE
  5
7ADB
  8
1
  6
CONTINUOUS
 10
1056.301415830171
 20
947.44179381413369
 30
0.0
 11
805.30141583017166
 21
947.44179381413369
 31
0.0
  0
ARC
  5
7ADC
  8
1
  6
CONTINUOUS
 10
916.80141583017155
 20
1027.441793814133
 30
0.0
 40
85.0
 50
324.69999999999987
 51
215.30000000000001
  0
LINE
  5
7ADD
  8
1
  6
CONTINUOUS
 10
791.30141583017166
 20
1227.4417938141339
 30
0.0
 11
791.30141583017166
 21
1242.441793814133
 31
0.0
  0
LINE
  5
7ADE
  8
1
  6
CONTINUOUS
 10
792.30141583017155
 20
1242.441793814133
 30
0.0
 11
777.30141583017155
 21
1227.4417938141339
 31
0.0
  0
LINE
  5
7ADF
  8
1
  6
CONTINUOUS
 10
741.30141583017166
 20
1154.5417938141341
 30
0.0
 11
741.30141583017166
 21
927.4417938141338
 31
0.0
  0
LINE
  5
7AE0
  8
1
  6
CONTINUOUS
 10
802.30141583017155
 20
1227.4417938141339
 30
0.0
 11
802.30141583017155
 21
1125.441793814133
 31
0.0
  0
LINE
  5
7AE1
  8
1
  6
CONTINUOUS
 10
802.30141583017155
 20
1227.4417938141339
 30
0.0
 11
791.30141583017166
 21
1227.4417938141339
 31
0.0
  0
LINE
  5
7AE2
  8
1
  6
CONTINUOUS
 10
839.30141583017166
 20
947.44179381413369
 30
0.0
 11
839.30141583017166
 21
955.44179381413369
 31
0.0
  0
LINE
  5
7AE3
  8
1
  6
CONTINUOUS
 10
805.30141583017166
 20
947.44179381413369
 30
0.0
 11
805.30141583017166
 21
927.4417938141338
 31
0.0
  0
LINE
  5
7AE4
  8
1
  6
CONTINUOUS
 10
839.30141583017166
 20
955.44179381413369
 30
0.0
 11
847.5014158301716
 21
978.24179381413364
 31
0.0
  0
LINE
  5
7AE5
  8
2
  6
CONTINUOUS
 10
916.80141583017155
 20
992.4417938141338
 30
0.0
 11
916.80141583017155
 21
1062.441793814133
 31
0.0
  0
LINE
  5
7AE6
  8
1
  6
CONTINUOUS
 10
994.30141583017155
 20
947.44179381413369
 30
0.0
 11
994.30141583017155
 21
955.44179381413369
 31
0.0
  0
LINE
  5
7AE7
  8
1
  6
CONTINUOUS
 10
994.30141583017155
 20
955.44179381413369
 30
0.0
 11
986.1014158301715
 21
978.24179381413364
 31
0.0
  0
LINE
  5
7AE8
  8
1
  6
CONTINUOUS
 10
1014.001415830171
 20
1207.441793814133
 30
0.0
 11
1014.001415830171
 21
927.4417938141338
 31
0.0
  0
LINE
  5
7AE9
  8
1
  6
CONTINUOUS
 10
1001.801415830171
 20
1802.1559978205239
 30
0.0
 11
1001.801415830171
 21
1992.9559978205241
 31
0.0
  0
LINE
  5
7AEA
  8
1
  6
CONTINUOUS
 10
831.80141583017155
 20
1802.1559978205239
 30
0.0
 11
831.80141583017155
 21
1992.9559978205241
 31
0.0
  0
LINE
  5
7AEB
  8
1
  6
CONTINUOUS
 10
1081.301415830171
 20
2012.4559978205241
 30
0.0
 11
1081.301415830171
 21
1788.4559978205241
 31
0.0
  0
LINE
  5
7AEC
  8
1
  6
CONTINUOUS
 10
791.30141583017166
 20
1920.4559978205241
 30
0.0
 11
791.30141583017166
 21
2032.4559978205241
 31
0.0
  0
LINE
  5
7AED
  8
1
  6
CONTINUOUS
 10
1056.301415830171
 20
2133.9559978205239
 30
0.0
 11
1056.301415830171
 21
1703.9559978205241
 31
0.0
  0
LINE
  5
7AEE
  8
1
  6
CONTINUOUS
 10
1081.301415830171
 20
2133.9559978205239
 30
0.0
 11
1081.301415830171
 21
1703.9559978205241
 31
0.0
  0
LINE
  5
7AEF
  8
1
  6
CONTINUOUS
 10
831.80141583017155
 20
1802.1559978205239
 30
0.0
 11
1001.801415830171
 21
1802.1559978205239
 31
0.0
  0
LINE
  5
7AF0
  8
1
  6
CONTINUOUS
 10
881.80141583017155
 20
1772.355997820524
 30
0.0
 11
951.80141583017166
 21
1772.355997820524
 31
0.0
  0
LINE
  5
7AF1
  8
1
  6
CONTINUOUS
 10
881.80141583017155
 20
1737.355997820524
 30
0.0
 11
951.80141583017166
 21
1737.355997820524
 31
0.0
  0
LINE
  5
7AF2
  8
1
  6
CONTINUOUS
 10
731.30141583017155
 20
1912.855997820523
 30
0.0
 11
731.30141583017155
 21
1920.855997820524
 31
0.0
  0
LINE
  5
7AF3
  8
1
  6
CONTINUOUS
 10
741.30141583017166
 20
1912.855997820523
 30
0.0
 11
741.30141583017166
 21
1788.4559978205241
 31
0.0
  0
LINE
  5
7AF4
  8
1
  6
CONTINUOUS
 10
881.80141583017155
 20
1772.355997820524
 30
0.0
 11
881.80141583017155
 21
1737.355997820524
 31
0.0
  0
LINE
  5
7AF5
  8
1
  6
CONTINUOUS
 10
1056.301415830171
 20
1788.4559978205241
 30
0.0
 11
926.30141583017155
 21
1788.4559978205241
 31
0.0
  0
LINE
  5
7AF6
  8
1
  6
CONTINUOUS
 10
907.30141583017166
 20
1772.355997820524
 30
0.0
 11
907.30141583017166
 21
1802.1559978205239
 31
0.0
  0
LINE
  5
7AF7
  8
1
  6
CONTINUOUS
 10
926.30141583017155
 20
1772.355997820524
 30
0.0
 11
926.30141583017155
 21
1802.1559978205239
 31
0.0
  0
LINE
  5
7AF8
  8
1
  6
CONTINUOUS
 10
951.80141583017166
 20
1772.355997820524
 30
0.0
 11
951.80141583017166
 21
1737.355997820524
 31
0.0
  0
LINE
  5
7AF9
  8
1
  6
CONTINUOUS
 10
1014.001415830171
 20
1791.4559978205241
 30
0.0
 11
1014.001415830171
 21
1716.4559978205241
 31
0.0
  0
LINE
  5
7AFA
  8
1
  6
CONTINUOUS
 10
1056.301415830171
 20
1703.9559978205241
 30
0.0
 11
1081.301415830171
 21
1703.9559978205241
 31
0.0
  0
LINE
  5
7AFB
  8
1
  6
CONTINUOUS
 10
791.30141583017166
 20
2012.4559978205241
 30
0.0
 11
1056.301415830171
 21
2012.4559978205241
 31
0.0
  0
LINE
  5
7AFC
  8
1
  6
CONTINUOUS
 10
831.80141583017155
 20
1992.9559978205241
 30
0.0
 11
1001.801415830171
 21
1992.9559978205241
 31
0.0
  0
LINE
  5
7AFD
  8
1
  6
CONTINUOUS
 10
731.30141583017155
 20
2039.055997820524
 30
0.0
 11
731.30141583017155
 21
2032.055997820524
 31
0.0
  0
LINE
  5
7AFE
  8
1
  6
CONTINUOUS
 10
1056.301415830171
 20
2133.9559978205239
 30
0.0
 11
1081.301415830171
 21
2133.9559978205239
 31
0.0
  0
LINE
  5
7B01
  8
1
  6
CONTINUOUS
 10
1342.379322778092
 20
830.44179381413369
 30
0.0
 11
1772.379322778092
 21
830.44179381413369
 31
0.0
  0
LINE
  5
7B02
  8
1
  6
CONTINUOUS
 10
1342.379322778092
 20
805.44179381413369
 30
0.0
 11
1772.379322778092
 21
805.44179381413369
 31
0.0
  0
POINT
  5
7B04
  8
0
  6
CONTINUOUS
 10
2155.2817719999989
 20
808.60101299999997
 30
0.0
  0
LINE
  5
7B05
  8
1
  6
CONTINUOUS
 10
1342.379322778092
 20
830.44179381413369
 30
0.0
 11
1342.379322778092
 21
805.44179381413369
 31
0.0
  0
LINE
  5
7B06
  8
1
  6
CONTINUOUS
 10
1650.379322778092
 20
927.4417938141338
 30
0.0
 11
1650.379322778092
 21
877.44179381413358
 31
0.0
  0
LINE
  5
7B07
  8
1
  6
CONTINUOUS
 10
1426.379322778092
 20
927.4417938141338
 30
0.0
 11
1426.379322778092
 21
877.44179381413358
 31
0.0
  0
LINE
  5
7B08
  8
1
  6
CONTINUOUS
 10
1426.379322778092
 20
855.44179381413369
 30
0.0
 11
1650.379322778092
 21
855.44179381413369
 31
0.0
  0
LINE
  5
7B09
  8
1
  6
CONTINUOUS
 10
1426.379322778092
 20
877.44179381413358
 30
0.0
 11
1650.379322778092
 21
877.44179381413358
 31
0.0
  0
LINE
  5
7B0A
  8
1
  6
CONTINUOUS
 10
1426.379322778092
 20
855.44179381413369
 30
0.0
 11
1426.379322778092
 21
830.44179381413369
 31
0.0
  0
LINE
  5
7B0B
  8
1
  6
CONTINUOUS
 10
1650.379322778092
 20
855.44179381413369
 30
0.0
 11
1650.379322778092
 21
830.44179381413369
 31
0.0
  0
LINE
  5
7B0C
  8
1
  6
CONTINUOUS
 10
1772.379322778092
 20
830.44179381413369
 30
0.0
 11
1772.379322778092
 21
805.44179381413369
 31
0.0
  0
LINE
  5
7B0D
  8
1
  6
CONTINUOUS
 10
1537.379322778092
 20
1242.441793814133
 30
0.0
 11
1691.379322778092
 21
1242.441793814133
 31
0.0
  0
LINE
  5
7B0E
  8
1
  6
CONTINUOUS
 10
1566.379322778092
 20
978.34179381413378
 30
0.0
 11
1662.379322778092
 21
978.34179381413378
 31
0.0
  0
LINE
  5
7B0F
  8
1
  6
CONTINUOUS
 10
1557.379322778092
 20
1242.441793814133
 30
0.0
 11
1572.379322778092
 21
1227.4417938141339
 31
0.0
  0
LINE
  5
7B10
  8
1
  6
CONTINUOUS
 10
1354.379322778092
 20
927.4417938141338
 30
0.0
 11
1650.379322778092
 21
927.4417938141338
 31
0.0
  0
LINE
  5
7B11
  8
1
  6
CONTINUOUS
 10
1558.379322778092
 20
986.34179381413367
 30
0.0
 11
1558.379322778092
 21
1242.441793814133
 31
0.0
  0
LINE
  5
7B12
  8
1
  6
CONTINUOUS
 10
1550.7793227780919
 20
1154.5417938141341
 30
0.0
 11
1451.379322778092
 21
1079.1417938141331
 31
0.0
  0
LINE
  5
7B13
  8
1
  6
CONTINUOUS
 10
1511.0793227780921
 20
1124.4417938141339
 30
0.0
 11
1409.379322778092
 21
1124.4417938141339
 31
0.0
  0
LINE
  5
7B14
  8
1
  6
CONTINUOUS
 10
1479.479322778092
 20
1100.441793814133
 30
0.0
 11
1409.379322778092
 21
1100.441793814133
 31
0.0
  0
LINE
  5
7B15
  8
1
  6
CONTINUOUS
 10
1429.379322778092
 20
1207.441793814133
 30
0.0
 11
1354.379322778092
 21
1207.441793814133
 31
0.0
  0
LINE
  5
7B16
  8
1
  6
CONTINUOUS
 10
1409.379322778092
 20
1017.941793814133
 30
0.0
 11
1451.379322778092
 21
1017.941793814133
 31
0.0
  0
LINE
  5
7B17
  8
1
  6
CONTINUOUS
 10
1409.379322778092
 20
1036.941793814133
 30
0.0
 11
1451.379322778092
 21
1036.941793814133
 31
0.0
  0
LINE
  5
7B18
  8
1
  6
CONTINUOUS
 10
1409.379322778092
 20
992.4417938141338
 30
0.0
 11
1409.379322778092
 21
1062.441793814133
 31
0.0
  0
LINE
  5
7B19
  8
1
  6
CONTINUOUS
 10
1374.379322778092
 20
992.4417938141338
 30
0.0
 11
1374.379322778092
 21
1062.441793814133
 31
0.0
  0
LINE
  5
7B1A
  8
1
  6
CONTINUOUS
 10
1409.379322778092
 20
992.4417938141338
 30
0.0
 11
1374.379322778092
 21
992.4417938141338
 31
0.0
  0
LINE
  5
7B1B
  8
1
  6
CONTINUOUS
 10
1409.379322778092
 20
1062.441793814133
 30
0.0
 11
1374.379322778092
 21
1062.441793814133
 31
0.0
  0
LINE
  5
7B1C
  8
1
  6
CONTINUOUS
 10
1409.379322778092
 20
1157.441793814133
 30
0.0
 11
1374.379322778092
 21
1157.441793814133
 31
0.0
  0
LINE
  5
7B1D
  8
1
  6
CONTINUOUS
 10
1409.379322778092
 20
1067.441793814133
 30
0.0
 11
1374.379322778092
 21
1067.441793814133
 31
0.0
  0
LINE
  5
7B1E
  8
1
  6
CONTINUOUS
 10
1374.379322778092
 20
1067.441793814133
 30
0.0
 11
1374.379322778092
 21
1157.441793814133
 31
0.0
  0
LINE
  5
7B1F
  8
1
  6
CONTINUOUS
 10
1409.379322778092
 20
1067.441793814133
 30
0.0
 11
1409.379322778092
 21
1157.441793814133
 31
0.0
  0
LINE
  5
7B20
  8
1
  6
CONTINUOUS
 10
1451.379322778092
 20
1079.1417938141331
 30
0.0
 11
1451.379322778092
 21
927.4417938141338
 31
0.0
  0
LINE
  5
7B21
  8
1
  6
CONTINUOUS
 10
1354.379322778092
 20
927.4417938141338
 30
0.0
 11
1354.379322778092
 21
1207.441793814133
 31
0.0
  0
LINE
  5
7B22
  8
1
  6
CONTINUOUS
 10
1429.379322778092
 20
927.4417938141338
 30
0.0
 11
1429.379322778092
 21
1207.441793814133
 31
0.0
  0
LINE
  5
7B23
  8
1
  6
CONTINUOUS
 10
1550.7793227780919
 20
1212.4417938141339
 30
0.0
 11
1558.379322778092
 21
1212.4417938141339
 31
0.0
  0
LINE
  5
7B24
  8
1
  6
CONTINUOUS
 10
1550.7793227780919
 20
1012.441793814133
 30
0.0
 11
1558.379322778092
 21
1012.441793814133
 31
0.0
  0
ARC
  5
7B25
  8
1
  6
CONTINUOUS
 10
1566.379322778092
 20
986.34179381413367
 30
0.0
 40
8.0
 50
180.0
 51
270.0
  0
LINE
  5
7B26
  8
1
  6
CONTINUOUS
 10
1550.7793227780919
 20
1212.4417938141339
 30
0.0
 11
1550.7793227780919
 21
927.4417938141338
 31
0.0
  0
LINE
  5
7B27
  8
1
  6
CONTINUOUS
 10
1670.379322778092
 20
986.34179381413367
 30
0.0
 11
1670.379322778092
 21
1242.441793814133
 31
0.0
  0
LINE
  5
7B28
  8
1
  6
CONTINUOUS
 10
1671.979322778092
 20
1242.441793814133
 30
0.0
 11
1656.379322778092
 21
1227.4417938141339
 31
0.0
  0
LINE
  5
7B29
  8
1
  6
CONTINUOUS
 10
1678.379322778092
 20
1012.441793814133
 30
0.0
 11
1670.379322778092
 21
1012.441793814133
 31
0.0
  0
LINE
  5
7B2A
  8
1
  6
CONTINUOUS
 10
1678.379322778092
 20
1212.4417938141339
 30
0.0
 11
1670.379322778092
 21
1212.4417938141339
 31
0.0
  0
ARC
  5
7B2B
  8
1
  6
CONTINUOUS
 10
1662.379322778092
 20
986.34179381413367
 30
0.0
 40
8.0
 50
270.0
 51
0.0
  0
LINE
  5
7B2C
  8
1
  6
CONTINUOUS
 10
1614.379322778092
 20
1227.4417938141339
 30
0.0
 11
1656.379322778092
 21
1227.4417938141339
 31
0.0
  0
LINE
  5
7B2D
  8
1
  6
CONTINUOUS
 10
1614.379322778092
 20
1227.4417938141339
 30
0.0
 11
1572.379322778092
 21
1227.4417938141339
 31
0.0
  0
LINE
  5
7B2E
  8
1
  6
CONTINUOUS
 10
1678.379322778092
 20
1212.4417938141339
 30
0.0
 11
1678.379322778092
 21
1012.441793814133
 31
0.0
  0
LINE
  5
7B2F
  8
4
  6
CONTINUOUS
 10
1850.0
 20
500.0
 30
0.0
 11
1850.0
 21
300.0
 31
0.0
  0
LINE
  5
7B30
  8
4
  6
CONTINUOUS
 10
1150.0
 20
500.0
 30
0.0
 11
1150.0
 21
300.0
 31
0.0
  0
LINE
  5
7B31
  8
4
  6
CONTINUOUS
 10
650.0
 20
500.0
 30
0.0
 11
650.0
 21
300.0
 31
0.0
  0
LINE
  5
7B34
  8
4
  6
CONTINUOUS
 10
650.0
 20
300.0
 30
0.0
 11
1850.0
 21
300.0
 31
0.0
  0
LINE
  5
7B35
  8
4
  6
CONTINUOUS
 10
650.0
 20
400.0
 30
0.0
 11
1850.0
 21
400.0
 31
0.0
  0
TEXT
  5
7B36
  8
4
  6
CONTINUOUS
 10
688.50208099999998
 20
431.543026
 30
0.0
 40
50.0
  1
機器名称
  0
TEXT
  5
7B37
  8
4
  6
CONTINUOUS
 10
686.258106
 20
321.64515699999993
 30
0.0
 40
50.0
  1
機器型番
  0
TEXT
  5
7B38
  8
4
  6
CONTINUOUS
 10
1177.678744999999
 20
422.57176900000002
 30
0.0
 40
45.0
  1
ミツヤニューマルチファン
  0
TEXT
  5
7B39
  8
4
  6
CONTINUOUS
 10
1186.6544960000001
 20
317.159584
 30
0.0
 40
50.0
  1
NM#1-1
  0
TEXT
  5
7B3B
  8
4
  6
CONTINUOUS
 10
745.57214699999997
 20
2383.4288409999999
 30
0.0
 40
54.0
  1
天井吊防振ベット
  0
TEXT
  5
7B3C
  8
4
  6
CONTINUOUS
 10
316.16759300000001
 20
2533.8809759999999
 30
0.0
 40
72.0
  1
ベルト駆動式片吸込片持多翼ファン
  0
LINE
  5
7B3D
  8
4
  6
CONTINUOUS
 10
250.0
 20
2469.408754
 30
0.0
 11
1850.0
 21
2469.408754
 31
0.0
  0
LINE
  5
7B3E
  8
4
  6
CONTINUOUS
 10
250.0
 20
2669.408754
 30
0.0
 11
1850.0
 21
2669.408754
 31
0.0
  0
LINE
  5
7B3F
  8
4
  6
CONTINUOUS
 10
650.0
 20
500.0
 30
0.0
 11
1850.0
 21
500.0
 31
0.0
  0
LINE
  5
7B40
  8
4
  6
CONTINUOUS
 10
250.0
 20
2669.408754
 30
0.0
 11
250.0
 21
2469.408754
 31
0.0
  0
TEXT
  5
7B41
  8
4
  6
CONTINUOUS
 10
309.71331499999991
 20
2382.3194779999999
 30
0.0
 40
54.0
  1
左回転上向
  0
TEXT
  5
7B42
  8
4
  6
CONTINUOUS
 10
1468.9695589999999
 20
2706.0610809999998
 30
0.0
 40
56.0
  1
No.
  0
TEXT
  5
7B43
  8
4
  6
CONTINUOUS
 10
1404.951137
 20
2383.4288409999999
 30
0.0
 40
54.0
  1
縮尺：1/10
  0
LINE
  5
7B44
  8
4
  6
CONTINUOUS
 10
1850.0
 20
2669.408754
 30
0.0
 11
1850.0
 21
2469.408754
 31
0.0
  0
LINE
  5
7B46
  8
4
  6
CONTINUOUS
 10
1440.617422
 20
2681.2635829999999
 30
0.0
 11
1440.617422
 21
2786.6522620000001
 31
0.0
  0
LINE
  5
7B47
  8
4
  6
CONTINUOUS
 10
1440.617422
 20
2786.6522620000001
 30
0.0
 11
1850.0
 21
2786.6522620000001
 31
0.0
  0
LINE
  5
7B48
  8
4
  6
CONTINUOUS
 10
1850.0
 20
2786.6522620000001
 30
0.0
 11
1850.0
 21
2681.2635829999999
 31
0.0
  0
LINE
  5
7B49
  8
4
  6
CONTINUOUS
 10
1850.0
 20
2681.2635829999999
 30
0.0
 11
1440.617422
 21
2681.2635829999999
 31
0.0
  0
LINE
  5
7B4F
  8
2
 10
820.81017383017149
 20
1976.4559978205241
 30
0.0
 11
460.95918483017158
 21
1976.4559978205241
 31
0.0
  0
DIMENSION
  5
7B63
  8
3
  6
CONTINUOUS
  2
*D1
 10
631.30141583017155
 20
757.06458881413369
 30
0.0
 11
552.59163683017164
 21
757.06458881413369
 31
0.0
 70
   128
 13
471.30141583017161
 23
805.44179381413369
 33
0.0
 14
631.30141583017155
 24
830.44179381413369
 34
0.0
1001
ACAD
1000
DSTYLE
1002
{
1070
   287
1070
     3
1070
   287
1070
     3
1070
    40
1040
10.0
1070
   143
1040
0.039
1070
   172
1070
     1
1070
   271
1070
     0
1070
   279
1070
     0
1070
   288
1070
     1
1002
}
  0
DIMENSION
  5
7B6F
  8
3
  6
CONTINUOUS
  2
*D2
 10
1081.301415830171
 20
757.06458881413369
 30
0.0
 11
856.30141583017166
 21
782.06458881413369
 31
0.0
 70
     0
 13
631.30141583017155
 23
830.44179381413369
 33
0.0
 14
1081.301415830171
 24
805.44179381413369
 34
0.0
1001
ACAD
1000
DSTYLE
1002
{
1070
   287
1070
     4
1070
   287
1070
     4
1070
    40
1040
10.0
1070
    75
1070
     1
1070
   143
1040
0.039
1070
   172
1070
     1
1070
   271
1070
     0
1070
   279
1070
     1
1070
   288
1070
     1
1002
}
  0
DIMENSION
  5
7C09
  8
3
  6
CONTINUOUS
  2
*D3
 10
791.30141583017166
 20
1283.9253778141331
 30
0.0
 11
709.76837483017164
 21
1283.9253778141331
 31
0.0
 70
   128
 13
631.30141583017155
 23
1242.441793814133
 33
0.0
 14
791.30141583017166
 24
1242.441793814133
 34
0.0
1001
ACAD
1000
DSTYLE
1002
{
1070
   287
1070
     3
1070
   287
1070
     3
1070
    40
1040
10.0
1070
   143
1040
0.039
1070
   172
1070
     1
1070
   271
1070
     0
1070
   279
1070
     0
1070
   288
1070
     1
1002
}
  0
LINE
  5
7C60
  8
2
 10
1614.379322778092
 20
1276.6790678141331
 30
0.0
 11
1614.379322778092
 21
762.08561881413368
 31
0.0
  0
DIMENSION
  5
7C6D
  8
3
  6
CONTINUOUS
  2
*D4
 10
1614.379322778092
 20
739.79072581413368
 30
0.0
 11
1475.9042997780921
 21
739.79072581413368
 31
0.0
 70
   128
 13
1342.379322778092
 23
805.44179381413369
 33
0.0
 14
1614.379322778092
 24
805.44179381413369
 34
0.0
1001
ACAD
1000
DSTYLE
1002
{
1070
   287
1070
     3
1070
   287
1070
     3
1070
    40
1040
10.0
1070
   143
1040
0.039
1070
   172
1070
     1
1070
   271
1070
     0
1070
   279
1070
     0
1070
   288
1070
     1
1002
}
  0
DIMENSION
  5
7C79
  8
3
  6
CONTINUOUS
  2
*D5
 10
1772.379322778092
 20
739.79072581413368
 30
0.0
 11
1693.379322778092
 21
764.79072581413368
 31
0.0
 70
     0
 13
1614.379322778092
 23
805.44179381413369
 33
0.0
 14
1772.379322778092
 24
805.44179381413369
 34
0.0
1001
ACAD
1000
DSTYLE
1002
{
1070
   287
1070
     4
1070
   287
1070
     4
1070
    40
1040
10.0
1070
    75
1070
     1
1070
   143
1040
0.039
1070
   172
1070
     1
1070
   271
1070
     0
1070
   279
1070
     1
1070
   288
1070
     1
1002
}
  0
DIMENSION
  5
7C88
  8
3
  6
CONTINUOUS
  2
*D6
 10
1670.379322778092
 20
1271.6203518141331
 30
0.0
 11
1614.379322778092
 21
1294.795646277958
 31
0.0
 70
   128
 13
1558.379322778092
 23
1242.441793814133
 33
0.0
 14
1670.379322778092
 24
1242.441793814133
 34
0.0
1001
ACAD
1000
DSTYLE
1002
{
1070
   288
1070
     1
1070
   172
1070
     1
1070
    40
1040
10.0
1070
   271
1070
     0
1070
   143
1040
0.039
1002
}
  0
DIMENSION
  5
7C95
  8
3
  6
CONTINUOUS
  2
*D7
 10
1614.379322778092
 20
1336.339857814133
 30
0.0
 11
1484.1495547780919
 21
1336.339857814133
 31
0.0
 70
   128
  1
MAX\P260
 13
1354.379322778092
 23
1207.441793814133
 33
0.0
 14
1614.379322778092
 24
1319.6114258141331
 34
0.0
1001
ACAD
1000
DSTYLE
1002
{
1070
   287
1070
     3
1070
   287
1070
     3
1070
    40
1040
10.0
1070
   143
1040
0.039
1070
   172
1070
     1
1070
   271
1070
     0
1070
   279
1070
     0
1070
   288
1070
     1
1002
}
  0
DIMENSION
  5
7CA3
  8
3
  6
CONTINUOUS
  2
*D8
 10
1678.379322778092
 20
1336.339857814133
 30
0.0
 11
1645.913683778092
 21
1336.339857814133
 31
0.0
 70
   128
 13
1614.379322778092
 23
1319.6114258141331
 33
0.0
 14
1678.379322778092
 24
1212.4417938141339
 34
0.0
1001
ACAD
1000
DSTYLE
1002
{
1070
   287
1070
     4
1070
   287
1070
     4
1070
    40
1040
10.0
1070
    75
1070
     1
1070
   143
1040
0.039
1070
   172
1070
     1
1070
   271
1070
     0
1070
   279
1070
     1
1070
   288
1070
     1
1002
}
  0
LINE
  5
7CBB
  8
3
  6
CONTINUOUS
 10
1678.379322778092
 20
1192.441793814133
 30
0.0
 11
1693.029448778092
 21
1192.441793814133
 31
0.0
  0
LINE
  5
7CBD
  8
3
  6
CONTINUOUS
 10
1678.379322778092
 20
1032.441793814133
 30
0.0
 11
1699.3115487780919
 21
1032.441793814133
 31
0.0
  0
DIMENSION
  5
7CCB
  8
3
  6
CONTINUOUS
  2
*D9
 10
1749.5683697780919
 20
1032.441793814133
 30
0.0
 11
1727.4179874965901
 21
1112.441793814133
 31
0.0
 70
   128
 13
1678.379322778092
 23
1192.441793814133
 33
0.0
 14
1678.379322778092
 24
1032.441793814133
 34
0.0
 50
90.0
1001
ACAD
1000
DSTYLE
1002
{
1070
   288
1070
     1
1070
   172
1070
     1
1070
    40
1040
10.0
1070
     3
1000
φ<>
1070
   271
1070
     0
1070
   143
1040
0.039
1002
}
  0
DIMENSION
  5
7CD8
  8
3
  6
CONTINUOUS
  2
*D10
 10
1081.301415830171
 20
1635.065752820524
 30
0.0
 11
768.41488383017168
 21
1635.065752820524
 31
0.0
 70
   128
 13
471.30141583017161
 23
1703.9559978205241
 33
0.0
 14
1081.301415830171
 24
1703.9559978205241
 34
0.0
1001
ACAD
1000
DSTYLE
1002
{
1070
   287
1070
     3
1070
   287
1070
     3
1070
    40
1040
10.0
1070
   143
1040
0.039
1070
   172
1070
     1
1070
   271
1070
     0
1070
   279
1070
     0
1070
   288
1070
     1
1002
}
  0
DIMENSION
  5
7CE5
  8
3
  6
CONTINUOUS
  2
*D11
 10
1151.6231178301721
 20
1703.9559978205241
 30
0.0
 11
1151.6231178301709
 21
1939.7534848205239
 31
0.0
 70
   128
 13
1081.301415830171
 23
2133.9559978205239
 33
0.0
 14
1081.301415830171
 24
1703.9559978205241
 34
0.0
 50
90.0
1001
ACAD
1000
DSTYLE
1002
{
1070
   287
1070
     3
1070
   287
1070
     3
1070
    40
1040
10.0
1070
   143
1040
0.039
1070
   172
1070
     1
1070
   271
1070
     0
1070
   279
1070
     0
1070
   288
1070
     1
1002
}
  0
LINE
  5
7CE6
  8
2
 10
631.30141583017155
 20
1655.684047820524
 30
0.0
 11
631.30141583017155
 21
2074.969324820524
 31
0.0
  0
LINE
  5
7CE7
  8
2
 10
1097.5661198301709
 20
1112.441793814133
 30
0.0
 11
490.0096778301716
 21
1112.441793814133
 31
0.0
  0
DIMENSION
  5
7D5B
  8
3
  6
CONTINUOUS
  2
*D12
 10
802.30141583017155
 20
1334.4234388141331
 30
0.0
 11
708.30299483017166
 21
1334.4234388141331
 31
0.0
 70
   128
 13
631.30141583017155
 23
1242.441793814133
 33
0.0
 14
802.30141583017155
 24
1227.4417938141339
 34
0.0
1001
ACAD
1000
DSTYLE
1002
{
1070
   287
1070
     3
1070
   287
1070
     3
1070
    40
1040
10.0
1070
   143
1040
0.039
1070
   172
1070
     1
1070
   271
1070
     0
1070
   279
1070
     0
1070
   288
1070
     1
1002
}
  0
DIMENSION
  5
7D7B
  8
3
  6
CONTINUOUS
  2
*D13
 10
508.65723383017161
 20
1334.4234388141331
 30
0.0
 11
569.20047883017173
 21
1335.0285128141329
 31
0.0
 70
   128
 13
631.30141583017155
 23
1242.441793814133
 33
0.0
 14
508.65723383017161
 24
1112.441793814133
 34
0.0
1001
ACAD
1000
DSTYLE
1002
{
1070
   287
1070
     4
1070
   287
1070
     4
1070
    40
1040
10.0
1070
    75
1070
     1
1070
   143
1040
0.039
1070
   172
1070
     1
1070
   271
1070
     0
1070
   279
1070
     1
1070
   288
1070
     1
1002
}
  0
DIMENSION
  5
7EAC
  8
3
  2
*D15
 10
1081.301415830171
 20
1399.2885511654299
 30
0.0
 11
828.77603293344316
 21
1399.2885511654299
 31
0.0
 70
   128
 13
508.65723383017161
 23
1344.4234388141331
 33
0.0
 14
1081.301415830171
 24
855.44179381413369
 34
0.0
1001
ACAD
1000
DSTYLE
1002
{
1070
   287
1070
     3
1070
   287
1070
     3
1070
    40
1040
10.0
1070
   143
1040
0.039
1070
   172
1070
     1
1070
   271
1070
     0
1070
   279
1070
     0
1070
   288
1070
     1
1002
}
  0
DIMENSION
  5
7ECB
  8
3
  2
*D16
 10
424.14190873822372
 20
1112.441793814133
 30
0.0
 11
402.8715690579993
 21
1177.441793814133
 31
0.0
 12
127.6523055247071
 22
0.0
 32
0.0
 70
   128
 13
609.30141583017155
 23
1242.441793814133
 33
0.0
 14
490.0096778301716
 24
1112.441793814133
 34
0.0
 50
90.0
1001
ACAD
1000
DSTYLE
1002
{
1070
   288
1070
     1
1070
   172
1070
     1
1070
    40
1040
10.0
1070
   271
1070
     0
1070
   143
1040
0.039
1002
}
  0
DIMENSION
  5
7ED7
  8
3
  2
*D17
 10
424.14190873822372
 20
877.44179381413358
 30
0.0
 11
399.14190873822361
 21
994.94179381413392
 31
0.0
 70
     0
 13
490.0096778301716
 23
1112.441793814133
 33
0.0
 14
496.30141583017161
 24
877.44179381413358
 34
0.0
 50
90.0
1001
ACAD
1000
DSTYLE
1002
{
1070
   287
1070
     4
1070
   287
1070
     4
1070
    40
1040
10.0
1070
    75
1070
     1
1070
   143
1040
0.039
1070
   172
1070
     1
1070
   271
1070
     0
1070
   279
1070
     1
1070
   288
1070
     1
1002
}
  0
DIMENSION
  5
7EF7
  8
3
  2
*D18
 10
424.14190873822372
 20
830.44179381413369
 30
0.0
 11
397.91319645748081
 21
853.94179381413369
 31
0.0
 12
127.6523055247071
 22
0.0
 32
0.0
 70
   128
 13
496.30141583017161
 23
877.44179381413358
 33
0.0
 14
471.30141583017161
 24
830.44179381413369
 34
0.0
 50
90.0
1001
ACAD
1000
DSTYLE
1002
{
1070
   288
1070
     1
1070
   172
1070
     1
1070
    75
1070
     1
1070
    40
1040
10.0
1070
   271
1070
     0
1070
     7
1000
_DOT
1070
   143
1040
0.039
1002
}
  0
DIMENSION
  5
7F07
  8
3
  2
*D19
 10
424.14190873822372
 20
805.44179381413369
 30
0.0
 11
399.14190873822361
 21
731.15607952841947
 31
0.0
 70
     0
 13
471.30141583017161
 23
830.44179381413369
 33
0.0
 14
471.30141583017161
 24
805.44179381413369
 34
0.0
 50
90.0
1001
ACAD
1000
DSTYLE
1002
{
1070
   287
1070
     3
1070
   287
1070
     3
1070
    40
1040
10.0
1070
   143
1040
0.039
1070
   172
1070
     1
1070
   271
1070
     0
1070
   279
1070
     0
1070
   288
1070
     1
1070
     6
1000
DOT
1002
}
  0
DIMENSION
  5
7F4F
  8
3
  2
*D20
 10
360.33086898769949
 20
805.44179381413369
 30
0.0
 11
360.33086898769938
 21
1019.7269204141739
 31
0.0
 70
   128
 13
604.30141583017155
 23
1242.441793814133
 33
0.0
 14
471.30141583017161
 24
805.44179381413369
 34
0.0
 50
90.0
1001
ACAD
1000
DSTYLE
1002
{
1070
   287
1070
     3
1070
   287
1070
     3
1070
    40
1040
10.0
1070
   143
1040
0.039
1070
   172
1070
     1
1070
   271
1070
     0
1070
   279
1070
     0
1070
   288
1070
     1
1002
}
  0
ENDSEC
  0
EOF
