  0
SECTION
  2
HEADER
  9
$ACADVER
  1
AC1009
  9
$INSBASE
 10
0.0
 20
0.0
 30
0.0
  9
$EXTMIN
 10
250.0
 20
300.0
 30
0.0
  9
$EXTMAX
 10
1850.0
 20
2786.6522620000001
 30
0.0
  9
$LIMMIN
 10
0.0
 20
0.0
  9
$LIMMAX
 10
297.0
 20
210.0
  9
$ORTHOMODE
 70
     0
  9
$REGENMODE
 70
     1
  9
$FILLMODE
 70
     0
  9
$QTEXTMODE
 70
     0
  9
$MIRRTEXT
 70
     1
  9
$DRAGMODE
 70
     2
  9
$LTSCALE
 40
100.0
  9
$OSMODE
 70
    37
  9
$ATTMODE
 70
     1
  9
$TEXTSIZE
 40
180.0
  9
$TRACEWID
 40
0.05
  9
$TEXTSTYLE
  7
STANDARD
  9
$CLAYER
  8
3
  9
$CELTYPE
  6
BYLAYER
  9
$CECOLOR
 62
   256
  9
$DIMSCALE
 40
10.0
  9
$DIMASZ
 40
2.0
  9
$DIMEXO
 40
0.5
  9
$DIMDLI
 40
10.0
  9
$DIMRND
 40
0.0
  9
$DIMDLE
 40
0.0
  9
$DIMEXE
 40
1.0
  9
$DIMTP
 40
1.0
  9
$DIMTM
 40
1.0
  9
$DIMTXT
 40
3.0
  9
$DIMCEN
 40
0.0
  9
$DIMTSZ
 40
0.0
  9
$DIMTOL
 70
     0
  9
$DIMLIM
 70
     0
  9
$DIMTIH
 70
     0
  9
$DIMTOH
 70
     0
  9
$DIMSE1
 70
     0
  9
$DIMSE2
 70
     0
  9
$DIMTAD
 70
     1
  9
$DIMZIN
 70
     8
  9
$DIMBLK
  1

  9
$DIMASO
 70
     1
  9
$DIMSHO
 70
     1
  9
$DIMPOST
  1

  9
$DIMAPOST
  1

  9
$DIMALT
 70
     0
  9
$DIMALTD
 70
     2
  9
$DIMALTF
 40
0.039
  9
$DIMLFAC
 40
1.0
  9
$DIMTOFL
 70
     1
  9
$DIMTVP
 40
0.0
  9
$DIMTIX
 70
     0
  9
$DIMSOXD
 70
     0
  9
$DIMSAH
 70
     1
  9
$DIMBLK1
  1
OPEN
  9
$DIMBLK2
  1
OPEN
  9
$DIMSTYLE
  2
IGA
  9
$DIMCLRD
 70
     0
  9
$DIMCLRE
 70
     0
  9
$DIMCLRT
 70
     0
  9
$DIMTFAC
 40
10.0
  9
$DIMGAP
 40
1.0
  9
$LUNITS
 70
     2
  9
$LUPREC
 70
     3
  9
$SKETCHINC
 40
0.1
  9
$FILLETRAD
 40
50.0
  9
$AUNITS
 70
     0
  9
$AUPREC
 70
     0
  9
$MENU
  1
acad
  9
$ELEVATION
 40
0.0
  9
$PELEVATION
 40
0.0
  9
$THICKNESS
 40
0.0
  9
$LIMCHECK
 70
     0
  9
$BLIPMODE
 70
     0
  9
$CHAMFERA
 40
0.5
  9
$CHAMFERB
 40
0.5
  9
$SKPOLY
 70
     0
  9
$TDCREATE
 40
2450736.457104051
  9
$TDUPDATE
 40
2454953.858564259
  9
$TDINDWG
 40
0.005933669
  9
$TDUSRTIMER
 40
0.005933669
  9
$USRTIMER
 70
     1
  9
$ANGBASE
 50
0.0
  9
$ANGDIR
 70
     0
  9
$PDMODE
 70
     0
  9
$PDSIZE
 40
0.0
  9
$PLINEWID
 40
0.0
  9
$COORDS
 70
     1
  9
$SPLFRAME
 70
     0
  9
$SPLINETYPE
 70
     6
  9
$SPLINESEGS
 70
     8
  9
$ATTDIA
 70
     0
  9
$ATTREQ
 70
     1
  9
$HANDLING
 70
 10241
  9
$HANDSEED
  5
8011
  9
$SURFTAB1
 70
     6
  9
$SURFTAB2
 70
     6
  9
$SURFTYPE
 70
     6
  9
$SURFU
 70
     6
  9
$SURFV
 70
     6
  9
$UCSNAME
  2

  9
$UCSORG
 10
0.0
 20
0.0
 30
0.0
  9
$UCSXDIR
 10
1.0
 20
0.0
 30
0.0
  9
$UCSYDIR
 10
0.0
 20
1.0
 30
0.0
  9
$PUCSNAME
  2

  9
$PUCSORG
 10
0.0
 20
0.0
 30
0.0
  9
$PUCSXDIR
 10
1.0
 20
0.0
 30
0.0
  9
$PUCSYDIR
 10
0.0
 20
1.0
 30
0.0
  9
$USERI1
 70
     0
  9
$USERI2
 70
     0
  9
$USERI3
 70
     0
  9
$USERI4
 70
     0
  9
$USERI5
 70
     0
  9
$USERR1
 40
0.0
  9
$USERR2
 40
0.0
  9
$USERR3
 40
0.0
  9
$USERR4
 40
0.0
  9
$USERR5
 40
0.0
  9
$WORLDVIEW
 70
     1
  9
$SHADEDGE
 70
     3
  9
$SHADEDIF
 70
    70
  9
$TILEMODE
 70
     1
  9
$MAXACTVP
 70
    16
  9
$PLIMCHECK
 70
     0
  9
$PEXTMIN
 10
1.0000000000000000E+020
 20
1.0000000000000000E+020
 30
1.0000000000000000E+020
  9
$PEXTMAX
 10
-1.0000000000000000E+020
 20
-1.0000000000000000E+020
 30
-1.0000000000000000E+020
  9
$PLIMMIN
 10
0.0
 20
0.0
  9
$PLIMMAX
 10
12.0
 20
9.0
  9
$UNITMODE
 70
     0
  9
$VISRETAIN
 70
     0
  9
$PLINEGEN
 70
     0
  9
$PSLTSCALE
 70
     1
  0
ENDSEC
  0
SECTION
  2
TABLES
  0
TABLE
  2
VPORT
 70
     2
  0
VPORT
  2
*ACTIVE
 70
     0
 10
0.0
 20
0.0
 11
1.0
 21
1.0
 12
2728.3646356518238
 22
1861.7203753419069
 13
0.0
 23
0.0
 14
10.0
 24
10.0
 15
10.0
 25
10.0
 16
0.0
 26
0.0
 36
1.0
 17
0.0
 27
0.0
 37
0.0
 40
3552.2128564519348
 41
1.5051150895140659
 42
50.0
 43
0.0
 44
0.0
 50
0.0
 51
0.0
 71
     0
 72
   100
 73
     1
 74
     0
 75
     0
 76
     0
 77
     0
 78
     0
  0
ENDTAB
  0
TABLE
  2
LTYPE
 70
     2
  0
LTYPE
  2
CONTINUOUS
 70
     0
  3
Solid line
 72
    65
 73
     0
 40
0.0
  0
LTYPE
  2
CENTER
 70
     0
  3
____ _ ____ _ ____ _ ____ _ ____ _ ____ _ ____ 
 72
    65
 73
     4
 40
2.0
 49
1.25
 49
-0.25
 49
0.25
 49
-0.25
  0
ENDTAB
  0
TABLE
  2
LAYER
 70
     6
  0
LAYER
  2
0
 70
     0
 62
     7
  6
CONTINUOUS
  0
LAYER
  2
3
 70
     0
 62
     2
  6
CONTINUOUS
  0
LAYER
  2
2
 70
     0
 62
     3
  6
CENTER
  0
LAYER
  2
1
 70
     0
 62
     4
  6
CONTINUOUS
  0
LAYER
  2
4
 70
     0
 62
     7
  6
CONTINUOUS
  0
LAYER
  2
DEFPOINTS
 70
     0
 62
     7
  6
CONTINUOUS
  0
ENDTAB
  0
TABLE
  2
STYLE
 70
     1
  0
STYLE
  2
STANDARD
 70
     0
 40
0.0
 41
1.0
 50
0.0
 71
     0
 42
180.0
  3
simplex.shx
  4
extfont.shx
  0
ENDTAB
  0
TABLE
  2
VIEW
 70
     0
  0
ENDTAB
  0
TABLE
  2
UCS
 70
     0
  0
ENDTAB
  0
TABLE
  2
APPID
 70
     1
  0
APPID
  2
ACAD
 70
     0
  0
ENDTAB
  0
TABLE
  2
DIMSTYLE
 70
     1
  0
DIMSTYLE
  2
IGA
 70
     0
  3

  4

  5

  6
OPEN
  7
OPEN
 40
2.0
 41
2.0
 42
0.5
 43
10.0
 44
1.0
 45
0.0
 46
0.0
 47
1.0
 48
1.0
140
3.0
141
0.0
142
0.0
143
0.03937
144
1.0
145
0.0
146
10.0
147
1.0
 71
     0
 72
     0
 73
     0
 74
     0
 75
     0
 76
     0
 77
     1
 78
     8
170
     0
171
     2
172
     0
173
     1
174
     0
175
     0
176
     0
177
     0
178
     0
  0
ENDTAB
  0
ENDSEC
  0
SECTION
  2
BLOCKS
  0
BLOCK
  8
0
  2
$MODEL_SPACE
 70
     0
 10
0.0
 20
0.0
 30
0.0
  3
$MODEL_SPACE
  1

  0
ENDBLK
  5
1B
  8
0
  0
BLOCK
 67
     1
  8
0
  2
$PAPER_SPACE
 70
     0
 10
0.0
 20
0.0
 30
0.0
  3
$PAPER_SPACE
  1

  0
ENDBLK
  5
18
 67
     1
  8
0
  0
BLOCK
  8
0
  2
_OPEN
 70
     0
 10
0.0
 20
0.0
 30
0.0
  3
_OPEN
  1

  0
LINE
  5
7B4C
  8
0
  6
BYBLOCK
 62
     0
 10
-1.0
 20
0.166667
 30
0.0
 11
0.0
 21
0.0
 31
0.0
  0
LINE
  5
7B4D
  8
0
  6
BYBLOCK
 62
     0
 10
0.0
 20
0.0
 30
0.0
 11
-1.0
 21
-0.166667
 31
0.0
  0
LINE
  5
7B4E
  8
0
  6
BYBLOCK
 62
     0
 10
0.0
 20
0.0
 30
0.0
 11
-1.0
 21
0.0
 31
0.0
  0
ENDBLK
  5
7B4F
  8
0
  0
BLOCK
  8
0
  2
*D1
 70
     1
 10
0.0
 20
0.0
 30
0.0
  3
*D1
  1

  0
LINE
  5
7E06
  8
0
  6
BYBLOCK
 62
     0
 10
1681.3620117780911
 20
1213.0544593428219
 30
0.0
 11
1760.9230377780909
 21
1213.0544593428219
 31
0.0
  0
LINE
  5
7E07
  8
0
  6
BYBLOCK
 62
     0
 10
1681.3620117780911
 20
1053.054459342821
 30
0.0
 11
1760.9230377780909
 21
1053.054459342821
 31
0.0
  0
LINE
  5
7E08
  8
0
  6
BYBLOCK
 62
     0
 10
1750.9230377780909
 20
1193.0544593428219
 30
0.0
 11
1750.9230377780909
 21
1073.054459342821
 31
0.0
  0
TEXT
  5
7E09
  8
3
 62
     0
 10
1742.0201720197381
 20
1082.3401736285359
 30
0.0
 40
30.0
  1
φ160
 50
90.0
  0
INSERT
  5
7E0A
  8
0
  6
BYBLOCK
 62
     0
  2
_OPEN
 10
1750.9230377780909
 20
1213.0544593428219
 30
0.0
 41
20.0
 42
20.0
 43
20.0
 50
90.0
  0
INSERT
  5
7E0B
  8
0
  6
BYBLOCK
 62
     0
  2
_OPEN
 10
1750.9230377780909
 20
1053.054459342821
 30
0.0
 41
20.0
 42
20.0
 43
20.0
 50
270.0
  0
POINT
  5
7E0C
  8
DEFPOINTS
  6
BYBLOCK
 62
     0
 10
1676.3620117780911
 20
1213.0544593428219
 30
0.0
  0
POINT
  5
7E0D
  8
DEFPOINTS
  6
BYBLOCK
 62
     0
 10
1676.3620117780911
 20
1053.054459342821
 30
0.0
  0
POINT
  5
7E0E
  8
DEFPOINTS
  6
BYBLOCK
 62
     0
 10
1750.9230377780909
 20
1053.054459342821
 30
0.0
  0
ENDBLK
  5
7E0F
  8
0
  0
BLOCK
  8
0
  2
*D2
 70
     1
 10
0.0
 20
0.0
 30
0.0
  3
*D2
  1

  0
LINE
  5
7F6F
  8
3
  6
CONTINUOUS
 62
     0
 10
1340.3620117780911
 20
821.05445934282193
 30
0.0
 11
1340.3620117780911
 21
761.4548563428217
 31
0.0
  0
LINE
  5
7F70
  8
3
  6
CONTINUOUS
 62
     0
 10
1612.3620117780911
 20
821.05445934282193
 30
0.0
 11
1612.3620117780911
 21
761.4548563428217
 31
0.0
  0
LINE
  5
7F71
  8
3
  6
CONTINUOUS
 62
     0
 10
1360.3620117780911
 20
771.45485634282181
 30
0.0
 11
1592.3620117780911
 21
771.45485634282181
 31
0.0
  0
INSERT
  5
7F72
  8
3
  6
CONTINUOUS
 62
     0
  2
_OPEN
 10
1340.3620117780911
 20
771.45485634282181
 30
0.0
 41
20.0
 42
20.0
 43
20.0
 50
180.0
  0
INSERT
  5
7F73
  8
3
  6
CONTINUOUS
 62
     0
  2
_OPEN
 10
1612.3620117780911
 20
771.45485634282181
 30
0.0
 41
20.0
 42
20.0
 43
20.0
  0
TEXT
  8
3
  40
30
  5
8000
  62
0
  72
0
  71
0
 10
1418.19
 20
743.355
 30
0.000000
  1
272
  0
POINT
  5
7F75
  8
DEFPOINTS
  6
CONTINUOUS
 62
     0
 10
1340.3620117780911
 20
826.05445934282181
 30
0.0
  0
POINT
  5
7F76
  8
DEFPOINTS
  6
CONTINUOUS
 62
     0
 10
1612.3620117780911
 20
826.05445934282181
 30
0.0
  0
POINT
  5
7F77
  8
DEFPOINTS
  6
CONTINUOUS
 62
     0
 10
1612.3620117780911
 20
771.45485634282181
 30
0.0
  0
ENDBLK
  5
7B6E
  8
0
  0
BLOCK
  8
0
  2
*D3
 70
     1
 10
0.0
 20
0.0
 30
0.0
  3
*D3
  1

  0
LINE
  5
7F78
  8
3
  6
CONTINUOUS
 62
     0
 10
1770.3620117780911
 20
821.05445934282193
 30
0.0
 11
1770.3620117780911
 21
761.4548563428217
 31
0.0
  0
LINE
  5
7F79
  8
3
  6
CONTINUOUS
 62
     0
 10
1632.3620117780911
 20
771.45485634282181
 30
0.0
 11
1750.3620117780911
 21
771.45485634282181
 31
0.0
  0
INSERT
  5
7F7A
  8
3
  6
CONTINUOUS
 62
     0
  2
_OPEN
 10
1612.3620117780911
 20
771.45485634282181
 30
0.0
 41
20.0
 42
20.0
 43
20.0
 50
180.0
  0
INSERT
  5
7F7B
  8
3
  6
CONTINUOUS
 62
     0
  2
_OPEN
 10
1770.3620117780911
 20
771.45485634282181
 30
0.0
 41
20.0
 42
20.0
 43
20.0
  0
TEXT
  8
3
  40
30
  5
8001
  62
0
  72
0
  71
0
 10
1631.36
 20
743.355
 30
0.000000
  1
158
  0
POINT
  5
7F7D
  8
DEFPOINTS
  6
CONTINUOUS
 62
     0
 10
1612.3620117780911
 20
826.05445934282181
 30
0.0
  0
POINT
  5
7F7E
  8
DEFPOINTS
  6
CONTINUOUS
 62
     0
 10
1770.3620117780911
 20
826.05445934282181
 30
0.0
  0
POINT
  5
7F7F
  8
DEFPOINTS
  6
CONTINUOUS
 62
     0
 10
1770.3620117780911
 20
771.45485634282181
 30
0.0
  0
ENDBLK
  5
7B7A
  8
0
  0
BLOCK
  8
0
  2
*D4
 70
     1
 10
0.0
 20
0.0
 30
0.0
  3
*D4
  1

  0
LINE
  5
7E11
  8
0
  6
BYBLOCK
 62
     0
 10
1556.3620117780911
 20
1298.0544593428219
 30
0.0
 11
1556.3620117780911
 21
1341.010556342821
 31
0.0
  0
LINE
  5
7E12
  8
0
  6
BYBLOCK
 62
     0
 10
1668.3620117780911
 20
1298.0544593428219
 30
0.0
 11
1668.3620117780911
 21
1341.010556342821
 31
0.0
  0
LINE
  5
7E13
  8
0
  6
BYBLOCK
 62
     0
 10
1576.3620117780911
 20
1331.010556342821
 30
0.0
 11
1648.3620117780911
 21
1331.010556342821
 31
0.0
  0
TEXT
  5
7E14
  8
3
 62
     0
 10
1579.504868920948
 20
1338.8093836307451
 30
0.0
 40
30.0
  1
112
  0
INSERT
  5
7E15
  8
0
  6
BYBLOCK
 62
     0
  2
_OPEN
 10
1556.3620117780911
 20
1331.010556342821
 30
0.0
 41
20.0
 42
20.0
 43
20.0
 50
180.0
  0
INSERT
  5
7E16
  8
0
  6
BYBLOCK
 62
     0
  2
_OPEN
 10
1668.3620117780911
 20
1331.010556342821
 30
0.0
 41
20.0
 42
20.0
 43
20.0
  0
POINT
  5
7E17
  8
DEFPOINTS
  6
BYBLOCK
 62
     0
 10
1556.3620117780911
 20
1293.0544593428219
 30
0.0
  0
POINT
  5
7E18
  8
DEFPOINTS
  6
BYBLOCK
 62
     0
 10
1668.3620117780911
 20
1293.0544593428219
 30
0.0
  0
POINT
  5
7E19
  8
DEFPOINTS
  6
BYBLOCK
 62
     0
 10
1668.3620117780911
 20
1331.010556342821
 30
0.0
  0
ENDBLK
  5
7E1A
  8
0
  0
BLOCK
  8
0
  2
*D5
 70
     1
 10
0.0
 20
0.0
 30
0.0
  3
*D5
  1

  0
LINE
  5
7F80
  8
3
  6
CONTINUOUS
 62
     0
 10
1352.3620117780911
 20
1233.0544593428219
 30
0.0
 11
1352.3620117780911
 21
1402.690315980572
 31
0.0
  0
LINE
  5
7F81
  8
3
  6
CONTINUOUS
 62
     0
 10
1612.3620117780911
 20
1376.966127342821
 30
0.0
 11
1612.3620117780911
 21
1402.690315980572
 31
0.0
  0
LINE
  5
7F82
  8
3
  6
CONTINUOUS
 62
     0
 10
1372.3620117780911
 20
1392.690315980572
 30
0.0
 11
1592.3620117780911
 21
1392.690315980572
 31
0.0
  0
INSERT
  5
7F83
  8
3
  6
CONTINUOUS
 62
     0
  2
_OPEN
 10
1352.3620117780911
 20
1392.690315980572
 30
0.0
 41
20.0
 42
20.0
 43
20.0
 50
180.0
  0
INSERT
  5
7F84
  8
3
  6
CONTINUOUS
 62
     0
  2
_OPEN
 10
1612.3620117780911
 20
1392.690315980572
 30
0.0
 41
20.0
 42
20.0
 43
20.0
  0
TEXT
  8
3
  40
30
  5
8002
  62
0
  72
0
  71
0
 10
1418.19
 20
1389.59
 30
0.000000
  1
MAX
  0
TEXT
  8
3
  40
30
  5
8003
  62
0
  72
0
  71
0
 10
1418.19
 20
1350.59
 30
0.000000
  1
260
  0
POINT
  5
7F86
  8
DEFPOINTS
  6
CONTINUOUS
 62
     0
 10
1352.3620117780911
 20
1228.054459342821
 30
0.0
  0
POINT
  5
7F87
  8
DEFPOINTS
  6
CONTINUOUS
 62
     0
 10
1612.3620117780911
 20
1371.9661273428219
 30
0.0
  0
POINT
  5
7F88
  8
DEFPOINTS
  6
CONTINUOUS
 62
     0
 10
1612.3620117780911
 20
1392.690315980572
 30
0.0
  0
ENDBLK
  5
7E7A
  8
0
  0
BLOCK
  8
0
  2
*D6
 70
     1
 10
0.0
 20
0.0
 30
0.0
  3
*D6
  1

  0
LINE
  5
7F89
  8
3
  6
CONTINUOUS
 62
     0
 10
1676.3620117780911
 20
1238.054459342821
 30
0.0
 11
1676.3620117780911
 21
1402.690315980572
 31
0.0
  0
LINE
  5
7F8A
  8
3
  6
CONTINUOUS
 62
     0
 10
1632.3620117780911
 20
1392.690315980572
 30
0.0
 11
1656.3620117780911
 21
1392.690315980572
 31
0.0
  0
TEXT
  8
3
  40
30
  5
8004
  62
0
  72
0
  71
0
 10
1585.30
 20
1364.59
 30
0.000000
  1
64
  0
INSERT
  5
7F8C
  8
3
  6
CONTINUOUS
 62
     0
  2
_OPEN
 10
1612.3620117780911
 20
1392.690315980572
 30
0.0
 41
20.0
 42
20.0
 43
20.0
 50
180.0
  0
INSERT
  5
7F8D
  8
3
  6
CONTINUOUS
 62
     0
  2
_OPEN
 10
1676.3620117780911
 20
1392.690315980572
 30
0.0
 41
20.0
 42
20.0
 43
20.0
  0
POINT
  5
7F8E
  8
DEFPOINTS
  6
CONTINUOUS
 62
     0
 10
1612.3620117780911
 20
1371.9661273428219
 30
0.0
  0
POINT
  5
7F8F
  8
DEFPOINTS
  6
CONTINUOUS
 62
     0
 10
1676.3620117780911
 20
1233.0544593428219
 30
0.0
  0
POINT
  5
7F90
  8
DEFPOINTS
  6
CONTINUOUS
 62
     0
 10
1676.3620117780911
 20
1392.690315980572
 30
0.0
  0
ENDBLK
  5
7E24
  8
0
  0
BLOCK
  8
0
  2
*D7
 70
     1
 10
0.0
 20
0.0
 30
0.0
  3
*D7
  1

  0
LINE
  5
7F91
  8
3
  6
CONTINUOUS
 62
     0
 10
568.4412759999999
 20
1293.0544593428219
 30
0.0
 11
519.41627800000015
 21
1293.0544593428219
 31
0.0
  0
LINE
  5
7F92
  8
3
  6
CONTINUOUS
 62
     0
 10
567.44127600000002
 20
1133.054459342821
 30
0.0
 11
519.41627800000015
 21
1133.054459342821
 31
0.0
  0
LINE
  5
7F93
  8
3
  6
CONTINUOUS
 62
     0
 10
529.41627800000015
 20
1273.0544593428219
 30
0.0
 11
529.41627800000015
 21
1153.054459342821
 31
0.0
  0
INSERT
  5
7F94
  8
3
  6
CONTINUOUS
 62
     0
  2
_OPEN
 10
529.41627800000015
 20
1293.0544593428219
 30
0.0
 41
20.0
 42
20.0
 43
20.0
 50
90.0
  0
INSERT
  5
7F95
  8
3
  6
CONTINUOUS
 62
     0
  2
_OPEN
 10
529.41627800000015
 20
1133.054459342821
 30
0.0
 41
20.0
 42
20.0
 43
20.0
 50
270.0
  0
TEXT
  8
3
  40
30
  5
8005
  62
0
  72
0
  71
0
 10
444.416
 20
1158.65
 30
0.000000
  1
160
  0
POINT
  5
7F97
  8
DEFPOINTS
  6
CONTINUOUS
 62
     0
 10
573.44127600000002
 20
1293.0544593428219
 30
0.0
  0
POINT
  5
7F98
  8
DEFPOINTS
  6
CONTINUOUS
 62
     0
 10
572.4412759999999
 20
1133.054459342821
 30
0.0
  0
POINT
  5
7F99
  8
DEFPOINTS
  6
CONTINUOUS
 62
     0
 10
529.41627800000015
 20
1133.054459342821
 30
0.0
  0
ENDBLK
  5
7BC7
  8
0
  0
BLOCK
  8
0
  2
*D8
 70
     1
 10
0.0
 20
0.0
 30
0.0
  3
*D8
  1

  0
LINE
  5
7F9A
  8
3
  6
CONTINUOUS
 62
     0
 10
582.44127600000002
 20
1304.0544593428219
 30
0.0
 11
468.57504000000017
 21
1304.0544593428219
 31
0.0
  0
LINE
  5
7F9B
  8
3
  6
CONTINUOUS
 62
     0
 10
495.61460099999999
 20
1133.054459342821
 30
0.0
 11
468.57504000000017
 21
1133.054459342821
 31
0.0
  0
LINE
  5
7F9C
  8
3
  6
CONTINUOUS
 62
     0
 10
478.57504000000029
 20
1284.0544593428219
 30
0.0
 11
478.57504000000029
 21
1153.054459342821
 31
0.0
  0
INSERT
  5
7F9D
  8
3
  6
CONTINUOUS
 62
     0
  2
_OPEN
 10
478.57504000000029
 20
1304.0544593428219
 30
0.0
 41
20.0
 42
20.0
 43
20.0
 50
90.0
  0
INSERT
  5
7F9E
  8
3
  6
CONTINUOUS
 62
     0
  2
_OPEN
 10
478.57504000000017
 20
1133.054459342821
 30
0.0
 41
20.0
 42
20.0
 43
20.0
 50
270.0
  0
TEXT
  8
3
  40
30
  5
8006
  62
0
  72
0
  71
0
 10
393.575
 20
1173.41
 30
0.000000
  1
171
  0
POINT
  5
7FA0
  8
DEFPOINTS
  6
CONTINUOUS
 62
     0
 10
587.44127600000002
 20
1304.0544593428219
 30
0.0
  0
POINT
  5
7FA1
  8
DEFPOINTS
  6
CONTINUOUS
 62
     0
 10
500.61460099999999
 20
1133.054459342821
 30
0.0
  0
POINT
  5
7FA2
  8
DEFPOINTS
  6
CONTINUOUS
 62
     0
 10
478.57504000000017
 20
1133.054459342821
 30
0.0
  0
ENDBLK
  5
7BD6
  8
0
  0
BLOCK
  8
0
  2
*D9
 70
     1
 10
0.0
 20
0.0
 30
0.0
  3
*D9
  1

  0
LINE
  5
7FA3
  8
3
  6
CONTINUOUS
 62
     0
 10
542.44127600000002
 20
821.05445934282193
 30
0.0
 11
542.44127600000002
 21
765.95511334282173
 31
0.0
  0
LINE
  5
7FA4
  8
3
  6
CONTINUOUS
 62
     0
 10
702.44127600000002
 20
846.05445934282193
 30
0.0
 11
702.44127600000002
 21
765.95511334282173
 31
0.0
  0
LINE
  5
7FA5
  8
3
  6
CONTINUOUS
 62
     0
 10
562.44127600000002
 20
775.95511334282173
 30
0.0
 11
682.44127600000002
 21
775.95511334282173
 31
0.0
  0
INSERT
  5
7FA6
  8
3
  6
CONTINUOUS
 62
     0
  2
_OPEN
 10
542.44127600000002
 20
775.95511334282173
 30
0.0
 41
20.0
 42
20.0
 43
20.0
 50
180.0
  0
INSERT
  5
7FA7
  8
3
  6
CONTINUOUS
 62
     0
  2
_OPEN
 10
702.44127600000002
 20
775.95511334282173
 30
0.0
 41
20.0
 42
20.0
 43
20.0
  0
TEXT
  8
3
  40
30
  5
8007
  62
0
  72
0
  71
0
 10
560.830
 20
747.855
 30
0.000000
  1
160
  0
POINT
  5
7FA9
  8
DEFPOINTS
  6
CONTINUOUS
 62
     0
 10
542.44127600000002
 20
826.05445934282181
 30
0.0
  0
POINT
  5
7FAA
  8
DEFPOINTS
  6
CONTINUOUS
 62
     0
 10
702.44127600000002
 20
851.05445934282181
 30
0.0
  0
POINT
  5
7FAB
  8
DEFPOINTS
  6
CONTINUOUS
 62
     0
 10
702.44127600000002
 20
775.95511334282173
 30
0.0
  0
ENDBLK
  5
7C19
  8
0
  0
BLOCK
  8
0
  2
*D10
 70
     1
 10
0.0
 20
0.0
 30
0.0
  3
*D10
  1

  0
LINE
  5
7FAC
  8
3
  6
CONTINUOUS
 62
     0
 10
1152.441276
 20
821.05445934282193
 30
0.0
 11
1152.441276
 21
765.95511334282173
 31
0.0
  0
LINE
  5
7FAD
  8
3
  6
CONTINUOUS
 62
     0
 10
722.4412759999999
 20
775.95511334282173
 30
0.0
 11
1132.4412759999991
 21
775.95511334282173
 31
0.0
  0
INSERT
  5
7FAE
  8
3
  6
CONTINUOUS
 62
     0
  2
_OPEN
 10
702.44127600000002
 20
775.95511334282173
 30
0.0
 41
20.0
 42
20.0
 43
20.0
 50
180.0
  0
INSERT
  5
7FAF
  8
3
  6
CONTINUOUS
 62
     0
  2
_OPEN
 10
1152.441276
 20
775.95511334282173
 30
0.0
 41
20.0
 42
20.0
 43
20.0
  0
TEXT
  8
3
  40
30
  5
8008
  62
0
  72
0
  71
0
 10
867.441
 20
747.855
 30
0.000000
  1
450
  0
POINT
  5
7FB1
  8
DEFPOINTS
  6
CONTINUOUS
 62
     0
 10
702.44127600000002
 20
851.05445934282181
 30
0.0
  0
POINT
  5
7FB2
  8
DEFPOINTS
  6
CONTINUOUS
 62
     0
 10
1152.441276
 20
826.05445934282181
 30
0.0
  0
POINT
  5
7FB3
  8
DEFPOINTS
  6
CONTINUOUS
 62
     0
 10
1152.441276
 20
775.95511334282173
 30
0.0
  0
ENDBLK
  5
7C25
  8
0
  0
BLOCK
  8
0
  2
*D11
 70
     1
 10
0.0
 20
0.0
 30
0.0
  3
*D11
  1

  0
LINE
  5
7FB4
  8
3
  6
CONTINUOUS
 62
     0
 10
542.44127600000002
 20
1677.932405037453
 30
0.0
 11
542.44127600000002
 21
1608.5236580374531
 31
0.0
  0
LINE
  5
7FB5
  8
3
  6
CONTINUOUS
 62
     0
 10
1152.441276
 20
1677.932405037453
 30
0.0
 11
1152.441276
 21
1608.5236580374531
 31
0.0
  0
LINE
  5
7FB6
  8
3
  6
CONTINUOUS
 62
     0
 10
562.44127600000002
 20
1618.5236580374531
 30
0.0
 11
1132.4412759999991
 21
1618.5236580374531
 31
0.0
  0
INSERT
  5
7FB7
  8
3
  6
CONTINUOUS
 62
     0
  2
_OPEN
 10
542.44127600000002
 20
1618.5236580374531
 30
0.0
 41
20.0
 42
20.0
 43
20.0
 50
180.0
  0
INSERT
  5
7FB8
  8
3
  6
CONTINUOUS
 62
     0
  2
_OPEN
 10
1152.441276
 20
1618.5236580374531
 30
0.0
 41
20.0
 42
20.0
 43
20.0
  0
TEXT
  8
3
  40
30
  5
8009
  62
0
  72
0
  71
0
 10
782.897
 20
1590.42
 30
0.000000
  1
610
  0
POINT
  5
7FBA
  8
DEFPOINTS
  6
CONTINUOUS
 62
     0
 10
542.44127600000002
 20
1682.932405037453
 30
0.0
  0
POINT
  5
7FBB
  8
DEFPOINTS
  6
CONTINUOUS
 62
     0
 10
1152.441276
 20
1682.932405037453
 30
0.0
  0
POINT
  5
7FBC
  8
DEFPOINTS
  6
CONTINUOUS
 62
     0
 10
1152.441276
 20
1618.5236580374531
 30
0.0
  0
ENDBLK
  5
7C6C
  8
0
  0
BLOCK
  8
0
  2
*D12
 70
     1
 10
0.0
 20
0.0
 30
0.0
  3
*D12
  1

  0
LINE
  5
7FBD
  8
3
  6
CONTINUOUS
 62
     0
 10
1157.4412759999991
 20
2112.932405037453
 30
0.0
 11
1247.0358590000001
 21
2112.932405037453
 31
0.0
  0
LINE
  5
7FBE
  8
3
  6
CONTINUOUS
 62
     0
 10
1157.4412759999991
 20
1682.932405037453
 30
0.0
 11
1247.0358590000001
 21
1682.932405037453
 31
0.0
  0
LINE
  5
7FBF
  8
3
  6
CONTINUOUS
 62
     0
 10
1237.0358590000001
 20
2092.932405037453
 30
0.0
 11
1237.0358590000001
 21
1702.932405037453
 31
0.0
  0
INSERT
  5
7FC0
  8
3
  6
CONTINUOUS
 62
     0
  2
_OPEN
 10
1237.0358590000001
 20
2112.932405037453
 30
0.0
 41
20.0
 42
20.0
 43
20.0
 50
90.0
  0
INSERT
  5
7FC1
  8
3
  6
CONTINUOUS
 62
     0
  2
_OPEN
 10
1237.0358590000001
 20
1682.932405037453
 30
0.0
 41
20.0
 42
20.0
 43
20.0
 50
270.0
  0
TEXT
  8
3
  40
30
  5
800A
  62
0
  72
0
  71
0
 10
1152.04
 20
1858.21
 30
0.000000
  1
430
  0
POINT
  5
7FC3
  8
DEFPOINTS
  6
CONTINUOUS
 62
     0
 10
1152.441276
 20
2112.932405037453
 30
0.0
  0
POINT
  5
7FC4
  8
DEFPOINTS
  6
CONTINUOUS
 62
     0
 10
1152.441276
 20
1682.932405037453
 30
0.0
  0
POINT
  5
7FC5
  8
DEFPOINTS
  6
CONTINUOUS
 62
     0
 10
1237.0358590000001
 20
1682.932405037453
 30
0.0
  0
ENDBLK
  5
7C79
  8
0
  0
BLOCK
  8
0
  2
*D13
 70
     1
 10
0.0
 20
0.0
 30
0.0
  3
*D13
  1

  0
LINE
  5
7FC6
  8
3
  6
CONTINUOUS
 62
     0
 10
562.44127600000002
 20
898.05445934282181
 30
0.0
 11
468.57504
 21
898.05445934282181
 31
0.0
  0
LINE
  5
7FC7
  8
3
  6
CONTINUOUS
 62
     0
 10
478.57504
 20
1113.054459342821
 30
0.0
 11
478.57504
 21
918.0544593428217
 31
0.0
  0
INSERT
  5
7FC8
  8
3
  6
CONTINUOUS
 62
     0
  2
_OPEN
 10
478.57504
 20
1133.054459342821
 30
0.0
 41
20.0
 42
20.0
 43
20.0
 50
90.0
  0
INSERT
  5
7FC9
  8
3
  6
CONTINUOUS
 62
     0
  2
_OPEN
 10
478.57504
 20
898.05445934282181
 30
0.0
 41
20.0
 42
20.0
 43
20.0
 50
270.0
  0
TEXT
  8
3
  40
30
  5
800B
  62
0
  72
0
  71
0
 10
393.575
 20
962.454
 30
0.000000
  1
235
  0
POINT
  5
7FCB
  8
DEFPOINTS
  6
CONTINUOUS
 62
     0
 10
500.61460099999999
 20
1133.054459342821
 30
0.0
  0
POINT
  5
7FCC
  8
DEFPOINTS
  6
CONTINUOUS
 62
     0
 10
567.44127600000002
 20
898.05445934282181
 30
0.0
  0
POINT
  5
7FCD
  8
DEFPOINTS
  6
CONTINUOUS
 62
     0
 10
478.57504
 20
898.05445934282181
 30
0.0
  0
ENDBLK
  5
7C8D
  8
0
  0
BLOCK
  8
0
  2
*D14
 70
     1
 10
0.0
 20
0.0
 30
0.0
  3
*D14
  1

  0
LINE
  5
7FCE
  8
3
  6
CONTINUOUS
 62
     0
 10
537.44127600000002
 20
851.05445934282181
 30
0.0
 11
468.57504
 21
851.05445934282181
 31
0.0
  0
LINE
  5
7FCF
  8
3
  6
CONTINUOUS
 62
     0
 10
478.57504000000012
 20
918.0544593428217
 30
0.0
 11
478.57504000000012
 21
938.05445934282193
 31
0.0
  0
LINE
  5
7FD0
  8
3
  6
CONTINUOUS
 62
     0
 10
478.57504
 20
831.05445934282181
 30
0.0
 11
478.57504
 21
811.0544593428217
 31
0.0
  0
TEXT
  8
3
  40
30
  5
800C
  62
0
  72
0
  71
0
 10
391.130
 20
817.115
 30
0.000000
  1
47
  0
LINE
  5
7FD2
  8
3
  6
CONTINUOUS
 62
     0
 10
478.57504000000012
 20
898.05445934282181
 30
0.0
 11
478.57504
 21
851.05445934282181
 31
0.0
  0
INSERT
  5
7FD3
  8
3
  6
CONTINUOUS
 62
     0
  2
_OPEN
 10
478.57504000000012
 20
898.05445934282181
 30
0.0
 41
20.0
 42
20.0
 43
20.0
 50
270.0
  0
INSERT
  5
7FD4
  8
3
  6
CONTINUOUS
 62
     0
  2
_DOT
 10
478.57504
 20
851.05445934282181
 30
0.0
 41
20.0
 42
20.0
 43
20.0
 50
90.0
  0
POINT
  5
7FD5
  8
DEFPOINTS
  6
CONTINUOUS
 62
     0
 10
567.44127600000002
 20
898.05445934282181
 30
0.0
  0
POINT
  5
7FD6
  8
DEFPOINTS
  6
CONTINUOUS
 62
     0
 10
542.44127600000002
 20
851.05445934282181
 30
0.0
  0
POINT
  5
7FD7
  8
DEFPOINTS
  6
CONTINUOUS
 62
     0
 10
478.57504
 20
851.05445934282181
 30
0.0
  0
ENDBLK
  5
7E5D
  8
0
  0
BLOCK
  8
0
  2
*D15
 70
     1
 10
0.0
 20
0.0
 30
0.0
  3
*D15
  1

  0
LINE
  5
7FD8
  8
3
  6
CONTINUOUS
 62
     0
 10
537.44127600000002
 20
851.05445934282181
 30
0.0
 11
468.10108100000008
 21
851.05445934282181
 31
0.0
  0
LINE
  5
7FD9
  8
3
  6
CONTINUOUS
 62
     0
 10
537.44127600000002
 20
826.05445934282181
 30
0.0
 11
468.10108100000008
 21
826.05445934282181
 31
0.0
  0
LINE
  5
7FDA
  8
3
  6
CONTINUOUS
 62
     0
 10
478.10108100000008
 20
871.05445934282193
 30
0.0
 11
478.10108100000008
 21
891.05445934282181
 31
0.0
  0
LINE
  5
7FDB
  8
3
  6
CONTINUOUS
 62
     0
 10
478.10108100000008
 20
806.05445934282181
 30
0.0
 11
478.10108100000008
 21
717.48303077139315
 31
0.0
  0
LINE
  5
7FDC
  8
3
  6
CONTINUOUS
 62
     0
 10
478.10108100000008
 20
851.05445934282181
 30
0.0
 11
478.10108100000008
 21
826.05445934282181
 31
0.0
  0
INSERT
  5
7FDD
  8
3
  6
CONTINUOUS
 62
     0
  2
_DOT
 10
478.10108100000008
 20
851.05445934282181
 30
0.0
 41
20.0
 42
20.0
 43
20.0
 50
270.0
  0
INSERT
  5
7FDE
  8
3
  6
CONTINUOUS
 62
     0
  2
_OPEN
 10
478.10108100000008
 20
826.05445934282181
 30
0.0
 41
20.0
 42
20.0
 43
20.0
 50
90.0
  0
TEXT
  8
3
  40
30
  5
800D
  62
0
  72
0
  71
0
 10
393.101
 20
698.669
 30
0.000000
  1
25
  0
POINT
  5
7FE0
  8
DEFPOINTS
  6
CONTINUOUS
 62
     0
 10
542.44127600000002
 20
851.05445934282181
 30
0.0
  0
POINT
  5
7FE1
  8
DEFPOINTS
  6
CONTINUOUS
 62
     0
 10
542.44127600000002
 20
826.05445934282181
 30
0.0
  0
POINT
  5
7FE2
  8
DEFPOINTS
  6
CONTINUOUS
 62
     0
 10
478.10108100000008
 20
826.05445934282181
 30
0.0
  0
ENDBLK
  5
7E6A
  8
0
  0
BLOCK
  8
0
  2
*D16
 70
     1
 10
0.0
 20
0.0
 30
0.0
  3
*D16
  1

  0
LINE
  5
7DFB
  8
0
  6
BYBLOCK
 62
     0
 10
572.4412759999999
 20
1320.0544593428219
 30
0.0
 11
572.4412759999999
 21
1341.3647793428211
 31
0.0
  0
LINE
  5
7DFC
  8
0
  6
BYBLOCK
 62
     0
 10
702.44127600000002
 20
1308.5187413428221
 30
0.0
 11
702.44127600000002
 21
1341.3647793428211
 31
0.0
  0
LINE
  5
7DFD
  8
0
  6
BYBLOCK
 62
     0
 10
592.44127600000002
 20
1331.3647793428211
 30
0.0
 11
682.44127600000002
 21
1331.3647793428211
 31
0.0
  0
TEXT
  5
7DFE
  8
3
 62
     0
 10
601.72699028571424
 20
1340.9527801166821
 30
0.0
 40
30.0
  1
130
  0
INSERT
  5
7DFF
  8
0
  6
BYBLOCK
 62
     0
  2
_OPEN
 10
572.4412759999999
 20
1331.3647793428211
 30
0.0
 41
20.0
 42
20.0
 43
20.0
 50
180.0
  0
INSERT
  5
7E00
  8
0
  6
BYBLOCK
 62
     0
  2
_OPEN
 10
702.44127600000002
 20
1331.3647793428211
 30
0.0
 41
20.0
 42
20.0
 43
20.0
  0
POINT
  5
7E01
  8
DEFPOINTS
  6
BYBLOCK
 62
     0
 10
572.4412759999999
 20
1315.0544593428219
 30
0.0
  0
POINT
  5
7E02
  8
DEFPOINTS
  6
BYBLOCK
 62
     0
 10
702.44127600000002
 20
1303.5187413428209
 30
0.0
  0
POINT
  5
7E03
  8
DEFPOINTS
  6
BYBLOCK
 62
     0
 10
702.44127600000002
 20
1331.3647793428211
 30
0.0
  0
ENDBLK
  5
7E04
  8
0
  0
BLOCK
  8
0
  2
*D17
 70
     1
 10
0.0
 20
0.0
 30
0.0
  3
*D17
  1

  0
LINE
  5
7FE3
  8
3
  6
CONTINUOUS
 62
     0
 10
847.4412759999999
 20
1138.054459342821
 30
0.0
 11
847.4412759999999
 21
1341.3647793428211
 31
0.0
  0
LINE
  5
7FE4
  8
3
  6
CONTINUOUS
 62
     0
 10
722.4412759999999
 20
1331.3647793428211
 30
0.0
 11
827.44127600000002
 21
1331.3647793428211
 31
0.0
  0
INSERT
  5
7FE5
  8
3
  6
CONTINUOUS
 62
     0
  2
_OPEN
 10
702.44127600000002
 20
1331.3647793428211
 30
0.0
 41
20.0
 42
20.0
 43
20.0
 50
180.0
  0
INSERT
  5
7FE6
  8
3
  6
CONTINUOUS
 62
     0
  2
_OPEN
 10
847.4412759999999
 20
1331.3647793428211
 30
0.0
 41
20.0
 42
20.0
 43
20.0
  0
TEXT
  8
3
  40
30
  5
800E
  62
0
  72
0
  71
0
 10
714.941
 20
1303.26
 30
0.000000
  1
145
  0
POINT
  5
7FE8
  8
DEFPOINTS
  6
CONTINUOUS
 62
     0
 10
702.44127600000002
 20
1303.5187413428209
 30
0.0
  0
POINT
  5
7FE9
  8
DEFPOINTS
  6
CONTINUOUS
 62
     0
 10
847.4412759999999
 20
1133.054459342821
 30
0.0
  0
POINT
  5
7FEA
  8
DEFPOINTS
  6
CONTINUOUS
 62
     0
 10
847.4412759999999
 20
1331.3647793428211
 30
0.0
  0
ENDBLK
  5
7E89
  8
0
  0
BLOCK
  8
0
  2
*D18
 70
     1
 10
0.0
 20
0.0
 30
0.0
  3
*D18
  1

  0
LINE
  5
7FEB
  8
3
 62
     0
 10
567.44127600000002
 20
1315.0544593428219
 30
0.0
 11
402.0353145281498
 21
1315.0544593428219
 31
0.0
  0
LINE
  5
7FEC
  8
3
 62
     0
 10
537.44127600000002
 20
826.05445934282181
 30
0.0
 11
402.0353145281498
 21
826.05445934282181
 31
0.0
  0
LINE
  5
7FED
  8
3
 62
     0
 10
412.03531452814991
 20
1295.0544593428219
 30
0.0
 11
412.03531452814968
 21
846.05445934282193
 31
0.0
  0
INSERT
  5
7FEE
  8
3
 62
     0
  2
_OPEN
 10
412.03531452814991
 20
1315.0544593428219
 30
0.0
 41
20.0
 42
20.0
 43
20.0
 50
90.0
  0
INSERT
  5
7FEF
  8
3
 62
     0
  2
_OPEN
 10
412.03531452814968
 20
826.05445934282181
 30
0.0
 41
20.0
 42
20.0
 43
20.0
 50
270.0
  0
TEXT
  8
3
  40
30
  5
800F
  62
0
  72
0
  71
0
 10
327.035
 20
1007.06
 30
0.000000
  1
489
  0
POINT
  5
7FF1
  8
DEFPOINTS
 62
     0
 10
572.4412759999999
 20
1315.0544593428219
 30
0.0
  0
POINT
  5
7FF2
  8
DEFPOINTS
 62
     0
 10
542.44127600000002
 20
826.05445934282181
 30
0.0
  0
POINT
  5
7FF3
  8
DEFPOINTS
 62
     0
 10
412.03531452814968
 20
826.05445934282181
 30
0.0
  0
ENDBLK
  5
7E3B
  8
0
  0
BLOCK
  8
0
  2
*D19
 70
     1
 10
0.0
 20
0.0
 30
0.0
  3
*D19
  1

  0
LINE
  5
7FF4
  8
3
 62
     0
 10
572.4412759999999
 20
1320.0544593428219
 30
0.0
 11
572.4412759999999
 21
1395.960276717138
 31
0.0
  0
LINE
  5
7FF5
  8
3
 62
     0
 10
1152.441276
 20
881.05445934282181
 30
0.0
 11
1152.441276
 21
1395.960276717138
 31
0.0
  0
LINE
  5
7FF6
  8
3
 62
     0
 10
592.44127600000002
 20
1385.960276717138
 30
0.0
 11
1132.4412759999991
 21
1385.960276717138
 31
0.0
  0
INSERT
  5
7FF7
  8
3
 62
     0
  2
_OPEN
 10
572.4412759999999
 20
1385.960276717138
 30
0.0
 41
20.0
 42
20.0
 43
20.0
 50
180.0
  0
INSERT
  5
7FF8
  8
3
 62
     0
  2
_OPEN
 10
1152.441276
 20
1385.960276717138
 30
0.0
 41
20.0
 42
20.0
 43
20.0
  0
TEXT
  8
3
  40
30
  5
8010
  62
0
  72
0
  71
0
 10
791.794
 20
1357.86
 30
0.000000
  1
580
  0
POINT
  5
7FFA
  8
DEFPOINTS
 62
     0
 10
572.4412759999999
 20
1315.0544593428219
 30
0.0
  0
POINT
  5
7FFB
  8
DEFPOINTS
 62
     0
 10
1152.441276
 20
876.05445934282181
 30
0.0
  0
POINT
  5
7FFC
  8
DEFPOINTS
 62
     0
 10
1152.441276
 20
1385.960276717138
 30
0.0
  0
ENDBLK
  5
7E48
  8
0
  0
BLOCK
  8
0
  2
_DOT
 70
     0
 10
0.0
 20
0.0
 30
0.0
  3
_DOT
  1

  0
LINE
  5
7E6B
  8
0
  6
BYBLOCK
 62
     0
 10
0.0
 20
0.0
 30
0.0
 11
-1.0
 21
-0.0000000000000284
 31
0.0
  0
POLYLINE
  5
7E6C
  8
0
  6
BYBLOCK
 62
     0
 66
     1
 10
0.0
 20
0.0
 30
0.0
 70
     1
 40
0.1666666666666666
 41
0.1666666666666666
  0
VERTEX
  5
7FFD
  8
0
  6
BYBLOCK
 62
     0
 10
-0.0833333333333286
 20
-0.0000000000000284
 30
0.0
 42
1.0
  0
VERTEX
  5
7FFE
  8
0
  6
BYBLOCK
 62
     0
 10
0.0833333333333286
 20
-0.0000000000000284
 30
0.0
 42
1.0
  0
SEQEND
  5
7FFF
  8
0
  6
BYBLOCK
 62
     0
  0
ENDBLK
  5
7E51
  8
0
  0
ENDSEC
  0
SECTION
  2
ENTITIES
  0
LINE
  5
7A95
  8
1
  6
CONTINUOUS
 10
1152.441276
 20
851.05445934282181
 30
0.0
 11
542.44127600000002
 21
851.05445934282181
 31
0.0
  0
LINE
  5
7A96
  8
1
  6
CONTINUOUS
 10
1152.441276
 20
876.05445934282181
 30
0.0
 11
542.44127600000002
 21
876.05445934282181
 31
0.0
  0
LINE
  5
7A97
  8
1
  6
CONTINUOUS
 10
1127.441276
 20
898.05445934282181
 30
0.0
 11
567.44127600000002
 21
898.05445934282181
 31
0.0
  0
LINE
  5
7A98
  8
1
  6
CONTINUOUS
 10
1127.441276
 20
948.05445934282181
 30
0.0
 11
567.44127600000002
 21
948.05445934282181
 31
0.0
  0
LINE
  5
7A99
  8
1
  6
CONTINUOUS
 10
605.14127599999995
 20
1228.054459342821
 30
0.0
 11
1085.1412760000001
 21
1228.054459342821
 31
0.0
  0
ARC
  5
7A9A
  8
1
  6
CONTINUOUS
 10
689.44127600000002
 20
1146.054459342821
 30
0.0
 40
158.0
 50
350.89999999999992
 51
90.0
  0
ARC
  5
7A9B
  8
1
  6
CONTINUOUS
 10
713.44127600000002
 20
1144.054459342821
 30
0.0
 40
134.0
 50
269.5
 51
350.10000000000002
  0
LINE
  5
7A9C
  8
1
  6
CONTINUOUS
 10
999.04127599999993
 20
1081.2544593428211
 30
0.0
 11
716.74127599999986
 21
1175.7544593428211
 31
0.0
  0
LINE
  5
7A9D
  8
1
  6
CONTINUOUS
 10
979.04127599999981
 20
1014.154459342821
 30
0.0
 11
691.04127599999993
 21
1089.554459342821
 31
0.0
  0
LINE
  5
7A9E
  8
1
  6
CONTINUOUS
 10
567.44127600000002
 20
898.05445934282181
 30
0.0
 11
567.44127600000002
 21
948.05445934282181
 31
0.0
  0
LINE
  5
7A9F
  8
1
  6
CONTINUOUS
 10
542.44127600000002
 20
826.05445934282181
 30
0.0
 11
542.44127600000002
 21
876.05445934282181
 31
0.0
  0
LINE
  5
7AA0
  8
1
  6
CONTINUOUS
 10
542.44127600000002
 20
826.05445934282181
 30
0.0
 11
567.44127600000002
 21
826.05445934282181
 31
0.0
  0
LINE
  5
7AA1
  8
1
  6
CONTINUOUS
 10
567.44127600000002
 20
851.05445934282181
 30
0.0
 11
567.44127600000002
 21
826.05445934282181
 31
0.0
  0
CIRCLE
  5
7AA2
  8
1
  6
CONTINUOUS
 10
702.44127600000002
 20
1133.054459342821
 30
0.0
 40
80.0
  0
LINE
  5
7AA3
  8
1
  6
CONTINUOUS
 10
812.44127600000002
 20
1099.754459342822
 30
0.0
 11
592.44127600000002
 21
1099.754459342822
 31
0.0
  0
LINE
  5
7AA4
  8
1
  6
CONTINUOUS
 10
592.44127600000002
 20
1175.1544593428221
 30
0.0
 11
665.84127599999999
 21
1238.054459342821
 31
0.0
  0
LINE
  5
7AA5
  8
1
  6
CONTINUOUS
 10
587.44127600000002
 20
1304.0544593428219
 30
0.0
 11
689.44127600000002
 21
1304.0544593428219
 31
0.0
  0
ARC
  5
7AA6
  8
1
  6
CONTINUOUS
 10
711.44127600000002
 20
1124.054459342821
 30
0.0
 40
114.0
 50
180.49999999999989
 51
270.5
  0
CIRCLE
  5
7AA7
  8
1
  6
CONTINUOUS
 10
702.44127600000002
 20
1133.054459342821
 30
0.0
 40
100.0
  0
LINE
  5
7AA8
  8
1
  6
CONTINUOUS
 10
587.44127600000002
 20
1279.054459342821
 30
0.0
 11
587.44127600000002
 21
1147.0544593428219
 31
0.0
  0
LINE
  5
7AA9
  8
1
  6
CONTINUOUS
 10
572.4412759999999
 20
1315.0544593428219
 30
0.0
 11
572.4412759999999
 21
1111.054459342821
 31
0.0
  0
LINE
  5
7AAA
  8
1
  6
CONTINUOUS
 10
587.44127600000002
 20
1123.054459342821
 30
0.0
 11
597.4412759999999
 21
1123.054459342821
 31
0.0
  0
LINE
  5
7AAB
  8
1
  6
CONTINUOUS
 10
572.4412759999999
 20
1132.054459342821
 30
0.0
 11
587.44127600000002
 21
1147.0544593428219
 31
0.0
  0
LINE
  5
7AAC
  8
1
  6
CONTINUOUS
 10
587.44127600000002
 20
1133.054459342821
 30
0.0
 11
572.4412759999999
 21
1133.054459342821
 31
0.0
  0
LINE
  5
7AAD
  8
1
  6
CONTINUOUS
 10
587.44127600000002
 20
1133.054459342821
 30
0.0
 11
587.44127600000002
 21
1123.054459342821
 31
0.0
  0
LINE
  5
7AAE
  8
1
  6
CONTINUOUS
 10
605.14127599999995
 20
948.05445934282181
 30
0.0
 11
605.14127599999995
 21
1228.054459342821
 31
0.0
  0
LINE
  5
7AAF
  8
1
  6
CONTINUOUS
 10
592.44127600000002
 20
948.05445934282181
 30
0.0
 11
592.44127600000002
 21
1175.1544593428221
 31
0.0
  0
LINE
  5
7AB0
  8
1
  6
CONTINUOUS
 10
572.4412759999999
 20
1294.0544593428219
 30
0.0
 11
587.44127600000002
 21
1279.054459342821
 31
0.0
  0
LINE
  5
7AB1
  8
1
  6
CONTINUOUS
 10
587.44127600000002
 20
1293.0544593428219
 30
0.0
 11
572.4412759999999
 21
1293.0544593428219
 31
0.0
  0
LINE
  5
7AB2
  8
1
  6
CONTINUOUS
 10
587.44127600000002
 20
1304.0544593428219
 30
0.0
 11
587.44127600000002
 21
1293.0544593428219
 31
0.0
  0
CIRCLE
  5
7AB3
  8
1
  6
CONTINUOUS
 10
702.44127600000002
 20
1133.054459342821
 30
0.0
 40
45.0
  0
LINE
  5
7AB4
  8
1
  6
CONTINUOUS
 10
812.44127600000002
 20
1175.1544593428221
 30
0.0
 11
739.04127599999993
 21
1238.054459342821
 31
0.0
  0
LINE
  5
7AB5
  8
2
  6
CENTER
 10
1709.9386437780911
 20
1133.054459342821
 30
0.0
 11
1314.975081778091
 21
1133.054459342821
 31
0.0
  0
LINE
  5
7AB6
  8
1
  6
CONTINUOUS
 10
665.84127599999999
 20
1238.054459342821
 30
0.0
 11
739.04127599999993
 21
1238.054459342821
 31
0.0
  0
LINE
  5
7AB7
  8
2
  6
CENTER
 10
702.44127600000002
 20
797.96698534282189
 30
0.0
 11
702.44127600000002
 21
1307.371933342821
 31
0.0
  0
LINE
  5
7AB8
  8
1
  6
CONTINUOUS
 10
812.44127600000002
 20
1175.1544593428221
 30
0.0
 11
812.44127600000002
 21
948.05445934282181
 31
0.0
  0
LINE
  5
7AB9
  8
1
  6
CONTINUOUS
 10
1127.441276
 20
968.0544593428217
 30
0.0
 11
1127.441276
 21
898.05445934282181
 31
0.0
  0
LINE
  5
7ABA
  8
1
  6
CONTINUOUS
 10
1152.441276
 20
876.05445934282181
 30
0.0
 11
1152.441276
 21
826.05445934282181
 31
0.0
  0
LINE
  5
7ABB
  8
1
  6
CONTINUOUS
 10
1127.441276
 20
851.05445934282181
 30
0.0
 11
1127.441276
 21
826.05445934282181
 31
0.0
  0
LINE
  5
7ABC
  8
1
  6
CONTINUOUS
 10
1152.441276
 20
826.05445934282181
 30
0.0
 11
1127.441276
 21
826.05445934282181
 31
0.0
  0
LINE
  5
7ABD
  8
1
  6
CONTINUOUS
 10
1127.441276
 20
968.0544593428217
 30
0.0
 11
876.44127600000002
 21
968.0544593428217
 31
0.0
  0
ARC
  5
7ABE
  8
1
  6
CONTINUOUS
 10
987.94127600000013
 20
1048.054459342821
 30
0.0
 40
85.0
 50
324.69999999999987
 51
215.30000000000001
  0
LINE
  5
7ABF
  8
2
  6
CENTER
 10
1022.941276
 20
1048.054459342821
 30
0.0
 11
952.9412759999999
 21
1048.054459342821
 31
0.0
  0
CIRCLE
  5
7AC0
  8
1
  6
CONTINUOUS
 10
987.94127600000013
 20
1048.054459342821
 30
0.0
 40
35.0
  0
LINE
  5
7AC1
  8
1
  6
CONTINUOUS
 10
910.44127600000002
 20
968.0544593428217
 30
0.0
 11
910.44127600000002
 21
976.05445934282181
 31
0.0
  0
LINE
  5
7AC2
  8
1
  6
CONTINUOUS
 10
876.44127600000002
 20
968.0544593428217
 30
0.0
 11
876.44127600000002
 21
948.05445934282181
 31
0.0
  0
LINE
  5
7AC3
  8
1
  6
CONTINUOUS
 10
910.44127600000002
 20
976.05445934282181
 30
0.0
 11
918.64127599999995
 21
998.85445934282188
 31
0.0
  0
LINE
  5
7AC4
  8
2
  6
CENTER
 10
987.94127600000013
 20
1013.054459342821
 30
0.0
 11
987.94127600000013
 21
1083.054459342821
 31
0.0
  0
LINE
  5
7AC5
  8
1
  6
CONTINUOUS
 10
1065.441276
 20
968.0544593428217
 30
0.0
 11
1065.441276
 21
976.05445934282181
 31
0.0
  0
LINE
  5
7AC6
  8
1
  6
CONTINUOUS
 10
1065.441276
 20
976.05445934282181
 30
0.0
 11
1057.241276
 21
998.85445934282188
 31
0.0
  0
LINE
  5
7AC7
  8
1
  6
CONTINUOUS
 10
1085.1412760000001
 20
1228.054459342821
 30
0.0
 11
1085.1412760000001
 21
948.05445934282181
 31
0.0
  0
LINE
  5
7AC8
  8
1
  6
CONTINUOUS
 10
836.54127599999993
 20
1991.432405037453
 30
0.0
 11
1127.441276
 21
1991.432405037453
 31
0.0
  0
LINE
  5
7AC9
  8
1
  6
CONTINUOUS
 10
978.44127600000002
 20
1767.432405037453
 30
0.0
 11
714.44127600000002
 21
1767.432405037453
 31
0.0
  0
LINE
  5
7ACA
  8
1
  6
CONTINUOUS
 10
605.14127599999995
 20
1770.432405037453
 30
0.0
 11
1085.1412760000001
 21
1770.432405037453
 31
0.0
  0
LINE
  5
7ACB
  8
1
  6
CONTINUOUS
 10
605.14127599999995
 20
1695.432405037453
 30
0.0
 11
1085.1412760000001
 21
1695.432405037453
 31
0.0
  0
LINE
  5
7ACC
  8
1
  6
CONTINUOUS
 10
572.4412759999999
 20
2032.432405037453
 30
0.0
 11
572.4412759999999
 21
1878.432405037453
 31
0.0
  0
LINE
  5
7ACD
  8
1
  6
CONTINUOUS
 10
587.44127600000002
 20
1997.432405037453
 30
0.0
 11
587.44127600000002
 21
1913.432405037453
 31
0.0
  0
LINE
  5
7ACE
  8
1
  6
CONTINUOUS
 10
836.54127599999993
 20
2003.432405037453
 30
0.0
 11
836.54127599999993
 21
1907.432405037453
 31
0.0
  0
LINE
  5
7ACF
  8
1
  6
CONTINUOUS
 10
567.44127600000002
 20
2112.932405037453
 30
0.0
 11
567.44127600000002
 21
1682.932405037453
 31
0.0
  0
LINE
  5
7AD0
  8
1
  6
CONTINUOUS
 10
542.44127600000002
 20
2112.932405037453
 30
0.0
 11
542.44127600000002
 21
1682.932405037453
 31
0.0
  0
LINE
  5
7AD1
  8
1
  6
CONTINUOUS
 10
690.44127600000002
 20
1767.432405037453
 30
0.0
 11
567.44127600000002
 21
1767.432405037453
 31
0.0
  0
LINE
  5
7AD2
  8
1
  6
CONTINUOUS
 10
592.44127600000002
 20
1891.8324050374531
 30
0.0
 11
812.44127600000002
 21
1891.8324050374531
 31
0.0
  0
LINE
  5
7AD3
  8
1
  6
CONTINUOUS
 10
828.54127599999993
 20
1899.432405037453
 30
0.0
 11
572.4412759999999
 21
1899.432405037453
 31
0.0
  0
LINE
  5
7AD4
  8
1
  6
CONTINUOUS
 10
605.14127599999995
 20
1695.432405037453
 30
0.0
 11
605.14127599999995
 21
1770.432405037453
 31
0.0
  0
LINE
  5
7AD5
  8
1
  6
CONTINUOUS
 10
592.44127600000002
 20
1767.432405037453
 30
0.0
 11
592.44127600000002
 21
1891.8324050374531
 31
0.0
  0
LINE
  5
7AD6
  8
1
  6
CONTINUOUS
 10
602.44127600000002
 20
1891.8324050374531
 30
0.0
 11
602.44127600000002
 21
1899.432405037453
 31
0.0
  0
LINE
  5
7AD7
  8
1
  6
CONTINUOUS
 10
572.4412759999999
 20
1898.432405037453
 30
0.0
 11
587.44127600000002
 21
1913.432405037453
 31
0.0
  0
LINE
  5
7AD8
  8
1
  6
CONTINUOUS
 10
567.44127600000002
 20
1682.932405037453
 30
0.0
 11
542.44127600000002
 21
1682.932405037453
 31
0.0
  0
LINE
  5
7AD9
  8
1
  6
CONTINUOUS
 10
657.44127600000002
 20
1751.3324050374531
 30
0.0
 11
747.4412759999999
 21
1751.3324050374531
 31
0.0
  0
LINE
  5
7ADA
  8
1
  6
CONTINUOUS
 10
657.44127600000002
 20
1716.3324050374531
 30
0.0
 11
747.4412759999999
 21
1716.3324050374531
 31
0.0
  0
LINE
  5
7ADB
  8
1
  6
CONTINUOUS
 10
690.44127600000002
 20
1891.8324050374531
 30
0.0
 11
690.44127600000002
 21
1751.3324050374531
 31
0.0
  0
LINE
  5
7ADC
  8
1
  6
CONTINUOUS
 10
714.44127600000002
 20
1891.8324050374531
 30
0.0
 11
714.44127600000002
 21
1751.3324050374531
 31
0.0
  0
LINE
  5
7ADD
  8
1
  6
CONTINUOUS
 10
657.44127600000002
 20
1751.3324050374531
 30
0.0
 11
657.44127600000002
 21
1716.3324050374531
 31
0.0
  0
LINE
  5
7ADE
  8
1
  6
CONTINUOUS
 10
747.4412759999999
 20
1751.3324050374531
 30
0.0
 11
747.4412759999999
 21
1716.3324050374531
 31
0.0
  0
LINE
  5
7ADF
  8
1
  6
CONTINUOUS
 10
812.44127600000002
 20
1891.8324050374531
 30
0.0
 11
812.44127600000002
 21
1767.432405037453
 31
0.0
  0
LINE
  5
7AE0
  8
1
  6
CONTINUOUS
 10
802.44127600000002
 20
1891.8324050374531
 30
0.0
 11
802.44127600000002
 21
1899.432405037453
 31
0.0
  0
ARC
  5
7AE1
  8
1
  6
CONTINUOUS
 10
828.54127599999993
 20
1907.432405037453
 30
0.0
 40
8.0
 50
270.0
 51
0.0
  0
LINE
  5
7AE2
  8
1
  6
CONTINUOUS
 10
828.54127599999993
 20
2011.432405037453
 30
0.0
 11
572.4412759999999
 21
2011.432405037453
 31
0.0
  0
LINE
  5
7AE3
  8
1
  6
CONTINUOUS
 10
602.44127600000002
 20
2019.432405037453
 30
0.0
 11
802.44127600000002
 21
2019.432405037453
 31
0.0
  0
LINE
  5
7AE4
  8
1
  6
CONTINUOUS
 10
567.44127600000002
 20
1991.432405037453
 30
0.0
 11
572.4412759999999
 21
1991.432405037453
 31
0.0
  0
LINE
  5
7AE5
  8
1
  6
CONTINUOUS
 10
567.44127600000002
 20
1991.432405037453
 30
0.0
 11
572.4412759999999
 21
1991.432405037453
 31
0.0
  0
LINE
  5
7AE6
  8
1
  6
CONTINUOUS
 10
602.44127600000002
 20
2019.432405037453
 30
0.0
 11
602.44127600000002
 21
2011.432405037453
 31
0.0
  0
LINE
  5
7AE7
  8
1
  6
CONTINUOUS
 10
572.4412759999999
 20
2012.432405037453
 30
0.0
 11
587.44127600000002
 21
1997.432405037453
 31
0.0
  0
LINE
  5
7AE8
  8
1
  6
CONTINUOUS
 10
567.44127600000002
 20
2112.932405037453
 30
0.0
 11
542.44127600000002
 21
2112.932405037453
 31
0.0
  0
LINE
  5
7AE9
  8
1
  6
CONTINUOUS
 10
802.44127600000002
 20
2019.432405037453
 30
0.0
 11
802.44127600000002
 21
2011.432405037453
 31
0.0
  0
ARC
  5
7AEA
  8
1
  6
CONTINUOUS
 10
828.54127599999993
 20
2003.432405037453
 30
0.0
 40
8.0
 50
0.0
 51
90.0
  0
LINE
  5
7AEB
  8
1
  6
CONTINUOUS
 10
1072.941276
 20
1781.1324050374531
 30
0.0
 11
1072.941276
 21
1971.932405037453
 31
0.0
  0
LINE
  5
7AEC
  8
1
  6
CONTINUOUS
 10
902.9412759999999
 20
1781.1324050374531
 30
0.0
 11
902.9412759999999
 21
1971.932405037453
 31
0.0
  0
LINE
  5
7AEE
  8
1
  6
CONTINUOUS
 10
1127.441276
 20
2112.932405037453
 30
0.0
 11
1127.441276
 21
1682.932405037453
 31
0.0
  0
LINE
  5
7AEF
  8
1
  6
CONTINUOUS
 10
902.9412759999999
 20
1781.1324050374531
 30
0.0
 11
1072.941276
 21
1781.1324050374531
 31
0.0
  0
LINE
  5
7AF0
  8
1
  6
CONTINUOUS
 10
1127.441276
 20
1767.432405037453
 30
0.0
 11
997.4412759999999
 21
1767.432405037453
 31
0.0
  0
LINE
  5
7AF1
  8
1
  6
CONTINUOUS
 10
952.9412759999999
 20
1716.3324050374531
 30
0.0
 11
1022.941276
 21
1716.3324050374531
 31
0.0
  0
LINE
  5
7AF2
  8
1
  6
CONTINUOUS
 10
952.9412759999999
 20
1751.3324050374531
 30
0.0
 11
1022.941276
 21
1751.3324050374531
 31
0.0
  0
LINE
  5
7AF3
  8
1
  6
CONTINUOUS
 10
952.9412759999999
 20
1751.3324050374531
 30
0.0
 11
952.9412759999999
 21
1716.3324050374531
 31
0.0
  0
LINE
  5
7AF4
  8
1
  6
CONTINUOUS
 10
1022.941276
 20
1751.3324050374531
 30
0.0
 11
1022.941276
 21
1716.3324050374531
 31
0.0
  0
LINE
  5
7AF5
  8
1
  6
CONTINUOUS
 10
997.4412759999999
 20
1751.3324050374531
 30
0.0
 11
997.4412759999999
 21
1781.1324050374531
 31
0.0
  0
LINE
  5
7AF6
  8
1
  6
CONTINUOUS
 10
978.44127600000002
 20
1751.3324050374531
 30
0.0
 11
978.44127600000002
 21
1781.1324050374531
 31
0.0
  0
LINE
  5
7AF7
  8
1
  6
CONTINUOUS
 10
1085.1412760000001
 20
1770.432405037453
 30
0.0
 11
1085.1412760000001
 21
1695.432405037453
 31
0.0
  0
LINE
  5
7AF8
  8
1
  6
CONTINUOUS
 10
1127.441276
 20
1682.932405037453
 30
0.0
 11
1152.441276
 21
1682.932405037453
 31
0.0
  0
LINE
  5
7AF9
  8
1
  6
CONTINUOUS
 10
902.9412759999999
 20
1971.932405037453
 30
0.0
 11
1072.941276
 21
1971.932405037453
 31
0.0
  0
LINE
  5
7AFA
  8
1
  6
CONTINUOUS
 10
1127.441276
 20
2112.932405037453
 30
0.0
 11
1152.441276
 21
2112.932405037453
 31
0.0
  0
LINE
  5
7AFB
  8
1
  6
CONTINUOUS
 10
1340.3620117780911
 20
826.05445934282181
 30
0.0
 11
1770.3620117780911
 21
826.05445934282181
 31
0.0
  0
LINE
  5
7AFC
  8
1
  6
CONTINUOUS
 10
1477.462011778091
 20
1121.054459342821
 30
0.0
 11
1407.3620117780911
 21
1121.054459342821
 31
0.0
  0
LINE
  5
7AFD
  8
1
  6
CONTINUOUS
 10
1509.0620117780909
 20
1145.0544593428219
 30
0.0
 11
1407.3620117780911
 21
1145.0544593428219
 31
0.0
  0
LINE
  5
7AFE
  8
1
  6
CONTINUOUS
 10
1424.3620117780911
 20
898.05445934282181
 30
0.0
 11
1648.3620117780911
 21
898.05445934282181
 31
0.0
  0
LINE
  5
7AFF
  8
1
  6
CONTINUOUS
 10
1352.3620117780911
 20
948.05445934282181
 30
0.0
 11
1648.3620117780911
 21
948.05445934282181
 31
0.0
  0
LINE
  5
7B00
  8
1
  6
CONTINUOUS
 10
1548.7620117780909
 20
1175.1544593428221
 30
0.0
 11
1449.3620117780911
 21
1099.754459342822
 31
0.0
  0
LINE
  5
7B01
  8
1
  6
CONTINUOUS
 10
1340.3620117780911
 20
851.05445934282181
 30
0.0
 11
1770.3620117780911
 21
851.05445934282181
 31
0.0
  0
LINE
  5
7B02
  8
1
  6
CONTINUOUS
 10
1424.3620117780911
 20
876.05445934282181
 30
0.0
 11
1648.3620117780911
 21
876.05445934282181
 31
0.0
  0
LINE
  5
7B03
  8
1
  6
CONTINUOUS
 10
1424.3620117780911
 20
948.05445934282181
 30
0.0
 11
1424.3620117780911
 21
898.05445934282181
 31
0.0
  0
POINT
  5
7B06
  8
1
  6
CONTINUOUS
 10
1266.0620117780909
 20
876.05445934282181
 30
0.0
  0
LINE
  5
7B07
  8
1
  6
CONTINUOUS
 10
1340.3620117780911
 20
851.05445934282181
 30
0.0
 11
1340.3620117780911
 21
826.05445934282181
 31
0.0
  0
LINE
  5
7B08
  8
1
  6
CONTINUOUS
 10
1424.3620117780911
 20
876.05445934282181
 30
0.0
 11
1424.3620117780911
 21
851.05445934282181
 31
0.0
  0
LINE
  5
7B09
  8
1
  6
CONTINUOUS
 10
1407.3620117780911
 20
1088.054459342821
 30
0.0
 11
1407.3620117780911
 21
1178.054459342821
 31
0.0
  0
LINE
  5
7B0A
  8
1
  6
CONTINUOUS
 10
1372.3620117780911
 20
1088.054459342821
 30
0.0
 11
1372.3620117780911
 21
1178.054459342821
 31
0.0
  0
LINE
  5
7B0B
  8
1
  6
CONTINUOUS
 10
1407.3620117780911
 20
1088.054459342821
 30
0.0
 11
1372.3620117780911
 21
1088.054459342821
 31
0.0
  0
LINE
  5
7B0C
  8
1
  6
CONTINUOUS
 10
1407.3620117780911
 20
1178.054459342821
 30
0.0
 11
1372.3620117780911
 21
1178.054459342821
 31
0.0
  0
LINE
  5
7B0D
  8
1
  6
CONTINUOUS
 10
1407.3620117780911
 20
1083.054459342821
 30
0.0
 11
1372.3620117780911
 21
1083.054459342821
 31
0.0
  0
LINE
  5
7B0E
  8
1
  6
CONTINUOUS
 10
1407.3620117780911
 20
1013.054459342821
 30
0.0
 11
1372.3620117780911
 21
1013.054459342821
 31
0.0
  0
LINE
  5
7B0F
  8
1
  6
CONTINUOUS
 10
1372.3620117780911
 20
1013.054459342821
 30
0.0
 11
1372.3620117780911
 21
1083.054459342821
 31
0.0
  0
LINE
  5
7B10
  8
1
  6
CONTINUOUS
 10
1407.3620117780911
 20
1013.054459342821
 30
0.0
 11
1407.3620117780911
 21
1083.054459342821
 31
0.0
  0
LINE
  5
7B11
  8
1
  6
CONTINUOUS
 10
1407.3620117780911
 20
1057.554459342821
 30
0.0
 11
1449.3620117780911
 21
1057.554459342821
 31
0.0
  0
LINE
  5
7B12
  8
1
  6
CONTINUOUS
 10
1407.3620117780911
 20
1038.554459342821
 30
0.0
 11
1449.3620117780911
 21
1038.554459342821
 31
0.0
  0
LINE
  5
7B13
  8
1
  6
CONTINUOUS
 10
1427.3620117780911
 20
1228.054459342821
 30
0.0
 11
1352.3620117780911
 21
1228.054459342821
 31
0.0
  0
LINE
  5
7B14
  8
1
  6
CONTINUOUS
 10
1427.3620117780911
 20
948.05445934282181
 30
0.0
 11
1427.3620117780911
 21
1228.054459342821
 31
0.0
  0
LINE
  5
7B15
  8
1
  6
CONTINUOUS
 10
1352.3620117780911
 20
948.05445934282181
 30
0.0
 11
1352.3620117780911
 21
1228.054459342821
 31
0.0
  0
LINE
  5
7B16
  8
1
  6
CONTINUOUS
 10
1449.3620117780911
 20
1099.754459342822
 30
0.0
 11
1449.3620117780911
 21
948.05445934282181
 31
0.0
  0
LINE
  5
7B17
  8
1
  6
CONTINUOUS
 10
1648.3620117780911
 20
948.05445934282181
 30
0.0
 11
1648.3620117780911
 21
898.05445934282181
 31
0.0
  0
LINE
  5
7B18
  8
1
  6
CONTINUOUS
 10
1648.3620117780911
 20
876.05445934282181
 30
0.0
 11
1648.3620117780911
 21
851.05445934282181
 31
0.0
  0
LINE
  5
7B19
  8
1
  6
CONTINUOUS
 10
1770.3620117780911
 20
851.05445934282181
 30
0.0
 11
1770.3620117780911
 21
826.05445934282181
 31
0.0
  0
LINE
  5
7B1A
  8
1
  6
CONTINUOUS
 10
1676.3620117780911
 20
1233.0544593428219
 30
0.0
 11
1667.962011778091
 21
1233.0544593428219
 31
0.0
  0
LINE
  5
7B1B
  8
1
  6
CONTINUOUS
 10
1676.3620117780911
 20
1033.054459342821
 30
0.0
 11
1667.962011778091
 21
1033.054459342821
 31
0.0
  0
ARC
  5
7B1C
  8
1
  6
CONTINUOUS
 10
1656.3620117780911
 20
1010.954459342822
 30
0.0
 40
12.0
 50
270.0
 51
0.0
  0
LINE
  5
7B1D
  8
1
  6
CONTINUOUS
 10
1668.3620117780911
 20
1010.954459342822
 30
0.0
 11
1668.3620117780911
 21
1293.0544593428219
 31
0.0
  0
LINE
  5
7B1E
  8
1
  6
CONTINUOUS
 10
1556.3620117780911
 20
1293.0544593428219
 30
0.0
 11
1556.3620117780911
 21
1010.954459342822
 31
0.0
  0
LINE
  5
7B1F
  8
1
  6
CONTINUOUS
 10
1668.3620117780911
 20
1133.054459342821
 30
0.0
 11
1556.3620117780911
 21
1293.0544593428219
 31
0.0
  0
LINE
  5
7B20
  8
1
  6
CONTINUOUS
 10
1668.3620117780911
 20
1293.0544593428219
 30
0.0
 11
1556.3620117780911
 21
1133.054459342821
 31
0.0
  0
LINE
  5
7B21
  8
1
  6
CONTINUOUS
 10
1556.3620117780911
 20
1133.054459342821
 30
0.0
 11
1668.3620117780911
 21
1133.054459342821
 31
0.0
  0
ARC
  5
7B22
  8
1
  6
CONTINUOUS
 10
1568.3620117780911
 20
1010.954459342822
 30
0.0
 40
12.0
 50
180.0
 51
270.0
  0
LINE
  5
7B23
  8
1
  6
CONTINUOUS
 10
1548.7620117780909
 20
1033.054459342821
 30
0.0
 11
1556.7620117780909
 21
1033.054459342821
 31
0.0
  0
LINE
  5
7B24
  8
1
  6
CONTINUOUS
 10
1548.7620117780909
 20
1233.0544593428219
 30
0.0
 11
1556.7620117780909
 21
1233.0544593428219
 31
0.0
  0
LINE
  5
7B25
  8
1
  6
CONTINUOUS
 10
1548.7620117780909
 20
1233.0544593428219
 30
0.0
 11
1548.7620117780909
 21
948.05445934282181
 31
0.0
  0
LINE
  5
7B26
  8
1
  6
CONTINUOUS
 10
1568.3620117780911
 20
998.95445934282179
 30
0.0
 11
1656.3620117780911
 21
998.95445934282179
 31
0.0
  0
LINE
  5
7B27
  8
1
  6
CONTINUOUS
 10
1668.3620117780911
 20
1293.0544593428219
 30
0.0
 11
1556.3620117780911
 21
1293.0544593428219
 31
0.0
  0
LINE
  5
7B28
  8
1
  6
CONTINUOUS
 10
1676.3620117780911
 20
1233.0544593428219
 30
0.0
 11
1676.3620117780911
 21
1033.054459342821
 31
0.0
  0
LINE
  5
7B29
  8
4
  6
CONTINUOUS
 10
1850.0
 20
500.0
 30
0.0
 11
1850.0
 21
300.0
 31
0.0
  0
LINE
  5
7B2A
  8
4
  6
CONTINUOUS
 10
1150.0
 20
500.0
 30
0.0
 11
1150.0
 21
300.0
 31
0.0
  0
LINE
  5
7B2B
  8
4
  6
CONTINUOUS
 10
650.0
 20
500.0
 30
0.0
 11
650.0
 21
300.0
 31
0.0
  0
LINE
  5
7B2E
  8
4
  6
CONTINUOUS
 10
650.0
 20
300.0
 30
0.0
 11
1850.0
 21
300.0
 31
0.0
  0
LINE
  5
7B2F
  8
4
  6
CONTINUOUS
 10
650.0
 20
400.0
 30
0.0
 11
1850.0
 21
400.0
 31
0.0
  0
TEXT
  5
7B30
  8
4
  6
CONTINUOUS
 10
688.50208099999998
 20
431.543026
 30
0.0
 40
50.0
  1
機器名称
  0
TEXT
  5
7B31
  8
4
  6
CONTINUOUS
 10
686.258106
 20
321.64515699999993
 30
0.0
 40
50.0
  1
機器型番
  0
TEXT
  5
7B32
  8
4
  6
CONTINUOUS
 10
1177.678744999999
 20
422.57176900000002
 30
0.0
 40
45.0
  1
ミツヤニューマルチファン
  0
TEXT
  5
7B33
  8
4
  6
CONTINUOUS
 10
1186.6544960000001
 20
317.159584
 30
0.0
 40
50.0
  1
NM#1-1
  0
TEXT
  5
7B35
  8
4
  6
CONTINUOUS
 10
715.68073200000003
 20
2383.4288409999999
 30
0.0
 40
54.0
  1
天井吊防振ベット
  0
TEXT
  5
7B36
  8
4
  6
CONTINUOUS
 10
316.16759300000001
 20
2533.8809759999999
 30
0.0
 40
72.0
  1
ベルト駆動式片吸込片持多翼ファン
  0
LINE
  5
7B37
  8
4
  6
CONTINUOUS
 10
250.0
 20
2469.408754
 30
0.0
 11
1850.0
 21
2469.408754
 31
0.0
  0
LINE
  5
7B38
  8
4
  6
CONTINUOUS
 10
250.0
 20
2669.408754
 30
0.0
 11
1850.0
 21
2669.408754
 31
0.0
  0
LINE
  5
7B39
  8
4
  6
CONTINUOUS
 10
650.0
 20
500.0
 30
0.0
 11
1850.0
 21
500.0
 31
0.0
  0
LINE
  5
7B3A
  8
4
  6
CONTINUOUS
 10
250.0
 20
2669.408754
 30
0.0
 11
250.0
 21
2469.408754
 31
0.0
  0
TEXT
  5
7B3B
  8
4
  6
CONTINUOUS
 10
279.82190000000003
 20
2382.3194779999999
 30
0.0
 40
54.0
  1
左回転左横向
  0
TEXT
  5
7B3C
  8
4
  6
CONTINUOUS
 10
1468.9695589999999
 20
2706.0610809999998
 30
0.0
 40
56.0
  1
No.
  0
TEXT
  5
7B3D
  8
4
  6
CONTINUOUS
 10
1449.488194
 20
2383.4288409999999
 30
0.0
 40
54.0
  1
縮尺：1/10
  0
LINE
  5
7B3E
  8
4
  6
CONTINUOUS
 10
1850.0
 20
2669.408754
 30
0.0
 11
1850.0
 21
2469.408754
 31
0.0
  0
LINE
  5
7B40
  8
4
  6
CONTINUOUS
 10
1440.617422
 20
2681.2635829999999
 30
0.0
 11
1440.617422
 21
2786.6522620000001
 31
0.0
  0
LINE
  5
7B41
  8
4
  6
CONTINUOUS
 10
1440.617422
 20
2786.6522620000001
 30
0.0
 11
1850.0
 21
2786.6522620000001
 31
0.0
  0
LINE
  5
7B42
  8
4
  6
CONTINUOUS
 10
1850.0
 20
2786.6522620000001
 30
0.0
 11
1850.0
 21
2681.2635829999999
 31
0.0
  0
LINE
  5
7B43
  8
4
  6
CONTINUOUS
 10
1850.0
 20
2681.2635829999999
 30
0.0
 11
1440.617422
 21
2681.2635829999999
 31
0.0
  0
LINE
  5
7B48
  8
2
  6
CENTER
 10
1612.3620117780911
 20
1213.0544593428219
 30
0.0
 11
1612.3620117780911
 21
1334.874680342821
 31
0.0
  0
LINE
  5
7B49
  8
2
  6
CENTER
 10
1612.3620117780911
 20
1213.0544593428219
 30
0.0
 11
1612.3620117780911
 21
787.5149293428218
 31
0.0
  0
LINE
  5
7B52
  8
3
  6
CONTINUOUS
 10
1676.3620117780911
 20
1053.054459342821
 30
0.0
 11
1691.0170837780911
 21
1053.054459342821
 31
0.0
  0
LINE
  5
7B54
  8
3
  6
CONTINUOUS
 10
1676.3620117780911
 20
1213.0544593428219
 30
0.0
 11
1689.4406097780909
 21
1213.0544593428219
 31
0.0
  0
DIMENSION
  5
7B62
  8
3
  6
CONTINUOUS
  2
*D1
 10
1750.9230377780909
 20
1053.054459342821
 30
0.0
 11
1727.0201720197381
 21
1133.054459342821
 31
0.0
 70
   128
 13
1676.3620117780911
 23
1213.0544593428219
 33
0.0
 14
1676.3620117780911
 24
1053.054459342821
 34
0.0
 50
90.0
1001
ACAD
1000
DSTYLE
1002
{
1070
   288
1070
     1
1070
   172
1070
     1
1070
    40
1040
10.0
1070
     3
1000
φ<>
1070
   271
1070
     0
1070
   143
1040
0.039
1002
}
  0
DIMENSION
  5
7B6F
  8
3
  6
CONTINUOUS
  2
*D2
 10
1612.3620117780911
 20
771.45485634282181
 30
0.0
 11
1478.1932957780909
 21
771.45485634282181
 31
0.0
 70
   128
 13
1340.3620117780911
 23
826.05445934282181
 33
0.0
 14
1612.3620117780911
 24
826.05445934282181
 34
0.0
1001
ACAD
1000
DSTYLE
1002
{
1070
   287
1070
     3
1070
   287
1070
     3
1070
    40
1040
10.0
1070
   143
1040
0.039
1070
   172
1070
     1
1070
   271
1070
     0
1070
   279
1070
     0
1070
   288
1070
     1
1002
}
  0
DIMENSION
  5
7B7B
  8
3
  6
CONTINUOUS
  2
*D3
 10
1770.3620117780911
 20
771.45485634282181
 30
0.0
 11
1691.3620117780911
 21
796.45485634282181
 31
0.0
 70
     0
 13
1612.3620117780911
 23
826.05445934282181
 33
0.0
 14
1770.3620117780911
 24
826.05445934282181
 34
0.0
1001
ACAD
1000
DSTYLE
1002
{
1070
   287
1070
     4
1070
   287
1070
     4
1070
    40
1040
10.0
1070
    75
1070
     1
1070
   143
1040
0.039
1070
   172
1070
     1
1070
   271
1070
     0
1070
   279
1070
     1
1070
   288
1070
     1
1002
}
  0
DIMENSION
  5
7B8A
  8
3
  6
CONTINUOUS
  2
*D4
 10
1668.3620117780911
 20
1331.010556342821
 30
0.0
 11
1612.3620117780911
 21
1353.8093836307451
 31
0.0
 70
   128
 13
1556.3620117780911
 23
1293.0544593428219
 33
0.0
 14
1668.3620117780911
 24
1293.0544593428219
 34
0.0
1001
ACAD
1000
DSTYLE
1002
{
1070
   288
1070
     1
1070
   172
1070
     1
1070
    40
1040
10.0
1070
   271
1070
     0
1070
   143
1040
0.039
1002
}
  0
DIMENSION
  5
7B97
  8
3
  6
CONTINUOUS
  2
*D5
 10
1612.3620117780911
 20
1392.690315980572
 30
0.0
 11
1478.1933077780909
 21
1392.690315980572
 31
0.0
 70
   128
  1
MAX\P260
 13
1352.3620117780911
 23
1228.054459342821
 33
0.0
 14
1612.3620117780911
 24
1371.9661273428219
 34
0.0
1001
ACAD
1000
DSTYLE
1002
{
1070
   287
1070
     3
1070
   287
1070
     3
1070
    40
1040
10.0
1070
   143
1040
0.039
1070
   172
1070
     1
1070
   271
1070
     0
1070
   279
1070
     0
1070
   288
1070
     1
1002
}
  0
DIMENSION
  5
7BA5
  8
3
  6
CONTINUOUS
  2
*D6
 10
1676.3620117780911
 20
1392.690315980572
 30
0.0
 11
1645.299386778091
 21
1392.690315980572
 31
0.0
 70
   128
 13
1612.3620117780911
 23
1371.9661273428219
 33
0.0
 14
1676.3620117780911
 24
1233.0544593428219
 34
0.0
1001
ACAD
1000
DSTYLE
1002
{
1070
   287
1070
     4
1070
   287
1070
     4
1070
    40
1040
10.0
1070
    75
1070
     1
1070
   143
1040
0.039
1070
   172
1070
     1
1070
   271
1070
     0
1070
   279
1070
     1
1070
   288
1070
     1
1002
}
  0
DIMENSION
  5
7BC8
  8
3
  6
CONTINUOUS
  2
*D7
 10
529.41627800000015
 20
1133.054459342821
 30
0.0
 11
529.41627800000003
 21
1211.750022342821
 31
0.0
 70
   128
 13
573.44127600000002
 23
1293.0544593428219
 33
0.0
 14
572.4412759999999
 24
1133.054459342821
 34
0.0
 50
90.0
1001
ACAD
1000
DSTYLE
1002
{
1070
   287
1070
     3
1070
   287
1070
     3
1070
    40
1040
10.0
1070
   143
1040
0.039
1070
   172
1070
     1
1070
   271
1070
     0
1070
   279
1070
     0
1070
   288
1070
     1
1002
}
  0
DIMENSION
  5
7BD7
  8
3
  6
CONTINUOUS
  2
*D8
 10
478.57504000000017
 20
1133.054459342821
 30
0.0
 11
478.57504
 21
1226.5117833428219
 31
0.0
 70
   128
 13
587.44127600000002
 23
1304.0544593428219
 33
0.0
 14
500.61460099999999
 24
1133.054459342821
 34
0.0
 50
90.0
1001
ACAD
1000
DSTYLE
1002
{
1070
   287
1070
     3
1070
   287
1070
     3
1070
    40
1040
10.0
1070
   143
1040
0.039
1070
   172
1070
     1
1070
   271
1070
     0
1070
   279
1070
     0
1070
   288
1070
     1
1002
}
  0
DIMENSION
  5
7C1A
  8
3
  6
CONTINUOUS
  2
*D9
 10
702.44127600000002
 20
775.95511334282173
 30
0.0
 11
620.83032899999989
 21
775.95511334282173
 31
0.0
 70
   128
 13
542.44127600000002
 23
826.05445934282181
 33
0.0
 14
702.44127600000002
 24
851.05445934282181
 34
0.0
1001
ACAD
1000
DSTYLE
1002
{
1070
   287
1070
     3
1070
   287
1070
     3
1070
    40
1040
10.0
1070
   143
1040
0.039
1070
   172
1070
     1
1070
   271
1070
     0
1070
   279
1070
     0
1070
   288
1070
     1
1002
}
  0
DIMENSION
  5
7C26
  8
3
  6
CONTINUOUS
  2
*D10
 10
1152.441276
 20
775.95511334282173
 30
0.0
 11
927.44127600000002
 21
800.95511334282173
 31
0.0
 70
     0
 13
702.44127600000002
 23
851.05445934282181
 33
0.0
 14
1152.441276
 24
826.05445934282181
 34
0.0
1001
ACAD
1000
DSTYLE
1002
{
1070
   287
1070
     4
1070
   287
1070
     4
1070
    40
1040
10.0
1070
    75
1070
     1
1070
   143
1040
0.039
1070
   172
1070
     1
1070
   271
1070
     0
1070
   279
1070
     1
1070
   288
1070
     1
1002
}
  0
LINE
  5
7C50
  8
2
  6
CENTER
 10
547.17599399999995
 20
1955.432405037453
 30
0.0
 11
865.32041500000003
 21
1955.432405037453
 31
0.0
  0
LINE
  5
7C5F
  8
1
  6
CONTINUOUS
 10
1152.441276
 20
2112.932405037453
 30
0.0
 11
1152.441276
 21
1682.932405037453
 31
0.0
  0
DIMENSION
  5
7C6D
  8
3
  6
CONTINUOUS
  2
*D11
 10
1152.441276
 20
1618.5236580374531
 30
0.0
 11
842.89746500000001
 21
1618.5236580374531
 31
0.0
 70
   128
 13
542.44127600000002
 23
1682.932405037453
 33
0.0
 14
1152.441276
 24
1682.932405037453
 34
0.0
1001
ACAD
1000
DSTYLE
1002
{
1070
   287
1070
     3
1070
   287
1070
     3
1070
    40
1040
10.0
1070
   143
1040
0.039
1070
   172
1070
     1
1070
   271
1070
     0
1070
   279
1070
     0
1070
   288
1070
     1
1002
}
  0
DIMENSION
  5
7C7A
  8
3
  6
CONTINUOUS
  2
*D12
 10
1237.0358590000001
 20
1682.932405037453
 30
0.0
 11
1237.0358590000001
 21
1911.308360037453
 31
0.0
 70
   128
 13
1152.441276
 23
2112.932405037453
 33
0.0
 14
1152.441276
 24
1682.932405037453
 34
0.0
 50
90.0
1001
ACAD
1000
DSTYLE
1002
{
1070
   287
1070
     3
1070
   287
1070
     3
1070
    40
1040
10.0
1070
   143
1040
0.039
1070
   172
1070
     1
1070
   271
1070
     0
1070
   279
1070
     0
1070
   288
1070
     1
1002
}
  0
LINE
  5
7C7B
  8
2
  6
CENTER
 10
702.44127600000002
 20
1658.8793820374531
 30
0.0
 11
702.44127600000002
 21
2062.9285180374532
 31
0.0
  0
LINE
  5
7C7C
  8
2
  6
CENTER
 10
1110.1342539999989
 20
1133.054459342821
 30
0.0
 11
529.54278299999999
 21
1133.054459342821
 31
0.0
  0
DIMENSION
  5
7C8E
  8
3
  6
CONTINUOUS
  2
*D13
 10
478.57504
 20
898.05445934282181
 30
0.0
 11
453.57503999999977
 21
1015.554459342821
 31
0.0
 70
     0
 13
500.61460099999999
 23
1133.054459342821
 33
0.0
 14
567.44127600000002
 24
898.05445934282181
 34
0.0
 50
90.0
1001
ACAD
1000
DSTYLE
1002
{
1070
   287
1070
     4
1070
   287
1070
     4
1070
    40
1040
10.0
1070
    75
1070
     1
1070
   143
1040
0.039
1070
   172
1070
     1
1070
   271
1070
     0
1070
   279
1070
     1
1070
   288
1070
     1
1002
}
  0
DIMENSION
  5
7CBE
  8
3
  6
CONTINUOUS
  2
*D14
 10
478.57504
 20
851.05445934282181
 30
0.0
 11
476.1304879999999
 21
870.21503534282169
 31
0.0
 70
   128
 13
567.44127600000002
 23
898.05445934282181
 33
0.0
 14
542.44127600000002
 24
851.05445934282181
 34
0.0
 50
90.0
1001
ACAD
1000
DSTYLE
1002
{
1070
   287
1070
     4
1070
   287
1070
     4
1070
    40
1040
10.0
1070
    75
1070
     1
1070
   143
1040
0.039
1070
   172
1070
     1
1070
   271
1070
     0
1070
   279
1070
     1
1070
   288
1070
     1
1070
     7
1000
DOT
1002
}
  0
DIMENSION
  5
7CCE
  8
3
  6
CONTINUOUS
  2
*D15
 10
478.10108100000008
 20
826.05445934282181
 30
0.0
 11
478.10108100000002
 21
751.76874505710759
 31
0.0
 70
   128
 13
542.44127600000002
 23
851.05445934282181
 33
0.0
 14
542.44127600000002
 24
826.05445934282181
 34
0.0
 50
90.0
1001
ACAD
1000
DSTYLE
1002
{
1070
   287
1070
     3
1070
   287
1070
     3
1070
    40
1040
10.0
1070
   143
1040
0.039
1070
   172
1070
     1
1070
   271
1070
     0
1070
   279
1070
     0
1070
   288
1070
     1
1070
     6
1000
DOT
1002
}
  0
DIMENSION
  5
7D89
  8
3
  6
CONTINUOUS
  2
*D16
 10
702.44127600000002
 20
1331.3647793428211
 30
0.0
 11
637.44127600000002
 21
1355.9527801166821
 31
0.0
 70
   128
 13
572.4412759999999
 23
1315.0544593428219
 33
0.0
 14
702.44127600000002
 24
1303.5187413428209
 34
0.0
1001
ACAD
1000
DSTYLE
1002
{
1070
   288
1070
     1
1070
   172
1070
     1
1070
    40
1040
10.0
1070
   271
1070
     0
1070
   143
1040
0.039
1002
}
  0
DIMENSION
  5
7D95
  8
3
  6
CONTINUOUS
  2
*D17
 10
847.4412759999999
 20
1331.3647793428211
 30
0.0
 11
774.94127600000002
 21
1356.3647793428211
 31
0.0
 70
     0
 13
702.44127600000002
 23
1303.5187413428209
 33
0.0
 14
847.4412759999999
 24
1133.054459342821
 34
0.0
1001
ACAD
1000
DSTYLE
1002
{
1070
   287
1070
     4
1070
   287
1070
     4
1070
    40
1040
10.0
1070
    75
1070
     1
1070
   143
1040
0.039
1070
   172
1070
     1
1070
   271
1070
     0
1070
   279
1070
     1
1070
   288
1070
     1
1002
}
  0
DIMENSION
  5
7E3C
  8
3
  2
*D18
 10
412.03531452814968
 20
826.05445934282181
 30
0.0
 11
412.03531452814963
 21
1060.164595038962
 31
0.0
 70
   128
 13
572.4412759999999
 23
1315.0544593428219
 33
0.0
 14
542.44127600000002
 24
826.05445934282181
 34
0.0
 50
90.0
1001
ACAD
1000
DSTYLE
1002
{
1070
   287
1070
     3
1070
   287
1070
     3
1070
    40
1040
10.0
1070
   143
1040
0.039
1070
   172
1070
     1
1070
   271
1070
     0
1070
   279
1070
     0
1070
   288
1070
     1
1002
}
  0
DIMENSION
  5
7E49
  8
3
  2
*D19
 10
1152.441276
 20
1385.960276717138
 30
0.0
 11
851.79371203283506
 21
1385.960276717138
 31
0.0
 70
   128
 13
572.4412759999999
 23
1315.0544593428219
 33
0.0
 14
1152.441276
 24
876.05445934282181
 34
0.0
1001
ACAD
1000
DSTYLE
1002
{
1070
   287
1070
     3
1070
   287
1070
     3
1070
    40
1040
10.0
1070
   143
1040
0.039
1070
   172
1070
     1
1070
   271
1070
     0
1070
   279
1070
     0
1070
   288
1070
     1
1002
}
  0
ENDSEC
  0
EOF
