  0
SECTION
  2
HEADER
  9
$ACADVER
  1
AC1009
  9
$INSBASE
 10
0.0
 20
0.0
 30
0.0
  9
$EXTMIN
 10
250.0
 20
300.0
 30
0.0
  9
$EXTMAX
 10
1850.0
 20
2786.6522620000001
 30
0.0
  9
$LIMMIN
 10
0.0
 20
0.0
  9
$LIMMAX
 10
297.0
 20
210.0
  9
$ORTHOMODE
 70
     0
  9
$REGENMODE
 70
     1
  9
$FILLMODE
 70
     0
  9
$QTEXTMODE
 70
     0
  9
$MIRRTEXT
 70
     1
  9
$DRAGMODE
 70
     2
  9
$LTSCALE
 40
100.0
  9
$OSMODE
 70
    37
  9
$ATTMODE
 70
     1
  9
$TEXTSIZE
 40
180.0
  9
$TRACEWID
 40
0.05
  9
$TEXTSTYLE
  7
STANDARD
  9
$CLAYER
  8
3
  9
$CELTYPE
  6
BYLAYER
  9
$CECOLOR
 62
   256
  9
$DIMSCALE
 40
10.0
  9
$DIMASZ
 40
2.0
  9
$DIMEXO
 40
0.5
  9
$DIMDLI
 40
10.0
  9
$DIMRND
 40
0.0
  9
$DIMDLE
 40
0.0
  9
$DIMEXE
 40
1.0
  9
$DIMTP
 40
1.0
  9
$DIMTM
 40
1.0
  9
$DIMTXT
 40
3.0
  9
$DIMCEN
 40
0.0
  9
$DIMTSZ
 40
0.0
  9
$DIMTOL
 70
     0
  9
$DIMLIM
 70
     0
  9
$DIMTIH
 70
     0
  9
$DIMTOH
 70
     0
  9
$DIMSE1
 70
     0
  9
$DIMSE2
 70
     0
  9
$DIMTAD
 70
     1
  9
$DIMZIN
 70
     8
  9
$DIMBLK
  1

  9
$DIMASO
 70
     1
  9
$DIMSHO
 70
     1
  9
$DIMPOST
  1

  9
$DIMAPOST
  1

  9
$DIMALT
 70
     0
  9
$DIMALTD
 70
     2
  9
$DIMALTF
 40
0.039
  9
$DIMLFAC
 40
1.0
  9
$DIMTOFL
 70
     1
  9
$DIMTVP
 40
0.0
  9
$DIMTIX
 70
     0
  9
$DIMSOXD
 70
     0
  9
$DIMSAH
 70
     1
  9
$DIMBLK1
  1
OPEN
  9
$DIMBLK2
  1
OPEN
  9
$DIMSTYLE
  2
IGA
  9
$DIMCLRD
 70
     0
  9
$DIMCLRE
 70
     0
  9
$DIMCLRT
 70
     0
  9
$DIMTFAC
 40
10.0
  9
$DIMGAP
 40
1.0
  9
$LUNITS
 70
     2
  9
$LUPREC
 70
     3
  9
$SKETCHINC
 40
0.1
  9
$FILLETRAD
 40
50.0
  9
$AUNITS
 70
     0
  9
$AUPREC
 70
     0
  9
$MENU
  1
acad
  9
$ELEVATION
 40
0.0
  9
$PELEVATION
 40
0.0
  9
$THICKNESS
 40
0.0
  9
$LIMCHECK
 70
     0
  9
$BLIPMODE
 70
     0
  9
$CHAMFERA
 40
0.5
  9
$CHAMFERB
 40
0.5
  9
$SKPOLY
 70
     0
  9
$TDCREATE
 40
2450735.6793602998
  9
$TDUPDATE
 40
2454953.8584423028
  9
$TDINDWG
 40
0.0182992361
  9
$TDUSRTIMER
 40
0.0182992361
  9
$USRTIMER
 70
     1
  9
$ANGBASE
 50
0.0
  9
$ANGDIR
 70
     0
  9
$PDMODE
 70
     0
  9
$PDSIZE
 40
0.0
  9
$PLINEWID
 40
0.0
  9
$COORDS
 70
     1
  9
$SPLFRAME
 70
     0
  9
$SPLINETYPE
 70
     6
  9
$SPLINESEGS
 70
     8
  9
$ATTDIA
 70
     0
  9
$ATTREQ
 70
     1
  9
$HANDLING
 70
 10241
  9
$HANDSEED
  5
7F97
  9
$SURFTAB1
 70
     6
  9
$SURFTAB2
 70
     6
  9
$SURFTYPE
 70
     6
  9
$SURFU
 70
     6
  9
$SURFV
 70
     6
  9
$UCSNAME
  2

  9
$UCSORG
 10
0.0
 20
0.0
 30
0.0
  9
$UCSXDIR
 10
1.0
 20
0.0
 30
0.0
  9
$UCSYDIR
 10
0.0
 20
1.0
 30
0.0
  9
$PUCSNAME
  2

  9
$PUCSORG
 10
0.0
 20
0.0
 30
0.0
  9
$PUCSXDIR
 10
1.0
 20
0.0
 30
0.0
  9
$PUCSYDIR
 10
0.0
 20
1.0
 30
0.0
  9
$USERI1
 70
     0
  9
$USERI2
 70
     0
  9
$USERI3
 70
     0
  9
$USERI4
 70
     0
  9
$USERI5
 70
     0
  9
$USERR1
 40
0.0
  9
$USERR2
 40
0.0
  9
$USERR3
 40
0.0
  9
$USERR4
 40
0.0
  9
$USERR5
 40
0.0
  9
$WORLDVIEW
 70
     1
  9
$SHADEDGE
 70
     3
  9
$SHADEDIF
 70
    70
  9
$TILEMODE
 70
     1
  9
$MAXACTVP
 70
    16
  9
$PLIMCHECK
 70
     0
  9
$PEXTMIN
 10
1.0000000000000000E+020
 20
1.0000000000000000E+020
 30
1.0000000000000000E+020
  9
$PEXTMAX
 10
-1.0000000000000000E+020
 20
-1.0000000000000000E+020
 30
-1.0000000000000000E+020
  9
$PLIMMIN
 10
0.0
 20
0.0
  9
$PLIMMAX
 10
12.0
 20
9.0
  9
$UNITMODE
 70
     0
  9
$VISRETAIN
 70
     0
  9
$PLINEGEN
 70
     0
  9
$PSLTSCALE
 70
     1
  0
ENDSEC
  0
SECTION
  2
TABLES
  0
TABLE
  2
VPORT
 70
     2
  0
VPORT
  2
*ACTIVE
 70
     0
 10
0.0
 20
0.0
 11
1.0
 21
1.0
 12
2728.3646356518238
 22
1878.6664576347639
 13
0.0
 23
0.0
 14
10.0
 24
10.0
 15
10.0
 25
10.0
 16
0.0
 26
0.0
 36
1.0
 17
0.0
 27
0.0
 37
0.0
 40
3552.2128564519348
 41
1.5051150895140659
 42
50.0
 43
0.0
 44
0.0
 50
0.0
 51
0.0
 71
     0
 72
   100
 73
     1
 74
     0
 75
     0
 76
     0
 77
     0
 78
     0
  0
ENDTAB
  0
TABLE
  2
LTYPE
 70
     2
  0
LTYPE
  2
CONTINUOUS
 70
     0
  3
Solid line
 72
    65
 73
     0
 40
0.0
  0
LTYPE
  2
CENTER
 70
     0
  3
____ _ ____ _ ____ _ ____ _ ____ _ ____ _ ____ 
 72
    65
 73
     4
 40
2.0
 49
1.25
 49
-0.25
 49
0.25
 49
-0.25
  0
ENDTAB
  0
TABLE
  2
LAYER
 70
     6
  0
LAYER
  2
0
 70
     0
 62
     7
  6
CONTINUOUS
  0
LAYER
  2
3
 70
     0
 62
     2
  6
CONTINUOUS
  0
LAYER
  2
2
 70
     0
 62
     3
  6
CENTER
  0
LAYER
  2
1
 70
     0
 62
     4
  6
CONTINUOUS
  0
LAYER
  2
4
 70
     0
 62
     7
  6
CONTINUOUS
  0
LAYER
  2
DEFPOINTS
 70
     0
 62
     7
  6
CONTINUOUS
  0
ENDTAB
  0
TABLE
  2
STYLE
 70
     1
  0
STYLE
  2
STANDARD
 70
     0
 40
0.0
 41
1.0
 50
0.0
 71
     0
 42
180.0
  3
simplex.shx
  4
extfont.shx
  0
ENDTAB
  0
TABLE
  2
VIEW
 70
     0
  0
ENDTAB
  0
TABLE
  2
UCS
 70
     0
  0
ENDTAB
  0
TABLE
  2
APPID
 70
     1
  0
APPID
  2
ACAD
 70
     0
  0
ENDTAB
  0
TABLE
  2
DIMSTYLE
 70
     1
  0
DIMSTYLE
  2
IGA
 70
     0
  3

  4

  5

  6
OPEN
  7
OPEN
 40
2.0
 41
2.0
 42
0.5
 43
10.0
 44
1.0
 45
0.0
 46
0.0
 47
1.0
 48
1.0
140
3.0
141
0.0
142
0.0
143
0.03937
144
1.0
145
0.0
146
10.0
147
1.0
 71
     0
 72
     0
 73
     0
 74
     0
 75
     0
 76
     0
 77
     1
 78
     8
170
     0
171
     2
172
     0
173
     1
174
     0
175
     0
176
     0
177
     0
178
     0
  0
ENDTAB
  0
ENDSEC
  0
SECTION
  2
BLOCKS
  0
BLOCK
  8
0
  2
$MODEL_SPACE
 70
     0
 10
0.0
 20
0.0
 30
0.0
  3
$MODEL_SPACE
  1

  0
ENDBLK
  5
1B
  8
0
  0
BLOCK
 67
     1
  8
0
  2
$PAPER_SPACE
 70
     0
 10
0.0
 20
0.0
 30
0.0
  3
$PAPER_SPACE
  1

  0
ENDBLK
  5
18
 67
     1
  8
0
  0
BLOCK
  8
0
  2
_OPEN
 70
     0
 10
0.0
 20
0.0
 30
0.0
  3
_OPEN
  1

  0
LINE
  5
7B18
  8
0
  6
BYBLOCK
 62
     0
 10
-1.0
 20
0.166667
 30
0.0
 11
0.0
 21
0.0
 31
0.0
  0
LINE
  5
7B19
  8
0
  6
BYBLOCK
 62
     0
 10
0.0
 20
0.0
 30
0.0
 11
-1.0
 21
-0.166667
 31
0.0
  0
LINE
  5
7B1A
  8
0
  6
BYBLOCK
 62
     0
 10
0.0
 20
0.0
 30
0.0
 11
-1.0
 21
0.0
 31
0.0
  0
ENDBLK
  5
7B1B
  8
0
  0
BLOCK
  8
0
  2
*D1
 70
     1
 10
0.0
 20
0.0
 30
0.0
  3
*D1
  1

  0
LINE
  5
7F03
  8
3
  6
CONTINUOUS
 62
     0
 10
397.70804372906161
 20
842.6899226507885
 30
0.0
 11
397.70804372906161
 21
783.68156765078845
 31
0.0
  0
LINE
  5
7F04
  8
3
  6
CONTINUOUS
 62
     0
 10
822.70804372906161
 20
867.6899226507885
 30
0.0
 11
822.70804372906161
 21
783.68156765078845
 31
0.0
  0
LINE
  5
7F05
  8
3
  6
CONTINUOUS
 62
     0
 10
417.70804372906161
 20
793.68156765078845
 30
0.0
 11
802.7080437290615
 21
793.68156765078845
 31
0.0
  0
INSERT
  5
7F06
  8
3
  6
CONTINUOUS
 62
     0
  2
_OPEN
 10
397.70804372906161
 20
793.68156765078845
 30
0.0
 41
20.0
 42
20.0
 43
20.0
 50
180.0
  0
INSERT
  5
7F07
  8
3
  6
CONTINUOUS
 62
     0
  2
_OPEN
 10
822.70804372906161
 20
793.68156765078845
 30
0.0
 41
20.0
 42
20.0
 43
20.0
  0
TEXT
  8
3
  40
30
  5
7F87
  62
0
  72
0
  71
0
 10
559.341
 20
765.582
 30
0.000000
  1
425
  0
POINT
  5
7F09
  8
DEFPOINTS
  6
CONTINUOUS
 62
     0
 10
397.70804372906161
 20
847.6899226507885
 30
0.0
  0
POINT
  5
7F0A
  8
DEFPOINTS
  6
CONTINUOUS
 62
     0
 10
822.70804372906161
 20
872.6899226507885
 30
0.0
  0
POINT
  5
7F0B
  8
DEFPOINTS
  6
CONTINUOUS
 62
     0
 10
822.70804372906161
 20
793.68156765078845
 30
0.0
  0
ENDBLK
  5
7B5B
  8
0
  0
BLOCK
  8
0
  2
*D2
 70
     1
 10
0.0
 20
0.0
 30
0.0
  3
*D2
  1

  0
LINE
  5
7F0C
  8
3
  6
CONTINUOUS
 62
     0
 10
957.70804372906161
 20
842.6899226507885
 30
0.0
 11
957.70804372906161
 21
783.68156765078845
 31
0.0
  0
LINE
  5
7F0D
  8
3
  6
CONTINUOUS
 62
     0
 10
842.70804372906161
 20
793.68156765078845
 30
0.0
 11
937.70804372906173
 21
793.68156765078845
 31
0.0
  0
INSERT
  5
7F0E
  8
3
  6
CONTINUOUS
 62
     0
  2
_OPEN
 10
822.70804372906161
 20
793.68156765078845
 30
0.0
 41
20.0
 42
20.0
 43
20.0
 50
180.0
  0
INSERT
  5
7F0F
  8
3
  6
CONTINUOUS
 62
     0
  2
_OPEN
 10
957.70804372906161
 20
793.68156765078845
 30
0.0
 41
20.0
 42
20.0
 43
20.0
  0
TEXT
  8
3
  40
30
  5
7F88
  62
0
  72
0
  71
0
 10
830.208
 20
765.582
 30
0.000000
  1
135
  0
POINT
  5
7F11
  8
DEFPOINTS
  6
CONTINUOUS
 62
     0
 10
822.70804372906161
 20
872.6899226507885
 30
0.0
  0
POINT
  5
7F12
  8
DEFPOINTS
  6
CONTINUOUS
 62
     0
 10
957.70804372906161
 20
847.6899226507885
 30
0.0
  0
POINT
  5
7F13
  8
DEFPOINTS
  6
CONTINUOUS
 62
     0
 10
957.70804372906161
 20
793.68156765078845
 30
0.0
  0
ENDBLK
  5
7B67
  8
0
  0
BLOCK
  8
0
  2
*D3
 70
     1
 10
0.0
 20
0.0
 30
0.0
  3
*D3
  1

  0
LINE
  5
7F14
  8
3
  6
CONTINUOUS
 62
     0
 10
397.70804372906161
 20
1715.5222467792789
 30
0.0
 11
397.70804372906161
 21
1641.1138917792789
 31
0.0
  0
LINE
  5
7F15
  8
3
  6
CONTINUOUS
 62
     0
 10
957.70804372906161
 20
1715.5222467792789
 30
0.0
 11
957.70804372906161
 21
1641.1138917792789
 31
0.0
  0
LINE
  5
7F16
  8
3
  6
CONTINUOUS
 62
     0
 10
417.70804372906161
 20
1651.1138917792789
 30
0.0
 11
937.70804372906173
 21
1651.1138917792789
 31
0.0
  0
INSERT
  5
7F17
  8
3
  6
CONTINUOUS
 62
     0
  2
_OPEN
 10
397.70804372906161
 20
1651.1138917792789
 30
0.0
 41
20.0
 42
20.0
 43
20.0
 50
180.0
  0
INSERT
  5
7F18
  8
3
  6
CONTINUOUS
 62
     0
  2
_OPEN
 10
957.70804372906161
 20
1651.1138917792789
 30
0.0
 41
20.0
 42
20.0
 43
20.0
  0
TEXT
  8
3
  40
30
  5
7F89
  62
0
  72
0
  71
0
 10
609.341
 20
1623.01
 30
0.000000
  1
560
  0
POINT
  5
7F1A
  8
DEFPOINTS
  6
CONTINUOUS
 62
     0
 10
397.70804372906161
 20
1720.5222467792789
 30
0.0
  0
POINT
  5
7F1B
  8
DEFPOINTS
  6
CONTINUOUS
 62
     0
 10
957.70804372906161
 20
1720.5222467792789
 30
0.0
  0
POINT
  5
7F1C
  8
DEFPOINTS
  6
CONTINUOUS
 62
     0
 10
957.70804372906161
 20
1651.1138917792789
 30
0.0
  0
ENDBLK
  5
7B98
  8
0
  0
BLOCK
  8
0
  2
*D4
 70
     1
 10
0.0
 20
0.0
 30
0.0
  3
*D4
  1

  0
LINE
  5
7F1D
  8
3
  6
CONTINUOUS
 62
     0
 10
962.70804372906173
 20
2150.5222467792792
 30
0.0
 11
1050.0159157290609
 21
2150.5222467792792
 31
0.0
  0
LINE
  5
7F1E
  8
3
  6
CONTINUOUS
 62
     0
 10
962.70804372906173
 20
1720.5222467792789
 30
0.0
 11
1050.0159157290609
 21
1720.5222467792789
 31
0.0
  0
LINE
  5
7F1F
  8
3
  6
CONTINUOUS
 62
     0
 10
1040.0159157290609
 20
2130.5222467792792
 30
0.0
 11
1040.0159157290609
 21
1740.5222467792789
 31
0.0
  0
INSERT
  5
7F20
  8
3
  6
CONTINUOUS
 62
     0
  2
_OPEN
 10
1040.0159157290609
 20
2150.5222467792792
 30
0.0
 41
20.0
 42
20.0
 43
20.0
 50
90.0
  0
INSERT
  5
7F21
  8
3
  6
CONTINUOUS
 62
     0
  2
_OPEN
 10
1040.0159157290609
 20
1720.5222467792789
 30
0.0
 41
20.0
 42
20.0
 43
20.0
 50
270.0
  0
TEXT
  8
3
  40
30
  5
7F8A
  62
0
  72
0
  71
0
 10
955.016
 20
1878.77
 30
0.000000
  1
430
  0
POINT
  5
7F23
  8
DEFPOINTS
  6
CONTINUOUS
 62
     0
 10
957.70804372906161
 20
2150.5222467792792
 30
0.0
  0
POINT
  5
7F24
  8
DEFPOINTS
  6
CONTINUOUS
 62
     0
 10
957.70804372906161
 20
1720.5222467792789
 30
0.0
  0
POINT
  5
7F25
  8
DEFPOINTS
  6
CONTINUOUS
 62
     0
 10
1040.0159157290609
 20
1720.5222467792789
 30
0.0
  0
ENDBLK
  5
7BA6
  8
0
  0
BLOCK
  8
0
  2
*D5
 70
     1
 10
0.0
 20
0.0
 30
0.0
  3
*D5
  1

  0
LINE
  5
7F26
  8
3
  6
CONTINUOUS
 62
     0
 10
1324.5060288126681
 20
842.6899226507885
 30
0.0
 11
1324.5060288126681
 21
780.1083316507885
 31
0.0
  0
LINE
  5
7F27
  8
3
  6
CONTINUOUS
 62
     0
 10
1596.5060288126681
 20
842.6899226507885
 30
0.0
 11
1596.5060288126681
 21
780.1083316507885
 31
0.0
  0
LINE
  5
7F28
  8
3
  6
CONTINUOUS
 62
     0
 10
1344.5060288126681
 20
790.1083316507885
 30
0.0
 11
1576.5060288126681
 21
790.1083316507885
 31
0.0
  0
INSERT
  5
7F29
  8
3
  6
CONTINUOUS
 62
     0
  2
_OPEN
 10
1324.5060288126681
 20
790.1083316507885
 30
0.0
 41
20.0
 42
20.0
 43
20.0
 50
180.0
  0
INSERT
  5
7F2A
  8
3
  6
CONTINUOUS
 62
     0
  2
_OPEN
 10
1596.5060288126681
 20
790.1083316507885
 30
0.0
 41
20.0
 42
20.0
 43
20.0
  0
TEXT
  8
3
  40
30
  5
7F8B
  62
0
  72
0
  71
0
 10
1409.10
 20
762.008
 30
0.000000
  1
272
  0
POINT
  5
7F2C
  8
DEFPOINTS
  6
CONTINUOUS
 62
     0
 10
1324.5060288126681
 20
847.6899226507885
 30
0.0
  0
POINT
  5
7F2D
  8
DEFPOINTS
  6
CONTINUOUS
 62
     0
 10
1596.5060288126681
 20
847.6899226507885
 30
0.0
  0
POINT
  5
7F2E
  8
DEFPOINTS
  6
CONTINUOUS
 62
     0
 10
1596.5060288126681
 20
790.1083316507885
 30
0.0
  0
ENDBLK
  5
7BB4
  8
0
  0
BLOCK
  8
0
  2
*D6
 70
     1
 10
0.0
 20
0.0
 30
0.0
  3
*D6
  1

  0
LINE
  5
7F2F
  8
3
  6
CONTINUOUS
 62
     0
 10
1754.506028812667
 20
842.6899226507885
 30
0.0
 11
1754.506028812667
 21
780.1083316507885
 31
0.0
  0
LINE
  5
7F30
  8
3
  6
CONTINUOUS
 62
     0
 10
1616.5060288126681
 20
790.1083316507885
 30
0.0
 11
1734.506028812667
 21
790.1083316507885
 31
0.0
  0
INSERT
  5
7F31
  8
3
  6
CONTINUOUS
 62
     0
  2
_OPEN
 10
1596.5060288126681
 20
790.1083316507885
 30
0.0
 41
20.0
 42
20.0
 43
20.0
 50
180.0
  0
INSERT
  5
7F32
  8
3
  6
CONTINUOUS
 62
     0
  2
_OPEN
 10
1754.506028812667
 20
790.1083316507885
 30
0.0
 41
20.0
 42
20.0
 43
20.0
  0
TEXT
  8
3
  40
30
  5
7F8C
  62
0
  72
0
  71
0
 10
1615.51
 20
762.008
 30
0.000000
  1
158
  0
POINT
  5
7F34
  8
DEFPOINTS
  6
CONTINUOUS
 62
     0
 10
1596.5060288126681
 20
847.6899226507885
 30
0.0
  0
POINT
  5
7F35
  8
DEFPOINTS
  6
CONTINUOUS
 62
     0
 10
1754.506028812667
 20
847.6899226507885
 30
0.0
  0
POINT
  5
7F36
  8
DEFPOINTS
  6
CONTINUOUS
 62
     0
 10
1754.506028812667
 20
790.1083316507885
 30
0.0
  0
ENDBLK
  5
7BC0
  8
0
  0
BLOCK
  8
0
  2
*D7
 70
     1
 10
0.0
 20
0.0
 30
0.0
  3
*D7
  1

  0
LINE
  5
7DC2
  8
0
  6
BYBLOCK
 62
     0
 10
1540.5060288126681
 20
1242.689922650788
 30
0.0
 11
1540.5060288126681
 21
1275.0125846507881
 31
0.0
  0
LINE
  5
7DC3
  8
0
  6
BYBLOCK
 62
     0
 10
1652.506028812667
 20
1242.689922650788
 30
0.0
 11
1652.506028812667
 21
1275.0125846507881
 31
0.0
  0
LINE
  5
7DC4
  8
0
  6
BYBLOCK
 62
     0
 10
1560.5060288126681
 20
1265.0125846507881
 30
0.0
 11
1632.5060288126681
 21
1265.0125846507881
 31
0.0
  0
TEXT
  5
7DC5
  8
3
 62
     0
 10
1563.648885955525
 20
1272.3725000033619
 30
0.0
 40
30.0
  1
112
  0
INSERT
  5
7DC6
  8
0
  6
BYBLOCK
 62
     0
  2
_OPEN
 10
1540.5060288126681
 20
1265.0125846507881
 30
0.0
 41
20.0
 42
20.0
 43
20.0
 50
180.0
  0
INSERT
  5
7DC7
  8
0
  6
BYBLOCK
 62
     0
  2
_OPEN
 10
1652.506028812667
 20
1265.0125846507881
 30
0.0
 41
20.0
 42
20.0
 43
20.0
  0
POINT
  5
7DC8
  8
DEFPOINTS
  6
BYBLOCK
 62
     0
 10
1540.5060288126681
 20
1237.689922650788
 30
0.0
  0
POINT
  5
7DC9
  8
DEFPOINTS
  6
BYBLOCK
 62
     0
 10
1652.506028812667
 20
1237.689922650788
 30
0.0
  0
POINT
  5
7DCA
  8
DEFPOINTS
  6
BYBLOCK
 62
     0
 10
1652.506028812667
 20
1265.0125846507881
 30
0.0
  0
ENDBLK
  5
7DCB
  8
0
  0
BLOCK
  8
0
  2
*D8
 70
     1
 10
0.0
 20
0.0
 30
0.0
  3
*D8
  1

  0
LINE
  5
7DB7
  8
0
  6
BYBLOCK
 62
     0
 10
1665.5060288126681
 20
1187.689922650788
 30
0.0
 11
1746.9841678126679
 21
1187.689922650788
 31
0.0
  0
LINE
  5
7DB8
  8
0
  6
BYBLOCK
 62
     0
 10
1665.5060288126681
 20
1027.689922650788
 30
0.0
 11
1746.9841678126679
 21
1027.689922650788
 31
0.0
  0
LINE
  5
7DB9
  8
0
  6
BYBLOCK
 62
     0
 10
1736.9841678126679
 20
1167.689922650788
 30
0.0
 11
1736.9841678126679
 21
1047.689922650788
 31
0.0
  0
TEXT
  5
7DBA
  8
3
 62
     0
 10
1727.5428489851849
 20
1056.975636936502
 30
0.0
 40
30.0
  1
φ160
 50
90.0
  0
INSERT
  5
7DBB
  8
0
  6
BYBLOCK
 62
     0
  2
_OPEN
 10
1736.9841678126679
 20
1187.689922650788
 30
0.0
 41
20.0
 42
20.0
 43
20.0
 50
90.0
  0
INSERT
  5
7DBC
  8
0
  6
BYBLOCK
 62
     0
  2
_OPEN
 10
1736.9841678126679
 20
1027.689922650788
 30
0.0
 41
20.0
 42
20.0
 43
20.0
 50
270.0
  0
POINT
  5
7DBD
  8
DEFPOINTS
  6
BYBLOCK
 62
     0
 10
1660.5060288126681
 20
1187.689922650788
 30
0.0
  0
POINT
  5
7DBE
  8
DEFPOINTS
  6
BYBLOCK
 62
     0
 10
1660.5060288126681
 20
1027.689922650788
 30
0.0
  0
POINT
  5
7DBF
  8
DEFPOINTS
  6
BYBLOCK
 62
     0
 10
1736.9841678126679
 20
1027.689922650788
 30
0.0
  0
ENDBLK
  5
7DC0
  8
0
  0
BLOCK
  8
0
  2
*D9
 70
     1
 10
0.0
 20
0.0
 30
0.0
  3
*D9
  1

  0
LINE
  5
7F37
  8
3
  6
CONTINUOUS
 62
     0
 10
1336.5060288126681
 20
1207.689922650788
 30
0.0
 11
1336.5060288126681
 21
1347.4242494243149
 31
0.0
  0
LINE
  5
7F38
  8
3
  6
CONTINUOUS
 62
     0
 10
1596.5060288126681
 20
1314.4676411014041
 30
0.0
 11
1596.5060288126681
 21
1347.4242494243149
 31
0.0
  0
LINE
  5
7F39
  8
3
  6
CONTINUOUS
 62
     0
 10
1356.5060288126681
 20
1337.4242494243149
 30
0.0
 11
1576.5060288126681
 21
1337.4242494243149
 31
0.0
  0
INSERT
  5
7F3A
  8
3
  6
CONTINUOUS
 62
     0
  2
_OPEN
 10
1336.5060288126681
 20
1337.4242494243149
 30
0.0
 41
20.0
 42
20.0
 43
20.0
 50
180.0
  0
INSERT
  5
7F3B
  8
3
  6
CONTINUOUS
 62
     0
  2
_OPEN
 10
1596.5060288126681
 20
1337.4242494243149
 30
0.0
 41
20.0
 42
20.0
 43
20.0
  0
TEXT
  8
3
  40
30
  5
7F8D
  62
0
  72
0
  71
0
 10
1399.57
 20
1334.32
 30
0.000000
  1
MAX
  0
TEXT
  8
3
  40
30
  5
7F8E
  62
0
  72
0
  71
0
 10
1399.57
 20
1295.32
 30
0.000000
  1
260
  0
POINT
  5
7F3D
  8
DEFPOINTS
  6
CONTINUOUS
 62
     0
 10
1336.5060288126681
 20
1202.689922650789
 30
0.0
  0
POINT
  5
7F3E
  8
DEFPOINTS
  6
CONTINUOUS
 62
     0
 10
1596.5060288126681
 20
1309.4676411014041
 30
0.0
  0
POINT
  5
7F3F
  8
DEFPOINTS
  6
CONTINUOUS
 62
     0
 10
1596.5060288126681
 20
1337.4242494243149
 30
0.0
  0
ENDBLK
  5
7E0A
  8
0
  0
BLOCK
  8
0
  2
*D10
 70
     1
 10
0.0
 20
0.0
 30
0.0
  3
*D10
  1

  0
LINE
  5
7F40
  8
3
  6
CONTINUOUS
 62
     0
 10
1660.5060288126681
 20
1212.689922650788
 30
0.0
 11
1660.5060288126681
 21
1347.4242494243149
 31
0.0
  0
LINE
  5
7F41
  8
3
  6
CONTINUOUS
 62
     0
 10
1616.5060288126681
 20
1337.4242494243149
 30
0.0
 11
1640.5060288126681
 21
1337.4242494243149
 31
0.0
  0
TEXT
  8
3
  40
30
  5
7F8F
  62
0
  72
0
  71
0
 10
1568.32
 20
1309.32
 30
0.000000
  1
64
  0
INSERT
  5
7F43
  8
3
  6
CONTINUOUS
 62
     0
  2
_OPEN
 10
1596.5060288126681
 20
1337.4242494243149
 30
0.0
 41
20.0
 42
20.0
 43
20.0
 50
180.0
  0
INSERT
  5
7F44
  8
3
  6
CONTINUOUS
 62
     0
  2
_OPEN
 10
1660.5060288126681
 20
1337.4242494243149
 30
0.0
 41
20.0
 42
20.0
 43
20.0
  0
POINT
  5
7F45
  8
DEFPOINTS
  6
CONTINUOUS
 62
     0
 10
1596.5060288126681
 20
1309.4676411014041
 30
0.0
  0
POINT
  5
7F46
  8
DEFPOINTS
  6
CONTINUOUS
 62
     0
 10
1660.5060288126681
 20
1207.689922650788
 30
0.0
  0
POINT
  5
7F47
  8
DEFPOINTS
  6
CONTINUOUS
 62
     0
 10
1660.5060288126681
 20
1337.4242494243149
 30
0.0
  0
ENDBLK
  5
7DF4
  8
0
  0
BLOCK
  8
0
  2
*D11
 70
     1
 10
0.0
 20
0.0
 30
0.0
  3
*D11
  1

  0
LINE
  5
7F48
  8
3
  6
CONTINUOUS
 62
     0
 10
662.70804372906161
 20
1242.689922650788
 30
0.0
 11
662.70804372906161
 21
1294.3273536507879
 31
0.0
  0
LINE
  5
7F49
  8
3
  6
CONTINUOUS
 62
     0
 10
822.70804372906161
 20
1242.689922650788
 30
0.0
 11
822.70804372906161
 21
1294.3273536507879
 31
0.0
  0
LINE
  5
7F4A
  8
3
  6
CONTINUOUS
 62
     0
 10
682.70804372906161
 20
1284.3273536507879
 30
0.0
 11
802.7080437290615
 21
1284.3273536507879
 31
0.0
  0
INSERT
  5
7F4B
  8
3
  6
CONTINUOUS
 62
     0
  2
_OPEN
 10
662.70804372906161
 20
1284.3273536507879
 30
0.0
 41
20.0
 42
20.0
 43
20.0
 50
180.0
  0
INSERT
  5
7F4C
  8
3
  6
CONTINUOUS
 62
     0
  2
_OPEN
 10
822.70804372906161
 20
1284.3273536507879
 30
0.0
 41
20.0
 42
20.0
 43
20.0
  0
TEXT
  8
3
  40
30
  5
7F90
  62
0
  72
0
  71
0
 10
681.456
 20
1256.23
 30
0.000000
  1
160
  0
POINT
  5
7F4E
  8
DEFPOINTS
  6
CONTINUOUS
 62
     0
 10
662.70804372906161
 20
1237.689922650788
 30
0.0
  0
POINT
  5
7F4F
  8
DEFPOINTS
  6
CONTINUOUS
 62
     0
 10
822.70804372906161
 20
1237.689922650788
 30
0.0
  0
POINT
  5
7F50
  8
DEFPOINTS
  6
CONTINUOUS
 62
     0
 10
822.70804372906161
 20
1284.3273536507879
 30
0.0
  0
ENDBLK
  5
7C2E
  8
0
  0
BLOCK
  8
0
  2
*D12
 70
     1
 10
0.0
 20
0.0
 30
0.0
  3
*D12
  1

  0
LINE
  5
7F51
  8
3
  6
CONTINUOUS
 62
     0
 10
849.70804372906161
 20
1237.689922650788
 30
0.0
 11
1115.926146729061
 21
1237.689922650788
 31
0.0
  0
LINE
  5
7F52
  8
3
  6
CONTINUOUS
 62
     0
 10
962.70804372906173
 20
847.6899226507885
 30
0.0
 11
1115.926146729061
 21
847.6899226507885
 31
0.0
  0
LINE
  5
7F53
  8
3
  6
CONTINUOUS
 62
     0
 10
1105.926146729061
 20
1217.689922650788
 30
0.0
 11
1105.926146729061
 21
867.6899226507885
 31
0.0
  0
INSERT
  5
7F54
  8
3
  6
CONTINUOUS
 62
     0
  2
_OPEN
 10
1105.926146729061
 20
1237.689922650788
 30
0.0
 41
20.0
 42
20.0
 43
20.0
 50
90.0
  0
INSERT
  5
7F55
  8
3
  6
CONTINUOUS
 62
     0
  2
_OPEN
 10
1105.926146729061
 20
847.6899226507885
 30
0.0
 41
20.0
 42
20.0
 43
20.0
 50
270.0
  0
TEXT
  8
3
  40
30
  5
7F91
  62
0
  72
0
  71
0
 10
1020.93
 20
987.128
 30
0.000000
  1
390
  0
POINT
  5
7F57
  8
DEFPOINTS
  6
CONTINUOUS
 62
     0
 10
844.7080437290615
 20
1237.689922650788
 30
0.0
  0
POINT
  5
7F58
  8
DEFPOINTS
  6
CONTINUOUS
 62
     0
 10
957.70804372906161
 20
847.6899226507885
 30
0.0
  0
POINT
  5
7F59
  8
DEFPOINTS
  6
CONTINUOUS
 62
     0
 10
1105.926146729061
 20
847.6899226507885
 30
0.0
  0
ENDBLK
  5
7CD6
  8
0
  0
BLOCK
  8
0
  2
*D13
 70
     1
 10
0.0
 20
0.0
 30
0.0
  3
*D13
  1

  0
LINE
  5
7DAC
  8
0
  6
BYBLOCK
 62
     0
 10
849.70804372906161
 20
1237.689922650788
 30
0.0
 11
1045.097939729061
 21
1237.689922650788
 31
0.0
  0
LINE
  5
7DAD
  8
0
  6
BYBLOCK
 62
     0
 10
950.3522257290615
 20
1107.689922650788
 30
0.0
 11
1045.097939729061
 21
1107.689922650788
 31
0.0
  0
LINE
  5
7DAE
  8
0
  6
BYBLOCK
 62
     0
 10
1035.097939729061
 20
1217.689922650788
 30
0.0
 11
1035.097939729061
 21
1127.689922650788
 31
0.0
  0
TEXT
  5
7DAF
  8
3
 62
     0
 10
1026.3062242846279
 20
1136.975636936502
 30
0.0
 40
30.0
  1
130
 50
90.0
  0
INSERT
  5
7DB0
  8
0
  6
BYBLOCK
 62
     0
  2
_OPEN
 10
1035.097939729061
 20
1237.689922650788
 30
0.0
 41
20.0
 42
20.0
 43
20.0
 50
90.0
  0
INSERT
  5
7DB1
  8
0
  6
BYBLOCK
 62
     0
  2
_OPEN
 10
1035.097939729061
 20
1107.689922650788
 30
0.0
 41
20.0
 42
20.0
 43
20.0
 50
270.0
  0
POINT
  5
7DB2
  8
DEFPOINTS
  6
BYBLOCK
 62
     0
 10
844.7080437290615
 20
1237.689922650788
 30
0.0
  0
POINT
  5
7DB3
  8
DEFPOINTS
  6
BYBLOCK
 62
     0
 10
945.35222572906162
 20
1107.689922650788
 30
0.0
  0
POINT
  5
7DB4
  8
DEFPOINTS
  6
BYBLOCK
 62
     0
 10
1035.097939729061
 20
1107.689922650788
 30
0.0
  0
ENDBLK
  5
7DB5
  8
0
  0
BLOCK
  8
0
  2
*D14
 70
     1
 10
0.0
 20
0.0
 30
0.0
  3
*D14
  1

  0
LINE
  5
7F5A
  8
3
  6
CONTINUOUS
 62
     0
 10
962.70804372906173
 20
872.6899226507885
 30
0.0
 11
1045.097939729061
 21
872.6899226507885
 31
0.0
  0
LINE
  5
7F5B
  8
3
  6
CONTINUOUS
 62
     0
 10
1035.097939729061
 20
1087.689922650788
 30
0.0
 11
1035.097939729061
 21
892.6899226507885
 31
0.0
  0
INSERT
  5
7F5C
  8
3
  6
CONTINUOUS
 62
     0
  2
_OPEN
 10
1035.097939729061
 20
1107.689922650788
 30
0.0
 41
20.0
 42
20.0
 43
20.0
 50
90.0
  0
INSERT
  5
7F5D
  8
3
  6
CONTINUOUS
 62
     0
  2
_OPEN
 10
1035.097939729061
 20
872.6899226507885
 30
0.0
 41
20.0
 42
20.0
 43
20.0
 50
270.0
  0
TEXT
  8
3
  40
30
  5
7F92
  62
0
  72
0
  71
0
 10
950.098
 20
937.090
 30
0.000000
  1
235
  0
POINT
  5
7F5F
  8
DEFPOINTS
  6
CONTINUOUS
 62
     0
 10
945.35222572906162
 20
1107.689922650788
 30
0.0
  0
POINT
  5
7F60
  8
DEFPOINTS
  6
CONTINUOUS
 62
     0
 10
957.70804372906161
 20
872.6899226507885
 30
0.0
  0
POINT
  5
7F61
  8
DEFPOINTS
  6
CONTINUOUS
 62
     0
 10
1035.097939729061
 20
872.6899226507885
 30
0.0
  0
ENDBLK
  5
7D07
  8
0
  0
BLOCK
  8
0
  2
*D15
 70
     1
 10
0.0
 20
0.0
 30
0.0
  3
*D15
  1

  0
LINE
  5
7F62
  8
3
  6
CONTINUOUS
 62
     0
 10
962.70804372906173
 20
872.6899226507885
 30
0.0
 11
1045.097939729061
 21
872.6899226507885
 31
0.0
  0
LINE
  5
7F63
  8
3
  6
CONTINUOUS
 62
     0
 10
962.70804372906173
 20
847.6899226507885
 30
0.0
 11
1045.097939729061
 21
847.6899226507885
 31
0.0
  0
LINE
  5
7F64
  8
3
  6
CONTINUOUS
 62
     0
 10
1035.097939729061
 20
892.6899226507885
 30
0.0
 11
1035.097939729061
 21
912.68992265078862
 31
0.0
  0
LINE
  5
7F65
  8
3
  6
CONTINUOUS
 62
     0
 10
1035.097939729061
 20
827.68992265078839
 30
0.0
 11
1035.097939729061
 21
739.11849407935995
 31
0.0
  0
LINE
  5
7F66
  8
3
  6
CONTINUOUS
 62
     0
 10
1035.097939729061
 20
872.6899226507885
 30
0.0
 11
1035.097939729061
 21
847.6899226507885
 31
0.0
  0
INSERT
  5
7F67
  8
3
  6
CONTINUOUS
 62
     0
  2
_OPEN
 10
1035.097939729061
 20
872.6899226507885
 30
0.0
 41
20.0
 42
20.0
 43
20.0
 50
270.0
  0
INSERT
  5
7F68
  8
3
  6
CONTINUOUS
 62
     0
  2
_OPEN
 10
1035.097939729061
 20
847.6899226507885
 30
0.0
 41
20.0
 42
20.0
 43
20.0
 50
90.0
  0
TEXT
  8
3
  40
30
  5
7F93
  62
0
  72
0
  71
0
 10
950.098
 20
720.304
 30
0.000000
  1
25
  0
POINT
  5
7F6A
  8
DEFPOINTS
  6
CONTINUOUS
 62
     0
 10
957.70804372906161
 20
872.6899226507885
 30
0.0
  0
POINT
  5
7F6B
  8
DEFPOINTS
  6
CONTINUOUS
 62
     0
 10
957.70804372906161
 20
847.6899226507885
 30
0.0
  0
POINT
  5
7F6C
  8
DEFPOINTS
  6
CONTINUOUS
 62
     0
 10
1035.097939729061
 20
847.6899226507885
 30
0.0
  0
ENDBLK
  5
7E17
  8
0
  0
BLOCK
  8
0
  2
*D16
 70
     1
 10
0.0
 20
0.0
 30
0.0
  3
*D16
  1

  0
LINE
  5
7F6D
  8
3
  6
CONTINUOUS
 62
     0
 10
651.70804372906161
 20
1227.689922650788
 30
0.0
 11
651.70804372906161
 21
1349.354785650788
 31
0.0
  0
LINE
  5
7F6E
  8
3
  6
CONTINUOUS
 62
     0
 10
822.70804372906161
 20
1242.689922650788
 30
0.0
 11
822.70804372906161
 21
1349.354785650788
 31
0.0
  0
LINE
  5
7F6F
  8
3
  6
CONTINUOUS
 62
     0
 10
671.70804372906161
 20
1339.354785650788
 30
0.0
 11
802.7080437290615
 21
1339.354785650788
 31
0.0
  0
INSERT
  5
7F70
  8
3
  6
CONTINUOUS
 62
     0
  2
_OPEN
 10
651.70804372906161
 20
1339.354785650788
 30
0.0
 41
20.0
 42
20.0
 43
20.0
 50
180.0
  0
INSERT
  5
7F71
  8
3
  6
CONTINUOUS
 62
     0
  2
_OPEN
 10
822.70804372906161
 20
1339.354785650788
 30
0.0
 41
20.0
 42
20.0
 43
20.0
  0
TEXT
  8
3
  40
30
  5
7F94
  62
0
  72
0
  71
0
 10
678.404
 20
1311.25
 30
0.000000
  1
171
  0
POINT
  5
7F73
  8
DEFPOINTS
  6
CONTINUOUS
 62
     0
 10
651.70804372906161
 20
1222.689922650788
 30
0.0
  0
POINT
  5
7F74
  8
DEFPOINTS
  6
CONTINUOUS
 62
     0
 10
822.70804372906161
 20
1237.689922650788
 30
0.0
  0
POINT
  5
7F75
  8
DEFPOINTS
  6
CONTINUOUS
 62
     0
 10
822.70804372906161
 20
1339.354785650788
 30
0.0
  0
ENDBLK
  5
7D43
  8
0
  0
BLOCK
  8
0
  2
*D17
 70
     1
 10
0.0
 20
0.0
 30
0.0
  3
*D17
  1

  0
LINE
  5
7F76
  8
3
  6
CONTINUOUS
 62
     0
 10
945.35222572906162
 20
1112.689922650788
 30
0.0
 11
945.35222572906162
 21
1349.354785650788
 31
0.0
  0
LINE
  5
7F77
  8
3
  6
CONTINUOUS
 62
     0
 10
842.70804372906161
 20
1339.354785650788
 30
0.0
 11
925.3522257290615
 21
1339.354785650788
 31
0.0
  0
TEXT
  8
3
  40
30
  5
7F95
  62
0
  72
0
  71
0
 10
817.932
 20
1311.25
 30
0.000000
  1
123
  0
INSERT
  5
7F79
  8
3
  6
CONTINUOUS
 62
     0
  2
_OPEN
 10
822.70804372906161
 20
1339.354785650788
 30
0.0
 41
20.0
 42
20.0
 43
20.0
 50
180.0
  0
INSERT
  5
7F7A
  8
3
  6
CONTINUOUS
 62
     0
  2
_OPEN
 10
945.35222572906162
 20
1339.354785650788
 30
0.0
 41
20.0
 42
20.0
 43
20.0
  0
POINT
  5
7F7B
  8
DEFPOINTS
  6
CONTINUOUS
 62
     0
 10
822.70804372906161
 20
1237.689922650788
 30
0.0
  0
POINT
  5
7F7C
  8
DEFPOINTS
  6
CONTINUOUS
 62
     0
 10
945.35222572906162
 20
1107.689922650788
 30
0.0
  0
POINT
  5
7F7D
  8
DEFPOINTS
  6
CONTINUOUS
 62
     0
 10
945.35222572906162
 20
1339.354785650788
 30
0.0
  0
ENDBLK
  5
7D68
  8
0
  0
BLOCK
  8
0
  2
*D18
 70
     1
 10
0.0
 20
0.0
 30
0.0
  3
*D18
  1

  0
LINE
  5
7F7E
  8
3
 62
     0
 10
945.35222572906162
 20
1117.689922650788
 30
0.0
 11
945.35222572906162
 21
1401.3288225276469
 31
0.0
  0
LINE
  5
7F7F
  8
3
 62
     0
 10
397.70804372906161
 20
927.68992265078839
 30
0.0
 11
397.70804372906161
 21
1401.3288225276469
 31
0.0
  0
LINE
  5
7F80
  8
3
 62
     0
 10
925.3522257290615
 20
1391.3288225276469
 30
0.0
 11
417.70804372906173
 21
1391.3288225276469
 31
0.0
  0
INSERT
  5
7F81
  8
3
 62
     0
  2
_OPEN
 10
945.35222572906162
 20
1391.3288225276469
 30
0.0
 41
20.0
 42
20.0
 43
20.0
  0
INSERT
  5
7F82
  8
3
 62
     0
  2
_OPEN
 10
397.70804372906161
 20
1391.3288225276469
 30
0.0
 41
20.0
 42
20.0
 43
20.0
 50
180.0
  0
TEXT
  8
3
  40
30
  5
7F96
  62
0
  72
0
  71
0
 10
606.912
 20
1363.23
 30
0.000000
  1
548
  0
POINT
  5
7F84
  8
DEFPOINTS
 62
     0
 10
945.35222572906162
 20
1112.689922650788
 30
0.0
  0
POINT
  5
7F85
  8
DEFPOINTS
 62
     0
 10
397.70804372906161
 20
922.6899226507885
 30
0.0
  0
POINT
  5
7F86
  8
DEFPOINTS
 62
     0
 10
397.70804372906161
 20
1391.3288225276469
 30
0.0
  0
ENDBLK
  5
7E2F
  8
0
  0
ENDSEC
  0
SECTION
  2
ENTITIES
  0
LINE
  5
7A8B
  8
1
  6
CONTINUOUS
 10
1324.5060288126681
 20
847.6899226507885
 30
0.0
 11
1754.506028812667
 21
847.6899226507885
 31
0.0
  0
LINE
  5
7A8C
  8
1
  6
CONTINUOUS
 10
1324.5060288126681
 20
872.6899226507885
 30
0.0
 11
1754.506028812667
 21
872.6899226507885
 31
0.0
  0
LINE
  5
7A8D
  8
1
  6
CONTINUOUS
 10
920.00804372906146
 20
1202.689922650789
 30
0.0
 11
440.00804372906168
 21
1202.689922650789
 31
0.0
  0
LINE
  5
7A8E
  8
1
  6
CONTINUOUS
 10
397.70804372906161
 20
922.6899226507885
 30
0.0
 11
957.70804372906161
 21
922.6899226507885
 31
0.0
  0
LINE
  5
7A8F
  8
1
  6
CONTINUOUS
 10
397.70804372906161
 20
872.6899226507885
 30
0.0
 11
957.70804372906161
 21
872.6899226507885
 31
0.0
  0
ARC
  5
7A90
  8
1
  6
CONTINUOUS
 10
537.20804372906161
 20
1022.689922650788
 30
0.0
 40
85.0
 50
324.69999999999987
 51
215.30000000000001
  0
LINE
  5
7A91
  8
1
  6
CONTINUOUS
 10
397.70804372906161
 20
942.68992265078862
 30
0.0
 11
648.7080437290615
 21
942.68992265078862
 31
0.0
  0
LINE
  5
7A92
  8
1
  6
CONTINUOUS
 10
440.00804372906168
 20
1202.689922650789
 30
0.0
 11
440.00804372906168
 21
922.6899226507885
 31
0.0
  0
LINE
  5
7A93
  8
1
  6
CONTINUOUS
 10
459.70804372906161
 20
942.68992265078862
 30
0.0
 11
459.70804372906161
 21
950.68992265078862
 31
0.0
  0
LINE
  5
7A94
  8
1
  6
CONTINUOUS
 10
397.70804372906161
 20
847.6899226507885
 30
0.0
 11
422.70804372906161
 21
847.6899226507885
 31
0.0
  0
LINE
  5
7A95
  8
1
  6
CONTINUOUS
 10
422.70804372906161
 20
872.6899226507885
 30
0.0
 11
422.70804372906161
 21
847.6899226507885
 31
0.0
  0
LINE
  5
7A96
  8
1
  6
CONTINUOUS
 10
397.70804372906161
 20
942.68992265078862
 30
0.0
 11
397.70804372906161
 21
847.6899226507885
 31
0.0
  0
LINE
  5
7A97
  8
1
  6
CONTINUOUS
 10
459.70804372906161
 20
950.68992265078862
 30
0.0
 11
467.9080437290616
 21
973.48992265078857
 31
0.0
  0
ARC
  5
7A98
  8
1
  6
CONTINUOUS
 10
831.70804372906161
 20
1098.689922650788
 30
0.0
 40
114.0
 50
359.5
 51
89.500000000000014
  0
ARC
  5
7A99
  8
1
  6
CONTINUOUS
 10
811.7080437290615
 20
1096.689922650788
 30
0.0
 40
134.0
 50
279.89999999999992
 51
0.5
  0
LINE
  5
7A9A
  8
1
  6
CONTINUOUS
 10
712.70804372906161
 20
1074.3899226507881
 30
0.0
 11
932.70804372906161
 21
1074.3899226507881
 31
0.0
  0
LINE
  5
7A9B
  8
1
  6
CONTINUOUS
 10
932.70804372906161
 20
1149.789922650788
 30
0.0
 11
859.30804372906164
 21
1212.689922650788
 31
0.0
  0
ARC
  5
7A9C
  8
1
  6
CONTINUOUS
 10
809.70804372906161
 20
1120.689922650788
 30
0.0
 40
158.0
 50
180.0
 51
279.10000000000002
  0
LINE
  5
7A9D
  8
1
  6
CONTINUOUS
 10
920.00804372906146
 20
922.6899226507885
 30
0.0
 11
920.00804372906146
 21
1202.689922650789
 31
0.0
  0
LINE
  5
7A9E
  8
1
  6
CONTINUOUS
 10
614.70804372906161
 20
942.68992265078862
 30
0.0
 11
614.70804372906161
 21
950.68992265078862
 31
0.0
  0
LINE
  5
7A9F
  8
1
  6
CONTINUOUS
 10
712.70804372906161
 20
1149.789922650788
 30
0.0
 11
712.70804372906161
 21
922.6899226507885
 31
0.0
  0
LINE
  5
7AA0
  8
1
  6
CONTINUOUS
 10
648.7080437290615
 20
942.68992265078862
 30
0.0
 11
648.7080437290615
 21
922.6899226507885
 31
0.0
  0
LINE
  5
7AA1
  8
1
  6
CONTINUOUS
 10
676.70804372906161
 20
1222.689922650788
 30
0.0
 11
808.70804372906161
 21
1222.689922650788
 31
0.0
  0
LINE
  5
7AA2
  8
1
  6
CONTINUOUS
 10
640.70804372906161
 20
1237.689922650788
 30
0.0
 11
844.7080437290615
 21
1237.689922650788
 31
0.0
  0
LINE
  5
7AA3
  8
1
  6
CONTINUOUS
 10
546.10804372906159
 20
988.78992265078875
 30
0.0
 11
834.10804372906148
 21
1064.189922650788
 31
0.0
  0
LINE
  5
7AA4
  8
1
  6
CONTINUOUS
 10
526.10804372906148
 20
1055.8899226507881
 30
0.0
 11
808.40804372906155
 21
1150.3899226507881
 31
0.0
  0
CIRCLE
  5
7AA5
  8
1
  6
CONTINUOUS
 10
537.20804372906161
 20
1022.689922650788
 30
0.0
 40
35.0
  0
LINE
  5
7AA6
  8
2
  6
CENTER
 10
537.20804372906161
 20
987.68992265078862
 30
0.0
 11
537.20804372906161
 21
1057.689922650788
 31
0.0
  0
LINE
  5
7AA7
  8
2
  6
CENTER
 10
502.20804372906161
 20
1022.689922650788
 30
0.0
 11
572.20804372906161
 21
1022.689922650788
 31
0.0
  0
LINE
  5
7AA8
  8
1
  6
CONTINUOUS
 10
651.70804372906161
 20
1222.689922650788
 30
0.0
 11
651.70804372906161
 21
1120.689922650788
 31
0.0
  0
LINE
  5
7AA9
  8
1
  6
CONTINUOUS
 10
651.70804372906161
 20
1222.689922650788
 30
0.0
 11
662.70804372906161
 21
1222.689922650788
 31
0.0
  0
LINE
  5
7AAA
  8
1
  6
CONTINUOUS
 10
662.70804372906161
 20
1222.689922650788
 30
0.0
 11
662.70804372906161
 21
1237.689922650788
 31
0.0
  0
LINE
  5
7AAB
  8
1
  6
CONTINUOUS
 10
661.70804372906161
 20
1237.689922650788
 30
0.0
 11
676.70804372906161
 21
1222.689922650788
 31
0.0
  0
LINE
  5
7AAC
  8
1
  6
CONTINUOUS
 10
614.70804372906161
 20
950.68992265078862
 30
0.0
 11
606.50804372906157
 21
973.48992265078857
 31
0.0
  0
CIRCLE
  5
7AAD
  8
1
  6
CONTINUOUS
 10
822.70804372906161
 20
1107.689922650788
 30
0.0
 40
80.0
  0
LINE
  5
7AAE
  8
1
  6
CONTINUOUS
 10
823.70804372906161
 20
1237.689922650788
 30
0.0
 11
808.70804372906161
 21
1222.689922650788
 31
0.0
  0
LINE
  5
7AAF
  8
1
  6
CONTINUOUS
 10
859.30804372906164
 20
1212.689922650788
 30
0.0
 11
786.10804372906159
 21
1212.689922650788
 31
0.0
  0
LINE
  5
7AB0
  8
2
  6
CENTER
 10
427.60540372906172
 20
1107.689922650788
 30
0.0
 11
1051.229914729061
 21
1107.689922650788
 31
0.0
  0
CIRCLE
  5
7AB1
  8
1
  6
CONTINUOUS
 10
822.70804372906161
 20
1107.689922650788
 30
0.0
 40
45.0
  0
CIRCLE
  5
7AB2
  8
1
  6
CONTINUOUS
 10
822.70804372906161
 20
1107.689922650788
 30
0.0
 40
100.0
  0
LINE
  5
7AB3
  8
1
  6
CONTINUOUS
 10
712.70804372906161
 20
1149.789922650788
 30
0.0
 11
786.10804372906159
 21
1212.689922650788
 31
0.0
  0
LINE
  5
7AB4
  8
1
  6
CONTINUOUS
 10
822.70804372906161
 20
1222.689922650788
 30
0.0
 11
832.70804372906161
 21
1222.689922650788
 31
0.0
  0
LINE
  5
7AB5
  8
1
  6
CONTINUOUS
 10
822.70804372906161
 20
1222.689922650788
 30
0.0
 11
822.70804372906161
 21
1237.689922650788
 31
0.0
  0
LINE
  5
7AB6
  8
1
  6
CONTINUOUS
 10
832.70804372906161
 20
1222.689922650788
 30
0.0
 11
832.70804372906161
 21
1212.689922650788
 31
0.0
  0
LINE
  5
7AB7
  8
2
  6
CENTER
 10
822.70804372906161
 20
822.6899226507885
 30
0.0
 11
822.70804372906161
 21
1332.536249650788
 31
0.0
  0
LINE
  5
7AB8
  8
1
  6
CONTINUOUS
 10
932.70804372906161
 20
922.6899226507885
 30
0.0
 11
932.70804372906161
 21
1149.789922650788
 31
0.0
  0
LINE
  5
7AB9
  8
1
  6
CONTINUOUS
 10
932.70804372906161
 20
847.6899226507885
 30
0.0
 11
932.70804372906161
 21
872.6899226507885
 31
0.0
  0
LINE
  5
7ABA
  8
1
  6
CONTINUOUS
 10
932.70804372906161
 20
847.6899226507885
 30
0.0
 11
957.70804372906161
 21
847.6899226507885
 31
0.0
  0
LINE
  5
7ABB
  8
1
  6
CONTINUOUS
 10
957.70804372906161
 20
847.6899226507885
 30
0.0
 11
957.70804372906161
 21
922.6899226507885
 31
0.0
  0
LINE
  5
7ABC
  8
1
  6
CONTINUOUS
 10
1324.5060288126681
 20
872.6899226507885
 30
0.0
 11
1324.5060288126681
 21
847.6899226507885
 31
0.0
  0
LINE
  5
7ABD
  8
1
  6
CONTINUOUS
 10
1532.906028812668
 20
1207.689922650788
 30
0.0
 11
1532.906028812668
 21
922.6899226507885
 31
0.0
  0
LINE
  5
7ABE
  8
1
  6
CONTINUOUS
 10
1411.5060288126681
 20
922.6899226507885
 30
0.0
 11
1411.5060288126681
 21
1202.689922650789
 31
0.0
  0
LINE
  5
7ABF
  8
1
  6
CONTINUOUS
 10
1336.5060288126681
 20
922.6899226507885
 30
0.0
 11
1336.5060288126681
 21
1202.689922650789
 31
0.0
  0
LINE
  5
7AC0
  8
1
  6
CONTINUOUS
 10
1433.5060288126681
 20
1074.3899226507881
 30
0.0
 11
1433.5060288126681
 21
922.6899226507885
 31
0.0
  0
LINE
  5
7AC1
  8
1
  6
CONTINUOUS
 10
1336.5060288126681
 20
922.6899226507885
 30
0.0
 11
1632.5060288126681
 21
922.6899226507885
 31
0.0
  0
LINE
  5
7AC2
  8
1
  6
CONTINUOUS
 10
1408.5060288126681
 20
922.6899226507885
 30
0.0
 11
1408.5060288126681
 21
872.6899226507885
 31
0.0
  0
LINE
  5
7AC3
  8
1
  6
CONTINUOUS
 10
1632.5060288126681
 20
922.6899226507885
 30
0.0
 11
1632.5060288126681
 21
872.6899226507885
 31
0.0
  0
LINE
  5
7AC4
  8
1
  6
CONTINUOUS
 10
1754.506028812667
 20
872.6899226507885
 30
0.0
 11
1754.506028812667
 21
847.6899226507885
 31
0.0
  0
LINE
  5
7AC5
  8
1
  6
CONTINUOUS
 10
1539.5060288126681
 20
1237.689922650788
 30
0.0
 11
1554.5060288126681
 21
1222.689922650788
 31
0.0
  0
LINE
  5
7AC6
  8
1
  6
CONTINUOUS
 10
1548.5060288126681
 20
973.58992265078859
 30
0.0
 11
1644.5060288126681
 21
973.58992265078859
 31
0.0
  0
LINE
  5
7AC7
  8
1
  6
CONTINUOUS
 10
1519.5060288126681
 20
1237.689922650788
 30
0.0
 11
1673.506028812667
 21
1237.689922650788
 31
0.0
  0
LINE
  5
7AC8
  8
1
  6
CONTINUOUS
 10
1461.606028812668
 20
1095.689922650788
 30
0.0
 11
1391.5060288126681
 21
1095.689922650788
 31
0.0
  0
LINE
  5
7AC9
  8
1
  6
CONTINUOUS
 10
1493.2060288126679
 20
1119.689922650788
 30
0.0
 11
1391.5060288126681
 21
1119.689922650788
 31
0.0
  0
LINE
  5
7ACA
  8
1
  6
CONTINUOUS
 10
1532.906028812668
 20
1149.789922650788
 30
0.0
 11
1433.5060288126681
 21
1074.3899226507881
 31
0.0
  0
LINE
  5
7ACB
  8
1
  6
CONTINUOUS
 10
1391.5060288126681
 20
1062.689922650788
 30
0.0
 11
1391.5060288126681
 21
1152.689922650788
 31
0.0
  0
LINE
  5
7ACC
  8
1
  6
CONTINUOUS
 10
1356.5060288126681
 20
1062.689922650788
 30
0.0
 11
1356.5060288126681
 21
1152.689922650788
 31
0.0
  0
LINE
  5
7ACD
  8
1
  6
CONTINUOUS
 10
1391.5060288126681
 20
1062.689922650788
 30
0.0
 11
1356.5060288126681
 21
1062.689922650788
 31
0.0
  0
LINE
  5
7ACE
  8
1
  6
CONTINUOUS
 10
1391.5060288126681
 20
1152.689922650788
 30
0.0
 11
1356.5060288126681
 21
1152.689922650788
 31
0.0
  0
LINE
  5
7ACF
  8
1
  6
CONTINUOUS
 10
1391.5060288126681
 20
1057.689922650788
 30
0.0
 11
1356.5060288126681
 21
1057.689922650788
 31
0.0
  0
LINE
  5
7AD0
  8
1
  6
CONTINUOUS
 10
1391.5060288126681
 20
987.68992265078862
 30
0.0
 11
1356.5060288126681
 21
987.68992265078862
 31
0.0
  0
LINE
  5
7AD1
  8
1
  6
CONTINUOUS
 10
1356.5060288126681
 20
987.68992265078862
 30
0.0
 11
1356.5060288126681
 21
1057.689922650788
 31
0.0
  0
LINE
  5
7AD2
  8
1
  6
CONTINUOUS
 10
1391.5060288126681
 20
987.68992265078862
 30
0.0
 11
1391.5060288126681
 21
1057.689922650788
 31
0.0
  0
LINE
  5
7AD3
  8
1
  6
CONTINUOUS
 10
1391.5060288126681
 20
1032.189922650788
 30
0.0
 11
1433.5060288126681
 21
1032.189922650788
 31
0.0
  0
LINE
  5
7AD4
  8
1
  6
CONTINUOUS
 10
1391.5060288126681
 20
1013.189922650788
 30
0.0
 11
1433.5060288126681
 21
1013.189922650788
 31
0.0
  0
LINE
  5
7AD5
  8
1
  6
CONTINUOUS
 10
1411.5060288126681
 20
1202.689922650789
 30
0.0
 11
1336.5060288126681
 21
1202.689922650789
 31
0.0
  0
ARC
  5
7AD6
  8
1
  6
CONTINUOUS
 10
1548.5060288126681
 20
981.58992265078859
 30
0.0
 40
8.0
 50
180.0
 51
270.0
  0
LINE
  5
7AD7
  8
1
  6
CONTINUOUS
 10
1540.5060288126681
 20
981.58992265078859
 30
0.0
 11
1540.5060288126681
 21
1237.689922650788
 31
0.0
  0
LINE
  5
7AD8
  8
1
  6
CONTINUOUS
 10
1532.906028812668
 20
1007.689922650788
 30
0.0
 11
1540.5060288126681
 21
1007.689922650788
 31
0.0
  0
LINE
  5
7AD9
  8
1
  6
CONTINUOUS
 10
1532.906028812668
 20
1207.689922650788
 30
0.0
 11
1540.5060288126681
 21
1207.689922650788
 31
0.0
  0
LINE
  5
7ADA
  8
1
  6
CONTINUOUS
 10
1660.5060288126681
 20
1207.689922650788
 30
0.0
 11
1652.506028812667
 21
1207.689922650788
 31
0.0
  0
LINE
  5
7ADB
  8
1
  6
CONTINUOUS
 10
1660.5060288126681
 20
1007.689922650788
 30
0.0
 11
1652.506028812667
 21
1007.689922650788
 31
0.0
  0
LINE
  5
7ADC
  8
1
  6
CONTINUOUS
 10
1654.106028812668
 20
1237.689922650788
 30
0.0
 11
1638.506028812667
 21
1222.689922650788
 31
0.0
  0
LINE
  5
7ADD
  8
1
  6
CONTINUOUS
 10
1596.5060288126681
 20
1222.689922650788
 30
0.0
 11
1554.5060288126681
 21
1222.689922650788
 31
0.0
  0
LINE
  5
7ADE
  8
1
  6
CONTINUOUS
 10
1596.5060288126681
 20
1222.689922650788
 30
0.0
 11
1638.506028812667
 21
1222.689922650788
 31
0.0
  0
ARC
  5
7ADF
  8
1
  6
CONTINUOUS
 10
1644.5060288126681
 20
981.58992265078859
 30
0.0
 40
8.0
 50
270.0
 51
0.0
  0
LINE
  5
7AE0
  8
1
  6
CONTINUOUS
 10
1652.506028812667
 20
981.58992265078859
 30
0.0
 11
1652.506028812667
 21
1237.689922650788
 31
0.0
  0
LINE
  5
7AE1
  8
1
  6
CONTINUOUS
 10
1660.5060288126681
 20
1207.689922650788
 30
0.0
 11
1660.5060288126681
 21
1007.689922650788
 31
0.0
  0
LINE
  5
7AE2
  8
1
  6
CONTINUOUS
 10
397.70804372906161
 20
1804.5222467792789
 30
0.0
 11
527.7080437290615
 21
1804.5222467792789
 31
0.0
  0
LINE
  5
7AE3
  8
1
  6
CONTINUOUS
 10
622.20804372906161
 20
1818.222246779279
 30
0.0
 11
452.20804372906161
 21
1818.222246779279
 31
0.0
  0
LINE
  5
7AE4
  8
1
  6
CONTINUOUS
 10
920.00804372906146
 20
1732.5222467792789
 30
0.0
 11
440.00804372906168
 21
1732.5222467792789
 31
0.0
  0
LINE
  5
7AE5
  8
1
  6
CONTINUOUS
 10
920.00804372906146
 20
1807.5222467792789
 30
0.0
 11
440.00804372906168
 21
1807.5222467792789
 31
0.0
  0
LINE
  5
7AE6
  8
1
  6
CONTINUOUS
 10
622.20804372906161
 20
2009.0222467792789
 30
0.0
 11
452.20804372906161
 21
2009.0222467792789
 31
0.0
  0
LINE
  5
7AE7
  8
1
  6
CONTINUOUS
 10
662.70804372906161
 20
2028.5222467792789
 30
0.0
 11
397.70804372906161
 21
2028.5222467792789
 31
0.0
  0
LINE
  5
7AE8
  8
1
  6
CONTINUOUS
 10
397.70804372906161
 20
2150.5222467792792
 30
0.0
 11
397.70804372906161
 21
1720.5222467792789
 31
0.0
  0
LINE
  5
7AE9
  8
1
  6
CONTINUOUS
 10
452.20804372906161
 20
1818.222246779279
 30
0.0
 11
452.20804372906161
 21
2009.0222467792789
 31
0.0
  0
LINE
  5
7AEA
  8
1
  6
CONTINUOUS
 10
422.70804372906161
 20
1720.5222467792789
 30
0.0
 11
397.70804372906161
 21
1720.5222467792789
 31
0.0
  0
LINE
  5
7AEB
  8
1
  6
CONTINUOUS
 10
422.70804372906161
 20
1804.5222467792789
 30
0.0
 11
422.70804372906161
 21
1720.5222467792789
 31
0.0
  0
LINE
  5
7AEC
  8
1
  6
CONTINUOUS
 10
440.00804372906168
 20
1807.5222467792789
 30
0.0
 11
440.00804372906168
 21
1732.5222467792789
 31
0.0
  0
LINE
  5
7AED
  8
1
  6
CONTINUOUS
 10
422.70804372906161
 20
2150.5222467792792
 30
0.0
 11
397.70804372906161
 21
2150.5222467792792
 31
0.0
  0
LINE
  5
7AEE
  8
1
  6
CONTINUOUS
 10
422.70804372906161
 20
2150.5222467792792
 30
0.0
 11
422.70804372906161
 21
2028.5222467792789
 31
0.0
  0
LINE
  5
7AEF
  8
1
  6
CONTINUOUS
 10
662.70804372906161
 20
2048.5222467792792
 30
0.0
 11
933.70804372906161
 21
2048.5222467792792
 31
0.0
  0
LINE
  5
7AF0
  8
1
  6
CONTINUOUS
 10
933.70804372906161
 20
1936.5222467792789
 30
0.0
 11
662.70804372906161
 21
1936.5222467792789
 31
0.0
  0
LINE
  5
7AF1
  8
1
  6
CONTINUOUS
 10
712.70804372906161
 20
1928.922246779279
 30
0.0
 11
932.70804372906161
 21
1928.922246779279
 31
0.0
  0
LINE
  5
7AF2
  8
1
  6
CONTINUOUS
 10
834.70804372906161
 20
1804.5222467792789
 30
0.0
 11
957.70804372906161
 21
1804.5222467792789
 31
0.0
  0
LINE
  5
7AF3
  8
1
  6
CONTINUOUS
 10
662.70804372906161
 20
1936.5222467792789
 30
0.0
 11
822.70804372906161
 21
2048.5222467792792
 31
0.0
  0
LINE
  5
7AF4
  8
1
  6
CONTINUOUS
 10
822.70804372906161
 20
1936.5222467792789
 30
0.0
 11
662.70804372906161
 21
2048.5222467792792
 31
0.0
  0
LINE
  5
7AF5
  8
1
  6
CONTINUOUS
 10
662.70804372906161
 20
1936.5222467792789
 30
0.0
 11
662.70804372906161
 21
2048.5222467792792
 31
0.0
  0
LINE
  5
7AF6
  8
1
  6
CONTINUOUS
 10
822.70804372906161
 20
2048.5222467792792
 30
0.0
 11
822.70804372906161
 21
1936.5222467792789
 31
0.0
  0
LINE
  5
7AF7
  8
1
  6
CONTINUOUS
 10
622.20804372906161
 20
1818.222246779279
 30
0.0
 11
622.20804372906161
 21
2009.0222467792789
 31
0.0
  0
LINE
  5
7AF8
  8
1
  6
CONTINUOUS
 10
546.70804372906161
 20
1804.5222467792789
 30
0.0
 11
810.70804372906161
 21
1804.5222467792789
 31
0.0
  0
LINE
  5
7AF9
  8
1
  6
CONTINUOUS
 10
546.70804372906161
 20
1788.422246779279
 30
0.0
 11
546.70804372906161
 21
1818.222246779279
 31
0.0
  0
LINE
  5
7AFA
  8
1
  6
CONTINUOUS
 10
527.7080437290615
 20
1788.422246779279
 30
0.0
 11
527.7080437290615
 21
1818.222246779279
 31
0.0
  0
LINE
  5
7AFB
  8
1
  6
CONTINUOUS
 10
572.20804372906161
 20
1788.422246779279
 30
0.0
 11
502.20804372906161
 21
1788.422246779279
 31
0.0
  0
LINE
  5
7AFC
  8
1
  6
CONTINUOUS
 10
572.20804372906161
 20
1753.422246779279
 30
0.0
 11
502.20804372906161
 21
1753.422246779279
 31
0.0
  0
LINE
  5
7AFD
  8
1
  6
CONTINUOUS
 10
572.20804372906161
 20
1788.422246779279
 30
0.0
 11
572.20804372906161
 21
1753.422246779279
 31
0.0
  0
LINE
  5
7AFE
  8
1
  6
CONTINUOUS
 10
502.20804372906161
 20
1788.422246779279
 30
0.0
 11
502.20804372906161
 21
1753.422246779279
 31
0.0
  0
LINE
  5
7AFF
  8
1
  6
CONTINUOUS
 10
867.70804372906161
 20
1753.422246779279
 30
0.0
 11
777.7080437290615
 21
1753.422246779279
 31
0.0
  0
LINE
  5
7B00
  8
1
  6
CONTINUOUS
 10
867.70804372906161
 20
1788.422246779279
 30
0.0
 11
777.7080437290615
 21
1788.422246779279
 31
0.0
  0
LINE
  5
7B01
  8
1
  6
CONTINUOUS
 10
722.70804372906161
 20
1928.922246779279
 30
0.0
 11
722.70804372906161
 21
1936.922246779279
 31
0.0
  0
LINE
  5
7B02
  8
1
  6
CONTINUOUS
 10
712.70804372906161
 20
1928.922246779279
 30
0.0
 11
712.70804372906161
 21
1804.5222467792789
 31
0.0
  0
LINE
  5
7B03
  8
1
  6
CONTINUOUS
 10
777.7080437290615
 20
1788.422246779279
 30
0.0
 11
777.7080437290615
 21
1753.422246779279
 31
0.0
  0
LINE
  5
7B04
  8
1
  6
CONTINUOUS
 10
810.70804372906161
 20
1928.922246779279
 30
0.0
 11
810.70804372906161
 21
1788.422246779279
 31
0.0
  0
LINE
  5
7B05
  8
1
  6
CONTINUOUS
 10
922.70804372906161
 20
1928.922246779279
 30
0.0
 11
922.70804372906161
 21
1936.922246779279
 31
0.0
  0
LINE
  5
7B06
  8
1
  6
CONTINUOUS
 10
867.70804372906161
 20
1788.422246779279
 30
0.0
 11
867.70804372906161
 21
1753.422246779279
 31
0.0
  0
LINE
  5
7B07
  8
1
  6
CONTINUOUS
 10
834.70804372906161
 20
1928.922246779279
 30
0.0
 11
834.70804372906161
 21
1788.422246779279
 31
0.0
  0
LINE
  5
7B08
  8
1
  6
CONTINUOUS
 10
920.00804372906146
 20
1732.5222467792789
 30
0.0
 11
920.00804372906146
 21
1807.5222467792789
 31
0.0
  0
LINE
  5
7B09
  8
1
  6
CONTINUOUS
 10
722.70804372906161
 20
2055.1222467792791
 30
0.0
 11
922.70804372906161
 21
2055.1222467792791
 31
0.0
  0
LINE
  5
7B0A
  8
1
  6
CONTINUOUS
 10
722.70804372906161
 20
2055.1222467792791
 30
0.0
 11
722.70804372906161
 21
2048.1222467792791
 31
0.0
  0
LINE
  5
7B0B
  8
1
  6
CONTINUOUS
 10
922.70804372906161
 20
2055.1222467792791
 30
0.0
 11
922.70804372906161
 21
2048.1222467792791
 31
0.0
  0
LINE
  5
7B0C
  8
1
  6
CONTINUOUS
 10
945.7080437290615
 20
2036.5222467792789
 30
0.0
 11
945.7080437290615
 21
1948.5222467792789
 31
0.0
  0
LINE
  5
7B0D
  8
1
  6
CONTINUOUS
 10
957.70804372906161
 20
1720.5222467792789
 30
0.0
 11
957.70804372906161
 21
2150.5222467792792
 31
0.0
  0
LINE
  5
7B0E
  8
1
  6
CONTINUOUS
 10
932.70804372906161
 20
1804.5222467792789
 30
0.0
 11
932.70804372906161
 21
1720.5222467792789
 31
0.0
  0
LINE
  5
7B0F
  8
1
  6
CONTINUOUS
 10
932.70804372906161
 20
1720.5222467792789
 30
0.0
 11
957.70804372906161
 21
1720.5222467792789
 31
0.0
  0
ARC
  5
7B10
  8
1
  6
CONTINUOUS
 10
933.70804372906161
 20
1948.5222467792789
 30
0.0
 40
12.0
 50
270.0
 51
0.0
  0
LINE
  5
7B11
  8
1
  6
CONTINUOUS
 10
932.70804372906161
 20
1804.5222467792789
 30
0.0
 11
932.70804372906161
 21
1928.922246779279
 31
0.0
  0
LINE
  5
7B12
  8
1
  6
CONTINUOUS
 10
932.70804372906161
 20
2150.5222467792792
 30
0.0
 11
932.70804372906161
 21
2048.5222467792792
 31
0.0
  0
LINE
  5
7B13
  8
1
  6
CONTINUOUS
 10
932.70804372906161
 20
2150.5222467792792
 30
0.0
 11
957.70804372906161
 21
2150.5222467792792
 31
0.0
  0
ARC
  5
7B14
  8
1
  6
CONTINUOUS
 10
933.70804372906161
 20
2036.5222467792789
 30
0.0
 40
12.0
 50
0.0
 51
90.0
  0
LINE
  5
7B15
  8
1
  6
CONTINUOUS
 10
946.60804372906148
 20
2028.5222467792789
 30
0.0
 11
945.7080437290615
 21
2028.5222467792789
 31
0.0
  0
DIMENSION
  5
7B5C
  8
3
  6
CONTINUOUS
  2
*D1
 10
822.70804372906161
 20
793.68156765078845
 30
0.0
 11
619.34141272906163
 21
793.68156765078845
 31
0.0
 70
   128
 13
397.70804372906161
 23
847.6899226507885
 33
0.0
 14
822.70804372906161
 24
872.6899226507885
 34
0.0
1001
ACAD
1000
DSTYLE
1002
{
1070
   287
1070
     3
1070
   287
1070
     3
1070
    40
1040
10.0
1070
   143
1040
0.039
1070
   172
1070
     1
1070
   271
1070
     0
1070
   279
1070
     0
1070
   288
1070
     1
1002
}
  0
DIMENSION
  5
7B68
  8
3
  6
CONTINUOUS
  2
*D2
 10
957.70804372906161
 20
793.68156765078845
 30
0.0
 11
890.20804372906173
 21
818.68156765078845
 31
0.0
 70
     0
 13
822.70804372906161
 23
872.6899226507885
 33
0.0
 14
957.70804372906161
 24
847.6899226507885
 34
0.0
1001
ACAD
1000
DSTYLE
1002
{
1070
   287
1070
     4
1070
   287
1070
     4
1070
    40
1040
10.0
1070
    75
1070
     1
1070
   143
1040
0.039
1070
   172
1070
     1
1070
   271
1070
     0
1070
   279
1070
     1
1070
   288
1070
     1
1002
}
  0
LINE
  5
7B69
  8
4
  6
CONTINUOUS
 10
1850.0
 20
500.0
 30
0.0
 11
1850.0
 21
300.0
 31
0.0
  0
LINE
  5
7B6A
  8
4
  6
CONTINUOUS
 10
1150.0
 20
500.0
 30
0.0
 11
1150.0
 21
300.0
 31
0.0
  0
LINE
  5
7B6B
  8
4
  6
CONTINUOUS
 10
650.0
 20
500.0
 30
0.0
 11
650.0
 21
300.0
 31
0.0
  0
LINE
  5
7B6E
  8
4
  6
CONTINUOUS
 10
650.0
 20
300.0
 30
0.0
 11
1850.0
 21
300.0
 31
0.0
  0
LINE
  5
7B6F
  8
4
  6
CONTINUOUS
 10
650.0
 20
400.0
 30
0.0
 11
1850.0
 21
400.0
 31
0.0
  0
TEXT
  5
7B70
  8
4
  6
CONTINUOUS
 10
688.50208099999998
 20
431.543026
 30
0.0
 40
50.0
  1
機器名称
  0
TEXT
  5
7B71
  8
4
  6
CONTINUOUS
 10
686.258106
 20
321.64515699999993
 30
0.0
 40
50.0
  1
機器型番
  0
TEXT
  5
7B72
  8
4
  6
CONTINUOUS
 10
1177.678744999999
 20
422.57176900000002
 30
0.0
 40
45.0
  1
ミツヤニューマルチファン
  0
TEXT
  5
7B73
  8
4
  6
CONTINUOUS
 10
1186.6544960000001
 20
317.159584
 30
0.0
 40
50.0
  1
NM#1-1
  0
TEXT
  5
7B75
  8
4
  6
CONTINUOUS
 10
832.66567399999997
 20
2378.280499
 30
0.0
 40
54.0
  1
天井吊ベット
  0
TEXT
  5
7B76
  8
4
  6
CONTINUOUS
 10
316.16759300000001
 20
2533.8809759999999
 30
0.0
 40
72.0
  1
ベルト駆動式片吸込片持多翼ファン
  0
LINE
  5
7B77
  8
4
  6
CONTINUOUS
 10
250.0
 20
2469.408754
 30
0.0
 11
1850.0
 21
2469.408754
 31
0.0
  0
LINE
  5
7B78
  8
4
  6
CONTINUOUS
 10
250.0
 20
2669.408754
 30
0.0
 11
1850.0
 21
2669.408754
 31
0.0
  0
LINE
  5
7B79
  8
4
  6
CONTINUOUS
 10
650.0
 20
500.0
 30
0.0
 11
1850.0
 21
500.0
 31
0.0
  0
LINE
  5
7B7A
  8
4
  6
CONTINUOUS
 10
250.0
 20
2669.408754
 30
0.0
 11
250.0
 21
2469.408754
 31
0.0
  0
TEXT
  5
7B7B
  8
4
  6
CONTINUOUS
 10
396.80684200000002
 20
2377.1711359999999
 30
0.0
 40
54.0
  1
右回転上向
  0
TEXT
  5
7B7C
  8
4
  6
CONTINUOUS
 10
1468.9695589999999
 20
2706.0610809999998
 30
0.0
 40
56.0
  1
No.
  0
TEXT
  5
7B7D
  8
4
  6
CONTINUOUS
 10
1311.296063
 20
2383.4288409999999
 30
0.0
 40
54.0
  1
縮尺：1/10
  0
LINE
  5
7B7E
  8
4
  6
CONTINUOUS
 10
1850.0
 20
2669.408754
 30
0.0
 11
1850.0
 21
2469.408754
 31
0.0
  0
LINE
  5
7B80
  8
4
  6
CONTINUOUS
 10
1440.617422
 20
2681.2635829999999
 30
0.0
 11
1440.617422
 21
2786.6522620000001
 31
0.0
  0
LINE
  5
7B81
  8
4
  6
CONTINUOUS
 10
1440.617422
 20
2786.6522620000001
 30
0.0
 11
1850.0
 21
2786.6522620000001
 31
0.0
  0
LINE
  5
7B82
  8
4
  6
CONTINUOUS
 10
1850.0
 20
2786.6522620000001
 30
0.0
 11
1850.0
 21
2681.2635829999999
 31
0.0
  0
LINE
  5
7B83
  8
4
  6
CONTINUOUS
 10
1850.0
 20
2681.2635829999999
 30
0.0
 11
1440.617422
 21
2681.2635829999999
 31
0.0
  0
DIMENSION
  5
7B99
  8
3
  6
CONTINUOUS
  2
*D3
 10
957.70804372906161
 20
1651.1138917792789
 30
0.0
 11
669.34141272906163
 21
1651.1138917792789
 31
0.0
 70
   128
 13
397.70804372906161
 23
1720.5222467792789
 33
0.0
 14
957.70804372906161
 24
1720.5222467792789
 34
0.0
1001
ACAD
1000
DSTYLE
1002
{
1070
   287
1070
     3
1070
   287
1070
     3
1070
    40
1040
10.0
1070
   143
1040
0.039
1070
   172
1070
     1
1070
   271
1070
     0
1070
   279
1070
     0
1070
   288
1070
     1
1002
}
  0
LINE
  5
7B9A
  8
2
  6
CENTER
 10
626.10980572906158
 20
1992.5222467792789
 30
0.0
 11
993.56429772906165
 21
1992.5222467792789
 31
0.0
  0
DIMENSION
  5
7BA7
  8
3
  6
CONTINUOUS
  2
*D4
 10
1040.0159157290609
 20
1720.5222467792789
 30
0.0
 11
1040.0159157290609
 21
1931.869314779279
 31
0.0
 70
   128
 13
957.70804372906161
 23
2150.5222467792792
 33
0.0
 14
957.70804372906161
 24
1720.5222467792789
 34
0.0
 50
90.0
1001
ACAD
1000
DSTYLE
1002
{
1070
   287
1070
     3
1070
   287
1070
     3
1070
    40
1040
10.0
1070
   143
1040
0.039
1070
   172
1070
     1
1070
   271
1070
     0
1070
   279
1070
     0
1070
   288
1070
     1
1002
}
  0
LINE
  5
7BA8
  8
2
  6
CENTER
 10
1596.5060288126681
 20
1255.8860936507881
 30
0.0
 11
1596.5060288126681
 21
818.23271865078846
 31
0.0
  0
DIMENSION
  5
7BB5
  8
3
  6
CONTINUOUS
  2
*D5
 10
1596.5060288126681
 20
790.1083316507885
 30
0.0
 11
1469.102540812667
 21
790.1083316507885
 31
0.0
 70
   128
 13
1324.5060288126681
 23
847.6899226507885
 33
0.0
 14
1596.5060288126681
 24
847.6899226507885
 34
0.0
1001
ACAD
1000
DSTYLE
1002
{
1070
   287
1070
     3
1070
   287
1070
     3
1070
    40
1040
10.0
1070
   143
1040
0.039
1070
   172
1070
     1
1070
   271
1070
     0
1070
   279
1070
     0
1070
   288
1070
     1
1002
}
  0
DIMENSION
  5
7BC1
  8
3
  6
CONTINUOUS
  2
*D6
 10
1754.506028812667
 20
790.1083316507885
 30
0.0
 11
1675.5060288126681
 21
815.10833165078839
 31
0.0
 70
     0
 13
1596.5060288126681
 23
847.6899226507885
 33
0.0
 14
1754.506028812667
 24
847.6899226507885
 34
0.0
1001
ACAD
1000
DSTYLE
1002
{
1070
   287
1070
     4
1070
   287
1070
     4
1070
    40
1040
10.0
1070
    75
1070
     1
1070
   143
1040
0.039
1070
   172
1070
     1
1070
   271
1070
     0
1070
   279
1070
     1
1070
   288
1070
     1
1002
}
  0
DIMENSION
  5
7BD1
  8
3
  6
CONTINUOUS
  2
*D7
 10
1652.506028812667
 20
1265.0125846507881
 30
0.0
 11
1596.5060288126681
 21
1287.3725000033619
 31
0.0
 70
   128
 13
1540.5060288126681
 23
1237.689922650788
 33
0.0
 14
1652.506028812667
 24
1237.689922650788
 34
0.0
1001
ACAD
1000
DSTYLE
1002
{
1070
   288
1070
     1
1070
   172
1070
     1
1070
    40
1040
10.0
1070
   271
1070
     0
1070
   143
1040
0.039
1002
}
  0
LINE
  5
7BD2
  8
3
  6
CONTINUOUS
 10
1660.5060288126681
 20
1107.689922650788
 30
0.0
 11
1660.5060288126681
 21
1187.689922650788
 31
0.0
  0
LINE
  5
7BD3
  8
3
  6
CONTINUOUS
 10
1660.5060288126681
 20
1187.689922650788
 30
0.0
 11
1669.634875812668
 21
1187.689922650788
 31
0.0
  0
LINE
  5
7BD4
  8
3
  6
CONTINUOUS
 10
1660.5060288126681
 20
1107.689922650788
 30
0.0
 11
1660.5060288126681
 21
1027.689922650788
 31
0.0
  0
LINE
  5
7BD5
  8
3
  6
CONTINUOUS
 10
1660.5060288126681
 20
1027.689922650788
 30
0.0
 11
1669.0322128126679
 21
1027.689922650788
 31
0.0
  0
DIMENSION
  5
7BE2
  8
3
  6
CONTINUOUS
  2
*D8
 10
1736.9841678126679
 20
1027.689922650788
 30
0.0
 11
1712.5428489851849
 21
1107.689922650788
 31
0.0
 70
   128
 13
1660.5060288126681
 23
1187.689922650788
 33
0.0
 14
1660.5060288126681
 24
1027.689922650788
 34
0.0
 50
90.0
1001
ACAD
1000
DSTYLE
1002
{
1070
   288
1070
     1
1070
   172
1070
     1
1070
    40
1040
10.0
1070
     3
1000
φ<>
1070
   271
1070
     0
1070
   143
1040
0.039
1002
}
  0
DIMENSION
  5
7BF1
  8
3
  6
CONTINUOUS
  2
*D9
 10
1596.5060288126681
 20
1337.4242494243149
 30
0.0
 11
1459.5716968126681
 21
1337.4242494243149
 31
0.0
 70
   128
  1
MAX\P260
 13
1336.5060288126681
 23
1202.689922650789
 33
0.0
 14
1596.5060288126681
 24
1309.4676411014041
 34
0.0
1001
ACAD
1000
DSTYLE
1002
{
1070
   287
1070
     3
1070
   287
1070
     3
1070
    40
1040
10.0
1070
   143
1040
0.039
1070
   172
1070
     1
1070
   271
1070
     0
1070
   279
1070
     0
1070
   288
1070
     1
1002
}
  0
DIMENSION
  5
7BFF
  8
3
  6
CONTINUOUS
  2
*D10
 10
1660.5060288126681
 20
1337.4242494243149
 30
0.0
 11
1628.3215708126679
 21
1337.4242494243149
 31
0.0
 70
   128
 13
1596.5060288126681
 23
1309.4676411014041
 33
0.0
 14
1660.5060288126681
 24
1207.689922650788
 34
0.0
1001
ACAD
1000
DSTYLE
1002
{
1070
   287
1070
     4
1070
   287
1070
     4
1070
    40
1040
10.0
1070
    75
1070
     1
1070
   143
1040
0.039
1070
   172
1070
     1
1070
   271
1070
     0
1070
   279
1070
     1
1070
   288
1070
     1
1002
}
  0
DIMENSION
  5
7C2F
  8
3
  6
CONTINUOUS
  2
*D11
 10
822.70804372906161
 20
1284.3273536507879
 30
0.0
 11
741.45638772906159
 21
1284.3273536507879
 31
0.0
 70
   128
 13
662.70804372906161
 23
1237.689922650788
 33
0.0
 14
822.70804372906161
 24
1237.689922650788
 34
0.0
1001
ACAD
1000
DSTYLE
1002
{
1070
   287
1070
     3
1070
   287
1070
     3
1070
    40
1040
10.0
1070
   143
1040
0.039
1070
   172
1070
     1
1070
   271
1070
     0
1070
   279
1070
     0
1070
   288
1070
     1
1002
}
  0
DIMENSION
  5
7CD7
  8
3
  6
CONTINUOUS
  2
*D12
 10
1105.926146729061
 20
847.6899226507885
 30
0.0
 11
1105.926146729061
 21
1040.227521650788
 31
0.0
 70
   128
 13
844.7080437290615
 23
1237.689922650788
 33
0.0
 14
957.70804372906161
 24
847.6899226507885
 34
0.0
 50
90.0
1001
ACAD
1000
DSTYLE
1002
{
1070
   287
1070
     3
1070
   287
1070
     3
1070
    40
1040
10.0
1070
   143
1040
0.039
1070
   172
1070
     1
1070
   271
1070
     0
1070
   279
1070
     0
1070
   288
1070
     1
1002
}
  0
LINE
  5
7CD8
  8
2
  6
CENTER
 10
822.70804372906161
 20
1724.060431779279
 30
0.0
 11
822.70804372906161
 21
2110.1222467792791
 31
0.0
  0
LINE
  5
7CD9
  8
2
  6
CENTER
 10
1327.1880448126681
 20
1107.689922650788
 30
0.0
 11
1668.7290938126671
 21
1107.689922650788
 31
0.0
  0
DIMENSION
  5
7CFC
  8
3
  6
CONTINUOUS
  2
*D13
 10
1035.097939729061
 20
1107.689922650788
 30
0.0
 11
1011.306224284628
 21
1172.689922650788
 31
0.0
 70
   128
 13
844.7080437290615
 23
1237.689922650788
 33
0.0
 14
945.35222572906162
 24
1107.689922650788
 34
0.0
 50
90.0
1001
ACAD
1000
DSTYLE
1002
{
1070
   288
1070
     1
1070
   172
1070
     1
1070
    40
1040
10.0
1070
   271
1070
     0
1070
   143
1040
0.039
1002
}
  0
DIMENSION
  5
7D08
  8
3
  6
CONTINUOUS
  2
*D14
 10
1035.097939729061
 20
872.6899226507885
 30
0.0
 11
1010.097939729061
 21
990.18992265078862
 31
0.0
 70
     0
 13
945.35222572906162
 23
1107.689922650788
 33
0.0
 14
957.70804372906161
 24
872.6899226507885
 34
0.0
 50
90.0
1001
ACAD
1000
DSTYLE
1002
{
1070
   287
1070
     4
1070
   287
1070
     4
1070
    40
1040
10.0
1070
    75
1070
     1
1070
   143
1040
0.039
1070
   172
1070
     1
1070
   271
1070
     0
1070
   279
1070
     1
1070
   288
1070
     1
1002
}
  0
DIMENSION
  5
7D18
  8
3
  6
CONTINUOUS
  2
*D15
 10
1035.097939729061
 20
847.6899226507885
 30
0.0
 11
1035.097939729061
 21
773.40420836507428
 31
0.0
 70
   128
 13
957.70804372906161
 23
872.6899226507885
 33
0.0
 14
957.70804372906161
 24
847.6899226507885
 34
0.0
 50
90.0
1001
ACAD
1000
DSTYLE
1002
{
1070
   287
1070
     3
1070
   287
1070
     3
1070
    40
1040
10.0
1070
   143
1040
0.039
1070
   172
1070
     1
1070
   271
1070
     0
1070
   279
1070
     0
1070
   288
1070
     1
1002
}
  0
DIMENSION
  5
7D44
  8
3
  6
CONTINUOUS
  2
*D16
 10
822.70804372906161
 20
1339.354785650788
 30
0.0
 11
738.4035157290615
 21
1339.354785650788
 31
0.0
 70
   128
 13
651.70804372906161
 23
1222.689922650788
 33
0.0
 14
822.70804372906161
 24
1237.689922650788
 34
0.0
1001
ACAD
1000
DSTYLE
1002
{
1070
   287
1070
     3
1070
   287
1070
     3
1070
    40
1040
10.0
1070
   143
1040
0.039
1070
   172
1070
     1
1070
   271
1070
     0
1070
   279
1070
     0
1070
   288
1070
     1
1002
}
  0
DIMENSION
  5
7D52
  8
3
  6
CONTINUOUS
  2
*D17
 10
945.35222572906162
 20
1339.354785650788
 30
0.0
 11
877.93213272906166
 21
1339.354785650788
 31
0.0
 70
   128
 13
822.70804372906161
 23
1237.689922650788
 33
0.0
 14
945.35222572906162
 24
1107.689922650788
 34
0.0
1001
ACAD
1000
DSTYLE
1002
{
1070
   287
1070
     4
1070
   287
1070
     4
1070
    40
1040
10.0
1070
    75
1070
     1
1070
   143
1040
0.039
1070
   172
1070
     1
1070
   271
1070
     0
1070
   279
1070
     1
1070
   288
1070
     1
1002
}
  0
DIMENSION
  5
7E24
  8
3
  2
*D18
 10
397.70804372906161
 20
1391.3288225276469
 30
0.0
 11
666.91190478690442
 21
1391.3288225276469
 31
0.0
 70
   128
 13
945.35222572906162
 23
1112.689922650788
 33
0.0
 14
397.70804372906161
 24
922.6899226507885
 34
0.0
1001
ACAD
1000
DSTYLE
1002
{
1070
   287
1070
     3
1070
   287
1070
     3
1070
    40
1040
10.0
1070
   143
1040
0.039
1070
   172
1070
     1
1070
   271
1070
     0
1070
   279
1070
     0
1070
   288
1070
     1
1002
}
  0
ENDSEC
  0
EOF
