  0
SECTION
  2
HEADER
  9
$ACADVER
  1
AC1009
  9
$INSBASE
 10
0.0
 20
0.0
 30
0.0
  9
$EXTMIN
 10
-1615.9515060000001
 20
-1049.5844890000001
 30
0.0
  9
$EXTMAX
 10
-15.951506
 20
1437.0677720000001
 30
0.0
  9
$LIMMIN
 10
0.0
 20
0.0
  9
$LIMMAX
 10
297.0
 20
210.0
  9
$ORTHOMODE
 70
     0
  9
$REGENMODE
 70
     1
  9
$FILLMODE
 70
     0
  9
$QTEXTMODE
 70
     0
  9
$MIRRTEXT
 70
     1
  9
$DRAGMODE
 70
     2
  9
$LTSCALE
 40
100.0
  9
$OSMODE
 70
    37
  9
$ATTMODE
 70
     1
  9
$TEXTSIZE
 40
180.0
  9
$TRACEWID
 40
0.05
  9
$TEXTSTYLE
  7
STANDARD
  9
$CLAYER
  8
3
  9
$CELTYPE
  6
BYLAYER
  9
$CECOLOR
 62
   256
  9
$DIMSCALE
 40
10.0
  9
$DIMASZ
 40
2.0
  9
$DIMEXO
 40
0.5
  9
$DIMDLI
 40
10.0
  9
$DIMRND
 40
0.0
  9
$DIMDLE
 40
0.0
  9
$DIMEXE
 40
1.0
  9
$DIMTP
 40
1.0
  9
$DIMTM
 40
1.0
  9
$DIMTXT
 40
3.0
  9
$DIMCEN
 40
0.0
  9
$DIMTSZ
 40
0.0
  9
$DIMTOL
 70
     0
  9
$DIMLIM
 70
     0
  9
$DIMTIH
 70
     0
  9
$DIMTOH
 70
     0
  9
$DIMSE1
 70
     0
  9
$DIMSE2
 70
     0
  9
$DIMTAD
 70
     1
  9
$DIMZIN
 70
     8
  9
$DIMBLK
  1

  9
$DIMASO
 70
     1
  9
$DIMSHO
 70
     1
  9
$DIMPOST
  1

  9
$DIMAPOST
  1

  9
$DIMALT
 70
     0
  9
$DIMALTD
 70
     2
  9
$DIMALTF
 40
0.039
  9
$DIMLFAC
 40
1.0
  9
$DIMTOFL
 70
     1
  9
$DIMTVP
 40
0.0
  9
$DIMTIX
 70
     0
  9
$DIMSOXD
 70
     0
  9
$DIMSAH
 70
     1
  9
$DIMBLK1
  1
OPEN
  9
$DIMBLK2
  1
OPEN
  9
$DIMSTYLE
  2
IGA
  9
$DIMCLRD
 70
     0
  9
$DIMCLRE
 70
     0
  9
$DIMCLRT
 70
     0
  9
$DIMTFAC
 40
10.0
  9
$DIMGAP
 40
1.0
  9
$LUNITS
 70
     2
  9
$LUPREC
 70
     3
  9
$SKETCHINC
 40
0.1
  9
$FILLETRAD
 40
50.0
  9
$AUNITS
 70
     0
  9
$AUPREC
 70
     0
  9
$MENU
  1
acad
  9
$ELEVATION
 40
0.0
  9
$PELEVATION
 40
0.0
  9
$THICKNESS
 40
0.0
  9
$LIMCHECK
 70
     0
  9
$BLIPMODE
 70
     0
  9
$CHAMFERA
 40
0.5
  9
$CHAMFERB
 40
0.5
  9
$SKPOLY
 70
     0
  9
$TDCREATE
 40
2450735.6265484951
  9
$TDUPDATE
 40
2454953.8583817822
  9
$TDINDWG
 40
0.0125285417
  9
$TDUSRTIMER
 40
0.0125285417
  9
$USRTIMER
 70
     1
  9
$ANGBASE
 50
0.0
  9
$ANGDIR
 70
     0
  9
$PDMODE
 70
     0
  9
$PDSIZE
 40
0.0
  9
$PLINEWID
 40
0.0
  9
$COORDS
 70
     1
  9
$SPLFRAME
 70
     0
  9
$SPLINETYPE
 70
     6
  9
$SPLINESEGS
 70
     8
  9
$ATTDIA
 70
     0
  9
$ATTREQ
 70
     1
  9
$HANDLING
 70
 10241
  9
$HANDSEED
  5
7F12
  9
$SURFTAB1
 70
     6
  9
$SURFTAB2
 70
     6
  9
$SURFTYPE
 70
     6
  9
$SURFU
 70
     6
  9
$SURFV
 70
     6
  9
$UCSNAME
  2

  9
$UCSORG
 10
0.0
 20
0.0
 30
0.0
  9
$UCSXDIR
 10
1.0
 20
0.0
 30
0.0
  9
$UCSYDIR
 10
0.0
 20
1.0
 30
0.0
  9
$PUCSNAME
  2

  9
$PUCSORG
 10
0.0
 20
0.0
 30
0.0
  9
$PUCSXDIR
 10
1.0
 20
0.0
 30
0.0
  9
$PUCSYDIR
 10
0.0
 20
1.0
 30
0.0
  9
$USERI1
 70
     0
  9
$USERI2
 70
     0
  9
$USERI3
 70
     0
  9
$USERI4
 70
     0
  9
$USERI5
 70
     0
  9
$USERR1
 40
0.0
  9
$USERR2
 40
0.0
  9
$USERR3
 40
0.0
  9
$USERR4
 40
0.0
  9
$USERR5
 40
0.0
  9
$WORLDVIEW
 70
     1
  9
$SHADEDGE
 70
     3
  9
$SHADEDIF
 70
    70
  9
$TILEMODE
 70
     1
  9
$MAXACTVP
 70
    16
  9
$PLIMCHECK
 70
     0
  9
$PEXTMIN
 10
1.0000000000000000E+020
 20
1.0000000000000000E+020
 30
1.0000000000000000E+020
  9
$PEXTMAX
 10
-1.0000000000000000E+020
 20
-1.0000000000000000E+020
 30
-1.0000000000000000E+020
  9
$PLIMMIN
 10
0.0
 20
0.0
  9
$PLIMMAX
 10
12.0
 20
9.0
  9
$UNITMODE
 70
     0
  9
$VISRETAIN
 70
     0
  9
$PLINEGEN
 70
     0
  9
$PSLTSCALE
 70
     1
  0
ENDSEC
  0
SECTION
  2
TABLES
  0
TABLE
  2
VPORT
 70
     2
  0
VPORT
  2
*ACTIVE
 70
     0
 10
0.0
 20
0.0
 11
1.0
 21
1.0
 12
879.35920844496604
 22
588.39325969176195
 13
0.0
 23
0.0
 14
10.0
 24
10.0
 15
10.0
 25
10.0
 16
0.0
 26
0.0
 36
1.0
 17
0.0
 27
0.0
 37
0.0
 40
3552.212855078647
 41
1.5051150895140659
 42
50.0
 43
0.0
 44
0.0
 50
0.0
 51
0.0
 71
     0
 72
   100
 73
     1
 74
     0
 75
     0
 76
     0
 77
     0
 78
     0
  0
ENDTAB
  0
TABLE
  2
LTYPE
 70
     2
  0
LTYPE
  2
CONTINUOUS
 70
     0
  3
Solid line
 72
    65
 73
     0
 40
0.0
  0
LTYPE
  2
CENTER
 70
     0
  3
____ _ ____ _ ____ _ ____ _ ____ _ ____ _ ____ 
 72
    65
 73
     4
 40
2.0
 49
1.25
 49
-0.25
 49
0.25
 49
-0.25
  0
ENDTAB
  0
TABLE
  2
LAYER
 70
     6
  0
LAYER
  2
0
 70
     0
 62
     7
  6
CONTINUOUS
  0
LAYER
  2
3
 70
     0
 62
     2
  6
CONTINUOUS
  0
LAYER
  2
2
 70
     0
 62
     3
  6
CENTER
  0
LAYER
  2
1
 70
     0
 62
     4
  6
CONTINUOUS
  0
LAYER
  2
4
 70
     0
 62
     7
  6
CONTINUOUS
  0
LAYER
  2
DEFPOINTS
 70
     0
 62
     7
  6
CONTINUOUS
  0
ENDTAB
  0
TABLE
  2
STYLE
 70
     1
  0
STYLE
  2
STANDARD
 70
     0
 40
0.0
 41
1.0
 50
0.0
 71
     0
 42
180.0
  3
simplex.shx
  4
extfont.shx
  0
ENDTAB
  0
TABLE
  2
VIEW
 70
     0
  0
ENDTAB
  0
TABLE
  2
UCS
 70
     0
  0
ENDTAB
  0
TABLE
  2
APPID
 70
     1
  0
APPID
  2
ACAD
 70
     0
  0
ENDTAB
  0
TABLE
  2
DIMSTYLE
 70
     1
  0
DIMSTYLE
  2
IGA
 70
     0
  3

  4

  5

  6
OPEN
  7
OPEN
 40
2.0
 41
2.0
 42
0.5
 43
10.0
 44
1.0
 45
0.0
 46
0.0
 47
1.0
 48
1.0
140
3.0
141
0.0
142
0.0
143
0.03937
144
1.0
145
0.0
146
10.0
147
1.0
 71
     0
 72
     0
 73
     0
 74
     0
 75
     0
 76
     0
 77
     1
 78
     8
170
     0
171
     2
172
     0
173
     1
174
     0
175
     0
176
     0
177
     0
178
     0
  0
ENDTAB
  0
ENDSEC
  0
SECTION
  2
BLOCKS
  0
BLOCK
  8
0
  2
$MODEL_SPACE
 70
     0
 10
0.0
 20
0.0
 30
0.0
  3
$MODEL_SPACE
  1

  0
ENDBLK
  5
1B
  8
0
  0
BLOCK
 67
     1
  8
0
  2
$PAPER_SPACE
 70
     0
 10
0.0
 20
0.0
 30
0.0
  3
$PAPER_SPACE
  1

  0
ENDBLK
  5
18
 67
     1
  8
0
  0
BLOCK
  8
0
  2
_OPEN
 70
     0
 10
0.0
 20
0.0
 30
0.0
  3
_OPEN
  1

  0
LINE
  5
7B16
  8
0
  6
BYBLOCK
 62
     0
 10
-1.0
 20
0.166667
 30
0.0
 11
0.0
 21
0.0
 31
0.0
  0
LINE
  5
7B17
  8
0
  6
BYBLOCK
 62
     0
 10
0.0
 20
0.0
 30
0.0
 11
-1.0
 21
-0.166667
 31
0.0
  0
LINE
  5
7B18
  8
0
  6
BYBLOCK
 62
     0
 10
0.0
 20
0.0
 30
0.0
 11
-1.0
 21
0.0
 31
0.0
  0
ENDBLK
  5
7B19
  8
0
  0
BLOCK
  8
0
  2
*D1
 70
     1
 10
0.0
 20
0.0
 30
0.0
  3
*D1
  1

  0
LINE
  5
7E72
  8
3
  6
CONTINUOUS
 62
     0
 10
-1454.79728
 20
-563.17697684002678
 30
0.0
 11
-1454.79728
 21
-618.62291984002673
 31
0.0
  0
LINE
  5
7E73
  8
3
  6
CONTINUOUS
 62
     0
 10
-1029.79728
 20
-538.17697684002678
 30
0.0
 11
-1029.79728
 21
-618.62291984002673
 31
0.0
  0
LINE
  5
7E74
  8
3
  6
CONTINUOUS
 62
     0
 10
-1434.79728
 20
-608.62291984002673
 30
0.0
 11
-1049.7972799999991
 21
-608.62291984002673
 31
0.0
  0
INSERT
  5
7E75
  8
3
  6
CONTINUOUS
 62
     0
  2
_OPEN
 10
-1454.79728
 20
-608.62291984002673
 30
0.0
 41
20.0
 42
20.0
 43
20.0
 50
180.0
  0
INSERT
  5
7E76
  8
3
  6
CONTINUOUS
 62
     0
  2
_OPEN
 10
-1029.79728
 20
-608.62291984002673
 30
0.0
 41
20.0
 42
20.0
 43
20.0
  0
TEXT
  8
3
  40
30
  5
7F01
  62
0
  72
0
  71
0
 10
-1282.86
 20
-636.723
 30
0.000000
  1
425
  0
POINT
  5
7E78
  8
DEFPOINTS
  6
CONTINUOUS
 62
     0
 10
-1454.79728
 20
-558.17697684002678
 30
0.0
  0
POINT
  5
7E79
  8
DEFPOINTS
  6
CONTINUOUS
 62
     0
 10
-1029.79728
 20
-533.17697684002678
 30
0.0
  0
POINT
  5
7E7A
  8
DEFPOINTS
  6
CONTINUOUS
 62
     0
 10
-1029.79728
 20
-608.62291984002673
 30
0.0
  0
ENDBLK
  5
7B26
  8
0
  0
BLOCK
  8
0
  2
*D2
 70
     1
 10
0.0
 20
0.0
 30
0.0
  3
*D2
  1

  0
LINE
  5
7E7B
  8
3
  6
CONTINUOUS
 62
     0
 10
-894.79728
 20
-563.17697684002678
 30
0.0
 11
-894.79728
 21
-618.62291984002673
 31
0.0
  0
LINE
  5
7E7C
  8
3
  6
CONTINUOUS
 62
     0
 10
-1009.79728
 20
-608.62291984002673
 30
0.0
 11
-914.79728000000011
 21
-608.62291984002673
 31
0.0
  0
INSERT
  5
7E7D
  8
3
  6
CONTINUOUS
 62
     0
  2
_OPEN
 10
-1029.79728
 20
-608.62291984002673
 30
0.0
 41
20.0
 42
20.0
 43
20.0
 50
180.0
  0
INSERT
  5
7E7E
  8
3
  6
CONTINUOUS
 62
     0
  2
_OPEN
 10
-894.79728
 20
-608.62291984002673
 30
0.0
 41
20.0
 42
20.0
 43
20.0
  0
TEXT
  8
3
  40
30
  5
7F02
  62
0
  72
0
  71
0
 10
-1022.30
 20
-636.723
 30
0.000000
  1
135
  0
POINT
  5
7E80
  8
DEFPOINTS
  6
CONTINUOUS
 62
     0
 10
-1029.79728
 20
-533.17697684002678
 30
0.0
  0
POINT
  5
7E81
  8
DEFPOINTS
  6
CONTINUOUS
 62
     0
 10
-894.79728
 20
-558.17697684002678
 30
0.0
  0
POINT
  5
7E82
  8
DEFPOINTS
  6
CONTINUOUS
 62
     0
 10
-894.79728
 20
-608.62291984002673
 30
0.0
  0
ENDBLK
  5
7B32
  8
0
  0
BLOCK
  8
0
  2
*D3
 70
     1
 10
0.0
 20
0.0
 30
0.0
  3
*D3
  1

  0
LINE
  5
7E83
  8
3
  6
CONTINUOUS
 62
     0
 10
-894.79728
 20
-138.1769768400267
 30
0.0
 11
-812.43089399999997
 21
-138.17697684002681
 31
0.0
  0
LINE
  5
7E84
  8
3
  6
CONTINUOUS
 62
     0
 10
-894.79728
 20
-298.17697684002678
 30
0.0
 11
-812.43089400000019
 21
-298.17697684002678
 31
0.0
  0
LINE
  5
7E85
  8
3
  6
CONTINUOUS
 62
     0
 10
-822.43089399999997
 20
-118.1769768400267
 30
0.0
 11
-822.43089399999997
 21
-98.176976840026811
 31
0.0
  0
LINE
  5
7E86
  8
3
  6
CONTINUOUS
 62
     0
 10
-822.43089400000019
 20
-318.17697684002678
 30
0.0
 11
-822.43089400000019
 21
-338.17697684002678
 31
0.0
  0
LINE
  5
7E87
  8
3
  6
CONTINUOUS
 62
     0
 10
-822.43089399999997
 20
-138.17697684002681
 30
0.0
 11
-822.43089400000019
 21
-298.17697684002678
 31
0.0
  0
INSERT
  5
7E88
  8
3
  6
CONTINUOUS
 62
     0
  2
_OPEN
 10
-822.43089399999997
 20
-138.17697684002681
 30
0.0
 41
20.0
 42
20.0
 43
20.0
 50
270.0
  0
INSERT
  5
7E89
  8
3
  6
CONTINUOUS
 62
     0
  2
_OPEN
 10
-822.43089400000019
 20
-298.17697684002678
 30
0.0
 41
20.0
 42
20.0
 43
20.0
 50
90.0
  0
TEXT
  8
3
  40
30
  5
7F03
  62
0
  72
0
  71
0
 10
-907.431
 20
-285.563
 30
0.000000
  1
160
  0
POINT
  5
7E8B
  8
DEFPOINTS
  6
CONTINUOUS
 62
     0
 10
-899.79728000000011
 20
-138.1769768400267
 30
0.0
  0
POINT
  5
7E8C
  8
DEFPOINTS
  6
CONTINUOUS
 62
     0
 10
-899.79728000000011
 20
-298.17697684002673
 30
0.0
  0
POINT
  5
7E8D
  8
DEFPOINTS
  6
CONTINUOUS
 62
     0
 10
-822.43089400000019
 20
-298.17697684002678
 30
0.0
  0
ENDBLK
  5
7B4B
  8
0
  0
BLOCK
  8
0
  2
*D4
 70
     1
 10
0.0
 20
0.0
 30
0.0
  3
*D4
  1

  0
LINE
  5
7E8E
  8
3
  6
CONTINUOUS
 62
     0
 10
-909.79728
 20
-127.1769768400267
 30
0.0
 11
-743.53896699999984
 21
-127.1769768400268
 31
0.0
  0
LINE
  5
7E8F
  8
3
  6
CONTINUOUS
 62
     0
 10
-894.79728
 20
-298.17697684002678
 30
0.0
 11
-743.53896700000007
 21
-298.17697684002678
 31
0.0
  0
LINE
  5
7E90
  8
3
  6
CONTINUOUS
 62
     0
 10
-753.53896699999984
 20
-147.17697684002681
 30
0.0
 11
-753.53896699999996
 21
-278.17697684002678
 31
0.0
  0
INSERT
  5
7E91
  8
3
  6
CONTINUOUS
 62
     0
  2
_OPEN
 10
-753.53896699999984
 20
-127.1769768400268
 30
0.0
 41
20.0
 42
20.0
 43
20.0
 50
90.0
  0
INSERT
  5
7E92
  8
3
  6
CONTINUOUS
 62
     0
  2
_OPEN
 10
-753.53896699999996
 20
-298.17697684002678
 30
0.0
 41
20.0
 42
20.0
 43
20.0
 50
270.0
  0
TEXT
  8
3
  40
30
  5
7F04
  62
0
  72
0
  71
0
 10
-838.539
 20
-266.798
 30
0.000000
  1
171
  0
POINT
  5
7E94
  8
DEFPOINTS
  6
CONTINUOUS
 62
     0
 10
-914.79728000000011
 20
-127.1769768400267
 30
0.0
  0
POINT
  5
7E95
  8
DEFPOINTS
  6
CONTINUOUS
 62
     0
 10
-899.79728000000011
 20
-298.17697684002673
 30
0.0
  0
POINT
  5
7E96
  8
DEFPOINTS
  6
CONTINUOUS
 62
     0
 10
-753.53896699999996
 20
-298.17697684002678
 30
0.0
  0
ENDBLK
  5
7B87
  8
0
  0
BLOCK
  8
0
  2
*D5
 70
     1
 10
0.0
 20
0.0
 30
0.0
  3
*D5
  1

  0
LINE
  5
7E97
  8
3
  6
CONTINUOUS
 62
     0
 10
-889.79728000000011
 20
-533.17697684002678
 30
0.0
 11
-743.53896699999984
 21
-533.1769768400269
 31
0.0
  0
LINE
  5
7E98
  8
3
  6
CONTINUOUS
 62
     0
 10
-753.53896699999984
 20
-318.17697684002678
 30
0.0
 11
-753.53896699999984
 21
-513.17697684002678
 31
0.0
  0
INSERT
  5
7E99
  8
3
  6
CONTINUOUS
 62
     0
  2
_OPEN
 10
-753.53896699999984
 20
-298.17697684002678
 30
0.0
 41
20.0
 42
20.0
 43
20.0
 50
90.0
  0
INSERT
  5
7E9A
  8
3
  6
CONTINUOUS
 62
     0
  2
_OPEN
 10
-753.53896699999984
 20
-533.1769768400269
 30
0.0
 41
20.0
 42
20.0
 43
20.0
 50
270.0
  0
TEXT
  8
3
  40
30
  5
7F05
  62
0
  72
0
  71
0
 10
-838.539
 20
-468.777
 30
0.000000
  1
235
  0
POINT
  5
7E9C
  8
DEFPOINTS
  6
CONTINUOUS
 62
     0
 10
-899.79728000000011
 20
-298.17697684002673
 30
0.0
  0
POINT
  5
7E9D
  8
DEFPOINTS
  6
CONTINUOUS
 62
     0
 10
-894.79728
 20
-533.17697684002678
 30
0.0
  0
POINT
  5
7E9E
  8
DEFPOINTS
  6
CONTINUOUS
 62
     0
 10
-753.53896699999984
 20
-533.1769768400269
 30
0.0
  0
ENDBLK
  5
7B92
  8
0
  0
BLOCK
  8
0
  2
*D6
 70
     1
 10
0.0
 20
0.0
 30
0.0
  3
*D6
  1

  0
LINE
  5
7E9F
  8
3
  6
CONTINUOUS
 62
     0
 10
-889.79728000000011
 20
-533.17697684002678
 30
0.0
 11
-744.30558399999995
 21
-533.1769768400269
 31
0.0
  0
LINE
  5
7EA0
  8
3
  6
CONTINUOUS
 62
     0
 10
-889.79728000000011
 20
-558.17697684002678
 30
0.0
 11
-744.30558399999995
 21
-558.1769768400269
 31
0.0
  0
LINE
  5
7EA1
  8
3
  6
CONTINUOUS
 62
     0
 10
-754.30558399999995
 20
-513.17697684002678
 30
0.0
 11
-754.30558399999995
 21
-493.17697684002678
 31
0.0
  0
LINE
  5
7EA2
  8
3
  6
CONTINUOUS
 62
     0
 10
-754.30558399999995
 20
-578.1769768400269
 30
0.0
 11
-754.30558399999995
 21
-666.74840541145545
 31
0.0
  0
LINE
  5
7EA3
  8
3
  6
CONTINUOUS
 62
     0
 10
-754.30558399999995
 20
-533.1769768400269
 30
0.0
 11
-754.30558399999995
 21
-558.1769768400269
 31
0.0
  0
INSERT
  5
7EA4
  8
3
  6
CONTINUOUS
 62
     0
  2
_OPEN
 10
-754.30558399999995
 20
-533.1769768400269
 30
0.0
 41
20.0
 42
20.0
 43
20.0
 50
270.0
  0
INSERT
  5
7EA5
  8
3
  6
CONTINUOUS
 62
     0
  2
_OPEN
 10
-754.30558399999995
 20
-558.1769768400269
 30
0.0
 41
20.0
 42
20.0
 43
20.0
 50
90.0
  0
TEXT
  8
3
  40
30
  5
7F06
  62
0
  72
0
  71
0
 10
-839.306
 20
-685.563
 30
0.000000
  1
25
  0
POINT
  5
7EA7
  8
DEFPOINTS
  6
CONTINUOUS
 62
     0
 10
-894.79728
 20
-533.17697684002678
 30
0.0
  0
POINT
  5
7EA8
  8
DEFPOINTS
  6
CONTINUOUS
 62
     0
 10
-894.79728
 20
-558.17697684002678
 30
0.0
  0
POINT
  5
7EA9
  8
DEFPOINTS
  6
CONTINUOUS
 62
     0
 10
-754.30558399999995
 20
-558.1769768400269
 30
0.0
  0
ENDBLK
  5
7D43
  8
0
  0
BLOCK
  8
0
  2
*D7
 70
     1
 10
0.0
 20
0.0
 30
0.0
  3
*D7
  1

  0
LINE
  5
7EAA
  8
3
  6
CONTINUOUS
 62
     0
 10
-894.79728
 20
-116.1769768400267
 30
0.0
 11
-669.06485399999985
 21
-116.1769768400268
 31
0.0
  0
LINE
  5
7EAB
  8
3
  6
CONTINUOUS
 62
     0
 10
-889.79728000000011
 20
-558.17697684002678
 30
0.0
 11
-669.06485399999997
 21
-558.1769768400269
 31
0.0
  0
LINE
  5
7EAC
  8
3
  6
CONTINUOUS
 62
     0
 10
-679.06485399999985
 20
-136.17697684002681
 30
0.0
 11
-679.06485400000008
 21
-538.17697684002678
 31
0.0
  0
INSERT
  5
7EAD
  8
3
  6
CONTINUOUS
 62
     0
  2
_OPEN
 10
-679.06485399999985
 20
-116.1769768400268
 30
0.0
 41
20.0
 42
20.0
 43
20.0
 50
90.0
  0
INSERT
  5
7EAE
  8
3
  6
CONTINUOUS
 62
     0
  2
_OPEN
 10
-679.06485400000008
 20
-558.1769768400269
 30
0.0
 41
20.0
 42
20.0
 43
20.0
 50
270.0
  0
TEXT
  8
3
  40
30
  5
7F07
  62
0
  72
0
  71
0
 10
-764.065
 20
-391.950
 30
0.000000
  1
442
  0
POINT
  5
7EB0
  8
DEFPOINTS
  6
CONTINUOUS
 62
     0
 10
-899.79728000000011
 20
-116.1769768400267
 30
0.0
  0
POINT
  5
7EB1
  8
DEFPOINTS
  6
CONTINUOUS
 62
     0
 10
-894.79728
 20
-558.17697684002678
 30
0.0
  0
POINT
  5
7EB2
  8
DEFPOINTS
  6
CONTINUOUS
 62
     0
 10
-679.06485400000008
 20
-558.1769768400269
 30
0.0
  0
ENDBLK
  5
7BC9
  8
0
  0
BLOCK
  8
0
  2
*D8
 70
     1
 10
0.0
 20
0.0
 30
0.0
  3
*D8
  1

  0
LINE
  5
7EB3
  8
3
  6
CONTINUOUS
 62
     0
 10
-1174.7972799999991
 20
-293.17697684002673
 30
0.0
 11
-1174.7972799999991
 21
-87.407722840026764
 31
0.0
  0
LINE
  5
7EB4
  8
3
  6
CONTINUOUS
 62
     0
 10
-1029.79728
 20
-122.7126958400267
 30
0.0
 11
-1029.79728
 21
-87.407722840026764
 31
0.0
  0
LINE
  5
7EB5
  8
3
  6
CONTINUOUS
 62
     0
 10
-1154.79728
 20
-97.407722840026764
 30
0.0
 11
-1049.7972799999991
 21
-97.407722840026764
 31
0.0
  0
INSERT
  5
7EB6
  8
3
  6
CONTINUOUS
 62
     0
  2
_OPEN
 10
-1174.7972799999991
 20
-97.407722840026764
 30
0.0
 41
20.0
 42
20.0
 43
20.0
 50
180.0
  0
INSERT
  5
7EB7
  8
3
  6
CONTINUOUS
 62
     0
  2
_OPEN
 10
-1029.79728
 20
-97.407722840026764
 30
0.0
 41
20.0
 42
20.0
 43
20.0
  0
TEXT
  8
3
  40
30
  5
7F08
  62
0
  72
0
  71
0
 10
-1155.51
 20
-125.508
 30
0.000000
  1
145
  0
POINT
  5
7EB9
  8
DEFPOINTS
  6
CONTINUOUS
 62
     0
 10
-1174.7972799999991
 20
-298.17697684002673
 30
0.0
  0
POINT
  5
7EBA
  8
DEFPOINTS
  6
CONTINUOUS
 62
     0
 10
-1029.79728
 20
-127.7126958400267
 30
0.0
  0
POINT
  5
7EBB
  8
DEFPOINTS
  6
CONTINUOUS
 62
     0
 10
-1029.79728
 20
-97.407722840026764
 30
0.0
  0
ENDBLK
  5
7D89
  8
0
  0
BLOCK
  8
0
  2
*D9
 70
     1
 10
0.0
 20
0.0
 30
0.0
  3
*D9
  1

  0
LINE
  5
7EBC
  8
3
  6
CONTINUOUS
 62
     0
 10
-899.79728000000011
 20
-111.1769768400267
 30
0.0
 11
-899.79728000000011
 21
-87.407722840026764
 31
0.0
  0
LINE
  5
7EBD
  8
3
  6
CONTINUOUS
 62
     0
 10
-1009.79728
 20
-97.407722840026764
 30
0.0
 11
-919.79728
 21
-97.407722840026764
 31
0.0
  0
TEXT
  8
3
  40
30
  5
7F09
  62
0
  72
0
  71
0
 10
-1033.42
 20
-125.396
 30
0.000000
  1
130
  0
INSERT
  5
7EBF
  8
3
  6
CONTINUOUS
 62
     0
  2
_OPEN
 10
-1029.79728
 20
-97.407722840026764
 30
0.0
 41
20.0
 42
20.0
 43
20.0
 50
180.0
  0
INSERT
  5
7EC0
  8
3
  6
CONTINUOUS
 62
     0
  2
_OPEN
 10
-899.79728000000011
 20
-97.407722840026764
 30
0.0
 41
20.0
 42
20.0
 43
20.0
  0
POINT
  5
7EC1
  8
DEFPOINTS
  6
CONTINUOUS
 62
     0
 10
-1029.79728
 20
-127.7126958400267
 30
0.0
  0
POINT
  5
7EC2
  8
DEFPOINTS
  6
CONTINUOUS
 62
     0
 10
-899.79728000000011
 20
-116.1769768400267
 30
0.0
  0
POINT
  5
7EC3
  8
DEFPOINTS
  6
CONTINUOUS
 62
     0
 10
-899.79728000000011
 20
-97.407722840026764
 30
0.0
  0
ENDBLK
  5
7BFD
  8
0
  0
BLOCK
  8
0
  2
*D10
 70
     1
 10
0.0
 20
0.0
 30
0.0
  3
*D10
  1

  0
LINE
  5
7EC4
  8
3
  6
CONTINUOUS
 62
     0
 10
-1454.79728
 20
294.0417557717409
 30
0.0
 11
-1454.79728
 21
184.62738277174091
 31
0.0
  0
LINE
  5
7EC5
  8
3
  6
CONTINUOUS
 62
     0
 10
-894.79728
 20
294.0417557717409
 30
0.0
 11
-894.79728
 21
184.62738277174091
 31
0.0
  0
LINE
  5
7EC6
  8
3
  6
CONTINUOUS
 62
     0
 10
-1434.79728
 20
194.62738277174091
 30
0.0
 11
-914.79728000000011
 21
194.62738277174091
 31
0.0
  0
INSERT
  5
7EC7
  8
3
  6
CONTINUOUS
 62
     0
  2
_OPEN
 10
-1454.79728
 20
194.62738277174091
 30
0.0
 41
20.0
 42
20.0
 43
20.0
 50
180.0
  0
INSERT
  5
7EC8
  8
3
  6
CONTINUOUS
 62
     0
  2
_OPEN
 10
-894.79728
 20
194.62738277174091
 30
0.0
 41
20.0
 42
20.0
 43
20.0
  0
TEXT
  8
3
  40
30
  5
7F0A
  62
0
  72
0
  71
0
 10
-1223.58
 20
166.527
 30
0.000000
  1
560
  0
POINT
  5
7ECA
  8
DEFPOINTS
  6
CONTINUOUS
 62
     0
 10
-1454.79728
 20
299.0417557717409
 30
0.0
  0
POINT
  5
7ECB
  8
DEFPOINTS
  6
CONTINUOUS
 62
     0
 10
-894.79728
 20
299.0417557717409
 30
0.0
  0
POINT
  5
7ECC
  8
DEFPOINTS
  6
CONTINUOUS
 62
     0
 10
-894.79728
 20
194.62738277174091
 30
0.0
  0
ENDBLK
  5
7C0A
  8
0
  0
BLOCK
  8
0
  2
*D11
 70
     1
 10
0.0
 20
0.0
 30
0.0
  3
*D11
  1

  0
LINE
  5
7ECD
  8
3
  6
CONTINUOUS
 62
     0
 10
-889.79728000000011
 20
729.04175577174078
 30
0.0
 11
-780.96162499999991
 21
729.04175577174078
 31
0.0
  0
LINE
  5
7ECE
  8
3
  6
CONTINUOUS
 62
     0
 10
-889.79728000000011
 20
299.0417557717409
 30
0.0
 11
-780.96162499999991
 21
299.0417557717409
 31
0.0
  0
LINE
  5
7ECF
  8
3
  6
CONTINUOUS
 62
     0
 10
-790.96162499999991
 20
709.04175577174078
 30
0.0
 11
-790.96162499999991
 21
319.0417557717409
 31
0.0
  0
INSERT
  5
7ED0
  8
3
  6
CONTINUOUS
 62
     0
  2
_OPEN
 10
-790.96162499999991
 20
729.04175577174078
 30
0.0
 41
20.0
 42
20.0
 43
20.0
 50
90.0
  0
INSERT
  5
7ED1
  8
3
  6
CONTINUOUS
 62
     0
  2
_OPEN
 10
-790.96162499999991
 20
299.0417557717409
 30
0.0
 41
20.0
 42
20.0
 43
20.0
 50
270.0
  0
TEXT
  8
3
  40
30
  5
7F0B
  62
0
  72
0
  71
0
 10
-875.962
 20
481.562
 30
0.000000
  1
430
  0
POINT
  5
7ED3
  8
DEFPOINTS
  6
CONTINUOUS
 62
     0
 10
-894.79728
 20
729.04175577174078
 30
0.0
  0
POINT
  5
7ED4
  8
DEFPOINTS
  6
CONTINUOUS
 62
     0
 10
-894.79728
 20
299.0417557717409
 30
0.0
  0
POINT
  5
7ED5
  8
DEFPOINTS
  6
CONTINUOUS
 62
     0
 10
-790.96162499999991
 20
299.0417557717409
 30
0.0
  0
ENDBLK
  5
7C17
  8
0
  0
BLOCK
  8
0
  2
*D12
 70
     1
 10
0.0
 20
0.0
 30
0.0
  3
*D12
  1

  0
LINE
  5
7ED6
  8
3
  6
CONTINUOUS
 62
     0
 10
-488.40517828533558
 20
-563.17697684002678
 30
0.0
 11
-488.40517828533558
 21
-633.27822493882059
 31
0.0
  0
LINE
  5
7ED7
  8
3
  6
CONTINUOUS
 62
     0
 10
-216.40517828533561
 20
-563.17697684002678
 30
0.0
 11
-216.40517828533561
 21
-633.27822493882059
 31
0.0
  0
LINE
  5
7ED8
  8
3
  6
CONTINUOUS
 62
     0
 10
-468.40517828533558
 20
-623.2782249388207
 30
0.0
 11
-236.40517828533561
 21
-623.2782249388207
 31
0.0
  0
INSERT
  5
7ED9
  8
3
  6
CONTINUOUS
 62
     0
  2
_OPEN
 10
-488.40517828533558
 20
-623.2782249388207
 30
0.0
 41
20.0
 42
20.0
 43
20.0
 50
180.0
  0
INSERT
  5
7EDA
  8
3
  6
CONTINUOUS
 62
     0
  2
_OPEN
 10
-216.40517828533561
 20
-623.2782249388207
 30
0.0
 41
20.0
 42
20.0
 43
20.0
  0
TEXT
  8
3
  40
30
  5
7F0C
  62
0
  72
0
  71
0
 10
-410.742
 20
-651.378
 30
0.000000
  1
272
  0
POINT
  5
7EDC
  8
DEFPOINTS
  6
CONTINUOUS
 62
     0
 10
-488.40517828533558
 20
-558.17697684002678
 30
0.0
  0
POINT
  5
7EDD
  8
DEFPOINTS
  6
CONTINUOUS
 62
     0
 10
-216.40517828533561
 20
-558.17697684002678
 30
0.0
  0
POINT
  5
7EDE
  8
DEFPOINTS
  6
CONTINUOUS
 62
     0
 10
-216.40517828533561
 20
-623.2782249388207
 30
0.0
  0
ENDBLK
  5
7D20
  8
0
  0
BLOCK
  8
0
  2
*D13
 70
     1
 10
0.0
 20
0.0
 30
0.0
  3
*D13
  1

  0
LINE
  5
7EDF
  8
3
  6
CONTINUOUS
 62
     0
 10
-58.40517828533563
 20
-563.17697684002678
 30
0.0
 11
-58.405178285335637
 21
-633.27822493882059
 31
0.0
  0
LINE
  5
7EE0
  8
3
  6
CONTINUOUS
 62
     0
 10
-196.40517828533561
 20
-623.2782249388207
 30
0.0
 11
-78.405178285335623
 21
-623.2782249388207
 31
0.0
  0
INSERT
  5
7EE1
  8
3
  6
CONTINUOUS
 62
     0
  2
_OPEN
 10
-216.40517828533561
 20
-623.2782249388207
 30
0.0
 41
20.0
 42
20.0
 43
20.0
 50
180.0
  0
INSERT
  5
7EE2
  8
3
  6
CONTINUOUS
 62
     0
  2
_OPEN
 10
-58.405178285335637
 20
-623.2782249388207
 30
0.0
 41
20.0
 42
20.0
 43
20.0
  0
TEXT
  8
3
  40
30
  5
7F0D
  62
0
  72
0
  71
0
 10
-197.405
 20
-651.378
 30
0.000000
  1
158
  0
POINT
  5
7EE4
  8
DEFPOINTS
  6
CONTINUOUS
 62
     0
 10
-216.40517828533561
 20
-558.17697684002678
 30
0.0
  0
POINT
  5
7EE5
  8
DEFPOINTS
  6
CONTINUOUS
 62
     0
 10
-58.40517828533563
 20
-558.17697684002678
 30
0.0
  0
POINT
  5
7EE6
  8
DEFPOINTS
  6
CONTINUOUS
 62
     0
 10
-58.405178285335637
 20
-623.2782249388207
 30
0.0
  0
ENDBLK
  5
7D15
  8
0
  0
BLOCK
  8
0
  2
*D14
 70
     1
 10
0.0
 20
0.0
 30
0.0
  3
*D14
  1

  0
LINE
  5
7D50
  8
0
  6
BYBLOCK
 62
     0
 10
-147.40517828533561
 20
-218.1769768400267
 30
0.0
 11
-74.420545285335606
 21
-218.1769768400267
 31
0.0
  0
LINE
  5
7D51
  8
0
  6
BYBLOCK
 62
     0
 10
-147.40517828533561
 20
-378.17697684002678
 30
0.0
 11
-74.420545285335606
 21
-378.17697684002678
 31
0.0
  0
LINE
  5
7D52
  8
0
  6
BYBLOCK
 62
     0
 10
-84.420545285335606
 20
-238.1769768400267
 30
0.0
 11
-84.420545285335606
 21
-358.17697684002673
 31
0.0
  0
TEXT
  5
7D53
  8
3
 62
     0
 10
-92.101343505231853
 20
-348.8912625543125
 30
0.0
 40
30.0
  1
φ160
 50
90.0
  0
INSERT
  5
7D54
  8
0
  6
BYBLOCK
 62
     0
  2
_OPEN
 10
-84.420545285335606
 20
-218.1769768400267
 30
0.0
 41
20.0
 42
20.0
 43
20.0
 50
90.0
  0
INSERT
  5
7D55
  8
0
  6
BYBLOCK
 62
     0
  2
_OPEN
 10
-84.420545285335606
 20
-378.17697684002678
 30
0.0
 41
20.0
 42
20.0
 43
20.0
 50
270.0
  0
POINT
  5
7D56
  8
DEFPOINTS
  6
BYBLOCK
 62
     0
 10
-152.40517828533561
 20
-218.1769768400267
 30
0.0
  0
POINT
  5
7D57
  8
DEFPOINTS
  6
BYBLOCK
 62
     0
 10
-152.40517828533561
 20
-378.17697684002678
 30
0.0
  0
POINT
  5
7D58
  8
DEFPOINTS
  6
BYBLOCK
 62
     0
 10
-84.420545285335606
 20
-378.17697684002678
 30
0.0
  0
ENDBLK
  5
7D59
  8
0
  0
BLOCK
  8
0
  2
*D15
 70
     1
 10
0.0
 20
0.0
 30
0.0
  3
*D15
  1

  0
LINE
  5
7D2D
  8
0
  6
BYBLOCK
 62
     0
 10
-272.40517828533558
 20
-133.1769768400267
 30
0.0
 11
-272.40517828533558
 21
-97.591055840026769
 31
0.0
  0
LINE
  5
7D2E
  8
0
  6
BYBLOCK
 62
     0
 10
-160.40517828533561
 20
-133.1769768400267
 30
0.0
 11
-160.40517828533561
 21
-97.591055840026769
 31
0.0
  0
LINE
  5
7D2F
  8
0
  6
BYBLOCK
 62
     0
 10
-252.40517828533561
 20
-107.5910558400267
 30
0.0
 11
-180.40517828533561
 21
-107.5910558400267
 31
0.0
  0
TEXT
  5
7D30
  8
3
 62
     0
 10
-249.26232114247841
 20
-97.492388911976377
 30
0.0
 40
30.0
  1
112
  0
INSERT
  5
7D31
  8
0
  6
BYBLOCK
 62
     0
  2
_OPEN
 10
-272.40517828533558
 20
-107.5910558400267
 30
0.0
 41
20.0
 42
20.0
 43
20.0
 50
180.0
  0
INSERT
  5
7D32
  8
0
  6
BYBLOCK
 62
     0
  2
_OPEN
 10
-160.40517828533561
 20
-107.5910558400267
 30
0.0
 41
20.0
 42
20.0
 43
20.0
  0
POINT
  5
7D33
  8
DEFPOINTS
  6
BYBLOCK
 62
     0
 10
-272.40517828533558
 20
-138.1769768400267
 30
0.0
  0
POINT
  5
7D34
  8
DEFPOINTS
  6
BYBLOCK
 62
     0
 10
-160.40517828533561
 20
-138.1769768400267
 30
0.0
  0
POINT
  5
7D35
  8
DEFPOINTS
  6
BYBLOCK
 62
     0
 10
-160.40517828533561
 20
-107.5910558400267
 30
0.0
  0
ENDBLK
  5
7D36
  8
0
  0
BLOCK
  8
0
  2
*D16
 70
     1
 10
0.0
 20
0.0
 30
0.0
  3
*D16
  1

  0
LINE
  5
7EE7
  8
3
  6
CONTINUOUS
 62
     0
 10
-476.40517828533558
 20
-198.1769768400267
 30
0.0
 11
-476.40517828533558
 21
-35.155187575203847
 31
0.0
  0
LINE
  5
7EE8
  8
3
  6
CONTINUOUS
 62
     0
 10
-216.40517828533561
 20
-64.302009840026813
 30
0.0
 11
-216.40517828533561
 21
-35.155187575203847
 31
0.0
  0
LINE
  5
7EE9
  8
3
  6
CONTINUOUS
 62
     0
 10
-456.40517828533558
 20
-45.155187575203847
 30
0.0
 11
-236.40517828533561
 21
-45.155187575203847
 31
0.0
  0
INSERT
  5
7EEA
  8
3
  6
CONTINUOUS
 62
     0
  2
_OPEN
 10
-476.40517828533558
 20
-45.155187575203847
 30
0.0
 41
20.0
 42
20.0
 43
20.0
 50
180.0
  0
INSERT
  5
7EEB
  8
3
  6
CONTINUOUS
 62
     0
  2
_OPEN
 10
-216.40517828533561
 20
-45.155187575203847
 30
0.0
 41
20.0
 42
20.0
 43
20.0
  0
TEXT
  8
3
  40
30
  5
7F0E
  62
0
  72
0
  71
0
 10
-410.291
 20
-48.2552
 30
0.000000
  1
MAX
  0
TEXT
  8
3
  40
30
  5
7F0F
  62
0
  72
0
  71
0
 10
-410.291
 20
-87.2552
 30
0.000000
  1
260
  0
POINT
  5
7EED
  8
DEFPOINTS
  6
CONTINUOUS
 62
     0
 10
-476.40517828533558
 20
-203.17697684002681
 30
0.0
  0
POINT
  5
7EEE
  8
DEFPOINTS
  6
CONTINUOUS
 62
     0
 10
-216.40517828533561
 20
-69.302009840026813
 30
0.0
  0
POINT
  5
7EEF
  8
DEFPOINTS
  6
CONTINUOUS
 62
     0
 10
-216.40517828533561
 20
-45.155187575203847
 30
0.0
  0
ENDBLK
  5
7D79
  8
0
  0
BLOCK
  8
0
  2
*D17
 70
     1
 10
0.0
 20
0.0
 30
0.0
  3
*D17
  1

  0
LINE
  5
7EF0
  8
3
  6
CONTINUOUS
 62
     0
 10
-152.40517828533561
 20
-193.1769768400267
 30
0.0
 11
-152.40517828533561
 21
-35.155187575203847
 31
0.0
  0
LINE
  5
7EF1
  8
3
  6
CONTINUOUS
 62
     0
 10
-196.40517828533561
 20
-45.155187575203847
 30
0.0
 11
-172.40517828533561
 21
-45.155187575203847
 31
0.0
  0
TEXT
  8
3
  40
30
  5
7F10
  62
0
  72
0
  71
0
 10
-245.769
 20
-72.9861
 30
0.000000
  1
64
  0
INSERT
  5
7EF3
  8
3
  6
CONTINUOUS
 62
     0
  2
_OPEN
 10
-216.40517828533561
 20
-45.155187575203847
 30
0.0
 41
20.0
 42
20.0
 43
20.0
 50
180.0
  0
INSERT
  5
7EF4
  8
3
  6
CONTINUOUS
 62
     0
  2
_OPEN
 10
-152.40517828533561
 20
-45.155187575203847
 30
0.0
 41
20.0
 42
20.0
 43
20.0
  0
POINT
  5
7EF5
  8
DEFPOINTS
  6
CONTINUOUS
 62
     0
 10
-216.40517828533561
 20
-69.302009840026813
 30
0.0
  0
POINT
  5
7EF6
  8
DEFPOINTS
  6
CONTINUOUS
 62
     0
 10
-152.40517828533561
 20
-198.1769768400267
 30
0.0
  0
POINT
  5
7EF7
  8
DEFPOINTS
  6
CONTINUOUS
 62
     0
 10
-152.40517828533561
 20
-45.155187575203847
 30
0.0
  0
ENDBLK
  5
7D6E
  8
0
  0
BLOCK
  8
0
  2
*D18
 70
     1
 10
0.0
 20
0.0
 30
0.0
  3
*D18
  1

  0
LINE
  5
7EF8
  8
3
 62
     0
 10
-899.79728000000011
 20
-130.8855620986705
 30
0.0
 11
-899.79728000000011
 21
-35.027851313821877
 31
0.0
  0
LINE
  5
7EF9
  8
3
 62
     0
 10
-1454.79728
 20
-458.17697684002678
 30
0.0
 11
-1454.79728
 21
-35.027851313821877
 31
0.0
  0
LINE
  5
7EFA
  8
3
 62
     0
 10
-919.79728
 20
-45.027851313821877
 30
0.0
 11
-1434.79728
 21
-45.027851313821877
 31
0.0
  0
INSERT
  5
7EFB
  8
3
 62
     0
  2
_OPEN
 10
-899.79728000000011
 20
-45.027851313821877
 30
0.0
 41
20.0
 42
20.0
 43
20.0
  0
INSERT
  5
7EFC
  8
3
 62
     0
  2
_OPEN
 10
-1454.79728
 20
-45.027851313821877
 30
0.0
 41
20.0
 42
20.0
 43
20.0
 50
180.0
  0
TEXT
  8
3
  40
30
  5
7F11
  62
0
  72
0
  71
0
 10
-1244.49
 20
-73.1279
 30
0.000000
  1
555
  0
POINT
  5
7EFE
  8
DEFPOINTS
 62
     0
 10
-899.79728000000011
 20
-135.8855620986705
 30
0.0
  0
POINT
  5
7EFF
  8
DEFPOINTS
 62
     0
 10
-1454.79728
 20
-463.17697684002678
 30
0.0
  0
POINT
  5
7F00
  8
DEFPOINTS
 62
     0
 10
-1454.79728
 20
-45.027851313821877
 30
0.0
  0
ENDBLK
  5
7D94
  8
0
  0
ENDSEC
  0
SECTION
  2
ENTITIES
  0
LINE
  5
7A8A
  8
1
  6
CONTINUOUS
 10
-1454.79728
 20
-463.17697684002678
 30
0.0
 11
-1203.79728
 21
-463.17697684002678
 31
0.0
  0
ARC
  5
7A8B
  8
1
  6
CONTINUOUS
 10
-1315.29728
 20
-383.17697684002673
 30
0.0
 40
85.0
 50
324.69999999999987
 51
215.30000000000001
  0
LINE
  5
7A8C
  8
1
  6
CONTINUOUS
 10
-1454.79728
 20
-533.17697684002678
 30
0.0
 11
-894.79728
 21
-533.17697684002678
 31
0.0
  0
LINE
  5
7A8D
  8
1
  6
CONTINUOUS
 10
-1454.79728
 20
-483.17697684002678
 30
0.0
 11
-894.79728
 21
-483.17697684002678
 31
0.0
  0
LINE
  5
7A8E
  8
1
  6
CONTINUOUS
 10
-932.49728000000005
 20
-203.17697684002681
 30
0.0
 11
-1412.49728
 21
-203.17697684002681
 31
0.0
  0
LINE
  5
7A8F
  8
1
  6
CONTINUOUS
 10
-1326.3972799999999
 20
-349.97697684002668
 30
0.0
 11
-1044.09728
 21
-255.47697684002679
 31
0.0
  0
LINE
  5
7A90
  8
1
  6
CONTINUOUS
 10
-1306.3972799999999
 20
-417.0769768400267
 30
0.0
 11
-1018.39728
 21
-341.67697684002673
 31
0.0
  0
LINE
  5
7A91
  8
1
  6
CONTINUOUS
 10
-1392.79728
 20
-463.17697684002678
 30
0.0
 11
-1392.79728
 21
-455.17697684002678
 31
0.0
  0
LINE
  5
7A92
  8
1
  6
CONTINUOUS
 10
-1412.49728
 20
-203.17697684002681
 30
0.0
 11
-1412.49728
 21
-483.17697684002678
 31
0.0
  0
LINE
  5
7A93
  8
1
  6
CONTINUOUS
 10
-1429.79728
 20
-533.17697684002678
 30
0.0
 11
-1429.79728
 21
-558.17697684002678
 31
0.0
  0
LINE
  5
7A94
  8
1
  6
CONTINUOUS
 10
-1454.79728
 20
-558.17697684002678
 30
0.0
 11
-1429.79728
 21
-558.17697684002678
 31
0.0
  0
LINE
  5
7A95
  8
1
  6
CONTINUOUS
 10
-1454.79728
 20
-463.17697684002678
 30
0.0
 11
-1454.79728
 21
-558.17697684002678
 31
0.0
  0
LINE
  5
7A96
  8
1
  6
CONTINUOUS
 10
-1392.79728
 20
-455.17697684002678
 30
0.0
 11
-1384.59728
 21
-432.37697684002671
 31
0.0
  0
LINE
  5
7A97
  8
2
  6
CENTER
 10
-1350.29728
 20
-383.17697684002673
 30
0.0
 11
-1280.29728
 21
-383.17697684002673
 31
0.0
  0
LINE
  5
7A98
  8
2
  6
CENTER
 10
-1315.29728
 20
-418.17697684002673
 30
0.0
 11
-1315.29728
 21
-348.17697684002673
 31
0.0
  0
CIRCLE
  5
7A99
  8
1
  6
CONTINUOUS
 10
-1315.29728
 20
-383.17697684002673
 30
0.0
 40
35.0
  0
LINE
  5
7A9A
  8
1
  6
CONTINUOUS
 10
-932.49728000000005
 20
-483.17697684002678
 30
0.0
 11
-932.49728000000005
 21
-203.17697684002681
 31
0.0
  0
LINE
  5
7A9B
  8
1
  6
CONTINUOUS
 10
-1237.79728
 20
-463.17697684002678
 30
0.0
 11
-1237.79728
 21
-455.17697684002678
 31
0.0
  0
LINE
  5
7A9C
  8
1
  6
CONTINUOUS
 10
-919.79728
 20
-483.17697684002678
 30
0.0
 11
-919.79728
 21
-256.0769768400267
 31
0.0
  0
LINE
  5
7A9D
  8
1
  6
CONTINUOUS
 10
-1139.79728
 20
-256.0769768400267
 30
0.0
 11
-1139.79728
 21
-483.17697684002678
 31
0.0
  0
LINE
  5
7A9E
  8
1
  6
CONTINUOUS
 10
-1203.79728
 20
-463.17697684002678
 30
0.0
 11
-1203.79728
 21
-483.17697684002678
 31
0.0
  0
LINE
  5
7A9F
  8
1
  6
CONTINUOUS
 10
-919.79728
 20
-558.17697684002678
 30
0.0
 11
-894.79728
 21
-558.17697684002678
 31
0.0
  0
LINE
  5
7AA0
  8
1
  6
CONTINUOUS
 10
-919.79728
 20
-558.17697684002678
 30
0.0
 11
-919.79728
 21
-533.17697684002678
 31
0.0
  0
LINE
  5
7AA1
  8
1
  6
CONTINUOUS
 10
-894.79728
 20
-558.17697684002678
 30
0.0
 11
-894.79728
 21
-483.17697684002678
 31
0.0
  0
CIRCLE
  5
7AA2
  8
1
  6
CONTINUOUS
 10
-1029.79728
 20
-298.17697684002673
 30
0.0
 40
80.0
  0
CIRCLE
  5
7AA3
  8
1
  6
CONTINUOUS
 10
-1029.79728
 20
-298.17697684002673
 30
0.0
 40
45.0
  0
LINE
  5
7AA4
  8
1
  6
CONTINUOUS
 10
-1139.79728
 20
-331.47697684002668
 30
0.0
 11
-919.79728
 21
-331.47697684002668
 31
0.0
  0
LINE
  5
7AA5
  8
1
  6
CONTINUOUS
 10
-993.19727999999998
 20
-193.1769768400267
 30
0.0
 11
-1066.3972799999999
 21
-193.1769768400267
 31
0.0
  0
ARC
  5
7AA6
  8
1
  6
CONTINUOUS
 10
-1016.79728
 20
-285.17697684002673
 30
0.0
 40
158.0
 50
90.0
 51
189.09999999999999
  0
ARC
  5
7AA7
  8
1
  6
CONTINUOUS
 10
-1040.79728
 20
-287.17697684002673
 30
0.0
 40
134.0
 50
189.90000000000001
 51
270.5
  0
LINE
  5
7AA8
  8
2
  6
CENTER
 10
-1430.7934150000001
 20
-298.17697684002673
 30
0.0
 11
-847.46076700000015
 21
-298.17697684002673
 31
0.0
  0
CIRCLE
  5
7AA9
  8
1
  6
CONTINUOUS
 10
-1029.79728
 20
-298.17697684002673
 30
0.0
 40
100.0
  0
LINE
  5
7AAA
  8
1
  6
CONTINUOUS
 10
-1237.79728
 20
-455.17697684002678
 30
0.0
 11
-1245.99728
 21
-432.37697684002671
 31
0.0
  0
LINE
  5
7AAB
  8
1
  6
CONTINUOUS
 10
-1139.79728
 20
-256.0769768400267
 30
0.0
 11
-1066.3972799999999
 21
-193.1769768400267
 31
0.0
  0
LINE
  5
7AAC
  8
1
  6
CONTINUOUS
 10
-899.79728000000011
 20
-116.1769768400267
 30
0.0
 11
-899.79728000000011
 21
-320.17697684002673
 31
0.0
  0
LINE
  5
7AAD
  8
1
  6
CONTINUOUS
 10
-899.79728000000011
 20
-137.1769768400267
 30
0.0
 11
-914.79728000000011
 21
-152.1769768400267
 31
0.0
  0
LINE
  5
7AAE
  8
1
  6
CONTINUOUS
 10
-919.79728
 20
-256.0769768400267
 30
0.0
 11
-993.19727999999998
 21
-193.1769768400267
 31
0.0
  0
ARC
  5
7AAF
  8
1
  6
CONTINUOUS
 10
-1038.79728
 20
-307.17697684002678
 30
0.0
 40
114.0
 50
269.5
 51
359.5
  0
LINE
  5
7AB0
  8
2
  6
CENTER
 10
-1029.79728
 20
-585.42503284002669
 30
0.0
 11
-1029.79728
 21
-124.861678121596
 31
0.0
  0
LINE
  5
7AB1
  8
1
  6
CONTINUOUS
 10
-914.79728000000011
 20
-308.17697684002673
 30
0.0
 11
-924.79728000000011
 21
-308.17697684002673
 31
0.0
  0
LINE
  5
7AB2
  8
1
  6
CONTINUOUS
 10
-914.79728000000011
 20
-152.1769768400267
 30
0.0
 11
-914.79728000000011
 21
-284.17697684002678
 31
0.0
  0
LINE
  5
7AB3
  8
1
  6
CONTINUOUS
 10
-899.79728000000011
 20
-299.17697684002673
 30
0.0
 11
-914.79728000000011
 21
-284.17697684002678
 31
0.0
  0
LINE
  5
7AB4
  8
1
  6
CONTINUOUS
 10
-914.79728000000011
 20
-298.17697684002673
 30
0.0
 11
-899.79728000000011
 21
-298.17697684002673
 31
0.0
  0
LINE
  5
7AB5
  8
1
  6
CONTINUOUS
 10
-914.79728000000011
 20
-298.17697684002673
 30
0.0
 11
-914.79728000000011
 21
-308.17697684002673
 31
0.0
  0
LINE
  5
7AB6
  8
1
  6
CONTINUOUS
 10
-914.79728000000011
 20
-127.1769768400267
 30
0.0
 11
-1016.79728
 21
-127.1769768400267
 31
0.0
  0
LINE
  5
7AB7
  8
1
  6
CONTINUOUS
 10
-914.79728000000011
 20
-138.1769768400267
 30
0.0
 11
-899.79728000000011
 21
-138.1769768400267
 31
0.0
  0
LINE
  5
7AB8
  8
1
  6
CONTINUOUS
 10
-914.79728000000011
 20
-127.1769768400267
 30
0.0
 11
-914.79728000000011
 21
-138.1769768400267
 31
0.0
  0
LINE
  5
7AB9
  8
1
  6
CONTINUOUS
 10
-488.40517828533558
 20
-558.17697684002678
 30
0.0
 11
-58.40517828533563
 21
-558.17697684002678
 31
0.0
  0
LINE
  5
7ABA
  8
1
  6
CONTINUOUS
 10
-280.0051782853356
 20
-256.0769768400267
 30
0.0
 11
-379.40517828533552
 21
-331.47697684002668
 31
0.0
  0
LINE
  5
7ABB
  8
1
  6
CONTINUOUS
 10
-476.40517828533558
 20
-483.17697684002678
 30
0.0
 11
-180.40517828533561
 21
-483.17697684002678
 31
0.0
  0
LINE
  5
7ABC
  8
1
  6
CONTINUOUS
 10
-488.40517828533558
 20
-533.17697684002678
 30
0.0
 11
-58.40517828533563
 21
-533.17697684002678
 31
0.0
  0
LINE
  5
7ABD
  8
1
  6
CONTINUOUS
 10
-319.70517828533559
 20
-286.17697684002678
 30
0.0
 11
-421.40517828533552
 21
-286.17697684002678
 31
0.0
  0
LINE
  5
7ABE
  8
1
  6
CONTINUOUS
 10
-351.30517828533561
 20
-310.17697684002673
 30
0.0
 11
-421.40517828533552
 21
-310.17697684002673
 31
0.0
  0
LINE
  5
7ABF
  8
1
  6
CONTINUOUS
 10
-379.40517828533552
 20
-331.47697684002668
 30
0.0
 11
-379.40517828533552
 21
-483.17697684002678
 31
0.0
  0
LINE
  5
7AC0
  8
1
  6
CONTINUOUS
 10
-476.40517828533558
 20
-483.17697684002678
 30
0.0
 11
-476.40517828533558
 21
-203.17697684002681
 31
0.0
  0
LINE
  5
7AC1
  8
1
  6
CONTINUOUS
 10
-401.40517828533552
 20
-483.17697684002678
 30
0.0
 11
-401.40517828533552
 21
-203.17697684002681
 31
0.0
  0
LINE
  5
7AC2
  8
1
  6
CONTINUOUS
 10
-488.40517828533558
 20
-533.17697684002678
 30
0.0
 11
-488.40517828533558
 21
-558.17697684002678
 31
0.0
  0
LINE
  5
7AC3
  8
1
  6
CONTINUOUS
 10
-404.40517828533552
 20
-483.17697684002678
 30
0.0
 11
-404.40517828533552
 21
-533.17697684002678
 31
0.0
  0
LINE
  5
7AC4
  8
1
  6
CONTINUOUS
 10
-401.40517828533552
 20
-203.17697684002681
 30
0.0
 11
-476.40517828533558
 21
-203.17697684002681
 31
0.0
  0
LINE
  5
7AC5
  8
1
  6
CONTINUOUS
 10
-421.40517828533552
 20
-392.67697684002678
 30
0.0
 11
-379.40517828533552
 21
-392.67697684002678
 31
0.0
  0
LINE
  5
7AC6
  8
1
  6
CONTINUOUS
 10
-421.40517828533552
 20
-373.67697684002678
 30
0.0
 11
-379.40517828533552
 21
-373.67697684002678
 31
0.0
  0
LINE
  5
7AC7
  8
1
  6
CONTINUOUS
 10
-421.40517828533552
 20
-418.17697684002673
 30
0.0
 11
-421.40517828533552
 21
-348.17697684002673
 31
0.0
  0
LINE
  5
7AC8
  8
1
  6
CONTINUOUS
 10
-456.40517828533552
 20
-418.17697684002673
 30
0.0
 11
-456.40517828533552
 21
-348.17697684002673
 31
0.0
  0
LINE
  5
7AC9
  8
1
  6
CONTINUOUS
 10
-421.40517828533552
 20
-418.17697684002673
 30
0.0
 11
-456.40517828533552
 21
-418.17697684002673
 31
0.0
  0
LINE
  5
7ACA
  8
1
  6
CONTINUOUS
 10
-421.40517828533552
 20
-348.17697684002673
 30
0.0
 11
-456.40517828533552
 21
-348.17697684002673
 31
0.0
  0
LINE
  5
7ACB
  8
1
  6
CONTINUOUS
 10
-421.40517828533552
 20
-253.17697684002681
 30
0.0
 11
-456.40517828533552
 21
-253.17697684002681
 31
0.0
  0
LINE
  5
7ACC
  8
1
  6
CONTINUOUS
 10
-421.40517828533552
 20
-343.17697684002673
 30
0.0
 11
-456.40517828533552
 21
-343.17697684002673
 31
0.0
  0
LINE
  5
7ACD
  8
1
  6
CONTINUOUS
 10
-456.40517828533552
 20
-343.17697684002673
 30
0.0
 11
-456.40517828533552
 21
-253.17697684002681
 31
0.0
  0
LINE
  5
7ACE
  8
1
  6
CONTINUOUS
 10
-421.40517828533552
 20
-343.17697684002673
 30
0.0
 11
-421.40517828533552
 21
-253.17697684002681
 31
0.0
  0
LINE
  5
7ACF
  8
1
  6
CONTINUOUS
 10
-280.0051782853356
 20
-198.1769768400267
 30
0.0
 11
-280.0051782853356
 21
-483.17697684002678
 31
0.0
  0
LINE
  5
7AD0
  8
1
  6
CONTINUOUS
 10
-180.40517828533561
 20
-483.17697684002678
 30
0.0
 11
-180.40517828533561
 21
-533.17697684002678
 31
0.0
  0
LINE
  5
7AD1
  8
1
  6
CONTINUOUS
 10
-58.40517828533563
 20
-533.17697684002678
 30
0.0
 11
-58.40517828533563
 21
-558.17697684002678
 31
0.0
  0
ARC
  5
7AD2
  8
1
  6
CONTINUOUS
 10
-172.40517828533561
 20
-420.27697684002669
 30
0.0
 40
12.0
 50
270.0
 51
0.0
  0
LINE
  5
7AD3
  8
1
  6
CONTINUOUS
 10
-152.40517828533561
 20
-398.17697684002673
 30
0.0
 11
-160.80517828533559
 21
-398.17697684002673
 31
0.0
  0
LINE
  5
7AD4
  8
1
  6
CONTINUOUS
 10
-152.40517828533561
 20
-198.1769768400267
 30
0.0
 11
-160.80517828533559
 21
-198.1769768400267
 31
0.0
  0
LINE
  5
7AD5
  8
1
  6
CONTINUOUS
 10
-160.40517828533561
 20
-138.1769768400267
 30
0.0
 11
-272.40517828533558
 21
-298.17697684002673
 31
0.0
  0
LINE
  5
7AD6
  8
1
  6
CONTINUOUS
 10
-160.40517828533561
 20
-298.17697684002673
 30
0.0
 11
-272.40517828533558
 21
-138.1769768400267
 31
0.0
  0
LINE
  5
7AD7
  8
1
  6
CONTINUOUS
 10
-272.40517828533558
 20
-138.1769768400267
 30
0.0
 11
-272.40517828533558
 21
-420.27697684002669
 31
0.0
  0
LINE
  5
7AD8
  8
1
  6
CONTINUOUS
 10
-160.40517828533561
 20
-420.27697684002669
 30
0.0
 11
-160.40517828533561
 21
-138.1769768400267
 31
0.0
  0
ARC
  5
7AD9
  8
1
  6
CONTINUOUS
 10
-260.40517828533558
 20
-420.27697684002669
 30
0.0
 40
12.0
 50
180.0
 51
270.0
  0
LINE
  5
7ADA
  8
1
  6
CONTINUOUS
 10
-272.40517828533558
 20
-298.17697684002673
 30
0.0
 11
-160.40517828533561
 21
-298.17697684002673
 31
0.0
  0
LINE
  5
7ADB
  8
1
  6
CONTINUOUS
 10
-280.0051782853356
 20
-198.1769768400267
 30
0.0
 11
-272.0051782853356
 21
-198.1769768400267
 31
0.0
  0
LINE
  5
7ADC
  8
1
  6
CONTINUOUS
 10
-280.0051782853356
 20
-398.17697684002673
 30
0.0
 11
-272.0051782853356
 21
-398.17697684002673
 31
0.0
  0
LINE
  5
7ADD
  8
1
  6
CONTINUOUS
 10
-260.40517828533558
 20
-432.27697684002669
 30
0.0
 11
-172.40517828533561
 21
-432.27697684002669
 31
0.0
  0
LINE
  5
7ADE
  8
1
  6
CONTINUOUS
 10
-160.40517828533561
 20
-138.1769768400267
 30
0.0
 11
-272.40517828533558
 21
-138.1769768400267
 31
0.0
  0
LINE
  5
7ADF
  8
1
  6
CONTINUOUS
 10
-152.40517828533561
 20
-198.1769768400267
 30
0.0
 11
-152.40517828533561
 21
-398.17697684002673
 31
0.0
  0
LINE
  5
7AE0
  8
1
  6
CONTINUOUS
 10
-1305.79728
 20
383.0417557717409
 30
0.0
 11
-1041.7972799999991
 21
383.0417557717409
 31
0.0
  0
LINE
  5
7AE1
  8
1
  6
CONTINUOUS
 10
-1163.8972799999999
 20
607.0417557717409
 30
0.0
 11
-1454.79728
 21
607.0417557717409
 31
0.0
  0
LINE
  5
7AE2
  8
1
  6
CONTINUOUS
 10
-932.49728000000005
 20
386.0417557717409
 30
0.0
 11
-1412.49728
 21
386.0417557717409
 31
0.0
  0
LINE
  5
7AE3
  8
1
  6
CONTINUOUS
 10
-932.49728000000005
 20
311.0417557717409
 30
0.0
 11
-1412.49728
 21
311.0417557717409
 31
0.0
  0
LINE
  5
7AE4
  8
1
  6
CONTINUOUS
 10
-1230.29728
 20
587.54175577174078
 30
0.0
 11
-1400.29728
 21
587.54175577174078
 31
0.0
  0
LINE
  5
7AE5
  8
1
  6
CONTINUOUS
 10
-1230.29728
 20
396.74175577174088
 30
0.0
 11
-1400.29728
 21
396.74175577174088
 31
0.0
  0
LINE
  5
7AE6
  8
1
  6
CONTINUOUS
 10
-1400.29728
 20
396.74175577174088
 30
0.0
 11
-1400.29728
 21
587.54175577174078
 31
0.0
  0
LINE
  5
7AE7
  8
1
  6
CONTINUOUS
 10
-1454.79728
 20
729.04175577174078
 30
0.0
 11
-1454.79728
 21
299.0417557717409
 31
0.0
  0
LINE
  5
7AE8
  8
1
  6
CONTINUOUS
 10
-1454.79728
 20
383.0417557717409
 30
0.0
 11
-1324.79728
 21
383.0417557717409
 31
0.0
  0
LINE
  5
7AE9
  8
1
  6
CONTINUOUS
 10
-1429.79728
 20
383.0417557717409
 30
0.0
 11
-1429.79728
 21
299.0417557717409
 31
0.0
  0
LINE
  5
7AEA
  8
1
  6
CONTINUOUS
 10
-1429.79728
 20
299.0417557717409
 30
0.0
 11
-1454.79728
 21
299.0417557717409
 31
0.0
  0
LINE
  5
7AEB
  8
1
  6
CONTINUOUS
 10
-1412.49728
 20
386.0417557717409
 30
0.0
 11
-1412.49728
 21
311.0417557717409
 31
0.0
  0
LINE
  5
7AEC
  8
1
  6
CONTINUOUS
 10
-1350.29728
 20
366.94175577174087
 30
0.0
 11
-1350.29728
 21
331.94175577174087
 31
0.0
  0
LINE
  5
7AED
  8
1
  6
CONTINUOUS
 10
-1280.29728
 20
366.94175577174087
 30
0.0
 11
-1280.29728
 21
331.94175577174087
 31
0.0
  0
LINE
  5
7AEE
  8
1
  6
CONTINUOUS
 10
-1280.29728
 20
331.94175577174087
 30
0.0
 11
-1350.29728
 21
331.94175577174087
 31
0.0
  0
LINE
  5
7AEF
  8
1
  6
CONTINUOUS
 10
-1280.29728
 20
366.94175577174087
 30
0.0
 11
-1350.29728
 21
366.94175577174087
 31
0.0
  0
LINE
  5
7AF0
  8
1
  6
CONTINUOUS
 10
-1324.79728
 20
366.94175577174087
 30
0.0
 11
-1324.79728
 21
396.74175577174088
 31
0.0
  0
LINE
  5
7AF1
  8
1
  6
CONTINUOUS
 10
-1305.79728
 20
366.94175577174087
 30
0.0
 11
-1305.79728
 21
396.74175577174088
 31
0.0
  0
LINE
  5
7AF2
  8
1
  6
CONTINUOUS
 10
-1429.79728
 20
729.04175577174078
 30
0.0
 11
-1429.79728
 21
607.0417557717409
 31
0.0
  0
LINE
  5
7AF3
  8
1
  6
CONTINUOUS
 10
-1429.79728
 20
729.04175577174078
 30
0.0
 11
-1454.79728
 21
729.04175577174078
 31
0.0
  0
LINE
  5
7AF4
  8
1
  6
CONTINUOUS
 10
-1230.29728
 20
396.74175577174088
 30
0.0
 11
-1230.29728
 21
587.54175577174078
 31
0.0
  0
LINE
  5
7AF5
  8
1
  6
CONTINUOUS
 10
-894.79728
 20
299.0417557717409
 30
0.0
 11
-894.79728
 21
729.04175577174078
 31
0.0
  0
LINE
  5
7AF6
  8
1
  6
CONTINUOUS
 10
-899.79728000000011
 20
648.0417557717409
 30
0.0
 11
-899.79728000000011
 21
494.0417557717409
 31
0.0
  0
LINE
  5
7AF7
  8
1
  6
CONTINUOUS
 10
-914.79728000000011
 20
613.04175577174078
 30
0.0
 11
-914.79728000000011
 21
529.04175577174078
 31
0.0
  0
LINE
  5
7AF8
  8
1
  6
CONTINUOUS
 10
-1163.8972799999999
 20
619.0417557717409
 30
0.0
 11
-1163.8972799999999
 21
523.0417557717409
 31
0.0
  0
LINE
  5
7AF9
  8
1
  6
CONTINUOUS
 10
-984.79728
 20
366.94175577174087
 30
0.0
 11
-1074.79728
 21
366.94175577174087
 31
0.0
  0
LINE
  5
7AFA
  8
1
  6
CONTINUOUS
 10
-984.79728
 20
331.94175577174087
 30
0.0
 11
-1074.79728
 21
331.94175577174087
 31
0.0
  0
LINE
  5
7AFB
  8
1
  6
CONTINUOUS
 10
-919.79728
 20
507.44175577174087
 30
0.0
 11
-1139.79728
 21
507.44175577174087
 31
0.0
  0
LINE
  5
7AFC
  8
1
  6
CONTINUOUS
 10
-1155.8972799999999
 20
515.0417557717409
 30
0.0
 11
-899.79728000000011
 21
515.0417557717409
 31
0.0
  0
ARC
  5
7AFD
  8
1
  6
CONTINUOUS
 10
-1155.8972799999999
 20
523.0417557717409
 30
0.0
 40
8.0
 50
180.0
 51
270.0
  0
LINE
  5
7AFE
  8
1
  6
CONTINUOUS
 10
-1074.79728
 20
366.94175577174087
 30
0.0
 11
-1074.79728
 21
331.94175577174087
 31
0.0
  0
LINE
  5
7AFF
  8
1
  6
CONTINUOUS
 10
-1139.79728
 20
507.44175577174087
 30
0.0
 11
-1139.79728
 21
383.0417557717409
 31
0.0
  0
LINE
  5
7B00
  8
1
  6
CONTINUOUS
 10
-1129.79728
 20
507.44175577174087
 30
0.0
 11
-1129.79728
 21
515.0417557717409
 31
0.0
  0
LINE
  5
7B01
  8
1
  6
CONTINUOUS
 10
-1017.79728
 20
383.0417557717409
 30
0.0
 11
-894.79728
 21
383.0417557717409
 31
0.0
  0
LINE
  5
7B02
  8
1
  6
CONTINUOUS
 10
-1017.79728
 20
507.44175577174087
 30
0.0
 11
-1017.79728
 21
366.94175577174087
 31
0.0
  0
LINE
  5
7B03
  8
1
  6
CONTINUOUS
 10
-1041.7972799999991
 20
507.44175577174087
 30
0.0
 11
-1041.7972799999991
 21
366.94175577174087
 31
0.0
  0
LINE
  5
7B04
  8
1
  6
CONTINUOUS
 10
-984.79728
 20
366.94175577174087
 30
0.0
 11
-984.79728
 21
331.94175577174087
 31
0.0
  0
LINE
  5
7B05
  8
1
  6
CONTINUOUS
 10
-919.79728
 20
383.0417557717409
 30
0.0
 11
-919.79728
 21
299.0417557717409
 31
0.0
  0
LINE
  5
7B06
  8
1
  6
CONTINUOUS
 10
-919.79728
 20
299.0417557717409
 30
0.0
 11
-894.79728
 21
299.0417557717409
 31
0.0
  0
LINE
  5
7B07
  8
1
  6
CONTINUOUS
 10
-932.49728000000005
 20
311.0417557717409
 30
0.0
 11
-932.49728000000005
 21
386.0417557717409
 31
0.0
  0
LINE
  5
7B08
  8
1
  6
CONTINUOUS
 10
-919.79728
 20
383.0417557717409
 30
0.0
 11
-919.79728
 21
507.44175577174087
 31
0.0
  0
LINE
  5
7B09
  8
1
  6
CONTINUOUS
 10
-929.79728000000011
 20
507.44175577174087
 30
0.0
 11
-929.79728000000011
 21
515.0417557717409
 31
0.0
  0
LINE
  5
7B0A
  8
1
  6
CONTINUOUS
 10
-899.79728000000011
 20
514.0417557717409
 30
0.0
 11
-914.79728000000011
 21
529.04175577174078
 31
0.0
  0
LINE
  5
7B0B
  8
1
  6
CONTINUOUS
 10
-1155.8972799999999
 20
627.0417557717409
 30
0.0
 11
-899.79728000000011
 21
627.0417557717409
 31
0.0
  0
LINE
  5
7B0C
  8
1
  6
CONTINUOUS
 10
-929.79728000000011
 20
635.0417557717409
 30
0.0
 11
-1129.79728
 21
635.0417557717409
 31
0.0
  0
ARC
  5
7B0D
  8
1
  6
CONTINUOUS
 10
-1155.8972799999999
 20
619.0417557717409
 30
0.0
 40
8.0
 50
90.0
 51
180.0
  0
LINE
  5
7B0E
  8
1
  6
CONTINUOUS
 10
-1129.79728
 20
635.0417557717409
 30
0.0
 11
-1129.79728
 21
627.0417557717409
 31
0.0
  0
LINE
  5
7B0F
  8
1
  6
CONTINUOUS
 10
-919.79728
 20
729.04175577174078
 30
0.0
 11
-919.79728
 21
627.0417557717409
 31
0.0
  0
LINE
  5
7B10
  8
1
  6
CONTINUOUS
 10
-919.79728
 20
729.04175577174078
 30
0.0
 11
-894.79728
 21
729.04175577174078
 31
0.0
  0
LINE
  5
7B11
  8
1
  6
CONTINUOUS
 10
-894.79728
 20
607.0417557717409
 30
0.0
 11
-899.79728000000011
 21
607.0417557717409
 31
0.0
  0
LINE
  5
7B12
  8
1
  6
CONTINUOUS
 10
-929.79728000000011
 20
635.0417557717409
 30
0.0
 11
-929.79728000000011
 21
627.0417557717409
 31
0.0
  0
LINE
  5
7B13
  8
1
  6
CONTINUOUS
 10
-899.79728000000011
 20
628.0417557717409
 30
0.0
 11
-914.79728000000011
 21
613.04175577174078
 31
0.0
  0
DIMENSION
  5
7B27
  8
3
  6
CONTINUOUS
  2
*D1
 10
-1029.79728
 20
-608.62291984002673
 30
0.0
 11
-1222.856174
 21
-608.62291984002673
 31
0.0
 70
   128
 13
-1454.79728
 23
-558.17697684002678
 33
0.0
 14
-1029.79728
 24
-533.17697684002678
 34
0.0
1001
ACAD
1000
DSTYLE
1002
{
1070
   287
1070
     3
1070
   287
1070
     3
1070
    40
1040
10.0
1070
   143
1040
0.039
1070
   172
1070
     1
1070
   271
1070
     0
1070
   279
1070
     0
1070
   288
1070
     1
1002
}
  0
DIMENSION
  5
7B33
  8
3
  6
CONTINUOUS
  2
*D2
 10
-894.79728
 20
-608.62291984002673
 30
0.0
 11
-962.29727999999989
 21
-583.62291984002673
 31
0.0
 70
     0
 13
-1029.79728
 23
-533.17697684002678
 33
0.0
 14
-894.79728
 24
-558.17697684002678
 34
0.0
1001
ACAD
1000
DSTYLE
1002
{
1070
   287
1070
     4
1070
   287
1070
     4
1070
    40
1040
10.0
1070
    75
1070
     1
1070
   143
1040
0.039
1070
   172
1070
     1
1070
   271
1070
     0
1070
   279
1070
     1
1070
   288
1070
     1
1002
}
  0
DIMENSION
  5
7B40
  8
3
  6
CONTINUOUS
  2
*D3
 10
-822.43089400000019
 20
-298.17697684002678
 30
0.0
 11
-822.43089399999997
 21
-232.46269184002671
 31
0.0
 70
   128
 13
-899.79728000000011
 23
-138.1769768400267
 33
0.0
 14
-899.79728000000011
 24
-298.17697684002673
 34
0.0
 50
90.0
1001
ACAD
1000
DSTYLE
1002
{
1070
   287
1070
     3
1070
   287
1070
     3
1070
    40
1040
10.0
1070
   143
1040
0.039
1070
   172
1070
     1
1070
   271
1070
     0
1070
   279
1070
     0
1070
   288
1070
     1
1002
}
  0
DIMENSION
  5
7B7C
  8
3
  6
CONTINUOUS
  2
*D4
 10
-753.53896699999996
 20
-298.17697684002678
 30
0.0
 11
-753.53896699999984
 21
-213.69791784002669
 31
0.0
 70
   128
 13
-914.79728000000011
 23
-127.1769768400267
 33
0.0
 14
-899.79728000000011
 24
-298.17697684002673
 34
0.0
 50
90.0
1001
ACAD
1000
DSTYLE
1002
{
1070
   287
1070
     3
1070
   287
1070
     3
1070
    40
1040
10.0
1070
   143
1040
0.039
1070
   172
1070
     1
1070
   271
1070
     0
1070
   279
1070
     0
1070
   288
1070
     1
1002
}
  0
DIMENSION
  5
7B93
  8
3
  6
CONTINUOUS
  2
*D5
 10
-753.53896699999984
 20
-533.1769768400269
 30
0.0
 11
-778.53896699999984
 21
-415.6769768400269
 31
0.0
 70
     0
 13
-899.79728000000011
 23
-298.17697684002673
 33
0.0
 14
-894.79728
 24
-533.17697684002678
 34
0.0
 50
90.0
1001
ACAD
1000
DSTYLE
1002
{
1070
   287
1070
     4
1070
   287
1070
     4
1070
    40
1040
10.0
1070
    75
1070
     1
1070
   143
1040
0.039
1070
   172
1070
     1
1070
   271
1070
     0
1070
   279
1070
     1
1070
   288
1070
     1
1002
}
  0
DIMENSION
  5
7BA3
  8
3
  6
CONTINUOUS
  2
*D6
 10
-754.30558399999995
 20
-558.1769768400269
 30
0.0
 11
-754.30558399999995
 21
-632.46269112574123
 31
0.0
 70
   128
 13
-894.79728
 23
-533.17697684002678
 33
0.0
 14
-894.79728
 24
-558.17697684002678
 34
0.0
 50
90.0
1001
ACAD
1000
DSTYLE
1002
{
1070
   287
1070
     3
1070
   287
1070
     3
1070
    40
1040
10.0
1070
   143
1040
0.039
1070
   172
1070
     1
1070
   271
1070
     0
1070
   279
1070
     0
1070
   288
1070
     1
1002
}
  0
DIMENSION
  5
7BCA
  8
3
  6
CONTINUOUS
  2
*D7
 10
-679.06485400000008
 20
-558.1769768400269
 30
0.0
 11
-679.06485399999985
 21
-338.84994484002669
 31
0.0
 70
   128
 13
-899.79728000000011
 23
-116.1769768400267
 33
0.0
 14
-894.79728
 24
-558.17697684002678
 34
0.0
 50
90.0
1001
ACAD
1000
DSTYLE
1002
{
1070
   287
1070
     3
1070
   287
1070
     3
1070
    40
1040
10.0
1070
   143
1040
0.039
1070
   172
1070
     1
1070
   271
1070
     0
1070
   279
1070
     0
1070
   288
1070
     1
1002
}
  0
LINE
  5
7BCB
  8
2
  6
CENTER
 10
-519.74157528533544
 20
-298.17697684002673
 30
0.0
 11
-136.7285492853355
 21
-298.17697684002673
 31
0.0
  0
DIMENSION
  5
7BD8
  8
3
  6
CONTINUOUS
  2
*D8
 10
-1029.79728
 20
-97.407722840026764
 30
0.0
 11
-1095.5115657142851
 21
-97.407722840026764
 31
0.0
 70
   128
 13
-1174.7972799999991
 23
-298.17697684002673
 33
0.0
 14
-1029.79728
 24
-127.7126958400267
 34
0.0
1001
ACAD
1000
DSTYLE
1002
{
1070
   287
1070
     3
1070
   287
1070
     3
1070
    40
1040
10.0
1070
   143
1040
0.039
1070
   172
1070
     1
1070
   271
1070
     0
1070
   279
1070
     0
1070
   288
1070
     1
1002
}
  0
DIMENSION
  5
7BE7
  8
3
  6
CONTINUOUS
  2
*D9
 10
-899.79728000000011
 20
-97.407722840026764
 30
0.0
 11
-973.42149000000006
 21
-97.295861840026774
 31
0.0
 70
   128
 13
-1029.79728
 23
-127.7126958400267
 33
0.0
 14
-899.79728000000011
 24
-116.1769768400267
 34
0.0
1001
ACAD
1000
DSTYLE
1002
{
1070
   287
1070
     4
1070
   287
1070
     4
1070
    40
1040
10.0
1070
    75
1070
     1
1070
   143
1040
0.039
1070
   172
1070
     1
1070
   271
1070
     0
1070
   279
1070
     1
1070
   288
1070
     1
1002
}
  0
LINE
  5
7BFE
  8
2
  6
CENTER
 10
-1029.79728
 20
284.09591177174087
 30
0.0
 11
-1029.79728
 21
658.44146577174092
 31
0.0
  0
DIMENSION
  5
7C0B
  8
3
  6
CONTINUOUS
  2
*D10
 10
-894.79728
 20
194.62738277174091
 30
0.0
 11
-1163.5824839999991
 21
194.62738277174091
 31
0.0
 70
   128
 13
-1454.79728
 23
299.0417557717409
 33
0.0
 14
-894.79728
 24
299.0417557717409
 34
0.0
1001
ACAD
1000
DSTYLE
1002
{
1070
   287
1070
     3
1070
   287
1070
     3
1070
    40
1040
10.0
1070
   143
1040
0.039
1070
   172
1070
     1
1070
   271
1070
     0
1070
   279
1070
     0
1070
   288
1070
     1
1002
}
  0
DIMENSION
  5
7C18
  8
3
  6
CONTINUOUS
  2
*D11
 10
-790.96162499999991
 20
299.0417557717409
 30
0.0
 11
-790.96162500000003
 21
534.6624327717409
 31
0.0
 70
   128
 13
-894.79728
 23
729.04175577174078
 33
0.0
 14
-894.79728
 24
299.0417557717409
 34
0.0
 50
90.0
1001
ACAD
1000
DSTYLE
1002
{
1070
   287
1070
     3
1070
   287
1070
     3
1070
    40
1040
10.0
1070
   143
1040
0.039
1070
   172
1070
     1
1070
   271
1070
     0
1070
   279
1070
     0
1070
   288
1070
     1
1002
}
  0
LINE
  5
7C19
  8
2
  6
CENTER
 10
-216.40517828533561
 20
-103.71990284002671
 30
0.0
 11
-216.40517828533561
 21
-582.91737184002682
 31
0.0
  0
DIMENSION
  5
7C26
  8
3
  6
CONTINUOUS
  2
*D12
 10
-216.40517828533561
 20
-623.2782249388207
 30
0.0
 11
-350.74156728533558
 21
-623.2782249388207
 31
0.0
 70
   128
 13
-488.40517828533558
 23
-558.17697684002678
 33
0.0
 14
-216.40517828533561
 24
-558.17697684002678
 34
0.0
1001
ACAD
1000
DSTYLE
1002
{
1070
   287
1070
     3
1070
   287
1070
     3
1070
    40
1040
10.0
1070
   143
1040
0.039
1070
   172
1070
     1
1070
   271
1070
     0
1070
   279
1070
     0
1070
   288
1070
     1
1002
}
  0
DIMENSION
  5
7C32
  8
3
  6
CONTINUOUS
  2
*D13
 10
-58.405178285335637
 20
-623.2782249388207
 30
0.0
 11
-137.40517828533561
 21
-598.2782249388207
 31
0.0
 70
     0
 13
-216.40517828533561
 23
-558.17697684002678
 33
0.0
 14
-58.40517828533563
 24
-558.17697684002678
 34
0.0
1001
ACAD
1000
DSTYLE
1002
{
1070
   287
1070
     4
1070
   287
1070
     4
1070
    40
1040
10.0
1070
    75
1070
     1
1070
   143
1040
0.039
1070
   172
1070
     1
1070
   271
1070
     0
1070
   279
1070
     1
1070
   288
1070
     1
1002
}
  0
LINE
  5
7C35
  8
3
  6
CONTINUOUS
 10
-152.40517828533561
 20
-298.17697684002673
 30
0.0
 11
-152.40517828533561
 21
-218.1769768400267
 31
0.0
  0
LINE
  5
7C36
  8
3
  6
CONTINUOUS
 10
-152.40517828533561
 20
-218.1769768400267
 30
0.0
 11
-133.5044132853356
 21
-218.1769768400267
 31
0.0
  0
LINE
  5
7C37
  8
3
  6
CONTINUOUS
 10
-152.40517828533561
 20
-298.17697684002673
 30
0.0
 11
-152.40517828533561
 21
-378.17697684002678
 31
0.0
  0
LINE
  5
7C38
  8
3
  6
CONTINUOUS
 10
-152.40517828533561
 20
-378.17697684002678
 30
0.0
 11
-138.9581822853356
 21
-378.17697684002678
 31
0.0
  0
DIMENSION
  5
7C45
  8
3
  6
CONTINUOUS
  2
*D14
 10
-84.420545285335606
 20
-378.17697684002678
 30
0.0
 11
-107.1013435052318
 21
-298.17697684002673
 31
0.0
 70
   128
 13
-152.40517828533561
 23
-218.1769768400267
 33
0.0
 14
-152.40517828533561
 24
-378.17697684002678
 34
0.0
 50
90.0
1001
ACAD
1000
DSTYLE
1002
{
1070
   288
1070
     1
1070
   172
1070
     1
1070
    40
1040
10.0
1070
     3
1000
φ<>
1070
   271
1070
     0
1070
   143
1040
0.039
1002
}
  0
DIMENSION
  5
7C54
  8
3
  6
CONTINUOUS
  2
*D15
 10
-160.40517828533561
 20
-107.5910558400267
 30
0.0
 11
-216.40517828533561
 21
-82.492388911976377
 31
0.0
 70
   128
 13
-272.40517828533558
 23
-138.1769768400267
 33
0.0
 14
-160.40517828533561
 24
-138.1769768400267
 34
0.0
1001
ACAD
1000
DSTYLE
1002
{
1070
   288
1070
     1
1070
   172
1070
     1
1070
    40
1040
10.0
1070
   271
1070
     0
1070
   143
1040
0.039
1002
}
  0
DIMENSION
  5
7C62
  8
3
  6
CONTINUOUS
  2
*D16
 10
-216.40517828533561
 20
-45.155187575203847
 30
0.0
 11
-350.29081128533562
 21
-45.155187575203847
 31
0.0
 70
   128
  1
MAX\P260
 13
-476.40517828533558
 23
-203.17697684002681
 33
0.0
 14
-216.40517828533561
 24
-69.302009840026813
 34
0.0
1001
ACAD
1000
DSTYLE
1002
{
1070
   287
1070
     3
1070
   287
1070
     3
1070
    40
1040
10.0
1070
   143
1040
0.039
1070
   172
1070
     1
1070
   271
1070
     0
1070
   279
1070
     0
1070
   288
1070
     1
1002
}
  0
DIMENSION
  5
7C70
  8
3
  6
CONTINUOUS
  2
*D17
 10
-152.40517828533561
 20
-45.155187575203847
 30
0.0
 11
-185.76895928533551
 21
-44.886148575203833
 31
0.0
 70
   128
 13
-216.40517828533561
 23
-69.302009840026813
 33
0.0
 14
-152.40517828533561
 24
-198.1769768400267
 34
0.0
1001
ACAD
1000
DSTYLE
1002
{
1070
   287
1070
     4
1070
   287
1070
     4
1070
    40
1040
10.0
1070
    75
1070
     1
1070
   143
1040
0.039
1070
   172
1070
     1
1070
   271
1070
     0
1070
   279
1070
     1
1070
   288
1070
     1
1002
}
  0
LINE
  5
7C87
  8
4
  6
CONTINUOUS
 10
-15.951506
 20
-849.58448899999996
 30
0.0
 11
-15.951506
 21
-1049.5844890000001
 31
0.0
  0
LINE
  5
7C88
  8
4
  6
CONTINUOUS
 10
-715.95150599999999
 20
-849.58448899999996
 30
0.0
 11
-715.95150600000011
 21
-1049.5844890000001
 31
0.0
  0
LINE
  5
7C89
  8
4
  6
CONTINUOUS
 10
-1215.9515060000001
 20
-849.58448899999996
 30
0.0
 11
-1215.9515060000001
 21
-1049.5844890000001
 31
0.0
  0
LINE
  5
7C8C
  8
4
  6
CONTINUOUS
 10
-1215.9515060000001
 20
-1049.5844890000001
 30
0.0
 11
-15.951506
 21
-1049.5844890000001
 31
0.0
  0
LINE
  5
7C8D
  8
4
  6
CONTINUOUS
 10
-1215.9515060000001
 20
-949.58448899999996
 30
0.0
 11
-15.951506
 21
-949.58448899999996
 31
0.0
  0
TEXT
  5
7C8E
  8
4
  6
CONTINUOUS
 10
-1177.449425
 20
-918.04146300000014
 30
0.0
 40
50.0
  1
機器名称
  0
TEXT
  5
7C8F
  8
4
  6
CONTINUOUS
 10
-1179.6934000000001
 20
-1027.939333
 30
0.0
 40
50.0
  1
機器型番
  0
TEXT
  5
7C90
  8
4
  6
CONTINUOUS
 10
-688.27275999999995
 20
-927.01271999999994
 30
0.0
 40
45.0
  1
ミツヤニューマルチファン
  0
TEXT
  5
7C91
  8
4
  6
CONTINUOUS
 10
-679.29700999999989
 20
-1032.4249050000001
 30
0.0
 40
50.0
  1
NM#1-1
  0
TEXT
  5
7C93
  8
4
  6
CONTINUOUS
 10
-1023.594147
 20
1033.8443519999989
 30
0.0
 40
54.0
  1
天井吊ベット
  0
TEXT
  5
7C94
  8
4
  6
CONTINUOUS
 10
-1549.783913
 20
1184.2964869999989
 30
0.0
 40
72.0
  1
ベルト駆動式片吸込片持多翼ファン
  0
LINE
  5
7C95
  8
4
  6
CONTINUOUS
 10
-1615.9515060000001
 20
1119.8242649999991
 30
0.0
 11
-15.951506
 21
1119.8242649999991
 31
0.0
  0
LINE
  5
7C96
  8
4
  6
CONTINUOUS
 10
-1615.9515060000001
 20
1319.824265
 30
0.0
 11
-15.951506
 21
1319.824265
 31
0.0
  0
LINE
  5
7C97
  8
4
  6
CONTINUOUS
 10
-1215.9515060000001
 20
-849.58448899999996
 30
0.0
 11
-15.951506
 21
-849.58448899999996
 31
0.0
  0
LINE
  5
7C98
  8
4
  6
CONTINUOUS
 10
-1615.9515060000001
 20
1319.824265
 30
0.0
 11
-1615.9515060000001
 21
1119.8242649999991
 31
0.0
  0
TEXT
  5
7C99
  8
4
  6
CONTINUOUS
 10
-1459.45298
 20
1032.7349879999999
 30
0.0
 40
54.0
  1
右回転右横向
  0
TEXT
  5
7C9A
  8
4
  6
CONTINUOUS
 10
-396.98194699999999
 20
1356.4765919999991
 30
0.0
 40
56.0
  1
No.
  0
TEXT
  5
7C9B
  8
4
  6
CONTINUOUS
 10
-554.65544299999988
 20
1033.8443519999989
 30
0.0
 40
54.0
  1
縮尺：1/10
  0
LINE
  5
7C9C
  8
4
  6
CONTINUOUS
 10
-15.951506
 20
1319.824265
 30
0.0
 11
-15.951506
 21
1119.8242649999991
 31
0.0
  0
LINE
  5
7C9E
  8
4
  6
CONTINUOUS
 10
-425.3340839999999
 20
1331.6790940000001
 30
0.0
 11
-425.3340839999999
 21
1437.0677720000001
 31
0.0
  0
LINE
  5
7C9F
  8
4
  6
CONTINUOUS
 10
-425.3340839999999
 20
1437.0677720000001
 30
0.0
 11
-15.951506
 21
1437.0677720000001
 31
0.0
  0
LINE
  5
7CA0
  8
4
  6
CONTINUOUS
 10
-15.951506
 20
1437.0677720000001
 30
0.0
 11
-15.951506
 21
1331.6790940000001
 31
0.0
  0
LINE
  5
7CA1
  8
4
  6
CONTINUOUS
 10
-15.951506
 20
1331.6790940000001
 30
0.0
 11
-425.3340839999999
 21
1331.6790940000001
 31
0.0
  0
LINE
  5
7CB2
  8
2
  6
CENTER
 10
-859.60733699999992
 20
571.04175577174078
 30
0.0
 11
-1470.1278119999999
 21
571.04175577174078
 31
0.0
  0
DIMENSION
  5
7D00
  8
3
  2
*D18
 10
-1454.79728
 20
-45.027851313821877
 30
0.0
 11
-1184.486739173509
 21
-45.027851313821877
 31
0.0
 70
   128
 13
-899.79728000000011
 23
-135.8855620986705
 33
0.0
 14
-1454.79728
 24
-463.17697684002678
 34
0.0
1001
ACAD
1000
DSTYLE
1002
{
1070
   287
1070
     3
1070
   287
1070
     3
1070
    40
1040
10.0
1070
   143
1040
0.039
1070
   172
1070
     1
1070
   271
1070
     0
1070
   279
1070
     0
1070
   288
1070
     1
1002
}
  0
ENDSEC
  0
EOF
