  0
SECTION
  2
HEADER
  9
$ACADVER
  1
AC1009
  9
$INSBASE
 10
0.0
 20
0.0
 30
0.0
  9
$EXTMIN
 10
250.0
 20
300.0
 30
0.0
  9
$EXTMAX
 10
1850.0
 20
2786.6522620000001
 30
0.0
  9
$LIMMIN
 10
0.0
 20
0.0
  9
$LIMMAX
 10
297.0
 20
210.0
  9
$ORTHOMODE
 70
     0
  9
$REGENMODE
 70
     1
  9
$FILLMODE
 70
     0
  9
$QTEXTMODE
 70
     0
  9
$MIRRTEXT
 70
     1
  9
$DRAGMODE
 70
     2
  9
$LTSCALE
 40
100.0
  9
$OSMODE
 70
    37
  9
$ATTMODE
 70
     1
  9
$TEXTSIZE
 40
180.0
  9
$TRACEWID
 40
0.05
  9
$TEXTSTYLE
  7
STANDARD
  9
$CLAYER
  8
3
  9
$CELTYPE
  6
BYLAYER
  9
$CECOLOR
 62
   256
  9
$DIMSCALE
 40
10.0
  9
$DIMASZ
 40
2.0
  9
$DIMEXO
 40
0.5
  9
$DIMDLI
 40
10.0
  9
$DIMRND
 40
0.0
  9
$DIMDLE
 40
0.0
  9
$DIMEXE
 40
1.0
  9
$DIMTP
 40
1.0
  9
$DIMTM
 40
1.0
  9
$DIMTXT
 40
3.0
  9
$DIMCEN
 40
0.0
  9
$DIMTSZ
 40
0.0
  9
$DIMTOL
 70
     0
  9
$DIMLIM
 70
     0
  9
$DIMTIH
 70
     0
  9
$DIMTOH
 70
     0
  9
$DIMSE1
 70
     0
  9
$DIMSE2
 70
     0
  9
$DIMTAD
 70
     1
  9
$DIMZIN
 70
     8
  9
$DIMBLK
  1

  9
$DIMASO
 70
     1
  9
$DIMSHO
 70
     1
  9
$DIMPOST
  1

  9
$DIMAPOST
  1

  9
$DIMALT
 70
     0
  9
$DIMALTD
 70
     2
  9
$DIMALTF
 40
0.039
  9
$DIMLFAC
 40
1.0
  9
$DIMTOFL
 70
     1
  9
$DIMTVP
 40
0.0
  9
$DIMTIX
 70
     0
  9
$DIMSOXD
 70
     0
  9
$DIMSAH
 70
     1
  9
$DIMBLK1
  1
OPEN
  9
$DIMBLK2
  1
OPEN
  9
$DIMSTYLE
  2
IGA
  9
$DIMCLRD
 70
     0
  9
$DIMCLRE
 70
     0
  9
$DIMCLRT
 70
     0
  9
$DIMTFAC
 40
10.0
  9
$DIMGAP
 40
1.0
  9
$LUNITS
 70
     2
  9
$LUPREC
 70
     3
  9
$SKETCHINC
 40
0.1
  9
$FILLETRAD
 40
50.0
  9
$AUNITS
 70
     0
  9
$AUPREC
 70
     0
  9
$MENU
  1
acad
  9
$ELEVATION
 40
0.0
  9
$PELEVATION
 40
0.0
  9
$THICKNESS
 40
0.0
  9
$LIMCHECK
 70
     0
  9
$BLIPMODE
 70
     0
  9
$CHAMFERA
 40
0.5
  9
$CHAMFERB
 40
0.5
  9
$SKPOLY
 70
     0
  9
$TDCREATE
 40
2450742.339089815
  9
$TDUPDATE
 40
2454953.8583226958
  9
$TDINDWG
 40
0.0053225116
  9
$TDUSRTIMER
 40
0.0053225116
  9
$USRTIMER
 70
     1
  9
$ANGBASE
 50
0.0
  9
$ANGDIR
 70
     0
  9
$PDMODE
 70
     0
  9
$PDSIZE
 40
0.0
  9
$PLINEWID
 40
0.0
  9
$COORDS
 70
     1
  9
$SPLFRAME
 70
     0
  9
$SPLINETYPE
 70
     6
  9
$SPLINESEGS
 70
     8
  9
$ATTDIA
 70
     0
  9
$ATTREQ
 70
     1
  9
$HANDLING
 70
 10241
  9
$HANDSEED
  5
7F51
  9
$SURFTAB1
 70
     6
  9
$SURFTAB2
 70
     6
  9
$SURFTYPE
 70
     6
  9
$SURFU
 70
     6
  9
$SURFV
 70
     6
  9
$UCSNAME
  2

  9
$UCSORG
 10
0.0
 20
0.0
 30
0.0
  9
$UCSXDIR
 10
1.0
 20
0.0
 30
0.0
  9
$UCSYDIR
 10
0.0
 20
1.0
 30
0.0
  9
$PUCSNAME
  2

  9
$PUCSORG
 10
0.0
 20
0.0
 30
0.0
  9
$PUCSXDIR
 10
1.0
 20
0.0
 30
0.0
  9
$PUCSYDIR
 10
0.0
 20
1.0
 30
0.0
  9
$USERI1
 70
     0
  9
$USERI2
 70
     0
  9
$USERI3
 70
     0
  9
$USERI4
 70
     0
  9
$USERI5
 70
     0
  9
$USERR1
 40
0.0
  9
$USERR2
 40
0.0
  9
$USERR3
 40
0.0
  9
$USERR4
 40
0.0
  9
$USERR5
 40
0.0
  9
$WORLDVIEW
 70
     1
  9
$SHADEDGE
 70
     3
  9
$SHADEDIF
 70
    70
  9
$TILEMODE
 70
     1
  9
$MAXACTVP
 70
    16
  9
$PLIMCHECK
 70
     0
  9
$PEXTMIN
 10
1.0000000000000000E+020
 20
1.0000000000000000E+020
 30
1.0000000000000000E+020
  9
$PEXTMAX
 10
-1.0000000000000000E+020
 20
-1.0000000000000000E+020
 30
-1.0000000000000000E+020
  9
$PLIMMIN
 10
0.0
 20
0.0
  9
$PLIMMAX
 10
12.0
 20
9.0
  9
$UNITMODE
 70
     0
  9
$VISRETAIN
 70
     0
  9
$PLINEGEN
 70
     0
  9
$PSLTSCALE
 70
     1
  0
ENDSEC
  0
SECTION
  2
TABLES
  0
TABLE
  2
VPORT
 70
     2
  0
VPORT
  2
*ACTIVE
 70
     0
 10
0.0
 20
0.0
 11
1.0
 21
1.0
 12
2745.3107210715439
 22
1908.3220960335491
 13
0.0
 23
0.0
 14
10.0
 24
10.0
 15
10.0
 25
10.0
 16
0.0
 26
0.0
 36
1.0
 17
0.0
 27
0.0
 37
0.0
 40
3552.212848928405
 41
1.5051150895140659
 42
50.0
 43
0.0
 44
0.0
 50
0.0
 51
0.0
 71
     0
 72
   100
 73
     1
 74
     0
 75
     0
 76
     0
 77
     0
 78
     0
  0
ENDTAB
  0
TABLE
  2
LTYPE
 70
     2
  0
LTYPE
  2
CONTINUOUS
 70
     0
  3
Solid line
 72
    65
 73
     0
 40
0.0
  0
LTYPE
  2
CENTER
 70
     0
  3
____ _ ____ _ ____ _ ____ _ ____ _ ____ _ ____ 
 72
    65
 73
     4
 40
2.0
 49
1.25
 49
-0.25
 49
0.25
 49
-0.25
  0
ENDTAB
  0
TABLE
  2
LAYER
 70
     6
  0
LAYER
  2
0
 70
     0
 62
     7
  6
CONTINUOUS
  0
LAYER
  2
3
 70
     0
 62
     2
  6
CONTINUOUS
  0
LAYER
  2
2
 70
     0
 62
     3
  6
CENTER
  0
LAYER
  2
1
 70
     0
 62
     4
  6
CONTINUOUS
  0
LAYER
  2
4
 70
     0
 62
     7
  6
CONTINUOUS
  0
LAYER
  2
DEFPOINTS
 70
     0
 62
     7
  6
CONTINUOUS
  0
ENDTAB
  0
TABLE
  2
STYLE
 70
     1
  0
STYLE
  2
STANDARD
 70
     0
 40
0.0
 41
1.0
 50
0.0
 71
     0
 42
180.0
  3
simplex.shx
  4
extfont.shx
  0
ENDTAB
  0
TABLE
  2
VIEW
 70
     0
  0
ENDTAB
  0
TABLE
  2
UCS
 70
     0
  0
ENDTAB
  0
TABLE
  2
APPID
 70
     1
  0
APPID
  2
ACAD
 70
     0
  0
ENDTAB
  0
TABLE
  2
DIMSTYLE
 70
     1
  0
DIMSTYLE
  2
IGA
 70
     0
  3

  4

  5

  6
OPEN
  7
OPEN
 40
2.0
 41
2.0
 42
0.5
 43
10.0
 44
1.0
 45
0.0
 46
0.0
 47
1.0
 48
1.0
140
3.0
141
0.0
142
0.0
143
0.03937
144
1.0
145
0.0
146
10.0
147
1.0
 71
     0
 72
     0
 73
     0
 74
     0
 75
     0
 76
     0
 77
     1
 78
     8
170
     0
171
     2
172
     0
173
     1
174
     0
175
     0
176
     0
177
     0
178
     0
  0
ENDTAB
  0
ENDSEC
  0
SECTION
  2
BLOCKS
  0
BLOCK
  8
0
  2
$MODEL_SPACE
 70
     0
 10
0.0
 20
0.0
 30
0.0
  3
$MODEL_SPACE
  1

  0
ENDBLK
  5
1B
  8
0
  0
BLOCK
 67
     1
  8
0
  2
$PAPER_SPACE
 70
     0
 10
0.0
 20
0.0
 30
0.0
  3
$PAPER_SPACE
  1

  0
ENDBLK
  5
18
 67
     1
  8
0
  0
BLOCK
  8
0
  2
_OPEN
 70
     0
 10
0.0
 20
0.0
 30
0.0
  3
_OPEN
  1

  0
LINE
  5
7B35
  8
0
  6
BYBLOCK
 62
     0
 10
-1.0
 20
0.166667
 30
0.0
 11
0.0
 21
0.0
 31
0.0
  0
LINE
  5
7B36
  8
0
  6
BYBLOCK
 62
     0
 10
0.0
 20
0.0
 30
0.0
 11
-1.0
 21
-0.166667
 31
0.0
  0
LINE
  5
7B37
  8
0
  6
BYBLOCK
 62
     0
 10
0.0
 20
0.0
 30
0.0
 11
-1.0
 21
0.0
 31
0.0
  0
ENDBLK
  5
7B38
  8
0
  0
BLOCK
  8
0
  2
*D1
 70
     1
 10
0.0
 20
0.0
 30
0.0
  3
*D1
  1

  0
LINE
  5
7EAF
  8
3
  6
CONTINUOUS
 62
     0
 10
354.00481799999989
 20
871.60539436154897
 30
0.0
 11
354.00481799999989
 21
802.57937836154895
 31
0.0
  0
LINE
  5
7EB0
  8
3
  6
CONTINUOUS
 62
     0
 10
779.004818
 20
896.60539436154875
 30
0.0
 11
779.004818
 21
802.57937836154895
 31
0.0
  0
LINE
  5
7EB1
  8
3
  6
CONTINUOUS
 62
     0
 10
374.004818
 20
812.57937836154883
 30
0.0
 11
759.004818
 21
812.57937836154883
 31
0.0
  0
INSERT
  5
7EB2
  8
3
  6
CONTINUOUS
 62
     0
  2
_OPEN
 10
354.00481799999989
 20
812.57937836154883
 30
0.0
 41
20.0
 42
20.0
 43
20.0
 50
180.0
  0
INSERT
  5
7EB3
  8
3
  6
CONTINUOUS
 62
     0
  2
_OPEN
 10
779.004818
 20
812.57937836154883
 30
0.0
 41
20.0
 42
20.0
 43
20.0
  0
TEXT
  8
3
  40
30
  5
7F40
  62
0
  72
0
  71
0
 10
500.702
 20
784.479
 30
0.000000
  1
425
  0
POINT
  5
7EB5
  8
DEFPOINTS
  6
CONTINUOUS
 62
     0
 10
354.00481799999989
 20
876.60539436154886
 30
0.0
  0
POINT
  5
7EB6
  8
DEFPOINTS
  6
CONTINUOUS
 62
     0
 10
779.004818
 20
901.60539436154886
 30
0.0
  0
POINT
  5
7EB7
  8
DEFPOINTS
  6
CONTINUOUS
 62
     0
 10
779.004818
 20
812.57937836154883
 30
0.0
  0
ENDBLK
  5
7B45
  8
0
  0
BLOCK
  8
0
  2
*D2
 70
     1
 10
0.0
 20
0.0
 30
0.0
  3
*D2
  1

  0
LINE
  5
7EB8
  8
3
  6
CONTINUOUS
 62
     0
 10
914.004818
 20
871.60539436154897
 30
0.0
 11
914.004818
 21
802.57937836154895
 31
0.0
  0
LINE
  5
7EB9
  8
3
  6
CONTINUOUS
 62
     0
 10
799.004818
 20
812.57937836154883
 30
0.0
 11
894.00481799999989
 21
812.57937836154883
 31
0.0
  0
INSERT
  5
7EBA
  8
3
  6
CONTINUOUS
 62
     0
  2
_OPEN
 10
779.004818
 20
812.57937836154883
 30
0.0
 41
20.0
 42
20.0
 43
20.0
 50
180.0
  0
INSERT
  5
7EBB
  8
3
  6
CONTINUOUS
 62
     0
  2
_OPEN
 10
914.004818
 20
812.57937836154883
 30
0.0
 41
20.0
 42
20.0
 43
20.0
  0
TEXT
  8
3
  40
30
  5
7F41
  62
0
  72
0
  71
0
 10
786.505
 20
784.479
 30
0.000000
  1
135
  0
POINT
  5
7EBD
  8
DEFPOINTS
  6
CONTINUOUS
 62
     0
 10
779.004818
 20
901.60539436154886
 30
0.0
  0
POINT
  5
7EBE
  8
DEFPOINTS
  6
CONTINUOUS
 62
     0
 10
914.004818
 20
876.60539436154886
 30
0.0
  0
POINT
  5
7EBF
  8
DEFPOINTS
  6
CONTINUOUS
 62
     0
 10
914.004818
 20
812.57937836154883
 30
0.0
  0
ENDBLK
  5
7B51
  8
0
  0
BLOCK
  8
0
  2
*D3
 70
     1
 10
0.0
 20
0.0
 30
0.0
  3
*D3
  1

  0
LINE
  5
7EC0
  8
3
  6
CONTINUOUS
 62
     0
 10
634.004818
 20
1141.605394361548
 30
0.0
 11
634.004818
 21
1297.2950693615489
 31
0.0
  0
LINE
  5
7EC1
  8
3
  6
CONTINUOUS
 62
     0
 10
779.004818
 20
1264.2495763615491
 30
0.0
 11
779.004818
 21
1297.2950693615489
 31
0.0
  0
LINE
  5
7EC2
  8
3
  6
CONTINUOUS
 62
     0
 10
654.004818
 20
1287.2950693615489
 30
0.0
 11
759.004818
 21
1287.2950693615489
 31
0.0
  0
INSERT
  5
7EC3
  8
3
  6
CONTINUOUS
 62
     0
  2
_OPEN
 10
634.004818
 20
1287.2950693615489
 30
0.0
 41
20.0
 42
20.0
 43
20.0
 50
180.0
  0
INSERT
  5
7EC4
  8
3
  6
CONTINUOUS
 62
     0
  2
_OPEN
 10
779.004818
 20
1287.2950693615489
 30
0.0
 41
20.0
 42
20.0
 43
20.0
  0
TEXT
  8
3
  40
30
  5
7F42
  62
0
  72
0
  71
0
 10
639.719
 20
1259.20
 30
0.000000
  1
145
  0
POINT
  5
7EC6
  8
DEFPOINTS
  6
CONTINUOUS
 62
     0
 10
634.004818
 20
1136.605394361548
 30
0.0
  0
POINT
  5
7EC7
  8
DEFPOINTS
  6
CONTINUOUS
 62
     0
 10
779.004818
 20
1259.249576361548
 30
0.0
  0
POINT
  5
7EC8
  8
DEFPOINTS
  6
CONTINUOUS
 62
     0
 10
779.004818
 20
1287.2950693615489
 30
0.0
  0
ENDBLK
  5
7DCE
  8
0
  0
BLOCK
  8
0
  2
*D4
 70
     1
 10
0.0
 20
0.0
 30
0.0
  3
*D4
  1

  0
LINE
  5
7EC9
  8
3
  6
CONTINUOUS
 62
     0
 10
909.004818
 20
1163.605394361548
 30
0.0
 11
909.004818
 21
1297.2950693615489
 31
0.0
  0
LINE
  5
7ECA
  8
3
  6
CONTINUOUS
 62
     0
 10
799.004818
 20
1287.2950693615489
 30
0.0
 11
889.004818
 21
1287.2950693615489
 31
0.0
  0
TEXT
  8
3
  40
30
  5
7F43
  62
0
  72
0
  71
0
 10
783.766
 20
1259.20
 30
0.000000
  1
130
  0
INSERT
  5
7ECC
  8
3
  6
CONTINUOUS
 62
     0
  2
_OPEN
 10
779.004818
 20
1287.2950693615489
 30
0.0
 41
20.0
 42
20.0
 43
20.0
 50
180.0
  0
INSERT
  5
7ECD
  8
3
  6
CONTINUOUS
 62
     0
  2
_OPEN
 10
909.004818
 20
1287.2950693615489
 30
0.0
 41
20.0
 42
20.0
 43
20.0
  0
POINT
  5
7ECE
  8
DEFPOINTS
  6
CONTINUOUS
 62
     0
 10
779.004818
 20
1259.249576361548
 30
0.0
  0
POINT
  5
7ECF
  8
DEFPOINTS
  6
CONTINUOUS
 62
     0
 10
909.004818
 20
1158.6053943615491
 30
0.0
  0
POINT
  5
7ED0
  8
DEFPOINTS
  6
CONTINUOUS
 62
     0
 10
909.004818
 20
1287.2950693615489
 30
0.0
  0
ENDBLK
  5
7B83
  8
0
  0
BLOCK
  8
0
  2
*D5
 70
     1
 10
0.0
 20
0.0
 30
0.0
  3
*D5
  1

  0
LINE
  5
7ED1
  8
3
  6
CONTINUOUS
 62
     0
 10
913.00481800000011
 20
1136.605394361548
 30
0.0
 11
996.24016400000005
 21
1136.605394361548
 31
0.0
  0
LINE
  5
7ED2
  8
3
  6
CONTINUOUS
 62
     0
 10
914.004818
 20
976.60539436154886
 30
0.0
 11
996.24016400000005
 21
976.60539436154886
 31
0.0
  0
LINE
  5
7ED3
  8
3
  6
CONTINUOUS
 62
     0
 10
986.24016400000005
 20
1116.6053943615491
 30
0.0
 11
986.24016400000005
 21
996.60539436154875
 31
0.0
  0
INSERT
  5
7ED4
  8
3
  6
CONTINUOUS
 62
     0
  2
_OPEN
 10
986.24016400000005
 20
1136.605394361548
 30
0.0
 41
20.0
 42
20.0
 43
20.0
 50
90.0
  0
INSERT
  5
7ED5
  8
3
  6
CONTINUOUS
 62
     0
  2
_OPEN
 10
986.24016400000005
 20
976.60539436154886
 30
0.0
 41
20.0
 42
20.0
 43
20.0
 50
270.0
  0
TEXT
  8
3
  40
30
  5
7F44
  62
0
  72
0
  71
0
 10
901.240
 20
1006.86
 30
0.000000
  1
160
  0
POINT
  5
7ED7
  8
DEFPOINTS
  6
CONTINUOUS
 62
     0
 10
908.004818
 20
1136.605394361548
 30
0.0
  0
POINT
  5
7ED8
  8
DEFPOINTS
  6
CONTINUOUS
 62
     0
 10
909.004818
 20
976.60539436154886
 30
0.0
  0
POINT
  5
7ED9
  8
DEFPOINTS
  6
CONTINUOUS
 62
     0
 10
986.24016400000005
 20
976.60539436154886
 30
0.0
  0
ENDBLK
  5
7B8F
  8
0
  0
BLOCK
  8
0
  2
*D6
 70
     1
 10
0.0
 20
0.0
 30
0.0
  3
*D6
  1

  0
LINE
  5
7D85
  8
0
  6
BYBLOCK
 62
     0
 10
784.004818
 20
1259.249576361548
 30
0.0
 11
1118.4844792708891
 21
1259.249576361548
 31
0.0
  0
LINE
  5
7D86
  8
0
  6
BYBLOCK
 62
     0
 10
914.004818
 20
1136.605394361548
 30
0.0
 11
1118.4844792708891
 21
1136.605394361548
 31
0.0
  0
LINE
  5
7D87
  8
0
  6
BYBLOCK
 62
     0
 10
1108.4844792708891
 20
1239.249576361548
 30
0.0
 11
1108.4844792708891
 21
1156.605394361548
 31
0.0
  0
TEXT
  5
7D88
  8
3
 62
     0
 10
1101.0595298614419
 20
1162.2131996472631
 30
0.0
 40
30.0
  1
123
 50
90.0
  0
INSERT
  5
7D89
  8
0
  6
BYBLOCK
 62
     0
  2
_OPEN
 10
1108.4844792708891
 20
1259.249576361548
 30
0.0
 41
20.0
 42
20.0
 43
20.0
 50
90.0
  0
INSERT
  5
7D8A
  8
0
  6
BYBLOCK
 62
     0
  2
_OPEN
 10
1108.4844792708891
 20
1136.605394361548
 30
0.0
 41
20.0
 42
20.0
 43
20.0
 50
270.0
  0
POINT
  5
7D8B
  8
DEFPOINTS
  6
BYBLOCK
 62
     0
 10
779.004818
 20
1259.249576361548
 30
0.0
  0
POINT
  5
7D8C
  8
DEFPOINTS
  6
BYBLOCK
 62
     0
 10
909.004818
 20
1136.605394361548
 30
0.0
  0
POINT
  5
7D8D
  8
DEFPOINTS
  6
BYBLOCK
 62
     0
 10
1108.4844792708891
 20
1136.605394361548
 30
0.0
  0
ENDBLK
  5
7D8E
  8
0
  0
BLOCK
  8
0
  2
*D7
 70
     1
 10
0.0
 20
0.0
 30
0.0
  3
*D7
  1

  0
LINE
  5
7EDA
  8
3
  6
CONTINUOUS
 62
     0
 10
919.00481799999989
 20
901.60539436154886
 30
0.0
 11
1118.4844792708891
 21
901.60539436154886
 31
0.0
  0
LINE
  5
7EDB
  8
3
  6
CONTINUOUS
 62
     0
 10
1108.4844792708891
 20
1116.6053943615491
 30
0.0
 11
1108.4844792708891
 21
921.60539436154875
 31
0.0
  0
INSERT
  5
7EDC
  8
3
  6
CONTINUOUS
 62
     0
  2
_OPEN
 10
1108.4844792708891
 20
1136.605394361548
 30
0.0
 41
20.0
 42
20.0
 43
20.0
 50
90.0
  0
INSERT
  5
7EDD
  8
3
  6
CONTINUOUS
 62
     0
  2
_OPEN
 10
1108.4844792708891
 20
901.60539436154886
 30
0.0
 41
20.0
 42
20.0
 43
20.0
 50
270.0
  0
TEXT
  8
3
  40
30
  5
7F45
  62
0
  72
0
  71
0
 10
1023.48
 20
966.005
 30
0.000000
  1
235
  0
POINT
  5
7EDF
  8
DEFPOINTS
  6
CONTINUOUS
 62
     0
 10
909.004818
 20
1136.605394361548
 30
0.0
  0
POINT
  5
7EE0
  8
DEFPOINTS
  6
CONTINUOUS
 62
     0
 10
914.004818
 20
901.60539436154886
 30
0.0
  0
POINT
  5
7EE1
  8
DEFPOINTS
  6
CONTINUOUS
 62
     0
 10
1108.4844792708891
 20
901.60539436154886
 30
0.0
  0
ENDBLK
  5
7D23
  8
0
  0
BLOCK
  8
0
  2
*D8
 70
     1
 10
0.0
 20
0.0
 30
0.0
  3
*D8
  1

  0
LINE
  5
7EE2
  8
3
  6
CONTINUOUS
 62
     0
 10
919.00481799999989
 20
901.60539436154886
 30
0.0
 11
1118.4844792708891
 21
901.60539436154886
 31
0.0
  0
LINE
  5
7EE3
  8
3
  6
CONTINUOUS
 62
     0
 10
919.00481799999989
 20
876.60539436154886
 30
0.0
 11
1118.4844792708891
 21
876.60539436154886
 31
0.0
  0
LINE
  5
7EE4
  8
3
  6
CONTINUOUS
 62
     0
 10
1108.48447927089
 20
921.60539436154875
 30
0.0
 11
1108.48447927089
 21
941.60539436154886
 31
0.0
  0
LINE
  5
7EE5
  8
3
  6
CONTINUOUS
 62
     0
 10
1108.48447927089
 20
856.60539436154886
 30
0.0
 11
1108.48447927089
 21
768.03396579012019
 31
0.0
  0
LINE
  5
7EE6
  8
3
  6
CONTINUOUS
 62
     0
 10
1108.48447927089
 20
901.60539436154886
 30
0.0
 11
1108.48447927089
 21
876.60539436154886
 31
0.0
  0
INSERT
  5
7EE7
  8
3
  6
CONTINUOUS
 62
     0
  2
_OPEN
 10
1108.48447927089
 20
901.60539436154886
 30
0.0
 41
20.0
 42
20.0
 43
20.0
 50
270.0
  0
INSERT
  5
7EE8
  8
3
  6
CONTINUOUS
 62
     0
  2
_OPEN
 10
1108.48447927089
 20
876.60539436154886
 30
0.0
 41
20.0
 42
20.0
 43
20.0
 50
90.0
  0
TEXT
  8
3
  40
30
  5
7F46
  62
0
  72
0
  71
0
 10
1023.48
 20
749.220
 30
0.000000
  1
25
  0
POINT
  5
7EEA
  8
DEFPOINTS
  6
CONTINUOUS
 62
     0
 10
914.004818
 20
901.60539436154886
 30
0.0
  0
POINT
  5
7EEB
  8
DEFPOINTS
  6
CONTINUOUS
 62
     0
 10
914.004818
 20
876.60539436154886
 30
0.0
  0
POINT
  5
7EEC
  8
DEFPOINTS
  6
CONTINUOUS
 62
     0
 10
1108.48447927089
 20
876.60539436154886
 30
0.0
  0
ENDBLK
  5
7DA6
  8
0
  0
BLOCK
  8
0
  2
*D9
 70
     1
 10
0.0
 20
0.0
 30
0.0
  3
*D9
  1

  0
LINE
  5
7EED
  8
3
  6
CONTINUOUS
 62
     0
 10
784.004818
 20
1259.249576361548
 30
0.0
 11
1175.0283604236461
 21
1259.249576361548
 31
0.0
  0
LINE
  5
7EEE
  8
3
  6
CONTINUOUS
 62
     0
 10
919.00481799999989
 20
876.60539436154886
 30
0.0
 11
1175.0283604236461
 21
876.60539436154886
 31
0.0
  0
LINE
  5
7EEF
  8
3
  6
CONTINUOUS
 62
     0
 10
1165.0283604236461
 20
1239.249576361548
 30
0.0
 11
1165.0283604236461
 21
896.60539436154897
 31
0.0
  0
INSERT
  5
7EF0
  8
3
  6
CONTINUOUS
 62
     0
  2
_OPEN
 10
1165.0283604236461
 20
1259.249576361548
 30
0.0
 41
20.0
 42
20.0
 43
20.0
 50
90.0
  0
INSERT
  5
7EF1
  8
3
  6
CONTINUOUS
 62
     0
  2
_OPEN
 10
1165.0283604236461
 20
876.60539436154886
 30
0.0
 41
20.0
 42
20.0
 43
20.0
 50
270.0
  0
TEXT
  8
3
  40
30
  5
7F47
  62
0
  72
0
  71
0
 10
1080.03
 20
1015.94
 30
0.000000
  1
383
  0
POINT
  5
7EF3
  8
DEFPOINTS
  6
CONTINUOUS
 62
     0
 10
779.004818
 20
1259.249576361548
 30
0.0
  0
POINT
  5
7EF4
  8
DEFPOINTS
  6
CONTINUOUS
 62
     0
 10
914.004818
 20
876.60539436154886
 30
0.0
  0
POINT
  5
7EF5
  8
DEFPOINTS
  6
CONTINUOUS
 62
     0
 10
1165.0283604236461
 20
876.60539436154886
 30
0.0
  0
ENDBLK
  5
7D3A
  8
0
  0
BLOCK
  8
0
  2
*D10
 70
     1
 10
0.0
 20
0.0
 30
0.0
  3
*D10
  1

  0
LINE
  5
7EF6
  8
3
  6
CONTINUOUS
 62
     0
 10
354.00481799999989
 20
1671.574276983871
 30
0.0
 11
354.00481799999989
 21
1583.9451139838709
 31
0.0
  0
LINE
  5
7EF7
  8
3
  6
CONTINUOUS
 62
     0
 10
914.004818
 20
1671.574276983871
 30
0.0
 11
914.004818
 21
1583.9451139838709
 31
0.0
  0
LINE
  5
7EF8
  8
3
  6
CONTINUOUS
 62
     0
 10
374.004818
 20
1593.9451139838709
 30
0.0
 11
894.00481799999989
 21
1593.9451139838709
 31
0.0
  0
INSERT
  5
7EF9
  8
3
  6
CONTINUOUS
 62
     0
  2
_OPEN
 10
354.00481799999989
 20
1593.9451139838709
 30
0.0
 41
20.0
 42
20.0
 43
20.0
 50
180.0
  0
INSERT
  5
7EFA
  8
3
  6
CONTINUOUS
 62
     0
  2
_OPEN
 10
914.004818
 20
1593.9451139838709
 30
0.0
 41
20.0
 42
20.0
 43
20.0
  0
TEXT
  8
3
  40
30
  5
7F48
  62
0
  72
0
  71
0
 10
554.426
 20
1565.85
 30
0.000000
  1
560
  0
POINT
  5
7EFC
  8
DEFPOINTS
  6
CONTINUOUS
 62
     0
 10
354.00481799999989
 20
1676.574276983871
 30
0.0
  0
POINT
  5
7EFD
  8
DEFPOINTS
  6
CONTINUOUS
 62
     0
 10
914.004818
 20
1676.574276983871
 30
0.0
  0
POINT
  5
7EFE
  8
DEFPOINTS
  6
CONTINUOUS
 62
     0
 10
914.004818
 20
1593.9451139838709
 30
0.0
  0
ENDBLK
  5
7BEE
  8
0
  0
BLOCK
  8
0
  2
*D11
 70
     1
 10
0.0
 20
0.0
 30
0.0
  3
*D11
  1

  0
LINE
  5
7EFF
  8
3
  6
CONTINUOUS
 62
     0
 10
919.00481799999989
 20
2106.5742769838712
 30
0.0
 11
1010.761578
 21
2106.5742769838712
 31
0.0
  0
LINE
  5
7F00
  8
3
  6
CONTINUOUS
 62
     0
 10
919.00481799999989
 20
1676.574276983871
 30
0.0
 11
1010.761578
 21
1676.574276983871
 31
0.0
  0
LINE
  5
7F01
  8
3
  6
CONTINUOUS
 62
     0
 10
1000.761578
 20
2086.5742769838712
 30
0.0
 11
1000.761578
 21
1696.574276983871
 31
0.0
  0
INSERT
  5
7F02
  8
3
  6
CONTINUOUS
 62
     0
  2
_OPEN
 10
1000.761578
 20
2106.5742769838712
 30
0.0
 41
20.0
 42
20.0
 43
20.0
 50
90.0
  0
INSERT
  5
7F03
  8
3
  6
CONTINUOUS
 62
     0
  2
_OPEN
 10
1000.761578
 20
1676.574276983871
 30
0.0
 41
20.0
 42
20.0
 43
20.0
 50
270.0
  0
TEXT
  8
3
  40
30
  5
7F49
  62
0
  72
0
  71
0
 10
915.762
 20
1832.10
 30
0.000000
  1
430
  0
POINT
  5
7F05
  8
DEFPOINTS
  6
CONTINUOUS
 62
     0
 10
914.004818
 20
2106.5742769838712
 30
0.0
  0
POINT
  5
7F06
  8
DEFPOINTS
  6
CONTINUOUS
 62
     0
 10
914.004818
 20
1676.574276983871
 30
0.0
  0
POINT
  5
7F07
  8
DEFPOINTS
  6
CONTINUOUS
 62
     0
 10
1000.761578
 20
1676.574276983871
 30
0.0
  0
ENDBLK
  5
7BFB
  8
0
  0
BLOCK
  8
0
  2
*D12
 70
     1
 10
0.0
 20
0.0
 30
0.0
  3
*D12
  1

  0
LINE
  5
7F08
  8
3
  6
CONTINUOUS
 62
     0
 10
1369.3240487637349
 20
871.60539436154897
 30
0.0
 11
1369.3240487637349
 21
796.17942136154898
 31
0.0
  0
LINE
  5
7F09
  8
3
  6
CONTINUOUS
 62
     0
 10
1641.3240487637361
 20
871.60539436154897
 30
0.0
 11
1641.3240487637361
 21
796.17942136154898
 31
0.0
  0
LINE
  5
7F0A
  8
3
  6
CONTINUOUS
 62
     0
 10
1389.3240487637349
 20
806.17942136154898
 30
0.0
 11
1621.3240487637349
 21
806.17942136154898
 31
0.0
  0
INSERT
  5
7F0B
  8
3
  6
CONTINUOUS
 62
     0
  2
_OPEN
 10
1369.3240487637349
 20
806.17942136154898
 30
0.0
 41
20.0
 42
20.0
 43
20.0
 50
180.0
  0
INSERT
  5
7F0C
  8
3
  6
CONTINUOUS
 62
     0
  2
_OPEN
 10
1641.3240487637361
 20
806.17942136154898
 30
0.0
 41
20.0
 42
20.0
 43
20.0
  0
TEXT
  8
3
  40
30
  5
7F4A
  62
0
  72
0
  71
0
 10
1447.80
 20
778.079
 30
0.000000
  1
272
  0
POINT
  5
7F0E
  8
DEFPOINTS
  6
CONTINUOUS
 62
     0
 10
1369.3240487637349
 20
876.60539436154886
 30
0.0
  0
POINT
  5
7F0F
  8
DEFPOINTS
  6
CONTINUOUS
 62
     0
 10
1641.3240487637361
 20
876.60539436154886
 30
0.0
  0
POINT
  5
7F10
  8
DEFPOINTS
  6
CONTINUOUS
 62
     0
 10
1641.3240487637361
 20
806.17942136154898
 30
0.0
  0
ENDBLK
  5
7C0B
  8
0
  0
BLOCK
  8
0
  2
*D13
 70
     1
 10
0.0
 20
0.0
 30
0.0
  3
*D13
  1

  0
LINE
  5
7F11
  8
3
  6
CONTINUOUS
 62
     0
 10
1799.3240487637349
 20
871.60539436154897
 30
0.0
 11
1799.3240487637349
 21
796.17942136154898
 31
0.0
  0
LINE
  5
7F12
  8
3
  6
CONTINUOUS
 62
     0
 10
1661.3240487637349
 20
806.17942136154898
 30
0.0
 11
1779.3240487637361
 21
806.17942136154898
 31
0.0
  0
INSERT
  5
7F13
  8
3
  6
CONTINUOUS
 62
     0
  2
_OPEN
 10
1641.3240487637361
 20
806.17942136154898
 30
0.0
 41
20.0
 42
20.0
 43
20.0
 50
180.0
  0
INSERT
  5
7F14
  8
3
  6
CONTINUOUS
 62
     0
  2
_OPEN
 10
1799.3240487637349
 20
806.17942136154898
 30
0.0
 41
20.0
 42
20.0
 43
20.0
  0
TEXT
  8
3
  40
30
  5
7F4B
  62
0
  72
0
  71
0
 10
1660.32
 20
778.079
 30
0.000000
  1
158
  0
POINT
  5
7F16
  8
DEFPOINTS
  6
CONTINUOUS
 62
     0
 10
1641.3240487637361
 20
876.60539436154886
 30
0.0
  0
POINT
  5
7F17
  8
DEFPOINTS
  6
CONTINUOUS
 62
     0
 10
1799.3240487637349
 20
876.60539436154886
 30
0.0
  0
POINT
  5
7F18
  8
DEFPOINTS
  6
CONTINUOUS
 62
     0
 10
1799.3240487637349
 20
806.17942136154898
 30
0.0
  0
ENDBLK
  5
7C17
  8
0
  0
BLOCK
  8
0
  2
*D14
 70
     1
 10
0.0
 20
0.0
 30
0.0
  3
*D14
  1

  0
LINE
  5
7D90
  8
0
  6
BYBLOCK
 62
     0
 10
1585.3240487637361
 20
1252.605394361548
 30
0.0
 11
1585.3240487637361
 21
1313.473711361549
 31
0.0
  0
LINE
  5
7D91
  8
0
  6
BYBLOCK
 62
     0
 10
1697.3240487637361
 20
1252.605394361548
 30
0.0
 11
1697.3240487637361
 21
1313.473711361549
 31
0.0
  0
LINE
  5
7D92
  8
0
  6
BYBLOCK
 62
     0
 10
1605.3240487637361
 20
1303.473711361549
 30
0.0
 11
1677.3240487637349
 21
1303.473711361549
 31
0.0
  0
TEXT
  5
7D93
  8
3
 62
     0
 10
1608.466905906593
 20
1312.8870460621499
 30
0.0
 40
30.0
  1
112
  0
INSERT
  5
7D94
  8
0
  6
BYBLOCK
 62
     0
  2
_OPEN
 10
1585.3240487637361
 20
1303.473711361549
 30
0.0
 41
20.0
 42
20.0
 43
20.0
 50
180.0
  0
INSERT
  5
7D95
  8
0
  6
BYBLOCK
 62
     0
  2
_OPEN
 10
1697.3240487637361
 20
1303.473711361549
 30
0.0
 41
20.0
 42
20.0
 43
20.0
  0
POINT
  5
7D96
  8
DEFPOINTS
  6
BYBLOCK
 62
     0
 10
1585.3240487637361
 20
1247.605394361548
 30
0.0
  0
POINT
  5
7D97
  8
DEFPOINTS
  6
BYBLOCK
 62
     0
 10
1697.3240487637361
 20
1247.605394361548
 30
0.0
  0
POINT
  5
7D98
  8
DEFPOINTS
  6
BYBLOCK
 62
     0
 10
1697.3240487637361
 20
1303.473711361549
 30
0.0
  0
ENDBLK
  5
7D99
  8
0
  0
BLOCK
  8
0
  2
*D15
 70
     1
 10
0.0
 20
0.0
 30
0.0
  3
*D15
  1

  0
LINE
  5
7F19
  8
3
  6
CONTINUOUS
 62
     0
 10
1381.3240487637349
 20
1236.605394361548
 30
0.0
 11
1381.3240487637349
 21
1376.5545183615479
 31
0.0
  0
LINE
  5
7F1A
  8
3
  6
CONTINUOUS
 62
     0
 10
1641.3240487637361
 20
1354.341926361549
 30
0.0
 11
1641.3240487637361
 21
1376.5545183615479
 31
0.0
  0
LINE
  5
7F1B
  8
3
  6
CONTINUOUS
 62
     0
 10
1401.3240487637349
 20
1366.5545183615491
 30
0.0
 11
1621.3240487637349
 21
1366.5545183615491
 31
0.0
  0
INSERT
  5
7F1C
  8
3
  6
CONTINUOUS
 62
     0
  2
_OPEN
 10
1381.3240487637349
 20
1366.5545183615491
 30
0.0
 41
20.0
 42
20.0
 43
20.0
 50
180.0
  0
INSERT
  5
7F1D
  8
3
  6
CONTINUOUS
 62
     0
  2
_OPEN
 10
1641.3240487637361
 20
1366.5545183615491
 30
0.0
 41
20.0
 42
20.0
 43
20.0
  0
TEXT
  8
3
  40
30
  5
7F4C
  62
0
  72
0
  71
0
 10
1455.48
 20
1363.45
 30
0.000000
  1
MAX
  0
TEXT
  8
3
  40
30
  5
7F4D
  62
0
  72
0
  71
0
 10
1455.48
 20
1324.45
 30
0.000000
  1
260
  0
POINT
  5
7F1F
  8
DEFPOINTS
  6
CONTINUOUS
 62
     0
 10
1381.3240487637349
 20
1231.605394361548
 30
0.0
  0
POINT
  5
7F20
  8
DEFPOINTS
  6
CONTINUOUS
 62
     0
 10
1641.3240487637361
 20
1349.341926361549
 30
0.0
  0
POINT
  5
7F21
  8
DEFPOINTS
  6
CONTINUOUS
 62
     0
 10
1641.3240487637361
 20
1366.5545183615491
 30
0.0
  0
ENDBLK
  5
7DB1
  8
0
  0
BLOCK
  8
0
  2
*D16
 70
     1
 10
0.0
 20
0.0
 30
0.0
  3
*D16
  1

  0
LINE
  5
7F22
  8
3
  6
CONTINUOUS
 62
     0
 10
1705.3240487637361
 20
1241.6053943615491
 30
0.0
 11
1705.3240487637361
 21
1376.5545183615479
 31
0.0
  0
LINE
  5
7F23
  8
3
  6
CONTINUOUS
 62
     0
 10
1661.3240487637349
 20
1366.5545183615491
 30
0.0
 11
1685.3240487637349
 21
1366.5545183615491
 31
0.0
  0
TEXT
  8
3
  40
30
  5
7F4E
  62
0
  72
0
  71
0
 10
1613.73
 20
1337.07
 30
0.000000
  1
64
  0
INSERT
  5
7F25
  8
3
  6
CONTINUOUS
 62
     0
  2
_OPEN
 10
1641.3240487637361
 20
1366.5545183615491
 30
0.0
 41
20.0
 42
20.0
 43
20.0
 50
180.0
  0
INSERT
  5
7F26
  8
3
  6
CONTINUOUS
 62
     0
  2
_OPEN
 10
1705.3240487637361
 20
1366.5545183615491
 30
0.0
 41
20.0
 42
20.0
 43
20.0
  0
POINT
  5
7F27
  8
DEFPOINTS
  6
CONTINUOUS
 62
     0
 10
1641.3240487637361
 20
1349.341926361549
 30
0.0
  0
POINT
  5
7F28
  8
DEFPOINTS
  6
CONTINUOUS
 62
     0
 10
1705.3240487637361
 20
1236.605394361548
 30
0.0
  0
POINT
  5
7F29
  8
DEFPOINTS
  6
CONTINUOUS
 62
     0
 10
1705.3240487637361
 20
1366.5545183615491
 30
0.0
  0
ENDBLK
  5
7CBE
  8
0
  0
BLOCK
  8
0
  2
*D17
 70
     1
 10
0.0
 20
0.0
 30
0.0
  3
*D17
  1

  0
LINE
  5
7D7A
  8
0
  6
BYBLOCK
 62
     0
 10
1710.3240487637349
 20
1216.6053943615491
 30
0.0
 11
1788.650517763735
 21
1216.6053943615491
 31
0.0
  0
LINE
  5
7D7B
  8
0
  6
BYBLOCK
 62
     0
 10
1710.3240487637349
 20
1056.605394361548
 30
0.0
 11
1788.650517763735
 21
1056.605394361548
 31
0.0
  0
LINE
  5
7D7C
  8
0
  6
BYBLOCK
 62
     0
 10
1778.650517763735
 20
1196.605394361548
 30
0.0
 11
1778.650517763735
 21
1076.6053943615491
 31
0.0
  0
TEXT
  5
7D7D
  8
3
 62
     0
 10
1766.9619225497279
 20
1085.8911086472631
 30
0.0
 40
30.0
  1
φ160
 50
90.0
  0
INSERT
  5
7D7E
  8
0
  6
BYBLOCK
 62
     0
  2
_OPEN
 10
1778.650517763735
 20
1216.6053943615491
 30
0.0
 41
20.0
 42
20.0
 43
20.0
 50
90.0
  0
INSERT
  5
7D7F
  8
0
  6
BYBLOCK
 62
     0
  2
_OPEN
 10
1778.650517763735
 20
1056.605394361548
 30
0.0
 41
20.0
 42
20.0
 43
20.0
 50
270.0
  0
POINT
  5
7D80
  8
DEFPOINTS
  6
BYBLOCK
 62
     0
 10
1705.3240487637361
 20
1216.6053943615491
 30
0.0
  0
POINT
  5
7D81
  8
DEFPOINTS
  6
BYBLOCK
 62
     0
 10
1705.3240487637361
 20
1056.605394361548
 30
0.0
  0
POINT
  5
7D82
  8
DEFPOINTS
  6
BYBLOCK
 62
     0
 10
1778.650517763735
 20
1056.605394361548
 30
0.0
  0
ENDBLK
  5
7D83
  8
0
  0
BLOCK
  8
0
  2
*D18
 70
     1
 10
0.0
 20
0.0
 30
0.0
  3
*D18
  1

  0
LINE
  5
7F2E
  8
3
  6
CONTINUOUS
 62
     0
 10
914.004818
 20
1136.605394361548
 30
0.0
 11
1064.2931348818679
 21
1136.605394361548
 31
0.0
  0
LINE
  5
7F2F
  8
3
  6
CONTINUOUS
 62
     0
 10
899.004818
 20
965.60539436154875
 30
0.0
 11
1064.2931348818679
 21
965.60539436154875
 31
0.0
  0
LINE
  5
7F30
  8
3
  6
CONTINUOUS
 62
     0
 10
1054.2931348818679
 20
1116.6053943615491
 30
0.0
 11
1054.2931348818679
 21
985.60539436154886
 31
0.0
  0
INSERT
  5
7F31
  8
3
  6
CONTINUOUS
 62
     0
  2
_OPEN
 10
1054.2931348818679
 20
1136.605394361548
 30
0.0
 41
20.0
 42
20.0
 43
20.0
 50
90.0
  0
INSERT
  5
7F32
  8
3
  6
CONTINUOUS
 62
     0
  2
_OPEN
 10
1054.2931348818679
 20
965.60539436154875
 30
0.0
 41
20.0
 42
20.0
 43
20.0
 50
270.0
  0
TEXT
  8
3
  40
30
  5
7F4F
  62
0
  72
0
  71
0
 10
969.293
 20
999.740
 30
0.000000
  1
171
  0
POINT
  5
7F34
  8
DEFPOINTS
  6
CONTINUOUS
 62
     0
 10
909.004818
 20
1136.605394361548
 30
0.0
  0
POINT
  5
7F35
  8
DEFPOINTS
  6
CONTINUOUS
 62
     0
 10
894.00481799999989
 20
965.60539436154875
 30
0.0
  0
POINT
  5
7F36
  8
DEFPOINTS
  6
CONTINUOUS
 62
     0
 10
1054.2931348818679
 20
965.60539436154875
 30
0.0
  0
ENDBLK
  5
7D45
  8
0
  0
BLOCK
  8
0
  2
*D19
 70
     1
 10
0.0
 20
0.0
 30
0.0
  3
*D19
  1

  0
LINE
  5
7F37
  8
3
 62
     0
 10
909.004818
 20
1168.605394361548
 30
0.0
 11
909.004818
 21
1363.8943192178419
 31
0.0
  0
LINE
  5
7F38
  8
3
 62
     0
 10
354.00481799999989
 20
956.60539436154875
 30
0.0
 11
354.00481799999989
 21
1363.8943192178419
 31
0.0
  0
LINE
  5
7F39
  8
3
 62
     0
 10
889.004818
 20
1353.8943192178419
 30
0.0
 11
374.004818
 21
1353.8943192178419
 31
0.0
  0
INSERT
  5
7F3A
  8
3
 62
     0
  2
_OPEN
 10
909.004818
 20
1353.8943192178419
 30
0.0
 41
20.0
 42
20.0
 43
20.0
  0
INSERT
  5
7F3B
  8
3
 62
     0
  2
_OPEN
 10
354.00481799999989
 20
1353.8943192178419
 30
0.0
 41
20.0
 42
20.0
 43
20.0
 50
180.0
  0
TEXT
  8
3
  40
30
  5
7F50
  62
0
  72
0
  71
0
 10
566.218
 20
1325.79
 30
0.000000
  1
555
  0
POINT
  5
7F3D
  8
DEFPOINTS
 62
     0
 10
909.004818
 20
1163.605394361548
 30
0.0
  0
POINT
  5
7F3E
  8
DEFPOINTS
 62
     0
 10
354.00481799999989
 20
951.60539436154886
 30
0.0
  0
POINT
  5
7F3F
  8
DEFPOINTS
 62
     0
 10
354.00481799999989
 20
1353.8943192178419
 30
0.0
  0
ENDBLK
  5
7DBD
  8
0
  0
ENDSEC
  0
SECTION
  2
ENTITIES
  0
CIRCLE
  5
7A8A
  8
1
  6
CONTINUOUS
 10
779.004818
 20
1136.605394361548
 30
0.0
 40
80.0
  0
LINE
  5
7A8B
  8
1
  6
CONTINUOUS
 10
889.004818
 20
1760.574276983871
 30
0.0
 11
889.004818
 21
1676.574276983871
 31
0.0
  0
LINE
  5
7A8C
  8
1
  6
CONTINUOUS
 10
889.004818
 20
2106.5742769838712
 30
0.0
 11
889.004818
 21
2004.574276983871
 31
0.0
  0
LINE
  5
7A8D
  8
1
  6
CONTINUOUS
 10
1369.3240487637349
 20
876.60539436154886
 30
0.0
 11
1799.3240487637349
 21
876.60539436154886
 31
0.0
  0
LINE
  5
7A8E
  8
1
  6
CONTINUOUS
 10
1799.3240487637349
 20
901.60539436154886
 30
0.0
 11
1799.3240487637349
 21
876.60539436154886
 31
0.0
  0
LINE
  5
7A8F
  8
1
  6
CONTINUOUS
 10
1369.3240487637349
 20
901.60539436154886
 30
0.0
 11
1369.3240487637349
 21
876.60539436154886
 31
0.0
  0
LINE
  5
7A90
  8
1
  6
CONTINUOUS
 10
354.00481799999989
 20
876.60539436154886
 30
0.0
 11
379.00481799999989
 21
876.60539436154886
 31
0.0
  0
LINE
  5
7A91
  8
1
  6
CONTINUOUS
 10
379.00481799999989
 20
901.60539436154886
 30
0.0
 11
379.00481799999989
 21
876.60539436154886
 31
0.0
  0
LINE
  5
7A92
  8
1
  6
CONTINUOUS
 10
889.004818
 20
876.60539436154886
 30
0.0
 11
889.004818
 21
901.60539436154886
 31
0.0
  0
LINE
  5
7A93
  8
1
  6
CONTINUOUS
 10
889.004818
 20
876.60539436154886
 30
0.0
 11
914.004818
 21
876.60539436154886
 31
0.0
  0
LINE
  5
7A94
  8
1
  6
CONTINUOUS
 10
889.004818
 20
1676.574276983871
 30
0.0
 11
914.004818
 21
1676.574276983871
 31
0.0
  0
LINE
  5
7A95
  8
1
  6
CONTINUOUS
 10
889.004818
 20
2106.5742769838712
 30
0.0
 11
914.004818
 21
2106.5742769838712
 31
0.0
  0
LINE
  5
7A96
  8
1
  6
CONTINUOUS
 10
379.00481799999989
 20
2106.5742769838712
 30
0.0
 11
354.00481799999989
 21
2106.5742769838712
 31
0.0
  0
LINE
  5
7A97
  8
1
  6
CONTINUOUS
 10
379.00481799999989
 20
2106.5742769838712
 30
0.0
 11
379.00481799999989
 21
1984.574276983871
 31
0.0
  0
LINE
  5
7A98
  8
1
  6
CONTINUOUS
 10
379.00481799999989
 20
1676.574276983871
 30
0.0
 11
354.00481799999989
 21
1676.574276983871
 31
0.0
  0
LINE
  5
7A99
  8
1
  6
CONTINUOUS
 10
379.00481799999989
 20
1760.574276983871
 30
0.0
 11
379.00481799999989
 21
1676.574276983871
 31
0.0
  0
LINE
  5
7A9A
  8
1
  6
CONTINUOUS
 10
914.004818
 20
876.60539436154886
 30
0.0
 11
914.004818
 21
951.60539436154886
 31
0.0
  0
LINE
  5
7A9B
  8
1
  6
CONTINUOUS
 10
876.30481799999995
 20
951.60539436154886
 30
0.0
 11
876.30481799999995
 21
1231.605394361548
 31
0.0
  0
LINE
  5
7A9C
  8
1
  6
CONTINUOUS
 10
605.004818
 20
971.60539436154875
 30
0.0
 11
605.004818
 21
951.60539436154886
 31
0.0
  0
LINE
  5
7A9D
  8
1
  6
CONTINUOUS
 10
354.00481799999989
 20
971.60539436154875
 30
0.0
 11
605.004818
 21
971.60539436154875
 31
0.0
  0
LINE
  5
7A9E
  8
1
  6
CONTINUOUS
 10
416.004818
 20
971.60539436154875
 30
0.0
 11
416.004818
 21
979.60539436154875
 31
0.0
  0
LINE
  5
7A9F
  8
1
  6
CONTINUOUS
 10
571.004818
 20
979.60539436154875
 30
0.0
 11
562.80481799999995
 21
1002.405394361548
 31
0.0
  0
LINE
  5
7AA0
  8
1
  6
CONTINUOUS
 10
571.004818
 20
971.60539436154875
 30
0.0
 11
571.004818
 21
979.60539436154875
 31
0.0
  0
LINE
  5
7AA1
  8
1
  6
CONTINUOUS
 10
416.004818
 20
979.60539436154875
 30
0.0
 11
424.20481799999988
 21
1002.405394361548
 31
0.0
  0
ARC
  5
7AA2
  8
1
  6
CONTINUOUS
 10
493.50481799999989
 20
1051.605394361548
 30
0.0
 40
85.0
 50
324.69999999999987
 51
215.30000000000001
  0
LINE
  5
7AA3
  8
1
  6
CONTINUOUS
 10
354.00481799999989
 20
971.60539436154875
 30
0.0
 11
354.00481799999989
 21
876.60539436154886
 31
0.0
  0
LINE
  5
7AA4
  8
1
  6
CONTINUOUS
 10
354.00481799999989
 20
901.60539436154886
 30
0.0
 11
914.004818
 21
901.60539436154886
 31
0.0
  0
LINE
  5
7AA5
  8
1
  6
CONTINUOUS
 10
354.00481799999989
 20
951.60539436154886
 30
0.0
 11
914.004818
 21
951.60539436154886
 31
0.0
  0
LINE
  5
7AA6
  8
1
  6
CONTINUOUS
 10
876.30481799999995
 20
1231.605394361548
 30
0.0
 11
396.30481800000001
 21
1231.605394361548
 31
0.0
  0
LINE
  5
7AA7
  8
1
  6
CONTINUOUS
 10
396.30481800000001
 20
1231.605394361548
 30
0.0
 11
396.30481800000001
 21
951.60539436154886
 31
0.0
  0
LINE
  5
7AA8
  8
1
  6
CONTINUOUS
 10
669.00481799999989
 20
1178.705394361549
 30
0.0
 11
742.40481799999986
 21
1241.6053943615491
 31
0.0
  0
LINE
  5
7AA9
  8
1
  6
CONTINUOUS
 10
889.004818
 20
1178.705394361549
 30
0.0
 11
815.60481800000002
 21
1241.6053943615491
 31
0.0
  0
LINE
  5
7AAA
  8
1
  6
CONTINUOUS
 10
669.00481799999989
 20
1103.305394361548
 30
0.0
 11
889.004818
 21
1103.305394361548
 31
0.0
  0
LINE
  5
7AAB
  8
1
  6
CONTINUOUS
 10
669.00481799999989
 20
1178.705394361549
 30
0.0
 11
669.00481799999989
 21
951.60539436154886
 31
0.0
  0
LINE
  5
7AAC
  8
1
  6
CONTINUOUS
 10
815.60481800000002
 20
1241.6053943615491
 30
0.0
 11
742.40481799999986
 21
1241.6053943615491
 31
0.0
  0
LINE
  5
7AAD
  8
1
  6
CONTINUOUS
 10
889.004818
 20
951.60539436154886
 30
0.0
 11
889.004818
 21
1178.705394361549
 31
0.0
  0
LINE
  5
7AAE
  8
1
  6
CONTINUOUS
 10
909.004818
 20
1137.605394361548
 30
0.0
 11
894.00481799999989
 21
1122.605394361548
 31
0.0
  0
LINE
  5
7AAF
  8
1
  6
CONTINUOUS
 10
894.00481799999989
 20
990.60539436154875
 30
0.0
 11
894.00481799999989
 21
1122.605394361548
 31
0.0
  0
LINE
  5
7AB0
  8
1
  6
CONTINUOUS
 10
909.004818
 20
975.60539436154886
 30
0.0
 11
894.00481799999989
 21
990.60539436154875
 31
0.0
  0
ARC
  5
7AB1
  8
1
  6
CONTINUOUS
 10
768.004818
 20
1125.605394361548
 30
0.0
 40
134.0
 50
89.500000000000014
 51
170.09999999999999
  0
ARC
  5
7AB2
  8
1
  6
CONTINUOUS
 10
770.004818
 20
1145.605394361548
 30
0.0
 40
114.0
 50
0.5
 51
90.5
  0
ARC
  5
7AB3
  8
1
  6
CONTINUOUS
 10
792.004818
 20
1123.605394361548
 30
0.0
 40
158.0
 50
170.90000000000001
 51
270.0
  0
LINE
  5
7AB4
  8
1
  6
CONTINUOUS
 10
894.00481799999989
 20
965.60539436154875
 30
0.0
 11
792.004818
 21
965.60539436154875
 31
0.0
  0
LINE
  5
7AB5
  8
1
  6
CONTINUOUS
 10
909.004818
 20
954.60539436154875
 30
0.0
 11
909.004818
 21
1158.6053943615491
 31
0.0
  0
LINE
  5
7AB6
  8
1
  6
CONTINUOUS
 10
894.00481799999989
 20
1146.605394361548
 30
0.0
 11
884.004818
 21
1146.605394361548
 31
0.0
  0
LINE
  5
7AB7
  8
1
  6
CONTINUOUS
 10
502.40481799999998
 20
1017.705394361548
 30
0.0
 11
790.40481799999998
 21
1093.105394361548
 31
0.0
  0
LINE
  5
7AB8
  8
1
  6
CONTINUOUS
 10
482.40481799999998
 20
1084.805394361548
 30
0.0
 11
764.70481799999993
 21
1179.305394361548
 31
0.0
  0
CIRCLE
  5
7AB9
  8
1
  6
CONTINUOUS
 10
493.50481799999989
 20
1051.605394361548
 30
0.0
 40
35.0
  0
LINE
  5
7ABA
  8
2
  6
CENTER
 10
493.50481799999989
 20
1016.605394361548
 30
0.0
 11
493.50481799999989
 21
1086.6053943615491
 31
0.0
  0
LINE
  5
7ABB
  8
2
  6
CENTER
 10
458.50481799999989
 20
1051.605394361548
 30
0.0
 11
528.504818
 21
1051.605394361548
 31
0.0
  0
LINE
  5
7ABC
  8
2
  6
CENTER
 10
364.51908700000001
 20
1136.605394361548
 30
0.0
 11
958.5274730000001
 21
1136.605394361548
 31
0.0
  0
LINE
  5
7ABD
  8
2
  6
CENTER
 10
779.004818
 20
872.63775536154901
 30
0.0
 11
779.004818
 21
1278.215265361549
 31
0.0
  0
CIRCLE
  5
7ABE
  8
1
  6
CONTINUOUS
 10
779.004818
 20
1136.605394361548
 30
0.0
 40
45.0
  0
CIRCLE
  5
7ABF
  8
1
  6
CONTINUOUS
 10
779.004818
 20
1136.605394361548
 30
0.0
 40
100.0
  0
LINE
  5
7AC0
  8
1
  6
CONTINUOUS
 10
879.00481799999989
 20
2012.574276983871
 30
0.0
 11
679.004818
 21
2012.574276983871
 31
0.0
  0
LINE
  5
7AC1
  8
1
  6
CONTINUOUS
 10
909.004818
 20
1891.574276983871
 30
0.0
 11
894.00481799999989
 21
1906.574276983871
 31
0.0
  0
LINE
  5
7AC2
  8
1
  6
CONTINUOUS
 10
909.004818
 20
2005.574276983871
 30
0.0
 11
894.00481799999989
 21
1990.574276983871
 31
0.0
  0
LINE
  5
7AC3
  8
1
  6
CONTINUOUS
 10
634.004818
 20
1996.574276983871
 30
0.0
 11
634.004818
 21
1900.574276983871
 31
0.0
  0
LINE
  5
7AC4
  8
1
  6
CONTINUOUS
 10
894.00481799999989
 20
1990.574276983871
 30
0.0
 11
894.00481799999989
 21
1906.574276983871
 31
0.0
  0
ARC
  5
7AC5
  8
1
  6
CONTINUOUS
 10
642.004818
 20
1996.574276983871
 30
0.0
 40
8.0
 50
90.0
 51
180.0
  0
ARC
  5
7AC6
  8
1
  6
CONTINUOUS
 10
642.004818
 20
1900.574276983871
 30
0.0
 40
8.0
 50
180.0
 51
270.0
  0
LINE
  5
7AC7
  8
1
  6
CONTINUOUS
 10
642.004818
 20
1892.574276983871
 30
0.0
 11
909.004818
 21
1892.574276983871
 31
0.0
  0
LINE
  5
7AC8
  8
1
  6
CONTINUOUS
 10
909.004818
 20
2025.574276983871
 30
0.0
 11
909.004818
 21
1871.574276983871
 31
0.0
  0
LINE
  5
7AC9
  8
1
  6
CONTINUOUS
 10
879.00481799999989
 20
1884.9742769838711
 30
0.0
 11
879.00481799999989
 21
1892.574276983871
 31
0.0
  0
LINE
  5
7ACA
  8
1
  6
CONTINUOUS
 10
642.004818
 20
2004.574276983871
 30
0.0
 11
909.004818
 21
2004.574276983871
 31
0.0
  0
LINE
  5
7ACB
  8
1
  6
CONTINUOUS
 10
889.004818
 20
1884.9742769838711
 30
0.0
 11
669.00481799999989
 21
1884.9742769838711
 31
0.0
  0
LINE
  5
7ACC
  8
1
  6
CONTINUOUS
 10
679.004818
 20
1884.9742769838711
 30
0.0
 11
679.004818
 21
1892.574276983871
 31
0.0
  0
LINE
  5
7ACD
  8
1
  6
CONTINUOUS
 10
679.004818
 20
2012.574276983871
 30
0.0
 11
679.004818
 21
2004.574276983871
 31
0.0
  0
LINE
  5
7ACE
  8
1
  6
CONTINUOUS
 10
879.00481799999989
 20
2012.574276983871
 30
0.0
 11
879.00481799999989
 21
2004.574276983871
 31
0.0
  0
LINE
  5
7ACF
  8
1
  6
CONTINUOUS
 10
354.00481799999989
 20
1760.574276983871
 30
0.0
 11
484.00481799999989
 21
1760.574276983871
 31
0.0
  0
LINE
  5
7AD0
  8
1
  6
CONTINUOUS
 10
914.004818
 20
1676.574276983871
 30
0.0
 11
914.004818
 21
2106.5742769838712
 31
0.0
  0
LINE
  5
7AD1
  8
1
  6
CONTINUOUS
 10
914.004818
 20
1984.574276983871
 30
0.0
 11
909.004818
 21
1984.574276983871
 31
0.0
  0
LINE
  5
7AD2
  8
1
  6
CONTINUOUS
 10
354.00481799999989
 20
2106.5742769838712
 30
0.0
 11
354.00481799999989
 21
1676.574276983871
 31
0.0
  0
LINE
  5
7AD3
  8
1
  6
CONTINUOUS
 10
669.00481799999989
 20
1884.9742769838711
 30
0.0
 11
669.00481799999989
 21
1760.574276983871
 31
0.0
  0
LINE
  5
7AD4
  8
1
  6
CONTINUOUS
 10
889.004818
 20
1760.574276983871
 30
0.0
 11
889.004818
 21
1884.9742769838711
 31
0.0
  0
LINE
  5
7AD5
  8
1
  6
CONTINUOUS
 10
408.504818
 20
1774.274276983871
 30
0.0
 11
408.504818
 21
1965.074276983871
 31
0.0
  0
LINE
  5
7AD6
  8
1
  6
CONTINUOUS
 10
503.00481799999989
 20
1744.4742769838711
 30
0.0
 11
503.00481799999989
 21
1774.274276983871
 31
0.0
  0
LINE
  5
7AD7
  8
1
  6
CONTINUOUS
 10
484.00481799999989
 20
1744.4742769838711
 30
0.0
 11
484.00481799999989
 21
1774.274276983871
 31
0.0
  0
LINE
  5
7AD8
  8
1
  6
CONTINUOUS
 10
578.504818
 20
1774.274276983871
 30
0.0
 11
408.504818
 21
1774.274276983871
 31
0.0
  0
LINE
  5
7AD9
  8
1
  6
CONTINUOUS
 10
578.504818
 20
1965.074276983871
 30
0.0
 11
408.504818
 21
1965.074276983871
 31
0.0
  0
LINE
  5
7ADA
  8
1
  6
CONTINUOUS
 10
578.504818
 20
1774.274276983871
 30
0.0
 11
578.504818
 21
1965.074276983871
 31
0.0
  0
LINE
  5
7ADB
  8
1
  6
CONTINUOUS
 10
876.30481799999995
 20
1688.574276983871
 30
0.0
 11
396.30481800000001
 21
1688.574276983871
 31
0.0
  0
LINE
  5
7ADC
  8
1
  6
CONTINUOUS
 10
876.30481799999995
 20
1763.574276983871
 30
0.0
 11
396.30481800000001
 21
1763.574276983871
 31
0.0
  0
LINE
  5
7ADD
  8
1
  6
CONTINUOUS
 10
734.004818
 20
1744.4742769838711
 30
0.0
 11
734.004818
 21
1709.4742769838711
 31
0.0
  0
LINE
  5
7ADE
  8
1
  6
CONTINUOUS
 10
824.004818
 20
1744.4742769838711
 30
0.0
 11
824.004818
 21
1709.4742769838711
 31
0.0
  0
LINE
  5
7ADF
  8
1
  6
CONTINUOUS
 10
824.004818
 20
1709.4742769838711
 30
0.0
 11
734.004818
 21
1709.4742769838711
 31
0.0
  0
LINE
  5
7AE0
  8
1
  6
CONTINUOUS
 10
824.004818
 20
1744.4742769838711
 30
0.0
 11
734.004818
 21
1744.4742769838711
 31
0.0
  0
LINE
  5
7AE1
  8
1
  6
CONTINUOUS
 10
767.004818
 20
1884.9742769838711
 30
0.0
 11
767.004818
 21
1744.4742769838711
 31
0.0
  0
LINE
  5
7AE2
  8
1
  6
CONTINUOUS
 10
791.004818
 20
1884.9742769838711
 30
0.0
 11
791.004818
 21
1744.4742769838711
 31
0.0
  0
LINE
  5
7AE3
  8
1
  6
CONTINUOUS
 10
396.30481800000001
 20
1763.574276983871
 30
0.0
 11
396.30481800000001
 21
1688.574276983871
 31
0.0
  0
LINE
  5
7AE4
  8
1
  6
CONTINUOUS
 10
876.30481799999995
 20
1688.574276983871
 30
0.0
 11
876.30481799999995
 21
1763.574276983871
 31
0.0
  0
LINE
  5
7AE5
  8
1
  6
CONTINUOUS
 10
791.004818
 20
1760.574276983871
 30
0.0
 11
914.004818
 21
1760.574276983871
 31
0.0
  0
LINE
  5
7AE6
  8
1
  6
CONTINUOUS
 10
528.504818
 20
1744.4742769838711
 30
0.0
 11
458.50481799999989
 21
1744.4742769838711
 31
0.0
  0
LINE
  5
7AE7
  8
1
  6
CONTINUOUS
 10
528.504818
 20
1709.4742769838711
 30
0.0
 11
458.50481799999989
 21
1709.4742769838711
 31
0.0
  0
LINE
  5
7AE8
  8
1
  6
CONTINUOUS
 10
528.504818
 20
1744.4742769838711
 30
0.0
 11
528.504818
 21
1709.4742769838711
 31
0.0
  0
LINE
  5
7AE9
  8
1
  6
CONTINUOUS
 10
458.50481799999989
 20
1744.4742769838711
 30
0.0
 11
458.50481799999989
 21
1709.4742769838711
 31
0.0
  0
LINE
  5
7AEA
  8
1
  6
CONTINUOUS
 10
634.004818
 20
1984.574276983871
 30
0.0
 11
354.00481799999989
 21
1984.574276983871
 31
0.0
  0
LINE
  5
7AEB
  8
1
  6
CONTINUOUS
 10
503.00481799999989
 20
1760.574276983871
 30
0.0
 11
767.004818
 21
1760.574276983871
 31
0.0
  0
LINE
  5
7AEC
  8
1
  6
CONTINUOUS
 10
1705.3240487637361
 20
1036.605394361548
 30
0.0
 11
1705.3240487637361
 21
1236.605394361548
 31
0.0
  0
LINE
  5
7AED
  8
1
  6
CONTINUOUS
 10
1506.424048763736
 20
1124.6053943615491
 30
0.0
 11
1436.3240487637361
 21
1124.6053943615491
 31
0.0
  0
LINE
  5
7AEE
  8
1
  6
CONTINUOUS
 10
1538.0240487637359
 20
1148.605394361548
 30
0.0
 11
1436.3240487637361
 21
1148.605394361548
 31
0.0
  0
LINE
  5
7AEF
  8
1
  6
CONTINUOUS
 10
1436.3240487637361
 20
1091.605394361548
 30
0.0
 11
1436.3240487637361
 21
1181.605394361548
 31
0.0
  0
LINE
  5
7AF0
  8
1
  6
CONTINUOUS
 10
1401.3240487637349
 20
1091.605394361548
 30
0.0
 11
1401.3240487637349
 21
1181.605394361548
 31
0.0
  0
LINE
  5
7AF1
  8
1
  6
CONTINUOUS
 10
1436.3240487637361
 20
1091.605394361548
 30
0.0
 11
1401.3240487637349
 21
1091.605394361548
 31
0.0
  0
LINE
  5
7AF2
  8
1
  6
CONTINUOUS
 10
1436.3240487637361
 20
1181.605394361548
 30
0.0
 11
1401.3240487637349
 21
1181.605394361548
 31
0.0
  0
LINE
  5
7AF3
  8
1
  6
CONTINUOUS
 10
1436.3240487637361
 20
1086.6053943615491
 30
0.0
 11
1401.3240487637349
 21
1086.6053943615491
 31
0.0
  0
LINE
  5
7AF4
  8
1
  6
CONTINUOUS
 10
1436.3240487637361
 20
1016.605394361548
 30
0.0
 11
1401.3240487637349
 21
1016.605394361548
 31
0.0
  0
LINE
  5
7AF5
  8
1
  6
CONTINUOUS
 10
1401.3240487637349
 20
1016.605394361548
 30
0.0
 11
1401.3240487637349
 21
1086.6053943615491
 31
0.0
  0
LINE
  5
7AF6
  8
1
  6
CONTINUOUS
 10
1436.3240487637361
 20
1016.605394361548
 30
0.0
 11
1436.3240487637361
 21
1086.6053943615491
 31
0.0
  0
LINE
  5
7AF7
  8
1
  6
CONTINUOUS
 10
1436.3240487637361
 20
1061.105394361548
 30
0.0
 11
1478.3240487637349
 21
1061.105394361548
 31
0.0
  0
LINE
  5
7AF8
  8
1
  6
CONTINUOUS
 10
1436.3240487637361
 20
1042.105394361548
 30
0.0
 11
1478.3240487637349
 21
1042.105394361548
 31
0.0
  0
LINE
  5
7AF9
  8
1
  6
CONTINUOUS
 10
1456.3240487637349
 20
951.60539436154886
 30
0.0
 11
1456.3240487637349
 21
1231.605394361548
 31
0.0
  0
LINE
  5
7AFA
  8
1
  6
CONTINUOUS
 10
1381.3240487637349
 20
951.60539436154886
 30
0.0
 11
1381.3240487637349
 21
1231.605394361548
 31
0.0
  0
LINE
  5
7AFB
  8
1
  6
CONTINUOUS
 10
1456.3240487637349
 20
1231.605394361548
 30
0.0
 11
1381.3240487637349
 21
1231.605394361548
 31
0.0
  0
LINE
  5
7AFC
  8
1
  6
CONTINUOUS
 10
1597.3240487637349
 20
1259.6053943615491
 30
0.0
 11
1685.3240487637349
 21
1259.6053943615491
 31
0.0
  0
LINE
  5
7AFD
  8
1
  6
CONTINUOUS
 10
1705.3240487637361
 20
1036.605394361548
 30
0.0
 11
1696.924048763736
 21
1036.605394361548
 31
0.0
  0
LINE
  5
7AFE
  8
1
  6
CONTINUOUS
 10
1705.3240487637361
 20
1236.605394361548
 30
0.0
 11
1696.924048763736
 21
1236.605394361548
 31
0.0
  0
LINE
  5
7AFF
  8
1
  6
CONTINUOUS
 10
1577.7240487637359
 20
1236.605394361548
 30
0.0
 11
1585.7240487637359
 21
1236.605394361548
 31
0.0
  0
LINE
  5
7B00
  8
1
  6
CONTINUOUS
 10
1577.7240487637359
 20
1236.605394361548
 30
0.0
 11
1577.7240487637359
 21
951.60539436154886
 31
0.0
  0
LINE
  5
7B01
  8
1
  6
CONTINUOUS
 10
1577.7240487637359
 20
1036.605394361548
 30
0.0
 11
1585.7240487637359
 21
1036.605394361548
 31
0.0
  0
LINE
  5
7B02
  8
1
  6
CONTINUOUS
 10
1585.3240487637361
 20
1136.605394361548
 30
0.0
 11
1697.3240487637361
 21
1136.605394361548
 31
0.0
  0
LINE
  5
7B03
  8
1
  6
CONTINUOUS
 10
1697.3240487637361
 20
1247.605394361548
 30
0.0
 11
1697.3240487637361
 21
976.60539436154886
 31
0.0
  0
LINE
  5
7B04
  8
1
  6
CONTINUOUS
 10
1697.3240487637361
 20
976.60539436154886
 30
0.0
 11
1585.3240487637361
 21
976.60539436154886
 31
0.0
  0
LINE
  5
7B05
  8
1
  6
CONTINUOUS
 10
1585.3240487637361
 20
976.60539436154886
 30
0.0
 11
1585.3240487637361
 21
1247.605394361548
 31
0.0
  0
ARC
  5
7B06
  8
1
  6
CONTINUOUS
 10
1685.3240487637349
 20
1247.605394361548
 30
0.0
 40
12.0
 50
0.0
 51
90.0
  0
ARC
  5
7B07
  8
1
  6
CONTINUOUS
 10
1597.3240487637349
 20
1247.605394361548
 30
0.0
 40
12.0
 50
90.0
 51
180.0
  0
LINE
  5
7B08
  8
1
  6
CONTINUOUS
 10
1697.3240487637361
 20
1136.605394361548
 30
0.0
 11
1585.3240487637361
 21
976.60539436154886
 31
0.0
  0
LINE
  5
7B09
  8
1
  6
CONTINUOUS
 10
1697.3240487637361
 20
976.60539436154886
 30
0.0
 11
1585.3240487637361
 21
1136.605394361548
 31
0.0
  0
LINE
  5
7B0A
  8
1
  6
CONTINUOUS
 10
1677.3240487637349
 20
951.60539436154886
 30
0.0
 11
1677.3240487637349
 21
901.60539436154886
 31
0.0
  0
LINE
  5
7B0B
  8
1
  6
CONTINUOUS
 10
1369.3240487637349
 20
901.60539436154886
 30
0.0
 11
1799.3240487637349
 21
901.60539436154886
 31
0.0
  0
LINE
  5
7B0C
  8
1
  6
CONTINUOUS
 10
1381.3240487637349
 20
951.60539436154886
 30
0.0
 11
1677.3240487637349
 21
951.60539436154886
 31
0.0
  0
LINE
  5
7B0D
  8
1
  6
CONTINUOUS
 10
1453.3240487637349
 20
951.60539436154886
 30
0.0
 11
1453.3240487637349
 21
901.60539436154886
 31
0.0
  0
LINE
  5
7B0E
  8
1
  6
CONTINUOUS
 10
1478.3240487637349
 20
1103.305394361548
 30
0.0
 11
1478.3240487637349
 21
951.60539436154886
 31
0.0
  0
LINE
  5
7B0F
  8
1
  6
CONTINUOUS
 10
1577.7240487637359
 20
1178.705394361549
 30
0.0
 11
1478.3240487637349
 21
1103.305394361548
 31
0.0
  0
LINE
  5
7B10
  8
1
  6
CONTINUOUS
 10
894.00481799999989
 20
1136.605394361548
 30
0.0
 11
894.00481799999989
 21
1146.605394361548
 31
0.0
  0
LINE
  5
7B11
  8
1
  6
CONTINUOUS
 10
894.00481799999989
 20
965.60539436154875
 30
0.0
 11
894.00481799999989
 21
976.60539436154886
 31
0.0
  0
LINE
  5
7B12
  8
1
  6
CONTINUOUS
 10
909.004818
 20
1136.605394361548
 30
0.0
 11
894.00481799999989
 21
1136.605394361548
 31
0.0
  0
LINE
  5
7B13
  8
1
  6
CONTINUOUS
 10
894.00481799999989
 20
976.60539436154886
 30
0.0
 11
909.004818
 21
976.60539436154886
 31
0.0
  0
LINE
  5
7B14
  8
4
  6
CONTINUOUS
 10
1850.0
 20
500.0
 30
0.0
 11
1850.0
 21
300.0
 31
0.0
  0
LINE
  5
7B15
  8
4
  6
CONTINUOUS
 10
1150.0
 20
500.0
 30
0.0
 11
1150.0
 21
300.0
 31
0.0
  0
LINE
  5
7B16
  8
4
  6
CONTINUOUS
 10
650.0
 20
500.0
 30
0.0
 11
650.0
 21
300.0
 31
0.0
  0
LINE
  5
7B19
  8
4
  6
CONTINUOUS
 10
650.0
 20
300.0
 30
0.0
 11
1850.0
 21
300.0
 31
0.0
  0
LINE
  5
7B1A
  8
4
  6
CONTINUOUS
 10
650.0
 20
400.0
 30
0.0
 11
1850.0
 21
400.0
 31
0.0
  0
TEXT
  5
7B1B
  8
4
  6
CONTINUOUS
 10
688.50208099999998
 20
431.543026
 30
0.0
 40
50.0
  1
機器名称
  0
TEXT
  5
7B1C
  8
4
  6
CONTINUOUS
 10
686.258106
 20
321.64515699999993
 30
0.0
 40
50.0
  1
機器型番
  0
TEXT
  5
7B1D
  8
4
  6
CONTINUOUS
 10
1177.678744999999
 20
422.57176900000002
 30
0.0
 40
45.0
  1
ミツヤニューマルチファン
  0
TEXT
  5
7B1E
  8
4
  6
CONTINUOUS
 10
1186.6544960000001
 20
317.159584
 30
0.0
 40
50.0
  1
NM#1-1
  0
TEXT
  5
7B20
  8
4
  6
CONTINUOUS
 10
837.81710999999984
 20
2383.4288409999999
 30
0.0
 40
54.0
  1
天井吊ベット
  0
TEXT
  5
7B21
  8
4
  6
CONTINUOUS
 10
316.16759300000001
 20
2533.8809759999999
 30
0.0
 40
72.0
  1
ベルト駆動式片吸込片持多翼ファン
  0
LINE
  5
7B22
  8
4
  6
CONTINUOUS
 10
250.0
 20
2469.408754
 30
0.0
 11
1850.0
 21
2469.408754
 31
0.0
  0
LINE
  5
7B23
  8
4
  6
CONTINUOUS
 10
250.0
 20
2669.408754
 30
0.0
 11
1850.0
 21
2669.408754
 31
0.0
  0
LINE
  5
7B24
  8
4
  6
CONTINUOUS
 10
650.0
 20
500.0
 30
0.0
 11
1850.0
 21
500.0
 31
0.0
  0
LINE
  5
7B25
  8
4
  6
CONTINUOUS
 10
250.0
 20
2669.408754
 30
0.0
 11
250.0
 21
2469.408754
 31
0.0
  0
TEXT
  5
7B26
  8
4
  6
CONTINUOUS
 10
401.95827800000001
 20
2382.3194779999999
 30
0.0
 40
54.0
  1
左回転右横向
  0
TEXT
  5
7B27
  8
4
  6
CONTINUOUS
 10
1468.9695589999999
 20
2706.0610809999998
 30
0.0
 40
56.0
  1
No.
  0
TEXT
  5
7B28
  8
4
  6
CONTINUOUS
 10
1311.296063
 20
2383.4288409999999
 30
0.0
 40
54.0
  1
縮尺：1/10
  0
LINE
  5
7B29
  8
4
  6
CONTINUOUS
 10
1850.0
 20
2669.408754
 30
0.0
 11
1850.0
 21
2469.408754
 31
0.0
  0
LINE
  5
7B2B
  8
4
  6
CONTINUOUS
 10
1440.617422
 20
2681.2635829999999
 30
0.0
 11
1440.617422
 21
2786.6522620000001
 31
0.0
  0
LINE
  5
7B2C
  8
4
  6
CONTINUOUS
 10
1440.617422
 20
2786.6522620000001
 30
0.0
 11
1850.0
 21
2786.6522620000001
 31
0.0
  0
LINE
  5
7B2D
  8
4
  6
CONTINUOUS
 10
1850.0
 20
2786.6522620000001
 30
0.0
 11
1850.0
 21
2681.2635829999999
 31
0.0
  0
LINE
  5
7B2E
  8
4
  6
CONTINUOUS
 10
1850.0
 20
2681.2635829999999
 30
0.0
 11
1440.617422
 21
2681.2635829999999
 31
0.0
  0
DIMENSION
  5
7B46
  8
3
  6
CONTINUOUS
  2
*D1
 10
779.004818
 20
812.57937836154883
 30
0.0
 11
560.70213200000001
 21
812.57937836154883
 31
0.0
 70
   128
 13
354.00481799999989
 23
876.60539436154886
 33
0.0
 14
779.004818
 24
901.60539436154886
 34
0.0
1001
ACAD
1000
DSTYLE
1002
{
1070
   287
1070
     3
1070
   287
1070
     3
1070
    40
1040
10.0
1070
   143
1040
0.039
1070
   172
1070
     1
1070
   271
1070
     0
1070
   279
1070
     0
1070
   288
1070
     1
1002
}
  0
DIMENSION
  5
7B52
  8
3
  6
CONTINUOUS
  2
*D2
 10
914.004818
 20
812.57937836154883
 30
0.0
 11
846.504818
 21
837.57937836154883
 31
0.0
 70
     0
 13
779.004818
 23
901.60539436154886
 33
0.0
 14
914.004818
 24
876.60539436154886
 34
0.0
1001
ACAD
1000
DSTYLE
1002
{
1070
   287
1070
     4
1070
   287
1070
     4
1070
    40
1040
10.0
1070
    75
1070
     1
1070
   143
1040
0.039
1070
   172
1070
     1
1070
   271
1070
     0
1070
   279
1070
     1
1070
   288
1070
     1
1002
}
  0
DIMENSION
  5
7B5F
  8
3
  6
CONTINUOUS
  2
*D3
 10
779.004818
 20
1287.2950693615489
 30
0.0
 11
699.71910371428555
 21
1287.2950693615489
 31
0.0
 70
   128
 13
634.004818
 23
1136.605394361548
 33
0.0
 14
779.004818
 24
1259.249576361548
 34
0.0
1001
ACAD
1000
DSTYLE
1002
{
1070
   287
1070
     3
1070
   287
1070
     3
1070
    40
1040
10.0
1070
   143
1040
0.039
1070
   172
1070
     1
1070
   271
1070
     0
1070
   279
1070
     0
1070
   288
1070
     1
1002
}
  0
DIMENSION
  5
7B6D
  8
3
  6
CONTINUOUS
  2
*D4
 10
909.004818
 20
1287.2950693615489
 30
0.0
 11
843.76577300000008
 21
1287.2950693615489
 31
0.0
 70
   128
 13
779.004818
 23
1259.249576361548
 33
0.0
 14
909.004818
 24
1158.6053943615491
 34
0.0
1001
ACAD
1000
DSTYLE
1002
{
1070
   287
1070
     4
1070
   287
1070
     4
1070
    40
1040
10.0
1070
    75
1070
     1
1070
   143
1040
0.039
1070
   172
1070
     1
1070
   271
1070
     0
1070
   279
1070
     1
1070
   288
1070
     1
1002
}
  0
DIMENSION
  5
7B90
  8
3
  6
CONTINUOUS
  2
*D5
 10
986.24016400000005
 20
976.60539436154886
 30
0.0
 11
986.24016399999994
 21
1059.959525361548
 31
0.0
 70
   128
 13
908.004818
 23
1136.605394361548
 33
0.0
 14
909.004818
 24
976.60539436154886
 34
0.0
 50
90.0
1001
ACAD
1000
DSTYLE
1002
{
1070
   287
1070
     3
1070
   287
1070
     3
1070
    40
1040
10.0
1070
   143
1040
0.039
1070
   172
1070
     1
1070
   271
1070
     0
1070
   279
1070
     0
1070
   288
1070
     1
1002
}
  0
DIMENSION
  5
7B9F
  8
3
  6
CONTINUOUS
  2
*D6
 10
1108.4844792708891
 20
1136.605394361548
 30
0.0
 11
1086.0595298614419
 21
1197.927485361548
 31
0.0
 70
   128
 13
779.004818
 23
1259.249576361548
 33
0.0
 14
909.004818
 24
1136.605394361548
 34
0.0
 50
90.0
1001
ACAD
1000
DSTYLE
1002
{
1070
   288
1070
     1
1070
   172
1070
     1
1070
    40
1040
10.0
1070
   271
1070
     0
1070
   143
1040
0.039
1002
}
  0
DIMENSION
  5
7BAB
  8
3
  6
CONTINUOUS
  2
*D7
 10
1108.4844792708891
 20
901.60539436154886
 30
0.0
 11
1083.4844792708891
 21
1019.105394361549
 31
0.0
 70
     0
 13
909.004818
 23
1136.605394361548
 33
0.0
 14
914.004818
 24
901.60539436154886
 34
0.0
 50
90.0
1001
ACAD
1000
DSTYLE
1002
{
1070
   287
1070
     4
1070
   287
1070
     4
1070
    40
1040
10.0
1070
    75
1070
     1
1070
   143
1040
0.039
1070
   172
1070
     1
1070
   271
1070
     0
1070
   279
1070
     1
1070
   288
1070
     1
1002
}
  0
DIMENSION
  5
7BBB
  8
3
  6
CONTINUOUS
  2
*D8
 10
1108.48447927089
 20
876.60539436154886
 30
0.0
 11
1108.4844792708891
 21
802.31968007583475
 31
0.0
 70
   128
 13
914.004818
 23
901.60539436154886
 33
0.0
 14
914.004818
 24
876.60539436154886
 34
0.0
 50
90.0
1001
ACAD
1000
DSTYLE
1002
{
1070
   287
1070
     3
1070
   287
1070
     3
1070
    40
1040
10.0
1070
   143
1040
0.039
1070
   172
1070
     1
1070
   271
1070
     0
1070
   279
1070
     0
1070
   288
1070
     1
1002
}
  0
DIMENSION
  5
7BE2
  8
3
  6
CONTINUOUS
  2
*D9
 10
1165.0283604236461
 20
876.60539436154886
 30
0.0
 11
1165.0283604236449
 21
1069.0356553615491
 31
0.0
 70
   128
 13
779.004818
 23
1259.249576361548
 33
0.0
 14
914.004818
 24
876.60539436154886
 34
0.0
 50
90.0
1001
ACAD
1000
DSTYLE
1002
{
1070
   287
1070
     3
1070
   287
1070
     3
1070
    40
1040
10.0
1070
   143
1040
0.039
1070
   172
1070
     1
1070
   271
1070
     0
1070
   279
1070
     0
1070
   288
1070
     1
1002
}
  0
DIMENSION
  5
7BEF
  8
3
  6
CONTINUOUS
  2
*D10
 10
914.004818
 20
1593.9451139838709
 30
0.0
 11
614.42563399999995
 21
1593.9451139838709
 31
0.0
 70
   128
 13
354.00481799999989
 23
1676.574276983871
 33
0.0
 14
914.004818
 24
1676.574276983871
 34
0.0
1001
ACAD
1000
DSTYLE
1002
{
1070
   287
1070
     3
1070
   287
1070
     3
1070
    40
1040
10.0
1070
   143
1040
0.039
1070
   172
1070
     1
1070
   271
1070
     0
1070
   279
1070
     0
1070
   288
1070
     1
1002
}
  0
DIMENSION
  5
7BFC
  8
3
  6
CONTINUOUS
  2
*D11
 10
1000.761578
 20
1676.574276983871
 30
0.0
 11
1000.761578
 21
1885.2012789838709
 31
0.0
 70
   128
 13
914.004818
 23
2106.5742769838712
 33
0.0
 14
914.004818
 24
1676.574276983871
 34
0.0
 50
90.0
1001
ACAD
1000
DSTYLE
1002
{
1070
   287
1070
     3
1070
   287
1070
     3
1070
    40
1040
10.0
1070
   143
1040
0.039
1070
   172
1070
     1
1070
   271
1070
     0
1070
   279
1070
     0
1070
   288
1070
     1
1002
}
  0
LINE
  5
7BFD
  8
2
  6
CENTER
 10
621.07908099999986
 20
1948.574276983871
 30
0.0
 11
928.95191699999998
 21
1948.574276983871
 31
0.0
  0
LINE
  5
7BFE
  8
2
  6
CENTER
 10
779.004818
 20
1642.710258983871
 30
0.0
 11
779.004818
 21
2032.2528009838711
 31
0.0
  0
LINE
  5
7BFF
  8
2
  6
CENTER
 10
1641.3240487637361
 20
1308.6181413615491
 30
0.0
 11
1641.3240487637361
 21
832.27201736154905
 31
0.0
  0
DIMENSION
  5
7C0C
  8
3
  6
CONTINUOUS
  2
*D12
 10
1641.3240487637361
 20
806.17942136154898
 30
0.0
 11
1507.7950977637349
 21
806.17942136154898
 31
0.0
 70
   128
 13
1369.3240487637349
 23
876.60539436154886
 33
0.0
 14
1641.3240487637361
 24
876.60539436154886
 34
0.0
1001
ACAD
1000
DSTYLE
1002
{
1070
   287
1070
     3
1070
   287
1070
     3
1070
    40
1040
10.0
1070
   143
1040
0.039
1070
   172
1070
     1
1070
   271
1070
     0
1070
   279
1070
     0
1070
   288
1070
     1
1002
}
  0
DIMENSION
  5
7C18
  8
3
  6
CONTINUOUS
  2
*D13
 10
1799.3240487637349
 20
806.17942136154898
 30
0.0
 11
1720.3240487637349
 21
831.17942136154898
 31
0.0
 70
     0
 13
1641.3240487637361
 23
876.60539436154886
 33
0.0
 14
1799.3240487637349
 24
876.60539436154886
 34
0.0
1001
ACAD
1000
DSTYLE
1002
{
1070
   287
1070
     4
1070
   287
1070
     4
1070
    40
1040
10.0
1070
    75
1070
     1
1070
   143
1040
0.039
1070
   172
1070
     1
1070
   271
1070
     0
1070
   279
1070
     1
1070
   288
1070
     1
1002
}
  0
DIMENSION
  5
7C27
  8
3
  6
CONTINUOUS
  2
*D14
 10
1697.3240487637361
 20
1303.473711361549
 30
0.0
 11
1641.3240487637361
 21
1327.8870460621499
 31
0.0
 70
   128
 13
1585.3240487637361
 23
1247.605394361548
 33
0.0
 14
1697.3240487637361
 24
1247.605394361548
 34
0.0
1001
ACAD
1000
DSTYLE
1002
{
1070
   288
1070
     1
1070
   172
1070
     1
1070
    40
1040
10.0
1070
   271
1070
     0
1070
   143
1040
0.039
1002
}
  0
DIMENSION
  5
7C34
  8
3
  6
CONTINUOUS
  2
*D15
 10
1641.3240487637361
 20
1366.5545183615491
 30
0.0
 11
1515.477061763735
 21
1366.5545183615491
 31
0.0
 70
   128
  1
MAX\P260
 13
1381.3240487637349
 23
1231.605394361548
 33
0.0
 14
1641.3240487637361
 24
1349.341926361549
 34
0.0
1001
ACAD
1000
DSTYLE
1002
{
1070
   287
1070
     3
1070
   287
1070
     3
1070
    40
1040
10.0
1070
   143
1040
0.039
1070
   172
1070
     1
1070
   271
1070
     0
1070
   279
1070
     0
1070
   288
1070
     1
1002
}
  0
DIMENSION
  5
7C42
  8
3
  6
CONTINUOUS
  2
*D16
 10
1705.3240487637361
 20
1366.5545183615491
 30
0.0
 11
1673.7254937637349
 21
1365.171248361549
 31
0.0
 70
   128
 13
1641.3240487637361
 23
1349.341926361549
 33
0.0
 14
1705.3240487637361
 24
1236.605394361548
 34
0.0
1001
ACAD
1000
DSTYLE
1002
{
1070
   287
1070
     4
1070
   287
1070
     4
1070
    40
1040
10.0
1070
    75
1070
     1
1070
   143
1040
0.039
1070
   172
1070
     1
1070
   271
1070
     0
1070
   279
1070
     1
1070
   288
1070
     1
1002
}
  0
POLYLINE
  5
7C59
  8
3
  6
CONTINUOUS
 66
     1
 10
0.0
 20
0.0
 30
0.0
  0
VERTEX
  5
7F2A
  8
3
  6
CONTINUOUS
 10
1705.3240487637361
 20
1136.605394361548
 30
0.0
  0
VERTEX
  5
7F2B
  8
3
  6
CONTINUOUS
 10
1705.3240487637361
 20
1216.6053943615491
 30
0.0
  0
VERTEX
  5
7F2C
  8
3
  6
CONTINUOUS
 10
1714.5458607637349
 20
1216.6053943615491
 30
0.0
  0
SEQEND
  5
7F2D
  8
3
  6
CONTINUOUS
  0
LINE
  5
7C5F
  8
3
  6
CONTINUOUS
 10
1705.3240487637361
 20
1136.605394361548
 30
0.0
 11
1705.3240487637361
 21
1056.605394361548
 31
0.0
  0
LINE
  5
7C60
  8
3
  6
CONTINUOUS
 10
1705.3240487637361
 20
1056.605394361548
 30
0.0
 11
1715.128627763735
 21
1056.605394361548
 31
0.0
  0
DIMENSION
  5
7C6D
  8
3
  6
CONTINUOUS
  2
*D17
 10
1778.650517763735
 20
1056.605394361548
 30
0.0
 11
1751.9619225497279
 21
1136.605394361548
 31
0.0
 70
   128
 13
1705.3240487637361
 23
1216.6053943615491
 33
0.0
 14
1705.3240487637361
 24
1056.605394361548
 34
0.0
 50
90.0
1001
ACAD
1000
DSTYLE
1002
{
1070
   288
1070
     1
1070
   172
1070
     1
1070
    40
1040
10.0
1070
     3
1000
φ<>
1070
   271
1070
     0
1070
   143
1040
0.039
1002
}
  0
LINE
  5
7C6E
  8
2
  6
CENTER
 10
779.004818
 20
1635.9368579838711
 30
0.0
 11
779.004818
 21
1642.710258983871
 31
0.0
  0
LINE
  5
7C6F
  8
2
  6
CENTER
 10
1370.5756727637349
 20
1136.605394361548
 30
0.0
 11
1712.835955763735
 21
1136.605394361548
 31
0.0
  0
DIMENSION
  5
7CAF
  8
3
  6
CONTINUOUS
  2
*D18
 10
1054.2931348818679
 20
965.60539436154875
 30
0.0
 11
1054.2931348818679
 21
1052.8399153615489
 31
0.0
 70
   128
 13
909.004818
 23
1136.605394361548
 33
0.0
 14
894.00481799999989
 24
965.60539436154875
 34
0.0
 50
90.0
1001
ACAD
1000
DSTYLE
1002
{
1070
   287
1070
     3
1070
   287
1070
     3
1070
    40
1040
10.0
1070
   143
1040
0.039
1070
   172
1070
     1
1070
   271
1070
     0
1070
   279
1070
     0
1070
   288
1070
     1
1002
}
  0
DIMENSION
  5
7DBE
  8
3
  2
*D19
 10
354.00481799999989
 20
1353.8943192178419
 30
0.0
 11
626.21812970182691
 21
1353.8943192178419
 31
0.0
 70
   128
 13
909.004818
 23
1163.605394361548
 33
0.0
 14
354.00481799999989
 24
951.60539436154886
 34
0.0
1001
ACAD
1000
DSTYLE
1002
{
1070
   287
1070
     3
1070
   287
1070
     3
1070
    40
1040
10.0
1070
   143
1040
0.039
1070
   172
1070
     1
1070
   271
1070
     0
1070
   279
1070
     0
1070
   288
1070
     1
1002
}
  0
ENDSEC
  0
EOF
