  0
SECTION
  2
HEADER
  9
$ACADVER
  1
AC1009
  9
$INSBASE
 10
0.0
 20
0.0
 30
0.0
  9
$EXTMIN
 10
250.0
 20
300.0
 30
0.0
  9
$EXTMAX
 10
1850.0
 20
2786.6522620000001
 30
0.0
  9
$LIMMIN
 10
0.0
 20
0.0
  9
$LIMMAX
 10
297.0
 20
210.0
  9
$ORTHOMODE
 70
     0
  9
$REGENMODE
 70
     1
  9
$FILLMODE
 70
     0
  9
$QTEXTMODE
 70
     0
  9
$MIRRTEXT
 70
     1
  9
$DRAGMODE
 70
     2
  9
$LTSCALE
 40
100.0
  9
$OSMODE
 70
    37
  9
$ATTMODE
 70
     1
  9
$TEXTSIZE
 40
180.0
  9
$TRACEWID
 40
0.05
  9
$TEXTSTYLE
  7
STANDARD
  9
$CLAYER
  8
3
  9
$CELTYPE
  6
BYLAYER
  9
$CECOLOR
 62
   256
  9
$DIMSCALE
 40
10.0
  9
$DIMASZ
 40
2.0
  9
$DIMEXO
 40
0.5
  9
$DIMDLI
 40
10.0
  9
$DIMRND
 40
0.0
  9
$DIMDLE
 40
0.0
  9
$DIMEXE
 40
1.0
  9
$DIMTP
 40
1.0
  9
$DIMTM
 40
1.0
  9
$DIMTXT
 40
3.0
  9
$DIMCEN
 40
0.0
  9
$DIMTSZ
 40
0.0
  9
$DIMTOL
 70
     0
  9
$DIMLIM
 70
     0
  9
$DIMTIH
 70
     0
  9
$DIMTOH
 70
     0
  9
$DIMSE1
 70
     0
  9
$DIMSE2
 70
     0
  9
$DIMTAD
 70
     1
  9
$DIMZIN
 70
     8
  9
$DIMBLK
  1

  9
$DIMASO
 70
     1
  9
$DIMSHO
 70
     1
  9
$DIMPOST
  1

  9
$DIMAPOST
  1

  9
$DIMALT
 70
     0
  9
$DIMALTD
 70
     2
  9
$DIMALTF
 40
0.039
  9
$DIMLFAC
 40
1.0
  9
$DIMTOFL
 70
     1
  9
$DIMTVP
 40
0.0
  9
$DIMTIX
 70
     0
  9
$DIMSOXD
 70
     0
  9
$DIMSAH
 70
     1
  9
$DIMBLK1
  1
OPEN
  9
$DIMBLK2
  1
OPEN
  9
$DIMSTYLE
  2
IGA
  9
$DIMCLRD
 70
     0
  9
$DIMCLRE
 70
     0
  9
$DIMCLRT
 70
     0
  9
$DIMTFAC
 40
10.0
  9
$DIMGAP
 40
1.0
  9
$LUNITS
 70
     2
  9
$LUPREC
 70
     3
  9
$SKETCHINC
 40
0.1
  9
$FILLETRAD
 40
50.0
  9
$AUNITS
 70
     0
  9
$AUPREC
 70
     0
  9
$MENU
  1
acad
  9
$ELEVATION
 40
0.0
  9
$PELEVATION
 40
0.0
  9
$THICKNESS
 40
0.0
  9
$LIMCHECK
 70
     0
  9
$BLIPMODE
 70
     0
  9
$CHAMFERA
 40
0.5
  9
$CHAMFERB
 40
0.5
  9
$SKPOLY
 70
     0
  9
$TDCREATE
 40
2450735.6491785878
  9
$TDUPDATE
 40
2454953.8582628928
  9
$TDINDWG
 40
0.0045756829
  9
$TDUSRTIMER
 40
0.0045756829
  9
$USRTIMER
 70
     1
  9
$ANGBASE
 50
0.0
  9
$ANGDIR
 70
     0
  9
$PDMODE
 70
     0
  9
$PDSIZE
 40
0.0
  9
$PLINEWID
 40
0.0
  9
$COORDS
 70
     1
  9
$SPLFRAME
 70
     0
  9
$SPLINETYPE
 70
     6
  9
$SPLINESEGS
 70
     8
  9
$ATTDIA
 70
     0
  9
$ATTREQ
 70
     1
  9
$HANDLING
 70
 10241
  9
$HANDSEED
  5
7F2F
  9
$SURFTAB1
 70
     6
  9
$SURFTAB2
 70
     6
  9
$SURFTYPE
 70
     6
  9
$SURFU
 70
     6
  9
$SURFV
 70
     6
  9
$UCSNAME
  2

  9
$UCSORG
 10
0.0
 20
0.0
 30
0.0
  9
$UCSXDIR
 10
1.0
 20
0.0
 30
0.0
  9
$UCSYDIR
 10
0.0
 20
1.0
 30
0.0
  9
$PUCSNAME
  2

  9
$PUCSORG
 10
0.0
 20
0.0
 30
0.0
  9
$PUCSXDIR
 10
1.0
 20
0.0
 30
0.0
  9
$PUCSYDIR
 10
0.0
 20
1.0
 30
0.0
  9
$USERI1
 70
     0
  9
$USERI2
 70
     0
  9
$USERI3
 70
     0
  9
$USERI4
 70
     0
  9
$USERI5
 70
     0
  9
$USERR1
 40
0.0
  9
$USERR2
 40
0.0
  9
$USERR3
 40
0.0
  9
$USERR4
 40
0.0
  9
$USERR5
 40
0.0
  9
$WORLDVIEW
 70
     1
  9
$SHADEDGE
 70
     3
  9
$SHADEDIF
 70
    70
  9
$TILEMODE
 70
     1
  9
$MAXACTVP
 70
    16
  9
$PLIMCHECK
 70
     0
  9
$PEXTMIN
 10
1.0000000000000000E+020
 20
1.0000000000000000E+020
 30
1.0000000000000000E+020
  9
$PEXTMAX
 10
-1.0000000000000000E+020
 20
-1.0000000000000000E+020
 30
-1.0000000000000000E+020
  9
$PLIMMIN
 10
0.0
 20
0.0
  9
$PLIMMAX
 10
12.0
 20
9.0
  9
$UNITMODE
 70
     0
  9
$VISRETAIN
 70
     0
  9
$PLINEGEN
 70
     0
  9
$PSLTSCALE
 70
     1
  0
ENDSEC
  0
SECTION
  2
TABLES
  0
TABLE
  2
VPORT
 70
     2
  0
VPORT
  2
*ACTIVE
 70
     0
 10
0.0
 20
0.0
 11
1.0
 21
1.0
 12
2732.601155591281
 22
1921.031659663005
 13
0.0
 23
0.0
 14
10.0
 24
10.0
 15
10.0
 25
10.0
 16
0.0
 26
0.0
 36
1.0
 17
0.0
 27
0.0
 37
0.0
 40
3552.2128564519348
 41
1.5051150895140659
 42
50.0
 43
0.0
 44
0.0
 50
0.0
 51
0.0
 71
     0
 72
   100
 73
     1
 74
     0
 75
     0
 76
     0
 77
     0
 78
     0
  0
ENDTAB
  0
TABLE
  2
LTYPE
 70
     2
  0
LTYPE
  2
CONTINUOUS
 70
     0
  3
Solid line
 72
    65
 73
     0
 40
0.0
  0
LTYPE
  2
CENTER
 70
     0
  3
____ _ ____ _ ____ _ ____ _ ____ _ ____ _ ____ 
 72
    65
 73
     4
 40
2.0
 49
1.25
 49
-0.25
 49
0.25
 49
-0.25
  0
ENDTAB
  0
TABLE
  2
LAYER
 70
     6
  0
LAYER
  2
0
 70
     0
 62
     7
  6
CONTINUOUS
  0
LAYER
  2
3
 70
     0
 62
     2
  6
CONTINUOUS
  0
LAYER
  2
2
 70
     0
 62
     3
  6
CENTER
  0
LAYER
  2
1
 70
     0
 62
     4
  6
CONTINUOUS
  0
LAYER
  2
4
 70
     0
 62
     7
  6
CONTINUOUS
  0
LAYER
  2
DEFPOINTS
 70
     0
 62
     7
  6
CONTINUOUS
  0
ENDTAB
  0
TABLE
  2
STYLE
 70
     1
  0
STYLE
  2
STANDARD
 70
     0
 40
0.0
 41
1.0
 50
0.0
 71
     0
 42
180.0
  3
simplex.shx
  4
extfont.shx
  0
ENDTAB
  0
TABLE
  2
VIEW
 70
     0
  0
ENDTAB
  0
TABLE
  2
UCS
 70
     0
  0
ENDTAB
  0
TABLE
  2
APPID
 70
     1
  0
APPID
  2
ACAD
 70
     0
  0
ENDTAB
  0
TABLE
  2
DIMSTYLE
 70
     1
  0
DIMSTYLE
  2
IGA
 70
     0
  3

  4

  5

  6
OPEN
  7
OPEN
 40
2.0
 41
2.0
 42
0.5
 43
10.0
 44
1.0
 45
0.0
 46
0.0
 47
1.0
 48
1.0
140
3.0
141
0.0
142
0.0
143
0.03937
144
1.0
145
0.0
146
10.0
147
1.0
 71
     0
 72
     0
 73
     0
 74
     0
 75
     0
 76
     0
 77
     1
 78
     8
170
     0
171
     2
172
     0
173
     1
174
     0
175
     0
176
     0
177
     0
178
     0
  0
ENDTAB
  0
ENDSEC
  0
SECTION
  2
BLOCKS
  0
BLOCK
  8
0
  2
$MODEL_SPACE
 70
     0
 10
0.0
 20
0.0
 30
0.0
  3
$MODEL_SPACE
  1

  0
ENDBLK
  5
1B
  8
0
  0
BLOCK
 67
     1
  8
0
  2
$PAPER_SPACE
 70
     0
 10
0.0
 20
0.0
 30
0.0
  3
$PAPER_SPACE
  1

  0
ENDBLK
  5
18
 67
     1
  8
0
  0
BLOCK
  8
0
  2
_OPEN
 70
     0
 10
0.0
 20
0.0
 30
0.0
  3
_OPEN
  1

  0
LINE
  5
7B18
  8
0
  6
BYBLOCK
 62
     0
 10
-1.0
 20
0.166667
 30
0.0
 11
0.0
 21
0.0
 31
0.0
  0
LINE
  5
7B19
  8
0
  6
BYBLOCK
 62
     0
 10
0.0
 20
0.0
 30
0.0
 11
-1.0
 21
-0.166667
 31
0.0
  0
LINE
  5
7B1A
  8
0
  6
BYBLOCK
 62
     0
 10
0.0
 20
0.0
 30
0.0
 11
-1.0
 21
0.0
 31
0.0
  0
ENDBLK
  5
7B1B
  8
0
  0
BLOCK
  8
0
  2
*D1
 70
     1
 10
0.0
 20
0.0
 30
0.0
  3
*D1
  1

  0
LINE
  5
7E9B
  8
3
  6
CONTINUOUS
 62
     0
 10
447.95384799999999
 20
821.44478099999992
 30
0.0
 11
447.95384799999999
 21
767.58129799999995
 31
0.0
  0
LINE
  5
7E9C
  8
3
  6
CONTINUOUS
 62
     0
 10
582.95384799999999
 20
846.44478100000015
 30
0.0
 11
582.95384799999999
 21
767.58129799999995
 31
0.0
  0
LINE
  5
7E9D
  8
3
  6
CONTINUOUS
 62
     0
 10
467.95384799999999
 20
777.58129799999995
 30
0.0
 11
562.95384799999988
 21
777.58129799999995
 31
0.0
  0
INSERT
  5
7E9E
  8
3
  6
CONTINUOUS
 62
     0
  2
_OPEN
 10
447.95384799999999
 20
777.58129799999995
 30
0.0
 41
20.0
 42
20.0
 43
20.0
 50
180.0
  0
INSERT
  5
7E9F
  8
3
  6
CONTINUOUS
 62
     0
  2
_OPEN
 10
582.95384799999999
 20
777.58129799999995
 30
0.0
 41
20.0
 42
20.0
 43
20.0
  0
TEXT
  8
3
  40
30
  5
7F1F
  62
0
  72
0
  71
0
 10
457.240
 20
749.481
 30
0.000000
  1
135
  0
POINT
  5
7EA1
  8
DEFPOINTS
  6
CONTINUOUS
 62
     0
 10
447.95384799999999
 20
826.44478100000003
 30
0.0
  0
POINT
  5
7EA2
  8
DEFPOINTS
  6
CONTINUOUS
 62
     0
 10
582.95384799999999
 20
851.44478100000003
 30
0.0
  0
POINT
  5
7EA3
  8
DEFPOINTS
  6
CONTINUOUS
 62
     0
 10
582.95384799999999
 20
777.58129799999995
 30
0.0
  0
ENDBLK
  5
7B28
  8
0
  0
BLOCK
  8
0
  2
*D2
 70
     1
 10
0.0
 20
0.0
 30
0.0
  3
*D2
  1

  0
LINE
  5
7EA4
  8
3
  6
CONTINUOUS
 62
     0
 10
1007.953848
 20
821.44478099999992
 30
0.0
 11
1007.953848
 21
767.58129799999995
 31
0.0
  0
LINE
  5
7EA5
  8
3
  6
CONTINUOUS
 62
     0
 10
602.95384799999999
 20
777.58129799999995
 30
0.0
 11
987.95384799999999
 21
777.58129799999995
 31
0.0
  0
INSERT
  5
7EA6
  8
3
  6
CONTINUOUS
 62
     0
  2
_OPEN
 10
582.95384799999999
 20
777.58129799999995
 30
0.0
 41
20.0
 42
20.0
 43
20.0
 50
180.0
  0
INSERT
  5
7EA7
  8
3
  6
CONTINUOUS
 62
     0
  2
_OPEN
 10
1007.953848
 20
777.58129799999995
 30
0.0
 41
20.0
 42
20.0
 43
20.0
  0
TEXT
  8
3
  40
30
  5
7F20
  62
0
  72
0
  71
0
 10
735.454
 20
749.481
 30
0.000000
  1
425
  0
POINT
  5
7EA9
  8
DEFPOINTS
  6
CONTINUOUS
 62
     0
 10
582.95384799999999
 20
851.44478100000003
 30
0.0
  0
POINT
  5
7EAA
  8
DEFPOINTS
  6
CONTINUOUS
 62
     0
 10
1007.953848
 20
826.44478100000003
 30
0.0
  0
POINT
  5
7EAB
  8
DEFPOINTS
  6
CONTINUOUS
 62
     0
 10
1007.953848
 20
777.58129799999995
 30
0.0
  0
ENDBLK
  5
7B34
  8
0
  0
BLOCK
  8
0
  2
*D3
 70
     1
 10
0.0
 20
0.0
 30
0.0
  3
*D3
  1

  0
LINE
  5
7EAC
  8
3
  6
CONTINUOUS
 62
     0
 10
742.95384799999988
 20
1221.4447809999999
 30
0.0
 11
742.95384799999988
 21
1261.8417320000001
 31
0.0
  0
LINE
  5
7EAD
  8
3
  6
CONTINUOUS
 62
     0
 10
582.95384799999999
 20
1221.4447809999999
 30
0.0
 11
582.95384799999999
 21
1261.8417320000001
 31
0.0
  0
LINE
  5
7EAE
  8
3
  6
CONTINUOUS
 62
     0
 10
722.95384799999999
 20
1251.8417320000001
 30
0.0
 11
602.95384799999999
 21
1251.8417320000001
 31
0.0
  0
INSERT
  5
7EAF
  8
3
  6
CONTINUOUS
 62
     0
  2
_OPEN
 10
742.95384799999988
 20
1251.8417320000001
 30
0.0
 41
20.0
 42
20.0
 43
20.0
  0
INSERT
  5
7EB0
  8
3
  6
CONTINUOUS
 62
     0
  2
_OPEN
 10
582.95384799999999
 20
1251.8417320000001
 30
0.0
 41
20.0
 42
20.0
 43
20.0
 50
180.0
  0
TEXT
  8
3
  40
30
  5
7F21
  62
0
  72
0
  71
0
 10
604.529
 20
1223.74
 30
0.000000
  1
160
  0
POINT
  5
7EB2
  8
DEFPOINTS
  6
CONTINUOUS
 62
     0
 10
742.95384799999988
 20
1216.4447809999999
 30
0.0
  0
POINT
  5
7EB3
  8
DEFPOINTS
  6
CONTINUOUS
 62
     0
 10
582.95384799999999
 20
1216.4447809999999
 30
0.0
  0
POINT
  5
7EB4
  8
DEFPOINTS
  6
CONTINUOUS
 62
     0
 10
582.95384799999999
 20
1251.8417320000001
 30
0.0
  0
ENDBLK
  5
7B72
  8
0
  0
BLOCK
  8
0
  2
*D4
 70
     1
 10
0.0
 20
0.0
 30
0.0
  3
*D4
  1

  0
LINE
  5
7D4A
  8
0
  6
BYBLOCK
 62
     0
 10
460.30966599999999
 20
1091.4447809999999
 30
0.0
 11
460.30966599999999
 21
1320.918044
 31
0.0
  0
LINE
  5
7D4B
  8
0
  6
BYBLOCK
 62
     0
 10
582.95384799999999
 20
1221.4447809999999
 30
0.0
 11
582.95384799999999
 21
1320.918044
 31
0.0
  0
LINE
  5
7D4C
  8
0
  6
BYBLOCK
 62
     0
 10
480.30966599999999
 20
1310.918044
 30
0.0
 11
562.95384799999988
 21
1310.918044
 31
0.0
  0
TEXT
  5
7D4D
  8
3
 62
     0
 10
485.91747128571421
 20
1321.9954437484671
 30
0.0
 40
30.0
  1
123
  0
INSERT
  5
7D4E
  8
0
  6
BYBLOCK
 62
     0
  2
_OPEN
 10
460.30966599999999
 20
1310.918044
 30
0.0
 41
20.0
 42
20.0
 43
20.0
 50
180.0
  0
INSERT
  5
7D4F
  8
0
  6
BYBLOCK
 62
     0
  2
_OPEN
 10
582.95384799999999
 20
1310.918044
 30
0.0
 41
20.0
 42
20.0
 43
20.0
  0
POINT
  5
7D50
  8
DEFPOINTS
  6
BYBLOCK
 62
     0
 10
460.30966599999999
 20
1086.4447809999999
 30
0.0
  0
POINT
  5
7D51
  8
DEFPOINTS
  6
BYBLOCK
 62
     0
 10
582.95384799999999
 20
1216.4447809999999
 30
0.0
  0
POINT
  5
7D52
  8
DEFPOINTS
  6
BYBLOCK
 62
     0
 10
582.95384799999999
 20
1310.918044
 30
0.0
  0
ENDBLK
  5
7D53
  8
0
  0
BLOCK
  8
0
  2
*D5
 70
     1
 10
0.0
 20
0.0
 30
0.0
  3
*D5
  1

  0
LINE
  5
7EB5
  8
3
  6
CONTINUOUS
 62
     0
 10
753.95384799999999
 20
1206.4447809999999
 30
0.0
 11
753.95384799999999
 21
1320.918044
 31
0.0
  0
LINE
  5
7EB6
  8
3
  6
CONTINUOUS
 62
     0
 10
602.95384799999999
 20
1310.918044
 30
0.0
 11
733.95384799999988
 21
1310.918044
 31
0.0
  0
INSERT
  5
7EB7
  8
3
  6
CONTINUOUS
 62
     0
  2
_OPEN
 10
582.95384799999999
 20
1310.918044
 30
0.0
 41
20.0
 42
20.0
 43
20.0
 50
180.0
  0
INSERT
  5
7EB8
  8
3
  6
CONTINUOUS
 62
     0
  2
_OPEN
 10
753.95384799999999
 20
1310.918044
 30
0.0
 41
20.0
 42
20.0
 43
20.0
  0
TEXT
  8
3
  40
30
  5
7F22
  62
0
  72
0
  71
0
 10
608.454
 20
1282.82
 30
0.000000
  1
171
  0
POINT
  5
7EBA
  8
DEFPOINTS
  6
CONTINUOUS
 62
     0
 10
582.95384799999999
 20
1216.4447809999999
 30
0.0
  0
POINT
  5
7EBB
  8
DEFPOINTS
  6
CONTINUOUS
 62
     0
 10
753.95384799999999
 20
1201.4447809999999
 30
0.0
  0
POINT
  5
7EBC
  8
DEFPOINTS
  6
CONTINUOUS
 62
     0
 10
753.95384799999999
 20
1310.918044
 30
0.0
  0
ENDBLK
  5
7BAF
  8
0
  0
BLOCK
  8
0
  2
*D6
 70
     1
 10
0.0
 20
0.0
 30
0.0
  3
*D6
  1

  0
LINE
  5
7EBD
  8
3
  6
CONTINUOUS
 62
     0
 10
970.65384800000004
 20
1086.4447809999999
 30
0.0
 11
1082.1021599999999
 21
1086.4447809999999
 31
0.0
  0
LINE
  5
7EBE
  8
3
  6
CONTINUOUS
 62
     0
 10
1012.953848
 20
851.44478100000003
 30
0.0
 11
1082.1021599999999
 21
851.44478100000003
 31
0.0
  0
LINE
  5
7EBF
  8
3
  6
CONTINUOUS
 62
     0
 10
1072.102159999999
 20
1066.4447809999999
 30
0.0
 11
1072.102159999999
 21
871.44478100000015
 31
0.0
  0
INSERT
  5
7EC0
  8
3
  6
CONTINUOUS
 62
     0
  2
_OPEN
 10
1072.102159999999
 20
1086.4447809999999
 30
0.0
 41
20.0
 42
20.0
 43
20.0
 50
90.0
  0
INSERT
  5
7EC1
  8
3
  6
CONTINUOUS
 62
     0
  2
_OPEN
 10
1072.102159999999
 20
851.44478100000003
 30
0.0
 41
20.0
 42
20.0
 43
20.0
 50
270.0
  0
TEXT
  8
3
  40
30
  5
7F23
  62
0
  72
0
  71
0
 10
987.102
 20
915.845
 30
0.000000
  1
235
  0
POINT
  5
7EC3
  8
DEFPOINTS
  6
CONTINUOUS
 62
     0
 10
965.65384800000004
 20
1086.4447809999999
 30
0.0
  0
POINT
  5
7EC4
  8
DEFPOINTS
  6
CONTINUOUS
 62
     0
 10
1007.953848
 20
851.44478100000003
 30
0.0
  0
POINT
  5
7EC5
  8
DEFPOINTS
  6
CONTINUOUS
 62
     0
 10
1072.102159999999
 20
851.44478100000003
 30
0.0
  0
ENDBLK
  5
7DA1
  8
0
  0
BLOCK
  8
0
  2
*D7
 70
     1
 10
0.0
 20
0.0
 30
0.0
  3
*D7
  1

  0
LINE
  5
7EC6
  8
3
  6
CONTINUOUS
 62
     0
 10
1012.953848
 20
851.44478100000003
 30
0.0
 11
1082.1021599999999
 21
851.44478100000003
 31
0.0
  0
LINE
  5
7EC7
  8
3
  6
CONTINUOUS
 62
     0
 10
1012.953848
 20
826.44478100000003
 30
0.0
 11
1082.1021599999999
 21
826.44478100000003
 31
0.0
  0
LINE
  5
7EC8
  8
3
  6
CONTINUOUS
 62
     0
 10
1072.1021599999999
 20
871.44478100000015
 30
0.0
 11
1072.1021599999999
 21
891.44478100000003
 31
0.0
  0
LINE
  5
7EC9
  8
3
  6
CONTINUOUS
 62
     0
 10
1072.1021599999999
 20
806.44478099999981
 30
0.0
 11
1072.1021599999999
 21
717.87335242857125
 31
0.0
  0
LINE
  5
7ECA
  8
3
  6
CONTINUOUS
 62
     0
 10
1072.1021599999999
 20
851.44478100000003
 30
0.0
 11
1072.1021599999999
 21
826.44478100000003
 31
0.0
  0
INSERT
  5
7ECB
  8
3
  6
CONTINUOUS
 62
     0
  2
_OPEN
 10
1072.1021599999999
 20
851.44478100000003
 30
0.0
 41
20.0
 42
20.0
 43
20.0
 50
270.0
  0
INSERT
  5
7ECC
  8
3
  6
CONTINUOUS
 62
     0
  2
_OPEN
 10
1072.1021599999999
 20
826.44478100000003
 30
0.0
 41
20.0
 42
20.0
 43
20.0
 50
90.0
  0
TEXT
  8
3
  40
30
  5
7F24
  62
0
  72
0
  71
0
 10
987.102
 20
699.059
 30
0.000000
  1
25
  0
POINT
  5
7ECE
  8
DEFPOINTS
  6
CONTINUOUS
 62
     0
 10
1007.953848
 20
851.44478100000003
 30
0.0
  0
POINT
  5
7ECF
  8
DEFPOINTS
  6
CONTINUOUS
 62
     0
 10
1007.953848
 20
826.44478100000003
 30
0.0
  0
POINT
  5
7ED0
  8
DEFPOINTS
  6
CONTINUOUS
 62
     0
 10
1072.1021599999999
 20
826.44478100000003
 30
0.0
  0
ENDBLK
  5
7DAE
  8
0
  0
BLOCK
  8
0
  2
*D8
 70
     1
 10
0.0
 20
0.0
 30
0.0
  3
*D8
  1

  0
LINE
  5
7ED1
  8
3
  6
CONTINUOUS
 62
     0
 10
769.95384799999999
 20
1216.4447809999999
 30
0.0
 11
1153.8316589999999
 21
1216.4447809999999
 31
0.0
  0
LINE
  5
7ED2
  8
3
  6
CONTINUOUS
 62
     0
 10
1012.953848
 20
826.44478100000003
 30
0.0
 11
1153.8316589999999
 21
826.44478100000003
 31
0.0
  0
LINE
  5
7ED3
  8
3
  6
CONTINUOUS
 62
     0
 10
1143.8316589999999
 20
1196.4447809999999
 30
0.0
 11
1143.8316589999999
 21
846.44478099999992
 31
0.0
  0
INSERT
  5
7ED4
  8
3
  6
CONTINUOUS
 62
     0
  2
_OPEN
 10
1143.8316589999999
 20
1216.4447809999999
 30
0.0
 41
20.0
 42
20.0
 43
20.0
 50
90.0
  0
INSERT
  5
7ED5
  8
3
  6
CONTINUOUS
 62
     0
  2
_OPEN
 10
1143.8316589999999
 20
826.44478100000003
 30
0.0
 41
20.0
 42
20.0
 43
20.0
 50
270.0
  0
TEXT
  8
3
  40
30
  5
7F25
  62
0
  72
0
  71
0
 10
1058.83
 20
974.246
 30
0.000000
  1
390
  0
POINT
  5
7ED7
  8
DEFPOINTS
  6
CONTINUOUS
 62
     0
 10
764.95384799999999
 20
1216.4447809999999
 30
0.0
  0
POINT
  5
7ED8
  8
DEFPOINTS
  6
CONTINUOUS
 62
     0
 10
1007.953848
 20
826.44478100000003
 30
0.0
  0
POINT
  5
7ED9
  8
DEFPOINTS
  6
CONTINUOUS
 62
     0
 10
1143.8316589999999
 20
826.44478100000003
 30
0.0
  0
ENDBLK
  5
7C01
  8
0
  0
BLOCK
  8
0
  2
*D9
 70
     1
 10
0.0
 20
0.0
 30
0.0
  3
*D9
  1

  0
LINE
  5
7EDA
  8
3
  6
CONTINUOUS
 62
     0
 10
447.95384799999999
 20
1688.2353189999999
 30
0.0
 11
447.95384799999999
 21
1610.7798009999999
 31
0.0
  0
LINE
  5
7EDB
  8
3
  6
CONTINUOUS
 62
     0
 10
1007.953848
 20
1688.2353189999999
 30
0.0
 11
1007.953848
 21
1610.7798009999999
 31
0.0
  0
LINE
  5
7EDC
  8
3
  6
CONTINUOUS
 62
     0
 10
467.95384799999999
 20
1620.779800999999
 30
0.0
 11
987.95384799999999
 21
1620.779800999999
 31
0.0
  0
INSERT
  5
7EDD
  8
3
  6
CONTINUOUS
 62
     0
  2
_OPEN
 10
447.95384799999999
 20
1620.779800999999
 30
0.0
 41
20.0
 42
20.0
 43
20.0
 50
180.0
  0
INSERT
  5
7EDE
  8
3
  6
CONTINUOUS
 62
     0
  2
_OPEN
 10
1007.953848
 20
1620.779800999999
 30
0.0
 41
20.0
 42
20.0
 43
20.0
  0
TEXT
  8
3
  40
30
  5
7F26
  62
0
  72
0
  71
0
 10
660.414
 20
1592.68
 30
0.000000
  1
560
  0
POINT
  5
7EE0
  8
DEFPOINTS
  6
CONTINUOUS
 62
     0
 10
447.95384799999999
 20
1693.2353189999999
 30
0.0
  0
POINT
  5
7EE1
  8
DEFPOINTS
  6
CONTINUOUS
 62
     0
 10
1007.953848
 20
1693.2353189999999
 30
0.0
  0
POINT
  5
7EE2
  8
DEFPOINTS
  6
CONTINUOUS
 62
     0
 10
1007.953848
 20
1620.779800999999
 30
0.0
  0
ENDBLK
  5
7C10
  8
0
  0
BLOCK
  8
0
  2
*D10
 70
     1
 10
0.0
 20
0.0
 30
0.0
  3
*D10
  1

  0
LINE
  5
7EE3
  8
3
  6
CONTINUOUS
 62
     0
 10
1012.953848
 20
2123.2353189999999
 30
0.0
 11
1122.5261370000001
 21
2123.235318999999
 31
0.0
  0
LINE
  5
7EE4
  8
3
  6
CONTINUOUS
 62
     0
 10
1012.953848
 20
1693.2353189999999
 30
0.0
 11
1122.5261370000001
 21
1693.2353189999999
 31
0.0
  0
LINE
  5
7EE5
  8
3
  6
CONTINUOUS
 62
     0
 10
1112.5261370000001
 20
2103.235318999999
 30
0.0
 11
1112.5261370000001
 21
1713.235318999999
 31
0.0
  0
INSERT
  5
7EE6
  8
3
  6
CONTINUOUS
 62
     0
  2
_OPEN
 10
1112.5261370000001
 20
2123.235318999999
 30
0.0
 41
20.0
 42
20.0
 43
20.0
 50
90.0
  0
INSERT
  5
7EE7
  8
3
  6
CONTINUOUS
 62
     0
  2
_OPEN
 10
1112.5261370000001
 20
1693.2353189999999
 30
0.0
 41
20.0
 42
20.0
 43
20.0
 50
270.0
  0
TEXT
  8
3
  40
30
  5
7F27
  62
0
  72
0
  71
0
 10
1027.53
 20
1871.67
 30
0.000000
  1
430
  0
POINT
  5
7EE9
  8
DEFPOINTS
  6
CONTINUOUS
 62
     0
 10
1007.953848
 20
2123.2353189999999
 30
0.0
  0
POINT
  5
7EEA
  8
DEFPOINTS
  6
CONTINUOUS
 62
     0
 10
1007.953848
 20
1693.2353189999999
 30
0.0
  0
POINT
  5
7EEB
  8
DEFPOINTS
  6
CONTINUOUS
 62
     0
 10
1112.5261370000001
 20
1693.2353189999999
 30
0.0
  0
ENDBLK
  5
7C1D
  8
0
  0
BLOCK
  8
0
  2
*D11
 70
     1
 10
0.0
 20
0.0
 30
0.0
  3
*D11
  1

  0
LINE
  5
7D55
  8
0
  6
BYBLOCK
 62
     0
 10
1562.118363
 20
1221.4447809999999
 30
0.0
 11
1562.118363
 21
1253.8699059999999
 31
0.0
  0
LINE
  5
7D56
  8
0
  6
BYBLOCK
 62
     0
 10
1674.118363
 20
1221.4447809999999
 30
0.0
 11
1674.118363
 21
1253.8699059999999
 31
0.0
  0
LINE
  5
7D57
  8
0
  6
BYBLOCK
 62
     0
 10
1582.118363
 20
1243.8699059999999
 30
0.0
 11
1654.118363
 21
1243.8699059999999
 31
0.0
  0
TEXT
  5
7D58
  8
3
 62
     0
 10
1585.2612201428569
 20
1252.7012722866571
 30
0.0
 40
30.0
  1
112
  0
INSERT
  5
7D59
  8
0
  6
BYBLOCK
 62
     0
  2
_OPEN
 10
1562.118363
 20
1243.8699059999999
 30
0.0
 41
20.0
 42
20.0
 43
20.0
 50
180.0
  0
INSERT
  5
7D5A
  8
0
  6
BYBLOCK
 62
     0
  2
_OPEN
 10
1674.118363
 20
1243.8699059999999
 30
0.0
 41
20.0
 42
20.0
 43
20.0
  0
POINT
  5
7D5B
  8
DEFPOINTS
  6
BYBLOCK
 62
     0
 10
1562.118363
 20
1216.4447809999999
 30
0.0
  0
POINT
  5
7D5C
  8
DEFPOINTS
  6
BYBLOCK
 62
     0
 10
1674.118363
 20
1216.4447809999999
 30
0.0
  0
POINT
  5
7D5D
  8
DEFPOINTS
  6
BYBLOCK
 62
     0
 10
1674.118363
 20
1243.8699059999999
 30
0.0
  0
ENDBLK
  5
7D5E
  8
0
  0
BLOCK
  8
0
  2
*D12
 70
     1
 10
0.0
 20
0.0
 30
0.0
  3
*D12
  1

  0
LINE
  5
7EEC
  8
3
  6
CONTINUOUS
 62
     0
 10
1346.118363
 20
821.44478099999992
 30
0.0
 11
1346.118363
 21
752.79385500000001
 31
0.0
  0
LINE
  5
7EED
  8
3
  6
CONTINUOUS
 62
     0
 10
1618.1183629999989
 20
821.44478099999992
 30
0.0
 11
1618.1183629999989
 21
752.79385500000001
 31
0.0
  0
LINE
  5
7EEE
  8
3
  6
CONTINUOUS
 62
     0
 10
1366.118363
 20
762.79385500000001
 30
0.0
 11
1598.118363
 21
762.79385500000001
 31
0.0
  0
INSERT
  5
7EEF
  8
3
  6
CONTINUOUS
 62
     0
  2
_OPEN
 10
1346.118363
 20
762.79385500000001
 30
0.0
 41
20.0
 42
20.0
 43
20.0
 50
180.0
  0
INSERT
  5
7EF0
  8
3
  6
CONTINUOUS
 62
     0
  2
_OPEN
 10
1618.1183629999989
 20
762.79385500000001
 30
0.0
 41
20.0
 42
20.0
 43
20.0
  0
TEXT
  8
3
  40
30
  5
7F28
  62
0
  72
0
  71
0
 10
1427.19
 20
734.694
 30
0.000000
  1
272
  0
POINT
  5
7EF2
  8
DEFPOINTS
  6
CONTINUOUS
 62
     0
 10
1346.118363
 20
826.44478100000003
 30
0.0
  0
POINT
  5
7EF3
  8
DEFPOINTS
  6
CONTINUOUS
 62
     0
 10
1618.1183629999989
 20
826.44478100000003
 30
0.0
  0
POINT
  5
7EF4
  8
DEFPOINTS
  6
CONTINUOUS
 62
     0
 10
1618.1183629999989
 20
762.79385500000001
 30
0.0
  0
ENDBLK
  5
7C58
  8
0
  0
BLOCK
  8
0
  2
*D13
 70
     1
 10
0.0
 20
0.0
 30
0.0
  3
*D13
  1

  0
LINE
  5
7EF5
  8
3
  6
CONTINUOUS
 62
     0
 10
1776.1183629999989
 20
821.44478099999992
 30
0.0
 11
1776.1183629999989
 21
752.79385500000001
 31
0.0
  0
LINE
  5
7EF6
  8
3
  6
CONTINUOUS
 62
     0
 10
1638.118363
 20
762.79385500000001
 30
0.0
 11
1756.1183629999989
 21
762.79385500000001
 31
0.0
  0
INSERT
  5
7EF7
  8
3
  6
CONTINUOUS
 62
     0
  2
_OPEN
 10
1618.1183629999989
 20
762.79385500000001
 30
0.0
 41
20.0
 42
20.0
 43
20.0
 50
180.0
  0
INSERT
  5
7EF8
  8
3
  6
CONTINUOUS
 62
     0
  2
_OPEN
 10
1776.1183629999989
 20
762.79385500000001
 30
0.0
 41
20.0
 42
20.0
 43
20.0
  0
TEXT
  8
3
  40
30
  5
7F29
  62
0
  72
0
  71
0
 10
1637.12
 20
734.694
 30
0.000000
  1
158
  0
POINT
  5
7EFA
  8
DEFPOINTS
  6
CONTINUOUS
 62
     0
 10
1618.1183629999989
 20
826.44478100000003
 30
0.0
  0
POINT
  5
7EFB
  8
DEFPOINTS
  6
CONTINUOUS
 62
     0
 10
1776.1183629999989
 20
826.44478100000003
 30
0.0
  0
POINT
  5
7EFC
  8
DEFPOINTS
  6
CONTINUOUS
 62
     0
 10
1776.1183629999989
 20
762.79385500000001
 30
0.0
  0
ENDBLK
  5
7C64
  8
0
  0
BLOCK
  8
0
  2
*D14
 70
     1
 10
0.0
 20
0.0
 30
0.0
  3
*D14
  1

  0
LINE
  5
7EFD
  8
3
  6
CONTINUOUS
 62
     0
 10
1358.1183629999989
 20
1186.4447809999999
 30
0.0
 11
1358.1183629999989
 21
1316.130717
 31
0.0
  0
LINE
  5
7EFE
  8
3
  6
CONTINUOUS
 62
     0
 10
1618.1183629999989
 20
1293.2259391422961
 30
0.0
 11
1618.1183629999989
 21
1316.130717
 31
0.0
  0
LINE
  5
7EFF
  8
3
  6
CONTINUOUS
 62
     0
 10
1378.118363
 20
1306.130717
 30
0.0
 11
1598.118363
 21
1306.130717
 31
0.0
  0
INSERT
  5
7F00
  8
3
  6
CONTINUOUS
 62
     0
  2
_OPEN
 10
1358.1183629999989
 20
1306.130717
 30
0.0
 41
20.0
 42
20.0
 43
20.0
 50
180.0
  0
INSERT
  5
7F01
  8
3
  6
CONTINUOUS
 62
     0
  2
_OPEN
 10
1618.1183629999989
 20
1306.130717
 30
0.0
 41
20.0
 42
20.0
 43
20.0
  0
TEXT
  8
3
  40
30
  5
7F2A
  62
0
  72
0
  71
0
 10
1425.81
 20
1303.03
 30
0.000000
  1
MAX
  0
TEXT
  8
3
  40
30
  5
7F2B
  62
0
  72
0
  71
0
 10
1425.81
 20
1264.03
 30
0.000000
  1
260
  0
POINT
  5
7F03
  8
DEFPOINTS
  6
CONTINUOUS
 62
     0
 10
1358.1183629999989
 20
1181.4447809999999
 30
0.0
  0
POINT
  5
7F04
  8
DEFPOINTS
  6
CONTINUOUS
 62
     0
 10
1618.1183629999989
 20
1288.2259391422961
 30
0.0
  0
POINT
  5
7F05
  8
DEFPOINTS
  6
CONTINUOUS
 62
     0
 10
1618.1183629999989
 20
1306.130717
 30
0.0
  0
ENDBLK
  5
7DB9
  8
0
  0
BLOCK
  8
0
  2
*D15
 70
     1
 10
0.0
 20
0.0
 30
0.0
  3
*D15
  1

  0
LINE
  5
7F06
  8
3
  6
CONTINUOUS
 62
     0
 10
1682.118363
 20
1191.4447809999999
 30
0.0
 11
1682.118363
 21
1316.130717
 31
0.0
  0
LINE
  5
7F07
  8
3
  6
CONTINUOUS
 62
     0
 10
1638.118363
 20
1306.130717
 30
0.0
 11
1662.1183629999989
 21
1306.130717
 31
0.0
  0
TEXT
  8
3
  40
30
  5
7F2C
  62
0
  72
0
  71
0
 10
1590.79
 20
1278.17
 30
0.000000
  1
64
  0
INSERT
  5
7F09
  8
3
  6
CONTINUOUS
 62
     0
  2
_OPEN
 10
1618.1183629999989
 20
1306.130717
 30
0.0
 41
20.0
 42
20.0
 43
20.0
 50
180.0
  0
INSERT
  5
7F0A
  8
3
  6
CONTINUOUS
 62
     0
  2
_OPEN
 10
1682.118363
 20
1306.130717
 30
0.0
 41
20.0
 42
20.0
 43
20.0
  0
POINT
  5
7F0B
  8
DEFPOINTS
  6
CONTINUOUS
 62
     0
 10
1618.1183629999989
 20
1288.2259391422961
 30
0.0
  0
POINT
  5
7F0C
  8
DEFPOINTS
  6
CONTINUOUS
 62
     0
 10
1682.118363
 20
1186.4447809999999
 30
0.0
  0
POINT
  5
7F0D
  8
DEFPOINTS
  6
CONTINUOUS
 62
     0
 10
1682.118363
 20
1306.130717
 30
0.0
  0
ENDBLK
  5
7D8B
  8
0
  0
BLOCK
  8
0
  2
*D16
 70
     1
 10
0.0
 20
0.0
 30
0.0
  3
*D16
  1

  0
LINE
  5
7D78
  8
0
  6
BYBLOCK
 62
     0
 10
1687.1183629999989
 20
1166.4447809999999
 30
0.0
 11
1777.246592
 21
1166.4447809999999
 31
0.0
  0
LINE
  5
7D79
  8
0
  6
BYBLOCK
 62
     0
 10
1687.1183629999989
 20
1006.444781
 30
0.0
 11
1777.246592
 21
1006.444781
 31
0.0
  0
LINE
  5
7D7A
  8
0
  6
BYBLOCK
 62
     0
 10
1767.246592
 20
1146.4447809999999
 30
0.0
 11
1767.246592
 21
1026.4447809999999
 31
0.0
  0
TEXT
  5
7D7B
  8
3
 62
     0
 10
1759.4464117797791
 20
1035.7304952857139
 30
0.0
 40
30.0
  1
φ160
 50
90.0
  0
INSERT
  5
7D7C
  8
0
  6
BYBLOCK
 62
     0
  2
_OPEN
 10
1767.246592
 20
1166.4447809999999
 30
0.0
 41
20.0
 42
20.0
 43
20.0
 50
90.0
  0
INSERT
  5
7D7D
  8
0
  6
BYBLOCK
 62
     0
  2
_OPEN
 10
1767.246592
 20
1006.444781
 30
0.0
 41
20.0
 42
20.0
 43
20.0
 50
270.0
  0
POINT
  5
7D7E
  8
DEFPOINTS
  6
BYBLOCK
 62
     0
 10
1682.118363
 20
1166.4447809999999
 30
0.0
  0
POINT
  5
7D7F
  8
DEFPOINTS
  6
BYBLOCK
 62
     0
 10
1682.118363
 20
1006.444781
 30
0.0
  0
POINT
  5
7D80
  8
DEFPOINTS
  6
BYBLOCK
 62
     0
 10
1767.246592
 20
1006.444781
 30
0.0
  0
ENDBLK
  5
7D81
  8
0
  0
BLOCK
  8
0
  2
*D17
 70
     1
 10
0.0
 20
0.0
 30
0.0
  3
*D17
  1

  0
LINE
  5
7F0E
  8
3
  6
CONTINUOUS
 62
     0
 10
769.95384799999999
 20
1216.4447809999999
 30
0.0
 11
1082.1021599999999
 21
1216.4447809999999
 31
0.0
  0
LINE
  5
7F0F
  8
3
  6
CONTINUOUS
 62
     0
 10
1072.102159999999
 20
1106.4447809999999
 30
0.0
 11
1072.102159999999
 21
1196.4447809999999
 31
0.0
  0
TEXT
  8
3
  40
30
  5
7F2D
  62
0
  72
0
  71
0
 10
987.416
 20
1096.90
 30
0.000000
  1
130
  0
INSERT
  5
7F11
  8
3
  6
CONTINUOUS
 62
     0
  2
_OPEN
 10
1072.102159999999
 20
1086.4447809999999
 30
0.0
 41
20.0
 42
20.0
 43
20.0
 50
270.0
  0
INSERT
  5
7F12
  8
3
  6
CONTINUOUS
 62
     0
  2
_OPEN
 10
1072.102159999999
 20
1216.4447809999999
 30
0.0
 41
20.0
 42
20.0
 43
20.0
 50
90.0
  0
POINT
  5
7F13
  8
DEFPOINTS
  6
CONTINUOUS
 62
     0
 10
965.65384800000004
 20
1086.4447809999999
 30
0.0
  0
POINT
  5
7F14
  8
DEFPOINTS
  6
CONTINUOUS
 62
     0
 10
764.95384799999999
 20
1216.4447809999999
 30
0.0
  0
POINT
  5
7F15
  8
DEFPOINTS
  6
CONTINUOUS
 62
     0
 10
1072.102159999999
 20
1216.4447809999999
 30
0.0
  0
ENDBLK
  5
7D19
  8
0
  0
BLOCK
  8
0
  2
*D18
 70
     1
 10
0.0
 20
0.0
 30
0.0
  3
*D18
  1

  0
LINE
  5
7F16
  8
3
 62
     0
 10
460.30966599999999
 20
1096.4447809999999
 30
0.0
 11
460.30966599999999
 21
1380.652611023484
 31
0.0
  0
LINE
  5
7F17
  8
3
 62
     0
 10
1007.953848
 20
906.44478100000003
 30
0.0
 11
1007.953848
 21
1380.652611023484
 31
0.0
  0
LINE
  5
7F18
  8
3
 62
     0
 10
480.30966599999999
 20
1370.652611023484
 30
0.0
 11
987.95384799999999
 21
1370.652611023484
 31
0.0
  0
INSERT
  5
7F19
  8
3
 62
     0
  2
_OPEN
 10
460.30966599999999
 20
1370.652611023484
 30
0.0
 41
20.0
 42
20.0
 43
20.0
 50
180.0
  0
INSERT
  5
7F1A
  8
3
 62
     0
  2
_OPEN
 10
1007.953848
 20
1370.652611023484
 30
0.0
 41
20.0
 42
20.0
 43
20.0
  0
TEXT
  8
3
  40
30
  5
7F2E
  62
0
  72
0
  71
0
 10
687.768
 20
1342.55
 30
0.000000
  1
548
  0
POINT
  5
7F1C
  8
DEFPOINTS
 62
     0
 10
460.30966599999999
 20
1091.4447809999999
 30
0.0
  0
POINT
  5
7F1D
  8
DEFPOINTS
 62
     0
 10
1007.953848
 20
901.44478100000003
 30
0.0
  0
POINT
  5
7F1E
  8
DEFPOINTS
 62
     0
 10
1007.953848
 20
1370.652611023484
 30
0.0
  0
ENDBLK
  5
7DC5
  8
0
  0
ENDSEC
  0
SECTION
  2
ENTITIES
  0
CIRCLE
  5
7A8B
  8
1
  6
CONTINUOUS
 10
582.95384799999999
 20
1086.4447809999999
 30
0.0
 40
80.0
  0
CIRCLE
  5
7A8C
  8
1
  6
CONTINUOUS
 10
582.95384799999999
 20
1086.4447809999999
 30
0.0
 40
100.0
  0
LINE
  5
7A8D
  8
1
  6
CONTINUOUS
 10
879.55384800000013
 20
1034.6447809999991
 30
0.0
 11
597.25384799999995
 21
1129.1447809999991
 31
0.0
  0
LINE
  5
7A8E
  8
1
  6
CONTINUOUS
 10
859.55384800000002
 20
967.54478100000006
 30
0.0
 11
571.55384800000002
 21
1042.9447809999999
 31
0.0
  0
LINE
  5
7A8F
  8
1
  6
CONTINUOUS
 10
858.95384799999988
 20
1777.2353189999999
 30
0.0
 11
594.95384799999999
 21
1777.2353189999999
 31
0.0
  0
LINE
  5
7A90
  8
1
  6
CONTINUOUS
 10
485.65384799999998
 20
1780.2353189999999
 30
0.0
 11
965.65384800000004
 21
1780.2353189999999
 31
0.0
  0
LINE
  5
7A91
  8
1
  6
CONTINUOUS
 10
485.65384799999998
 20
1705.2353189999999
 30
0.0
 11
965.65384800000004
 21
1705.2353189999999
 31
0.0
  0
LINE
  5
7A92
  8
1
  6
CONTINUOUS
 10
692.95384799999988
 20
1901.635319
 30
0.0
 11
472.95384799999999
 21
1901.635319
 31
0.0
  0
LINE
  5
7A93
  8
1
  6
CONTINUOUS
 10
682.95384799999999
 20
2027.835319
 30
0.0
 11
482.95384799999999
 21
2027.835319
 31
0.0
  0
LINE
  5
7A94
  8
1
  6
CONTINUOUS
 10
471.95384799999999
 20
1909.2353189999999
 30
0.0
 11
742.95384799999988
 21
1909.2353189999999
 31
0.0
  0
LINE
  5
7A95
  8
1
  6
CONTINUOUS
 10
742.95384799999988
 20
2021.2353189999999
 30
0.0
 11
471.95384799999999
 21
2021.2353189999999
 31
0.0
  0
LINE
  5
7A96
  8
1
  6
CONTINUOUS
 10
582.95384799999999
 20
1909.2353189999999
 30
0.0
 11
742.95384799999988
 21
2021.2353189999999
 31
0.0
  0
LINE
  5
7A97
  8
1
  6
CONTINUOUS
 10
742.95384799999988
 20
1909.2353189999999
 30
0.0
 11
582.95384799999999
 21
2021.2353189999999
 31
0.0
  0
LINE
  5
7A98
  8
1
  6
CONTINUOUS
 10
692.95384799999988
 20
1128.5447810000001
 30
0.0
 11
619.55384800000002
 21
1191.4447809999999
 31
0.0
  0
LINE
  5
7A99
  8
1
  6
CONTINUOUS
 10
692.95384799999988
 20
1053.144781
 30
0.0
 11
472.95384799999999
 21
1053.144781
 31
0.0
  0
LINE
  5
7A9A
  8
1
  6
CONTINUOUS
 10
1007.953848
 20
851.44478100000003
 30
0.0
 11
447.95384799999999
 21
851.44478100000003
 31
0.0
  0
LINE
  5
7A9B
  8
1
  6
CONTINUOUS
 10
1007.953848
 20
901.44478100000003
 30
0.0
 11
447.95384799999999
 21
901.44478100000003
 31
0.0
  0
LINE
  5
7A9C
  8
1
  6
CONTINUOUS
 10
485.65384799999998
 20
1181.4447809999999
 30
0.0
 11
965.65384800000004
 21
1181.4447809999999
 31
0.0
  0
LINE
  5
7A9D
  8
1
  6
CONTINUOUS
 10
764.95384799999999
 20
1216.4447809999999
 30
0.0
 11
560.95384799999999
 21
1216.4447809999999
 31
0.0
  0
LINE
  5
7A9E
  8
1
  6
CONTINUOUS
 10
728.95384799999999
 20
1201.4447809999999
 30
0.0
 11
596.95384799999988
 21
1201.4447809999999
 31
0.0
  0
ARC
  5
7A9F
  8
1
  6
CONTINUOUS
 10
595.95384799999988
 20
1099.4447809999999
 30
0.0
 40
158.0
 50
260.89999999999992
 51
0.0
  0
LINE
  5
7AA0
  8
1
  6
CONTINUOUS
 10
472.95384799999999
 20
901.44478100000003
 30
0.0
 11
472.95384799999999
 21
1128.5447810000001
 31
0.0
  0
LINE
  5
7AA1
  8
1
  6
CONTINUOUS
 10
485.65384799999998
 20
901.44478100000003
 30
0.0
 11
485.65384799999998
 21
1181.4447809999999
 31
0.0
  0
ARC
  5
7AA2
  8
1
  6
CONTINUOUS
 10
593.95384799999999
 20
1075.4447809999999
 30
0.0
 40
134.0
 50
179.49999999999989
 51
260.10000000000002
  0
LINE
  5
7AA3
  8
1
  6
CONTINUOUS
 10
447.95384799999999
 20
826.44478100000003
 30
0.0
 11
447.95384799999999
 21
901.44478100000003
 31
0.0
  0
LINE
  5
7AA4
  8
1
  6
CONTINUOUS
 10
472.95384799999999
 20
826.44478100000003
 30
0.0
 11
447.95384799999999
 21
826.44478100000003
 31
0.0
  0
LINE
  5
7AA5
  8
1
  6
CONTINUOUS
 10
472.95384799999999
 20
826.44478100000003
 30
0.0
 11
472.95384799999999
 21
851.44478100000003
 31
0.0
  0
LINE
  5
7AA6
  8
1
  6
CONTINUOUS
 10
472.95384799999999
 20
1128.5447810000001
 30
0.0
 11
546.35384800000008
 21
1191.4447809999999
 31
0.0
  0
ARC
  5
7AA7
  8
1
  6
CONTINUOUS
 10
573.95384799999999
 20
1077.4447809999999
 30
0.0
 40
114.0
 50
90.5
 51
180.49999999999989
  0
CIRCLE
  5
7AA8
  8
1
  6
CONTINUOUS
 10
582.95384799999999
 20
1086.4447809999999
 30
0.0
 40
45.0
  0
LINE
  5
7AA9
  8
2
  6
CENTER
 10
582.95384799999999
 20
824.00137900000004
 30
0.0
 11
582.95384799999999
 21
1279.714375
 31
0.0
  0
LINE
  5
7AAA
  8
2
  6
CENTER
 10
1692.7537709999999
 20
1086.4447809999999
 30
0.0
 11
1315.2515780000001
 21
1086.4447809999999
 31
0.0
  0
LINE
  5
7AAB
  8
1
  6
CONTINUOUS
 10
546.35384800000008
 20
1191.4447809999999
 30
0.0
 11
619.55384800000002
 21
1191.4447809999999
 31
0.0
  0
LINE
  5
7AAC
  8
1
  6
CONTINUOUS
 10
572.95384799999999
 20
1201.4447809999999
 30
0.0
 11
572.95384799999999
 21
1191.4447809999999
 31
0.0
  0
LINE
  5
7AAD
  8
1
  6
CONTINUOUS
 10
581.95384799999999
 20
1216.4447809999999
 30
0.0
 11
596.95384799999988
 21
1201.4447809999999
 31
0.0
  0
LINE
  5
7AAE
  8
1
  6
CONTINUOUS
 10
582.95384799999999
 20
1201.4447809999999
 30
0.0
 11
582.95384799999999
 21
1216.4447809999999
 31
0.0
  0
LINE
  5
7AAF
  8
1
  6
CONTINUOUS
 10
582.95384799999999
 20
1201.4447809999999
 30
0.0
 11
572.95384799999999
 21
1201.4447809999999
 31
0.0
  0
LINE
  5
7AB0
  8
1
  6
CONTINUOUS
 10
447.95384799999999
 20
1693.2353189999999
 30
0.0
 11
447.95384799999999
 21
2123.2353189999999
 31
0.0
  0
LINE
  5
7AB1
  8
1
  6
CONTINUOUS
 10
459.95384799999999
 20
2009.2353189999999
 30
0.0
 11
459.95384799999999
 21
1921.2353189999999
 31
0.0
  0
LINE
  5
7AB2
  8
1
  6
CONTINUOUS
 10
582.95384799999999
 20
2021.2353189999999
 30
0.0
 11
582.95384799999999
 21
1909.2353189999999
 31
0.0
  0
LINE
  5
7AB3
  8
1
  6
CONTINUOUS
 10
570.95384799999988
 20
1777.2353189999999
 30
0.0
 11
447.95384799999999
 21
1777.2353189999999
 31
0.0
  0
LINE
  5
7AB4
  8
1
  6
CONTINUOUS
 10
485.65384799999998
 20
1705.2353189999999
 30
0.0
 11
485.65384799999998
 21
1780.2353189999999
 31
0.0
  0
LINE
  5
7AB5
  8
1
  6
CONTINUOUS
 10
472.95384799999999
 20
1777.2353189999999
 30
0.0
 11
472.95384799999999
 21
1901.635319
 31
0.0
  0
LINE
  5
7AB6
  8
1
  6
CONTINUOUS
 10
482.95384799999999
 20
1901.635319
 30
0.0
 11
482.95384799999999
 21
1909.635319
 31
0.0
  0
ARC
  5
7AB7
  8
1
  6
CONTINUOUS
 10
471.95384799999999
 20
1921.2353189999999
 30
0.0
 40
12.0
 50
180.0
 51
270.0
  0
LINE
  5
7AB8
  8
1
  6
CONTINUOUS
 10
472.95384799999999
 20
1693.2353189999999
 30
0.0
 11
447.95384799999999
 21
1693.2353189999999
 31
0.0
  0
LINE
  5
7AB9
  8
1
  6
CONTINUOUS
 10
472.95384799999999
 20
1777.2353189999999
 30
0.0
 11
472.95384799999999
 21
1693.2353189999999
 31
0.0
  0
LINE
  5
7ABA
  8
1
  6
CONTINUOUS
 10
570.95384799999988
 20
1901.635319
 30
0.0
 11
570.95384799999988
 21
1761.135319
 31
0.0
  0
LINE
  5
7ABB
  8
1
  6
CONTINUOUS
 10
594.95384799999999
 20
1901.635319
 30
0.0
 11
594.95384799999999
 21
1761.135319
 31
0.0
  0
LINE
  5
7ABC
  8
1
  6
CONTINUOUS
 10
537.95384799999988
 20
1761.135319
 30
0.0
 11
627.95384799999999
 21
1761.135319
 31
0.0
  0
LINE
  5
7ABD
  8
1
  6
CONTINUOUS
 10
537.95384799999988
 20
1726.135319
 30
0.0
 11
627.95384799999999
 21
1726.135319
 31
0.0
  0
LINE
  5
7ABE
  8
1
  6
CONTINUOUS
 10
537.95384799999988
 20
1761.135319
 30
0.0
 11
537.95384799999988
 21
1726.135319
 31
0.0
  0
LINE
  5
7ABF
  8
1
  6
CONTINUOUS
 10
627.95384799999999
 20
1761.135319
 30
0.0
 11
627.95384799999999
 21
1726.135319
 31
0.0
  0
LINE
  5
7AC0
  8
1
  6
CONTINUOUS
 10
459.05384800000002
 20
2001.2353189999999
 30
0.0
 11
459.95384799999999
 21
2001.2353189999999
 31
0.0
  0
LINE
  5
7AC1
  8
1
  6
CONTINUOUS
 10
482.95384799999999
 20
2027.835319
 30
0.0
 11
482.95384799999999
 21
2020.835319
 31
0.0
  0
ARC
  5
7AC2
  8
1
  6
CONTINUOUS
 10
471.95384799999999
 20
2009.2353189999999
 30
0.0
 40
12.0
 50
90.0
 51
180.0
  0
LINE
  5
7AC3
  8
1
  6
CONTINUOUS
 10
472.95384799999999
 20
2123.2353189999999
 30
0.0
 11
447.95384799999999
 21
2123.2353189999999
 31
0.0
  0
LINE
  5
7AC4
  8
1
  6
CONTINUOUS
 10
472.95384799999999
 20
2123.2353189999999
 30
0.0
 11
472.95384799999999
 21
2021.2353189999999
 31
0.0
  0
LINE
  5
7AC5
  8
1
  6
CONTINUOUS
 10
692.95384799999988
 20
1128.5447810000001
 30
0.0
 11
692.95384799999988
 21
901.44478100000003
 31
0.0
  0
LINE
  5
7AC6
  8
1
  6
CONTINUOUS
 10
945.95384799999999
 20
921.44478100000015
 30
0.0
 11
945.95384799999999
 21
929.44478100000015
 31
0.0
  0
LINE
  5
7AC7
  8
1
  6
CONTINUOUS
 10
790.95384799999999
 20
921.44478100000015
 30
0.0
 11
790.95384799999999
 21
929.44478100000015
 31
0.0
  0
ARC
  5
7AC8
  8
1
  6
CONTINUOUS
 10
868.45384799999999
 20
1001.444781
 30
0.0
 40
85.0
 50
324.69999999999987
 51
215.30000000000001
  0
LINE
  5
7AC9
  8
1
  6
CONTINUOUS
 10
965.65384800000004
 20
1181.4447809999999
 30
0.0
 11
965.65384800000004
 21
901.44478100000003
 31
0.0
  0
LINE
  5
7ACA
  8
1
  6
CONTINUOUS
 10
1007.953848
 20
921.44478100000015
 30
0.0
 11
756.95384799999999
 21
921.44478100000015
 31
0.0
  0
LINE
  5
7ACB
  8
1
  6
CONTINUOUS
 10
756.95384799999999
 20
921.44478100000015
 30
0.0
 11
756.95384799999999
 21
901.44478100000003
 31
0.0
  0
LINE
  5
7ACC
  8
1
  6
CONTINUOUS
 10
1007.953848
 20
921.44478100000015
 30
0.0
 11
1007.953848
 21
826.44478100000003
 31
0.0
  0
LINE
  5
7ACD
  8
1
  6
CONTINUOUS
 10
982.95384799999999
 20
851.44478100000003
 30
0.0
 11
982.95384799999999
 21
826.44478100000003
 31
0.0
  0
LINE
  5
7ACE
  8
1
  6
CONTINUOUS
 10
1007.953848
 20
826.44478100000003
 30
0.0
 11
982.95384799999999
 21
826.44478100000003
 31
0.0
  0
LINE
  5
7ACF
  8
2
  6
CENTER
 10
903.45384799999999
 20
1001.444781
 30
0.0
 11
833.45384799999999
 21
1001.444781
 31
0.0
  0
CIRCLE
  5
7AD0
  8
1
  6
CONTINUOUS
 10
868.45384799999999
 20
1001.444781
 30
0.0
 40
35.0
  0
LINE
  5
7AD1
  8
1
  6
CONTINUOUS
 10
743.95384799999999
 20
1216.4447809999999
 30
0.0
 11
728.95384799999999
 21
1201.4447809999999
 31
0.0
  0
LINE
  5
7AD2
  8
1
  6
CONTINUOUS
 10
790.95384799999999
 20
929.44478100000015
 30
0.0
 11
799.15384800000004
 21
952.24478099999999
 31
0.0
  0
LINE
  5
7AD3
  8
1
  6
CONTINUOUS
 10
742.95384799999988
 20
1201.4447809999999
 30
0.0
 11
742.95384799999988
 21
1216.4447809999999
 31
0.0
  0
LINE
  5
7AD4
  8
1
  6
CONTINUOUS
 10
753.95384799999999
 20
1201.4447809999999
 30
0.0
 11
742.95384799999988
 21
1201.4447809999999
 31
0.0
  0
LINE
  5
7AD5
  8
1
  6
CONTINUOUS
 10
753.95384799999999
 20
1201.4447809999999
 30
0.0
 11
753.95384799999999
 21
1099.4447809999999
 31
0.0
  0
LINE
  5
7AD6
  8
2
  6
CENTER
 10
868.45384799999999
 20
966.44478100000003
 30
0.0
 11
868.45384799999999
 21
1036.4447809999999
 31
0.0
  0
LINE
  5
7AD7
  8
1
  6
CONTINUOUS
 10
945.95384799999999
 20
929.44478100000015
 30
0.0
 11
937.75384799999995
 21
952.24478099999999
 31
0.0
  0
LINE
  5
7AD8
  8
1
  6
CONTINUOUS
 10
783.45384799999988
 20
1790.9353189999999
 30
0.0
 11
783.45384799999988
 21
1981.7353189999999
 31
0.0
  0
LINE
  5
7AD9
  8
1
  6
CONTINUOUS
 10
953.45384799999999
 20
1790.9353189999999
 30
0.0
 11
953.45384799999999
 21
1981.7353189999999
 31
0.0
  0
LINE
  5
7ADA
  8
1
  6
CONTINUOUS
 10
1007.953848
 20
2123.2353189999999
 30
0.0
 11
1007.953848
 21
1693.2353189999999
 31
0.0
  0
LINE
  5
7ADB
  8
1
  6
CONTINUOUS
 10
742.95384799999988
 20
1909.2353189999999
 30
0.0
 11
742.95384799999988
 21
2021.2353189999999
 31
0.0
  0
LINE
  5
7ADC
  8
1
  6
CONTINUOUS
 10
833.45384799999999
 20
1726.135319
 30
0.0
 11
903.45384799999999
 21
1726.135319
 31
0.0
  0
LINE
  5
7ADD
  8
1
  6
CONTINUOUS
 10
833.45384799999999
 20
1761.135319
 30
0.0
 11
903.45384799999999
 21
1761.135319
 31
0.0
  0
LINE
  5
7ADE
  8
1
  6
CONTINUOUS
 10
783.45384799999988
 20
1790.9353189999999
 30
0.0
 11
953.45384799999999
 21
1790.9353189999999
 31
0.0
  0
LINE
  5
7ADF
  8
1
  6
CONTINUOUS
 10
692.95384799999988
 20
1901.635319
 30
0.0
 11
692.95384799999988
 21
1777.2353189999999
 31
0.0
  0
LINE
  5
7AE0
  8
1
  6
CONTINUOUS
 10
682.95384799999999
 20
1901.635319
 30
0.0
 11
682.95384799999999
 21
1909.635319
 31
0.0
  0
LINE
  5
7AE1
  8
1
  6
CONTINUOUS
 10
833.45384799999999
 20
1761.135319
 30
0.0
 11
833.45384799999999
 21
1726.135319
 31
0.0
  0
LINE
  5
7AE2
  8
1
  6
CONTINUOUS
 10
1007.953848
 20
1777.2353189999999
 30
0.0
 11
877.95384799999988
 21
1777.2353189999999
 31
0.0
  0
LINE
  5
7AE3
  8
1
  6
CONTINUOUS
 10
903.45384799999999
 20
1761.135319
 30
0.0
 11
903.45384799999999
 21
1726.135319
 31
0.0
  0
LINE
  5
7AE4
  8
1
  6
CONTINUOUS
 10
877.95384799999988
 20
1761.135319
 30
0.0
 11
877.95384799999988
 21
1790.9353189999999
 31
0.0
  0
LINE
  5
7AE5
  8
1
  6
CONTINUOUS
 10
858.95384799999988
 20
1761.135319
 30
0.0
 11
858.95384799999988
 21
1790.9353189999999
 31
0.0
  0
LINE
  5
7AE6
  8
1
  6
CONTINUOUS
 10
965.65384800000004
 20
1780.2353189999999
 30
0.0
 11
965.65384800000004
 21
1705.2353189999999
 31
0.0
  0
LINE
  5
7AE7
  8
1
  6
CONTINUOUS
 10
982.95384799999999
 20
1777.2353189999999
 30
0.0
 11
982.95384799999999
 21
1693.2353189999999
 31
0.0
  0
LINE
  5
7AE8
  8
1
  6
CONTINUOUS
 10
982.95384799999999
 20
1693.2353189999999
 30
0.0
 11
1007.953848
 21
1693.2353189999999
 31
0.0
  0
LINE
  5
7AE9
  8
1
  6
CONTINUOUS
 10
742.95384799999988
 20
2001.2353189999999
 30
0.0
 11
1007.953848
 21
2001.2353189999999
 31
0.0
  0
LINE
  5
7AEA
  8
1
  6
CONTINUOUS
 10
783.45384799999988
 20
1981.7353189999999
 30
0.0
 11
953.45384799999999
 21
1981.7353189999999
 31
0.0
  0
LINE
  5
7AEB
  8
1
  6
CONTINUOUS
 10
682.95384799999999
 20
2027.835319
 30
0.0
 11
682.95384799999999
 21
2020.835319
 31
0.0
  0
LINE
  5
7AEC
  8
1
  6
CONTINUOUS
 10
982.95384799999999
 20
2123.2353189999999
 30
0.0
 11
982.95384799999999
 21
2001.2353189999999
 31
0.0
  0
LINE
  5
7AED
  8
1
  6
CONTINUOUS
 10
982.95384799999999
 20
2123.2353189999999
 30
0.0
 11
1007.953848
 21
2123.2353189999999
 31
0.0
  0
LINE
  5
7AEE
  8
1
  6
CONTINUOUS
 10
1346.118363
 20
826.44478100000003
 30
0.0
 11
1776.1183629999989
 21
826.44478100000003
 31
0.0
  0
LINE
  5
7AEF
  8
1
  6
CONTINUOUS
 10
1346.118363
 20
851.44478100000003
 30
0.0
 11
1776.1183629999989
 21
851.44478100000003
 31
0.0
  0
LINE
  5
7AF0
  8
1
  6
CONTINUOUS
 10
1346.118363
 20
851.44478100000003
 30
0.0
 11
1346.118363
 21
826.44478100000003
 31
0.0
  0
LINE
  5
7AF1
  8
1
  6
CONTINUOUS
 10
1554.5183629999999
 20
1186.4447809999999
 30
0.0
 11
1554.5183629999999
 21
901.44478100000003
 31
0.0
  0
LINE
  5
7AF2
  8
1
  6
CONTINUOUS
 10
1433.118363
 20
901.44478100000003
 30
0.0
 11
1433.118363
 21
1181.4447809999999
 31
0.0
  0
LINE
  5
7AF3
  8
1
  6
CONTINUOUS
 10
1358.1183629999989
 20
901.44478100000003
 30
0.0
 11
1358.1183629999989
 21
1181.4447809999999
 31
0.0
  0
LINE
  5
7AF4
  8
1
  6
CONTINUOUS
 10
1455.118363
 20
1053.144781
 30
0.0
 11
1455.118363
 21
901.44478100000003
 31
0.0
  0
LINE
  5
7AF5
  8
1
  6
CONTINUOUS
 10
1358.1183629999989
 20
901.44478100000003
 30
0.0
 11
1654.118363
 21
901.44478100000003
 31
0.0
  0
LINE
  5
7AF6
  8
1
  6
CONTINUOUS
 10
1430.118363
 20
901.44478100000003
 30
0.0
 11
1430.118363
 21
851.44478100000003
 31
0.0
  0
LINE
  5
7AF7
  8
1
  6
CONTINUOUS
 10
1654.118363
 20
901.44478100000003
 30
0.0
 11
1654.118363
 21
851.44478100000003
 31
0.0
  0
LINE
  5
7AF8
  8
1
  6
CONTINUOUS
 10
1776.1183629999989
 20
851.44478100000003
 30
0.0
 11
1776.1183629999989
 21
826.44478100000003
 31
0.0
  0
LINE
  5
7AF9
  8
1
  6
CONTINUOUS
 10
1561.118363
 20
1216.4447809999999
 30
0.0
 11
1576.118363
 21
1201.4447809999999
 31
0.0
  0
LINE
  5
7AFA
  8
1
  6
CONTINUOUS
 10
1570.118363
 20
952.34478100000001
 30
0.0
 11
1666.118363
 21
952.34478100000001
 31
0.0
  0
LINE
  5
7AFB
  8
1
  6
CONTINUOUS
 10
1541.118363
 20
1216.4447809999999
 30
0.0
 11
1695.1183629999989
 21
1216.4447809999999
 31
0.0
  0
LINE
  5
7AFC
  8
1
  6
CONTINUOUS
 10
1483.218363
 20
1074.4447809999999
 30
0.0
 11
1413.118363
 21
1074.4447809999999
 31
0.0
  0
LINE
  5
7AFD
  8
1
  6
CONTINUOUS
 10
1514.8183630000001
 20
1098.4447809999999
 30
0.0
 11
1413.118363
 21
1098.4447809999999
 31
0.0
  0
LINE
  5
7AFE
  8
1
  6
CONTINUOUS
 10
1554.5183629999999
 20
1128.5447810000001
 30
0.0
 11
1455.118363
 21
1053.144781
 31
0.0
  0
LINE
  5
7AFF
  8
1
  6
CONTINUOUS
 10
1413.118363
 20
1041.4447809999999
 30
0.0
 11
1413.118363
 21
1131.4447809999999
 31
0.0
  0
LINE
  5
7B00
  8
1
  6
CONTINUOUS
 10
1378.118363
 20
1041.4447809999999
 30
0.0
 11
1378.118363
 21
1131.4447809999999
 31
0.0
  0
LINE
  5
7B01
  8
1
  6
CONTINUOUS
 10
1413.118363
 20
1041.4447809999999
 30
0.0
 11
1378.118363
 21
1041.4447809999999
 31
0.0
  0
LINE
  5
7B02
  8
1
  6
CONTINUOUS
 10
1413.118363
 20
1131.4447809999999
 30
0.0
 11
1378.118363
 21
1131.4447809999999
 31
0.0
  0
LINE
  5
7B03
  8
1
  6
CONTINUOUS
 10
1413.118363
 20
1036.4447809999999
 30
0.0
 11
1378.118363
 21
1036.4447809999999
 31
0.0
  0
LINE
  5
7B04
  8
1
  6
CONTINUOUS
 10
1413.118363
 20
966.44478100000003
 30
0.0
 11
1378.118363
 21
966.44478100000003
 31
0.0
  0
LINE
  5
7B05
  8
1
  6
CONTINUOUS
 10
1378.118363
 20
966.44478100000003
 30
0.0
 11
1378.118363
 21
1036.4447809999999
 31
0.0
  0
LINE
  5
7B06
  8
1
  6
CONTINUOUS
 10
1413.118363
 20
966.44478100000003
 30
0.0
 11
1413.118363
 21
1036.4447809999999
 31
0.0
  0
LINE
  5
7B07
  8
1
  6
CONTINUOUS
 10
1413.118363
 20
1010.944781
 30
0.0
 11
1455.118363
 21
1010.944781
 31
0.0
  0
LINE
  5
7B08
  8
1
  6
CONTINUOUS
 10
1413.118363
 20
991.94478100000015
 30
0.0
 11
1455.118363
 21
991.94478100000015
 31
0.0
  0
LINE
  5
7B09
  8
1
  6
CONTINUOUS
 10
1433.118363
 20
1181.4447809999999
 30
0.0
 11
1358.1183629999989
 21
1181.4447809999999
 31
0.0
  0
ARC
  5
7B0A
  8
1
  6
CONTINUOUS
 10
1570.118363
 20
960.34478100000001
 30
0.0
 40
8.0
 50
180.0
 51
270.0
  0
LINE
  5
7B0B
  8
1
  6
CONTINUOUS
 10
1562.118363
 20
960.34478100000001
 30
0.0
 11
1562.118363
 21
1216.4447809999999
 31
0.0
  0
LINE
  5
7B0C
  8
1
  6
CONTINUOUS
 10
1554.5183629999999
 20
986.44478099999992
 30
0.0
 11
1562.118363
 21
986.44478099999992
 31
0.0
  0
LINE
  5
7B0D
  8
1
  6
CONTINUOUS
 10
1554.5183629999999
 20
1186.4447809999999
 30
0.0
 11
1562.118363
 21
1186.4447809999999
 31
0.0
  0
LINE
  5
7B0E
  8
1
  6
CONTINUOUS
 10
1682.118363
 20
1186.4447809999999
 30
0.0
 11
1674.118363
 21
1186.4447809999999
 31
0.0
  0
LINE
  5
7B0F
  8
1
  6
CONTINUOUS
 10
1682.118363
 20
986.44478099999992
 30
0.0
 11
1674.118363
 21
986.44478099999992
 31
0.0
  0
LINE
  5
7B10
  8
1
  6
CONTINUOUS
 10
1675.718363
 20
1216.4447809999999
 30
0.0
 11
1660.118363
 21
1201.4447809999999
 31
0.0
  0
LINE
  5
7B11
  8
1
  6
CONTINUOUS
 10
1618.1183629999989
 20
1201.4447809999999
 30
0.0
 11
1576.118363
 21
1201.4447809999999
 31
0.0
  0
LINE
  5
7B12
  8
1
  6
CONTINUOUS
 10
1618.1183629999989
 20
1201.4447809999999
 30
0.0
 11
1660.118363
 21
1201.4447809999999
 31
0.0
  0
ARC
  5
7B13
  8
1
  6
CONTINUOUS
 10
1666.118363
 20
960.34478100000001
 30
0.0
 40
8.0
 50
270.0
 51
0.0
  0
LINE
  5
7B14
  8
1
  6
CONTINUOUS
 10
1674.118363
 20
960.34478100000001
 30
0.0
 11
1674.118363
 21
1216.4447809999999
 31
0.0
  0
LINE
  5
7B15
  8
1
  6
CONTINUOUS
 10
1682.118363
 20
1186.4447809999999
 30
0.0
 11
1682.118363
 21
986.44478099999992
 31
0.0
  0
DIMENSION
  5
7B29
  8
3
  6
CONTINUOUS
  2
*D1
 10
582.95384799999999
 20
777.58129799999995
 30
0.0
 11
517.23956199999986
 21
777.58129799999995
 31
0.0
 70
   128
 13
447.95384799999999
 23
826.44478100000003
 33
0.0
 14
582.95384799999999
 24
851.44478100000003
 34
0.0
1001
ACAD
1000
DSTYLE
1002
{
1070
   287
1070
     3
1070
   287
1070
     3
1070
    40
1040
10.0
1070
   143
1040
0.039
1070
   172
1070
     1
1070
   271
1070
     0
1070
   279
1070
     0
1070
   288
1070
     1
1002
}
  0
DIMENSION
  5
7B35
  8
3
  6
CONTINUOUS
  2
*D2
 10
1007.953848
 20
777.58129799999995
 30
0.0
 11
795.45384799999999
 21
802.58129800000006
 31
0.0
 70
     0
 13
582.95384799999999
 23
851.44478100000003
 33
0.0
 14
1007.953848
 24
826.44478100000003
 34
0.0
1001
ACAD
1000
DSTYLE
1002
{
1070
   287
1070
     4
1070
   287
1070
     4
1070
    40
1040
10.0
1070
    75
1070
     1
1070
   143
1040
0.039
1070
   172
1070
     1
1070
   271
1070
     0
1070
   279
1070
     1
1070
   288
1070
     1
1002
}
  0
DIMENSION
  5
7B43
  8
3
  6
CONTINUOUS
  2
*D3
 10
582.95384799999999
 20
1251.8417320000001
 30
0.0
 11
664.52947900000004
 21
1251.8417320000001
 31
0.0
 70
   128
 13
742.95384799999988
 23
1216.4447809999999
 33
0.0
 14
582.95384799999999
 24
1216.4447809999999
 34
0.0
1001
ACAD
1000
DSTYLE
1002
{
1070
   287
1070
     3
1070
   287
1070
     3
1070
    40
1040
10.0
1070
   143
1040
0.039
1070
   172
1070
     1
1070
   271
1070
     0
1070
   279
1070
     0
1070
   288
1070
     1
1002
}
  0
DIMENSION
  5
7B97
  8
3
  6
CONTINUOUS
  2
*D4
 10
582.95384799999999
 20
1310.918044
 30
0.0
 11
521.63175699999999
 21
1336.9954437484671
 31
0.0
 70
   128
 13
460.30966599999999
 23
1086.4447809999999
 33
0.0
 14
582.95384799999999
 24
1216.4447809999999
 34
0.0
1001
ACAD
1000
DSTYLE
1002
{
1070
   288
1070
     1
1070
   172
1070
     1
1070
    40
1040
10.0
1070
   271
1070
     0
1070
   143
1040
0.039
1002
}
  0
DIMENSION
  5
7BB0
  8
3
  6
CONTINUOUS
  2
*D5
 10
753.95384799999999
 20
1310.918044
 30
0.0
 11
668.45384799999999
 21
1335.918044
 31
0.0
 70
     0
 13
582.95384799999999
 23
1216.4447809999999
 33
0.0
 14
753.95384799999999
 24
1201.4447809999999
 34
0.0
1001
ACAD
1000
DSTYLE
1002
{
1070
   287
1070
     4
1070
   287
1070
     4
1070
    40
1040
10.0
1070
    75
1070
     1
1070
   143
1040
0.039
1070
   172
1070
     1
1070
   271
1070
     0
1070
   279
1070
     1
1070
   288
1070
     1
1002
}
  0
DIMENSION
  5
7BCB
  8
3
  6
CONTINUOUS
  2
*D6
 10
1072.102159999999
 20
851.44478100000003
 30
0.0
 11
1047.102159999999
 21
968.94478100000015
 31
0.0
 70
     0
 13
965.65384800000004
 23
1086.4447809999999
 33
0.0
 14
1007.953848
 24
851.44478100000003
 34
0.0
 50
90.0
1001
ACAD
1000
DSTYLE
1002
{
1070
   287
1070
     3
1070
   287
1070
     3
1070
    40
1040
10.0
1070
   143
1040
0.039
1070
   172
1070
     1
1070
   271
1070
     0
1070
   279
1070
     0
1070
   288
1070
     1
1002
}
  0
DIMENSION
  5
7BDB
  8
3
  6
CONTINUOUS
  2
*D7
 10
1072.1021599999999
 20
826.44478100000003
 30
0.0
 11
1072.102159999999
 21
752.15906671428581
 31
0.0
 70
   128
 13
1007.953848
 23
851.44478100000003
 33
0.0
 14
1007.953848
 24
826.44478100000003
 34
0.0
 50
90.0
1001
ACAD
1000
DSTYLE
1002
{
1070
   287
1070
     3
1070
   287
1070
     3
1070
    40
1040
10.0
1070
   143
1040
0.039
1070
   172
1070
     1
1070
   271
1070
     0
1070
   279
1070
     0
1070
   288
1070
     1
1002
}
  0
DIMENSION
  5
7C02
  8
3
  6
CONTINUOUS
  2
*D8
 10
1143.8316589999999
 20
826.44478100000003
 30
0.0
 11
1143.831658999999
 21
1027.345812
 31
0.0
 70
   128
 13
764.95384799999999
 23
1216.4447809999999
 33
0.0
 14
1007.953848
 24
826.44478100000003
 34
0.0
 50
90.0
1001
ACAD
1000
DSTYLE
1002
{
1070
   287
1070
     3
1070
   287
1070
     3
1070
    40
1040
10.0
1070
   143
1040
0.039
1070
   172
1070
     1
1070
   271
1070
     0
1070
   279
1070
     0
1070
   288
1070
     1
1002
}
  0
LINE
  5
7C03
  8
2
  6
CENTER
 10
582.95384799999999
 20
1645.8529039999989
 30
0.0
 11
582.95384799999999
 21
2080.027407
 31
0.0
  0
LINE
  5
7C04
  8
2
  6
CENTER
 10
971.67369431319821
 20
1086.4447809999999
 30
0.0
 11
410.25957899999997
 21
1086.4447809999999
 31
0.0
  0
DIMENSION
  5
7C11
  8
3
  6
CONTINUOUS
  2
*D9
 10
1007.953848
 20
1620.779800999999
 30
0.0
 11
720.41445399999986
 21
1620.779800999999
 31
0.0
 70
   128
 13
447.95384799999999
 23
1693.2353189999999
 33
0.0
 14
1007.953848
 24
1693.2353189999999
 34
0.0
1001
ACAD
1000
DSTYLE
1002
{
1070
   287
1070
     3
1070
   287
1070
     3
1070
    40
1040
10.0
1070
   143
1040
0.039
1070
   172
1070
     1
1070
   271
1070
     0
1070
   279
1070
     0
1070
   288
1070
     1
1002
}
  0
DIMENSION
  5
7C1E
  8
3
  6
CONTINUOUS
  2
*D10
 10
1112.5261370000001
 20
1693.2353189999999
 30
0.0
 11
1112.5261369999989
 21
1924.771044999999
 31
0.0
 70
   128
 13
1007.953848
 23
2123.2353189999999
 33
0.0
 14
1007.953848
 24
1693.2353189999999
 34
0.0
 50
90.0
1001
ACAD
1000
DSTYLE
1002
{
1070
   287
1070
     3
1070
   287
1070
     3
1070
    40
1040
10.0
1070
   143
1040
0.039
1070
   172
1070
     1
1070
   271
1070
     0
1070
   279
1070
     0
1070
   288
1070
     1
1002
}
  0
DIMENSION
  5
7C4B
  8
3
  6
CONTINUOUS
  2
*D11
 10
1674.118363
 20
1243.8699059999999
 30
0.0
 11
1618.1183629999989
 21
1267.7012722866571
 31
0.0
 70
   128
 13
1562.118363
 23
1216.4447809999999
 33
0.0
 14
1674.118363
 24
1216.4447809999999
 34
0.0
1001
ACAD
1000
DSTYLE
1002
{
1070
   288
1070
     1
1070
   172
1070
     1
1070
    40
1040
10.0
1070
   271
1070
     0
1070
   143
1040
0.039
1002
}
  0
DIMENSION
  5
7C59
  8
3
  6
CONTINUOUS
  2
*D12
 10
1618.1183629999989
 20
762.79385500000001
 30
0.0
 11
1487.1936929999999
 21
762.79385500000001
 31
0.0
 70
   128
 13
1346.118363
 23
826.44478100000003
 33
0.0
 14
1618.1183629999989
 24
826.44478100000003
 34
0.0
1001
ACAD
1000
DSTYLE
1002
{
1070
   287
1070
     3
1070
   287
1070
     3
1070
    40
1040
10.0
1070
   143
1040
0.039
1070
   172
1070
     1
1070
   271
1070
     0
1070
   279
1070
     0
1070
   288
1070
     1
1002
}
  0
DIMENSION
  5
7C65
  8
3
  6
CONTINUOUS
  2
*D13
 10
1776.1183629999989
 20
762.79385500000001
 30
0.0
 11
1697.118363
 21
787.79385500000001
 31
0.0
 70
     0
 13
1618.1183629999989
 23
826.44478100000003
 33
0.0
 14
1776.1183629999989
 24
826.44478100000003
 34
0.0
1001
ACAD
1000
DSTYLE
1002
{
1070
   287
1070
     4
1070
   287
1070
     4
1070
    40
1040
10.0
1070
    75
1070
     1
1070
   143
1040
0.039
1070
   172
1070
     1
1070
   271
1070
     0
1070
   279
1070
     1
1070
   288
1070
     1
1002
}
  0
DIMENSION
  5
7C72
  8
3
  6
CONTINUOUS
  2
*D14
 10
1618.1183629999989
 20
1306.130717
 30
0.0
 11
1485.807284999999
 21
1306.130717
 31
0.0
 70
   128
  1
MAX\P260
 13
1358.1183629999989
 23
1181.4447809999999
 33
0.0
 14
1618.1183629999989
 24
1288.2259391422961
 34
0.0
1001
ACAD
1000
DSTYLE
1002
{
1070
   287
1070
     3
1070
   287
1070
     3
1070
    40
1040
10.0
1070
   143
1040
0.039
1070
   172
1070
     1
1070
   271
1070
     0
1070
   279
1070
     0
1070
   288
1070
     1
1002
}
  0
DIMENSION
  5
7C80
  8
3
  6
CONTINUOUS
  2
*D15
 10
1682.118363
 20
1306.130717
 30
0.0
 11
1650.788947
 21
1306.2675099999999
 31
0.0
 70
   128
 13
1618.1183629999989
 23
1288.2259391422961
 33
0.0
 14
1682.118363
 24
1186.4447809999999
 34
0.0
1001
ACAD
1000
DSTYLE
1002
{
1070
   287
1070
     4
1070
   287
1070
     4
1070
    40
1040
10.0
1070
    75
1070
     1
1070
   143
1040
0.039
1070
   172
1070
     1
1070
   271
1070
     0
1070
   279
1070
     1
1070
   288
1070
     1
1002
}
  0
LINE
  5
7C97
  8
3
  6
CONTINUOUS
 10
1682.118363
 20
1086.4447809999999
 30
0.0
 11
1682.118363
 21
1166.4447809999999
 31
0.0
  0
LINE
  5
7C98
  8
3
  6
CONTINUOUS
 10
1682.118363
 20
1166.4447809999999
 30
0.0
 11
1703.472178
 21
1166.4447809999999
 31
0.0
  0
LINE
  5
7C99
  8
3
  6
CONTINUOUS
 10
1682.118363
 20
1086.4447809999999
 30
0.0
 11
1682.118363
 21
1006.444781
 31
0.0
  0
LINE
  5
7C9A
  8
3
  6
CONTINUOUS
 10
1682.118363
 20
1006.444781
 30
0.0
 11
1710.4041719999991
 21
1006.444781
 31
0.0
  0
DIMENSION
  5
7CA7
  8
3
  6
CONTINUOUS
  2
*D16
 10
1767.246592
 20
1006.444781
 30
0.0
 11
1744.4464117797791
 21
1086.4447809999999
 31
0.0
 70
   128
 13
1682.118363
 23
1166.4447809999999
 33
0.0
 14
1682.118363
 24
1006.444781
 34
0.0
 50
90.0
1001
ACAD
1000
DSTYLE
1002
{
1070
   288
1070
     1
1070
   172
1070
     1
1070
    40
1040
10.0
1070
     3
1000
φ<>
1070
   271
1070
     0
1070
   143
1040
0.039
1002
}
  0
LINE
  5
7CA8
  8
4
  6
CONTINUOUS
 10
1850.0
 20
500.0
 30
0.0
 11
1850.0
 21
300.0
 31
0.0
  0
LINE
  5
7CA9
  8
4
  6
CONTINUOUS
 10
1150.0
 20
500.0
 30
0.0
 11
1150.0
 21
300.0
 31
0.0
  0
LINE
  5
7CAA
  8
4
  6
CONTINUOUS
 10
650.0
 20
500.0
 30
0.0
 11
650.0
 21
300.0
 31
0.0
  0
LINE
  5
7CAD
  8
4
  6
CONTINUOUS
 10
650.0
 20
300.0
 30
0.0
 11
1850.0
 21
300.0
 31
0.0
  0
LINE
  5
7CAE
  8
4
  6
CONTINUOUS
 10
650.0
 20
400.0
 30
0.0
 11
1850.0
 21
400.0
 31
0.0
  0
TEXT
  5
7CAF
  8
4
  6
CONTINUOUS
 10
688.50208099999998
 20
431.543026
 30
0.0
 40
50.0
  1
機器名称
  0
TEXT
  5
7CB0
  8
4
  6
CONTINUOUS
 10
686.258106
 20
321.64515699999993
 30
0.0
 40
50.0
  1
機器型番
  0
TEXT
  5
7CB1
  8
4
  6
CONTINUOUS
 10
1177.678744999999
 20
422.57176900000002
 30
0.0
 40
45.0
  1
ミツヤニューマルチファン
  0
TEXT
  5
7CB2
  8
4
  6
CONTINUOUS
 10
1186.6544960000001
 20
317.159584
 30
0.0
 40
50.0
  1
NM#1-1
  0
TEXT
  5
7CB4
  8
4
  6
CONTINUOUS
 10
904.78576499999997
 20
2383.4288409999999
 30
0.0
 40
54.0
  1
天井吊ベット
  0
TEXT
  5
7CB5
  8
4
  6
CONTINUOUS
 10
316.16759300000001
 20
2533.8809759999999
 30
0.0
 40
72.0
  1
ベルト駆動式片吸込片持多翼ファン
  0
LINE
  5
7CB6
  8
4
  6
CONTINUOUS
 10
250.0
 20
2469.408754
 30
0.0
 11
1850.0
 21
2469.408754
 31
0.0
  0
LINE
  5
7CB7
  8
4
  6
CONTINUOUS
 10
250.0
 20
2669.408754
 30
0.0
 11
1850.0
 21
2669.408754
 31
0.0
  0
LINE
  5
7CB8
  8
4
  6
CONTINUOUS
 10
650.0
 20
500.0
 30
0.0
 11
1850.0
 21
500.0
 31
0.0
  0
LINE
  5
7CB9
  8
4
  6
CONTINUOUS
 10
250.0
 20
2669.408754
 30
0.0
 11
250.0
 21
2469.408754
 31
0.0
  0
TEXT
  5
7CBA
  8
4
  6
CONTINUOUS
 10
468.92693300000002
 20
2382.3194779999999
 30
0.0
 40
54.0
  1
左回転上向
  0
TEXT
  5
7CBB
  8
4
  6
CONTINUOUS
 10
1468.9695589999999
 20
2706.0610809999998
 30
0.0
 40
56.0
  1
No.
  0
TEXT
  5
7CBC
  8
4
  6
CONTINUOUS
 10
1311.296063
 20
2383.4288409999999
 30
0.0
 40
54.0
  1
縮尺：1/10
  0
LINE
  5
7CBD
  8
4
  6
CONTINUOUS
 10
1850.0
 20
2669.408754
 30
0.0
 11
1850.0
 21
2469.408754
 31
0.0
  0
LINE
  5
7CBF
  8
4
  6
CONTINUOUS
 10
1440.617422
 20
2681.2635829999999
 30
0.0
 11
1440.617422
 21
2786.6522620000001
 31
0.0
  0
LINE
  5
7CC0
  8
4
  6
CONTINUOUS
 10
1440.617422
 20
2786.6522620000001
 30
0.0
 11
1850.0
 21
2786.6522620000001
 31
0.0
  0
LINE
  5
7CC1
  8
4
  6
CONTINUOUS
 10
1850.0
 20
2786.6522620000001
 30
0.0
 11
1850.0
 21
2681.2635829999999
 31
0.0
  0
LINE
  5
7CC2
  8
4
  6
CONTINUOUS
 10
1850.0
 20
2681.2635829999999
 30
0.0
 11
1440.617422
 21
2681.2635829999999
 31
0.0
  0
LINE
  5
7CDD
  8
2
  6
CENTER
 10
788.27743799999985
 20
1965.2353189999999
 30
0.0
 11
404.69899299999997
 21
1965.2353189999999
 31
0.0
  0
DIMENSION
  5
7D03
  8
3
  6
CONTINUOUS
  2
*D17
 10
1072.102159999999
 20
1216.4447809999999
 30
0.0
 11
1072.4156529999991
 21
1149.9999989999999
 31
0.0
 70
   128
 13
965.65384800000004
 23
1086.4447809999999
 33
0.0
 14
764.95384799999999
 24
1216.4447809999999
 34
0.0
 50
90.0
1001
ACAD
1000
DSTYLE
1002
{
1070
   287
1070
     4
1070
   287
1070
     4
1070
    40
1040
10.0
1070
    75
1070
     1
1070
   143
1040
0.039
1070
   172
1070
     1
1070
   271
1070
     0
1070
   279
1070
     1
1070
   288
1070
     1
1002
}
  0
LINE
  5
7D1F
  8
2
  6
CENTER
 10
1618.1183629999989
 20
1249.313922999999
 30
0.0
 11
1618.1183629999989
 21
822.03765599999997
 31
0.0
  0
DIMENSION
  5
7DC6
  8
3
  2
*D18
 10
1007.953848
 20
1370.652611023484
 30
0.0
 11
747.76775031065688
 21
1370.652611023484
 31
0.0
 70
   128
 13
460.30966599999999
 23
1091.4447809999999
 33
0.0
 14
1007.953848
 24
901.44478100000003
 34
0.0
1001
ACAD
1000
DSTYLE
1002
{
1070
   287
1070
     3
1070
   287
1070
     3
1070
    40
1040
10.0
1070
   143
1040
0.039
1070
   172
1070
     1
1070
   271
1070
     0
1070
   279
1070
     0
1070
   288
1070
     1
1002
}
  0
ENDSEC
  0
EOF
