  0
SECTION
  2
HEADER
  9
$ACADVER
  1
AC1009
  9
$INSBASE
 10
0.0
 20
0.0
 30
0.0
  9
$EXTMIN
 10
250.0
 20
300.0
 30
0.0
  9
$EXTMAX
 10
1871.342617999999
 20
2786.6522620000001
 30
0.0
  9
$LIMMIN
 10
0.0
 20
0.0
  9
$LIMMAX
 10
297.0
 20
210.0
  9
$ORTHOMODE
 70
     0
  9
$REGENMODE
 70
     1
  9
$FILLMODE
 70
     0
  9
$QTEXTMODE
 70
     0
  9
$MIRRTEXT
 70
     1
  9
$DRAGMODE
 70
     2
  9
$LTSCALE
 40
100.0
  9
$OSMODE
 70
    37
  9
$ATTMODE
 70
     1
  9
$TEXTSIZE
 40
180.0
  9
$TRACEWID
 40
0.05
  9
$TEXTSTYLE
  7
STANDARD
  9
$CLAYER
  8
3
  9
$CELTYPE
  6
BYLAYER
  9
$CECOLOR
 62
   256
  9
$DIMSCALE
 40
10.0
  9
$DIMASZ
 40
2.0
  9
$DIMEXO
 40
0.5
  9
$DIMDLI
 40
10.0
  9
$DIMRND
 40
0.0
  9
$DIMDLE
 40
0.0
  9
$DIMEXE
 40
1.0
  9
$DIMTP
 40
1.0
  9
$DIMTM
 40
1.0
  9
$DIMTXT
 40
3.0
  9
$DIMCEN
 40
0.0
  9
$DIMTSZ
 40
0.0
  9
$DIMTOL
 70
     0
  9
$DIMLIM
 70
     0
  9
$DIMTIH
 70
     0
  9
$DIMTOH
 70
     0
  9
$DIMSE1
 70
     0
  9
$DIMSE2
 70
     0
  9
$DIMTAD
 70
     1
  9
$DIMZIN
 70
     8
  9
$DIMBLK
  1

  9
$DIMASO
 70
     1
  9
$DIMSHO
 70
     1
  9
$DIMPOST
  1

  9
$DIMAPOST
  1

  9
$DIMALT
 70
     0
  9
$DIMALTD
 70
     2
  9
$DIMALTF
 40
0.039
  9
$DIMLFAC
 40
1.0
  9
$DIMTOFL
 70
     1
  9
$DIMTVP
 40
0.0
  9
$DIMTIX
 70
     0
  9
$DIMSOXD
 70
     0
  9
$DIMSAH
 70
     1
  9
$DIMBLK1
  1
OPEN
  9
$DIMBLK2
  1
OPEN
  9
$DIMSTYLE
  2
IGA
  9
$DIMCLRD
 70
     0
  9
$DIMCLRE
 70
     0
  9
$DIMCLRT
 70
     0
  9
$DIMTFAC
 40
10.0
  9
$DIMGAP
 40
1.0
  9
$LUNITS
 70
     2
  9
$LUPREC
 70
     3
  9
$SKETCHINC
 40
0.1
  9
$FILLETRAD
 40
50.0
  9
$AUNITS
 70
     0
  9
$AUPREC
 70
     0
  9
$MENU
  1
acad
  9
$ELEVATION
 40
0.0
  9
$PELEVATION
 40
0.0
  9
$THICKNESS
 40
0.0
  9
$LIMCHECK
 70
     0
  9
$BLIPMODE
 70
     0
  9
$CHAMFERA
 40
0.5
  9
$CHAMFERB
 40
0.5
  9
$SKPOLY
 70
     0
  9
$TDCREATE
 40
2450735.5787398149
  9
$TDUPDATE
 40
2454953.858203819
  9
$TDINDWG
 40
0.0059906597
  9
$TDUSRTIMER
 40
0.0059906597
  9
$USRTIMER
 70
     1
  9
$ANGBASE
 50
0.0
  9
$ANGDIR
 70
     0
  9
$PDMODE
 70
     0
  9
$PDSIZE
 40
0.0
  9
$PLINEWID
 40
0.0
  9
$COORDS
 70
     1
  9
$SPLFRAME
 70
     0
  9
$SPLINETYPE
 70
     6
  9
$SPLINESEGS
 70
     8
  9
$ATTDIA
 70
     0
  9
$ATTREQ
 70
     1
  9
$HANDLING
 70
 10241
  9
$HANDSEED
  5
7F70
  9
$SURFTAB1
 70
     6
  9
$SURFTAB2
 70
     6
  9
$SURFTYPE
 70
     6
  9
$SURFU
 70
     6
  9
$SURFV
 70
     6
  9
$UCSNAME
  2

  9
$UCSORG
 10
0.0
 20
0.0
 30
0.0
  9
$UCSXDIR
 10
1.0
 20
0.0
 30
0.0
  9
$UCSYDIR
 10
0.0
 20
1.0
 30
0.0
  9
$PUCSNAME
  2

  9
$PUCSORG
 10
0.0
 20
0.0
 30
0.0
  9
$PUCSXDIR
 10
1.0
 20
0.0
 30
0.0
  9
$PUCSYDIR
 10
0.0
 20
1.0
 30
0.0
  9
$USERI1
 70
     0
  9
$USERI2
 70
     0
  9
$USERI3
 70
     0
  9
$USERI4
 70
     0
  9
$USERI5
 70
     0
  9
$USERR1
 40
0.0
  9
$USERR2
 40
0.0
  9
$USERR3
 40
0.0
  9
$USERR4
 40
0.0
  9
$USERR5
 40
0.0
  9
$WORLDVIEW
 70
     1
  9
$SHADEDGE
 70
     3
  9
$SHADEDIF
 70
    70
  9
$TILEMODE
 70
     1
  9
$MAXACTVP
 70
    16
  9
$PLIMCHECK
 70
     0
  9
$PEXTMIN
 10
1.0000000000000000E+020
 20
1.0000000000000000E+020
 30
1.0000000000000000E+020
  9
$PEXTMAX
 10
-1.0000000000000000E+020
 20
-1.0000000000000000E+020
 30
-1.0000000000000000E+020
  9
$PLIMMIN
 10
0.0
 20
0.0
  9
$PLIMMAX
 10
12.0
 20
9.0
  9
$UNITMODE
 70
     0
  9
$VISRETAIN
 70
     0
  9
$PLINEGEN
 70
     0
  9
$PSLTSCALE
 70
     1
  0
ENDSEC
  0
SECTION
  2
TABLES
  0
TABLE
  2
VPORT
 70
     2
  0
VPORT
  2
*ACTIVE
 70
     0
 10
0.0
 20
0.0
 11
1.0
 21
1.0
 12
2773.3532996260369
 22
1842.618752942167
 13
0.0
 23
0.0
 14
10.0
 24
10.0
 15
10.0
 25
10.0
 16
0.0
 26
0.0
 36
1.0
 17
0.0
 27
0.0
 37
0.0
 40
3685.237518247654
 41
1.5051150895140659
 42
50.0
 43
0.0
 44
0.0
 50
0.0
 51
0.0
 71
     0
 72
   100
 73
     1
 74
     0
 75
     0
 76
     0
 77
     0
 78
     0
  0
ENDTAB
  0
TABLE
  2
LTYPE
 70
     2
  0
LTYPE
  2
CONTINUOUS
 70
     0
  3
Solid line
 72
    65
 73
     0
 40
0.0
  0
LTYPE
  2
CENTER
 70
     0
  3
____ _ ____ _ ____ _ ____ _ ____ _ ____ _ ____ 
 72
    65
 73
     4
 40
2.0
 49
1.25
 49
-0.25
 49
0.25
 49
-0.25
  0
ENDTAB
  0
TABLE
  2
LAYER
 70
     6
  0
LAYER
  2
0
 70
     0
 62
     7
  6
CONTINUOUS
  0
LAYER
  2
3
 70
     0
 62
     2
  6
CONTINUOUS
  0
LAYER
  2
2
 70
     0
 62
     3
  6
CENTER
  0
LAYER
  2
1
 70
     0
 62
     4
  6
CONTINUOUS
  0
LAYER
  2
4
 70
     0
 62
     7
  6
CONTINUOUS
  0
LAYER
  2
DEFPOINTS
 70
     0
 62
     7
  6
CONTINUOUS
  0
ENDTAB
  0
TABLE
  2
STYLE
 70
     1
  0
STYLE
  2
STANDARD
 70
     0
 40
0.0
 41
1.0
 50
0.0
 71
     0
 42
180.0
  3
simplex.shx
  4
extfont.shx
  0
ENDTAB
  0
TABLE
  2
VIEW
 70
     0
  0
ENDTAB
  0
TABLE
  2
UCS
 70
     0
  0
ENDTAB
  0
TABLE
  2
APPID
 70
     1
  0
APPID
  2
ACAD
 70
     0
  0
ENDTAB
  0
TABLE
  2
DIMSTYLE
 70
     1
  0
DIMSTYLE
  2
IGA
 70
     0
  3

  4

  5

  6
OPEN
  7
OPEN
 40
2.0
 41
2.0
 42
0.5
 43
10.0
 44
1.0
 45
0.0
 46
0.0
 47
1.0
 48
1.0
140
3.0
141
0.0
142
0.0
143
0.03937
144
1.0
145
0.0
146
10.0
147
1.0
 71
     0
 72
     0
 73
     0
 74
     0
 75
     0
 76
     0
 77
     1
 78
     8
170
     0
171
     2
172
     0
173
     1
174
     0
175
     0
176
     0
177
     0
178
     0
  0
ENDTAB
  0
ENDSEC
  0
SECTION
  2
BLOCKS
  0
BLOCK
  8
0
  2
$MODEL_SPACE
 70
     0
 10
0.0
 20
0.0
 30
0.0
  3
$MODEL_SPACE
  1

  0
ENDBLK
  5
1B
  8
0
  0
BLOCK
 67
     1
  8
0
  2
$PAPER_SPACE
 70
     0
 10
0.0
 20
0.0
 30
0.0
  3
$PAPER_SPACE
  1

  0
ENDBLK
  5
18
 67
     1
  8
0
  0
BLOCK
  8
0
  2
_OPEN
 70
     0
 10
0.0
 20
0.0
 30
0.0
  3
_OPEN
  1

  0
LINE
  5
7B19
  8
0
  6
BYBLOCK
 62
     0
 10
-1.0
 20
0.166667
 30
0.0
 11
0.0
 21
0.0
 31
0.0
  0
LINE
  5
7B1A
  8
0
  6
BYBLOCK
 62
     0
 10
0.0
 20
0.0
 30
0.0
 11
-1.0
 21
-0.166667
 31
0.0
  0
LINE
  5
7B1B
  8
0
  6
BYBLOCK
 62
     0
 10
0.0
 20
0.0
 30
0.0
 11
-1.0
 21
0.0
 31
0.0
  0
ENDBLK
  5
7B1C
  8
0
  0
BLOCK
  8
0
  2
*D1
 70
     1
 10
0.0
 20
0.0
 30
0.0
  3
*D1
  1

  0
LINE
  5
7EDB
  8
3
  6
CONTINUOUS
 62
     0
 10
450.09387099999992
 20
1158.904078
 30
0.0
 11
413.42876700000022
 21
1158.904078
 31
0.0
  0
LINE
  5
7EDC
  8
3
  6
CONTINUOUS
 62
     0
 10
450.09387099999992
 20
998.90407799999991
 30
0.0
 11
413.42876700000011
 21
998.90407799999991
 31
0.0
  0
LINE
  5
7EDD
  8
3
  6
CONTINUOUS
 62
     0
 10
423.42876700000011
 20
1138.904078
 30
0.0
 11
423.42876700000011
 21
1018.904078
 31
0.0
  0
INSERT
  5
7EDE
  8
3
  6
CONTINUOUS
 62
     0
  2
_OPEN
 10
423.42876700000022
 20
1158.904078
 30
0.0
 41
20.0
 42
20.0
 43
20.0
 50
90.0
  0
INSERT
  5
7EDF
  8
3
  6
CONTINUOUS
 62
     0
  2
_OPEN
 10
423.42876700000011
 20
998.90407799999991
 30
0.0
 41
20.0
 42
20.0
 43
20.0
 50
270.0
  0
TEXT
  8
3
  40
30
  5
7F60
  62
0
  72
0
  71
0
 10
338.429
 20
1026.79
 30
0.000000
  1
160
  0
POINT
  5
7EE1
  8
DEFPOINTS
  6
CONTINUOUS
 62
     0
 10
455.09387099999992
 20
1158.904078
 30
0.0
  0
POINT
  5
7EE2
  8
DEFPOINTS
  6
CONTINUOUS
 62
     0
 10
455.09387099999992
 20
998.90407799999991
 30
0.0
  0
POINT
  5
7EE3
  8
DEFPOINTS
  6
CONTINUOUS
 62
     0
 10
423.42876700000011
 20
998.90407799999991
 30
0.0
  0
ENDBLK
  5
7B36
  8
0
  0
BLOCK
  8
0
  2
*D2
 70
     1
 10
0.0
 20
0.0
 30
0.0
  3
*D2
  1

  0
LINE
  5
7EE4
  8
3
  6
CONTINUOUS
 62
     0
 10
450.09387099999992
 20
1180.9040779999989
 30
0.0
 11
299.85749200000021
 21
1180.9040779999989
 31
0.0
  0
LINE
  5
7EE5
  8
3
  6
CONTINUOUS
 62
     0
 10
445.09387099999992
 20
738.90407800000003
 30
0.0
 11
299.85749200000009
 21
738.90407800000003
 31
0.0
  0
LINE
  5
7EE6
  8
3
  6
CONTINUOUS
 62
     0
 10
309.85749200000021
 20
1160.904078
 30
0.0
 11
309.85749199999998
 21
758.90407800000003
 31
0.0
  0
INSERT
  5
7EE7
  8
3
  6
CONTINUOUS
 62
     0
  2
_OPEN
 10
309.85749200000021
 20
1180.9040779999989
 30
0.0
 41
20.0
 42
20.0
 43
20.0
 50
90.0
  0
INSERT
  5
7EE8
  8
3
  6
CONTINUOUS
 62
     0
  2
_OPEN
 10
309.85749199999998
 20
738.90407800000003
 30
0.0
 41
20.0
 42
20.0
 43
20.0
 50
270.0
  0
TEXT
  8
3
  40
30
  5
7F61
  62
0
  72
0
  71
0
 10
224.857
 20
910.684
 30
0.000000
  1
442
  0
POINT
  5
7EEA
  8
DEFPOINTS
  6
CONTINUOUS
 62
     0
 10
455.09387099999992
 20
1180.9040779999989
 30
0.0
  0
POINT
  5
7EEB
  8
DEFPOINTS
  6
CONTINUOUS
 62
     0
 10
450.09387099999992
 20
738.90407800000003
 30
0.0
  0
POINT
  5
7EEC
  8
DEFPOINTS
  6
CONTINUOUS
 62
     0
 10
309.85749199999998
 20
738.90407800000003
 30
0.0
  0
ENDBLK
  5
7B8C
  8
0
  0
BLOCK
  8
0
  2
*D3
 70
     1
 10
0.0
 20
0.0
 30
0.0
  3
*D3
  1

  0
LINE
  5
7EED
  8
3
  6
CONTINUOUS
 62
     0
 10
450.09387099999992
 20
733.90407800000003
 30
0.0
 11
450.09387099999992
 21
677.31976599999996
 31
0.0
  0
LINE
  5
7EEE
  8
3
  6
CONTINUOUS
 62
     0
 10
585.09387100000004
 20
758.90407800000003
 30
0.0
 11
585.09387100000004
 21
677.31976599999996
 31
0.0
  0
LINE
  5
7EEF
  8
3
  6
CONTINUOUS
 62
     0
 10
470.09387099999992
 20
687.31976599999985
 30
0.0
 11
565.09387100000004
 21
687.31976599999985
 31
0.0
  0
INSERT
  5
7EF0
  8
3
  6
CONTINUOUS
 62
     0
  2
_OPEN
 10
450.09387099999992
 20
687.31976599999985
 30
0.0
 41
20.0
 42
20.0
 43
20.0
 50
180.0
  0
INSERT
  5
7EF1
  8
3
  6
CONTINUOUS
 62
     0
  2
_OPEN
 10
585.09387100000004
 20
687.31976599999985
 30
0.0
 41
20.0
 42
20.0
 43
20.0
  0
TEXT
  8
3
  40
30
  5
7F62
  62
0
  72
0
  71
0
 10
459.380
 20
659.220
 30
0.000000
  1
135
  0
POINT
  5
7EF3
  8
DEFPOINTS
  6
CONTINUOUS
 62
     0
 10
450.09387099999992
 20
738.90407800000003
 30
0.0
  0
POINT
  5
7EF4
  8
DEFPOINTS
  6
CONTINUOUS
 62
     0
 10
585.09387100000004
 20
763.90407800000003
 30
0.0
  0
POINT
  5
7EF5
  8
DEFPOINTS
  6
CONTINUOUS
 62
     0
 10
585.09387100000004
 20
687.31976599999985
 30
0.0
  0
ENDBLK
  5
7B99
  8
0
  0
BLOCK
  8
0
  2
*D4
 70
     1
 10
0.0
 20
0.0
 30
0.0
  3
*D4
  1

  0
LINE
  5
7EF6
  8
3
  6
CONTINUOUS
 62
     0
 10
1010.093871
 20
733.90407800000003
 30
0.0
 11
1010.093871
 21
677.31976599999996
 31
0.0
  0
LINE
  5
7EF7
  8
3
  6
CONTINUOUS
 62
     0
 10
605.09387100000004
 20
687.31976599999985
 30
0.0
 11
990.09387100000004
 21
687.31976599999985
 31
0.0
  0
INSERT
  5
7EF8
  8
3
  6
CONTINUOUS
 62
     0
  2
_OPEN
 10
585.09387100000004
 20
687.31976599999985
 30
0.0
 41
20.0
 42
20.0
 43
20.0
 50
180.0
  0
INSERT
  5
7EF9
  8
3
  6
CONTINUOUS
 62
     0
  2
_OPEN
 10
1010.093871
 20
687.31976599999985
 30
0.0
 41
20.0
 42
20.0
 43
20.0
  0
TEXT
  8
3
  40
30
  5
7F63
  62
0
  72
0
  71
0
 10
737.594
 20
659.220
 30
0.000000
  1
425
  0
POINT
  5
7EFB
  8
DEFPOINTS
  6
CONTINUOUS
 62
     0
 10
585.09387100000004
 20
763.90407800000003
 30
0.0
  0
POINT
  5
7EFC
  8
DEFPOINTS
  6
CONTINUOUS
 62
     0
 10
1010.093871
 20
738.90407800000003
 30
0.0
  0
POINT
  5
7EFD
  8
DEFPOINTS
  6
CONTINUOUS
 62
     0
 10
1010.093871
 20
687.31976599999985
 30
0.0
  0
ENDBLK
  5
7BA5
  8
0
  0
BLOCK
  8
0
  2
*D5
 70
     1
 10
0.0
 20
0.0
 30
0.0
  3
*D5
  1

  0
LINE
  5
7EFE
  8
3
  6
CONTINUOUS
 62
     0
 10
465.09387099999998
 20
1169.904078
 30
0.0
 11
361.48323500000021
 21
1169.904078
 31
0.0
  0
LINE
  5
7EFF
  8
3
  6
CONTINUOUS
 62
     0
 10
450.09387099999992
 20
998.90407799999991
 30
0.0
 11
361.48323500000021
 21
998.90407799999991
 31
0.0
  0
LINE
  5
7F00
  8
3
  6
CONTINUOUS
 62
     0
 10
371.48323500000021
 20
1149.904078
 30
0.0
 11
371.48323500000021
 21
1018.904078
 31
0.0
  0
INSERT
  5
7F01
  8
3
  6
CONTINUOUS
 62
     0
  2
_OPEN
 10
371.48323500000021
 20
1169.904078
 30
0.0
 41
20.0
 42
20.0
 43
20.0
 50
90.0
  0
INSERT
  5
7F02
  8
3
  6
CONTINUOUS
 62
     0
  2
_OPEN
 10
371.48323500000021
 20
998.90407799999991
 30
0.0
 41
20.0
 42
20.0
 43
20.0
 50
270.0
  0
TEXT
  8
3
  40
30
  5
7F64
  62
0
  72
0
  71
0
 10
286.483
 20
1028.09
 30
0.000000
  1
171
  0
POINT
  5
7F04
  8
DEFPOINTS
  6
CONTINUOUS
 62
     0
 10
470.09387099999992
 20
1169.904078
 30
0.0
  0
POINT
  5
7F05
  8
DEFPOINTS
  6
CONTINUOUS
 62
     0
 10
455.09387099999992
 20
998.90407799999991
 30
0.0
  0
POINT
  5
7F06
  8
DEFPOINTS
  6
CONTINUOUS
 62
     0
 10
371.48323500000021
 20
998.90407799999991
 30
0.0
  0
ENDBLK
  5
7BBF
  8
0
  0
BLOCK
  8
0
  2
*D6
 70
     1
 10
0.0
 20
0.0
 30
0.0
  3
*D6
  1

  0
LINE
  5
7F07
  8
3
  6
CONTINUOUS
 62
     0
 10
445.09387099999992
 20
763.90407800000003
 30
0.0
 11
361.48323499999998
 21
763.90407800000003
 31
0.0
  0
LINE
  5
7F08
  8
3
  6
CONTINUOUS
 62
     0
 10
371.48323499999998
 20
978.9040779999998
 30
0.0
 11
371.48323499999998
 21
783.90407800000003
 31
0.0
  0
INSERT
  5
7F09
  8
3
  6
CONTINUOUS
 62
     0
  2
_OPEN
 10
371.48323499999998
 20
998.90407799999991
 30
0.0
 41
20.0
 42
20.0
 43
20.0
 50
90.0
  0
INSERT
  5
7F0A
  8
3
  6
CONTINUOUS
 62
     0
  2
_OPEN
 10
371.48323499999998
 20
763.90407800000003
 30
0.0
 41
20.0
 42
20.0
 43
20.0
 50
270.0
  0
TEXT
  8
3
  40
30
  5
7F65
  62
0
  72
0
  71
0
 10
286.483
 20
828.304
 30
0.000000
  1
235
  0
POINT
  5
7F0C
  8
DEFPOINTS
  6
CONTINUOUS
 62
     0
 10
455.09387099999992
 20
998.90407799999991
 30
0.0
  0
POINT
  5
7F0D
  8
DEFPOINTS
  6
CONTINUOUS
 62
     0
 10
450.09387099999992
 20
763.90407800000003
 30
0.0
  0
POINT
  5
7F0E
  8
DEFPOINTS
  6
CONTINUOUS
 62
     0
 10
371.48323499999998
 20
763.90407800000003
 30
0.0
  0
ENDBLK
  5
7BCB
  8
0
  0
BLOCK
  8
0
  2
*D7
 70
     1
 10
0.0
 20
0.0
 30
0.0
  3
*D7
  1

  0
LINE
  5
7F0F
  8
3
  6
CONTINUOUS
 62
     0
 10
445.09387099999992
 20
763.90407800000003
 30
0.0
 11
361.48323500000009
 21
763.90407800000003
 31
0.0
  0
LINE
  5
7F10
  8
3
  6
CONTINUOUS
 62
     0
 10
445.09387099999992
 20
738.90407800000003
 30
0.0
 11
361.48323500000009
 21
738.90407800000003
 31
0.0
  0
LINE
  5
7F11
  8
3
  6
CONTINUOUS
 62
     0
 10
371.48323500000009
 20
783.90407800000003
 30
0.0
 11
371.48323500000009
 21
803.90407800000003
 31
0.0
  0
LINE
  5
7F12
  8
3
  6
CONTINUOUS
 62
     0
 10
371.48323500000009
 20
718.90407800000003
 30
0.0
 11
371.48323499999998
 21
630.33264942857124
 31
0.0
  0
LINE
  5
7F13
  8
3
  6
CONTINUOUS
 62
     0
 10
371.48323500000009
 20
763.90407800000003
 30
0.0
 11
371.48323500000009
 21
738.90407800000003
 31
0.0
  0
INSERT
  5
7F14
  8
3
  6
CONTINUOUS
 62
     0
  2
_OPEN
 10
371.48323500000009
 20
763.90407800000003
 30
0.0
 41
20.0
 42
20.0
 43
20.0
 50
270.0
  0
INSERT
  5
7F15
  8
3
  6
CONTINUOUS
 62
     0
  2
_OPEN
 10
371.48323500000009
 20
738.90407800000003
 30
0.0
 41
20.0
 42
20.0
 43
20.0
 50
90.0
  0
TEXT
  8
3
  40
30
  5
7F66
  62
0
  72
0
  71
0
 10
286.483
 20
611.518
 30
0.000000
  1
25
  0
POINT
  5
7F17
  8
DEFPOINTS
  6
CONTINUOUS
 62
     0
 10
450.09387099999992
 20
763.90407800000003
 30
0.0
  0
POINT
  5
7F18
  8
DEFPOINTS
  6
CONTINUOUS
 62
     0
 10
450.09387099999992
 20
738.90407800000003
 30
0.0
  0
POINT
  5
7F19
  8
DEFPOINTS
  6
CONTINUOUS
 62
     0
 10
371.48323500000009
 20
738.90407800000003
 30
0.0
  0
ENDBLK
  5
7DA2
  8
0
  0
BLOCK
  8
0
  2
*D8
 70
     1
 10
0.0
 20
0.0
 30
0.0
  3
*D8
  1

  0
LINE
  5
7D8C
  8
0
  6
BYBLOCK
 62
     0
 10
1782.342617999999
 20
1078.904078
 30
0.0
 11
1850.0814999999991
 21
1078.904078
 31
0.0
  0
LINE
  5
7D8D
  8
0
  6
BYBLOCK
 62
     0
 10
1782.342617999999
 20
918.90407799999991
 30
0.0
 11
1850.0814999999991
 21
918.90407799999991
 31
0.0
  0
LINE
  5
7D8E
  8
0
  6
BYBLOCK
 62
     0
 10
1840.0815
 20
1058.904078
 30
0.0
 11
1840.0815
 21
938.90407800000003
 31
0.0
  0
TEXT
  5
7D8F
  8
3
 62
     0
 10
1828.815168869867
 20
948.18979228571425
 30
0.0
 40
30.0
  1
φ160
 50
90.0
  0
INSERT
  5
7D90
  8
0
  6
BYBLOCK
 62
     0
  2
_OPEN
 10
1840.0815
 20
1078.904078
 30
0.0
 41
20.0
 42
20.0
 43
20.0
 50
90.0
  0
INSERT
  5
7D91
  8
0
  6
BYBLOCK
 62
     0
  2
_OPEN
 10
1840.0815
 20
918.90407799999991
 30
0.0
 41
20.0
 42
20.0
 43
20.0
 50
270.0
  0
POINT
  5
7D92
  8
DEFPOINTS
  6
BYBLOCK
 62
     0
 10
1777.342617999999
 20
1078.904078
 30
0.0
  0
POINT
  5
7D93
  8
DEFPOINTS
  6
BYBLOCK
 62
     0
 10
1777.342617999999
 20
918.90407799999991
 30
0.0
  0
POINT
  5
7D94
  8
DEFPOINTS
  6
BYBLOCK
 62
     0
 10
1840.0815
 20
918.90407799999991
 30
0.0
  0
ENDBLK
  5
7D95
  8
0
  0
BLOCK
  8
0
  2
*D9
 70
     1
 10
0.0
 20
0.0
 30
0.0
  3
*D9
  1

  0
LINE
  5
7D39
  8
0
  6
BYBLOCK
 62
     0
 10
1657.342617999999
 20
1163.904078
 30
0.0
 11
1657.342617999999
 21
1207.0947000000001
 31
0.0
  0
LINE
  5
7D3A
  8
0
  6
BYBLOCK
 62
     0
 10
1769.3426179999999
 20
1163.904078
 30
0.0
 11
1769.3426179999999
 21
1207.0947000000001
 31
0.0
  0
LINE
  5
7D3B
  8
0
  6
BYBLOCK
 62
     0
 10
1677.342617999999
 20
1197.0947000000001
 30
0.0
 11
1749.3426179999999
 21
1197.0947000000001
 31
0.0
  0
TEXT
  5
7D3C
  8
3
 62
     0
 10
1680.485475142857
 20
1202.7917789042151
 30
0.0
 40
30.0
  1
112
  0
INSERT
  5
7D3D
  8
0
  6
BYBLOCK
 62
     0
  2
_OPEN
 10
1657.342617999999
 20
1197.0947000000001
 30
0.0
 41
20.0
 42
20.0
 43
20.0
 50
180.0
  0
INSERT
  5
7D3E
  8
0
  6
BYBLOCK
 62
     0
  2
_OPEN
 10
1769.3426179999999
 20
1197.0947000000001
 30
0.0
 41
20.0
 42
20.0
 43
20.0
  0
POINT
  5
7D3F
  8
DEFPOINTS
  6
BYBLOCK
 62
     0
 10
1657.342617999999
 20
1158.904078
 30
0.0
  0
POINT
  5
7D40
  8
DEFPOINTS
  6
BYBLOCK
 62
     0
 10
1769.3426179999999
 20
1158.904078
 30
0.0
  0
POINT
  5
7D41
  8
DEFPOINTS
  6
BYBLOCK
 62
     0
 10
1769.3426179999999
 20
1197.0947000000001
 30
0.0
  0
ENDBLK
  5
7D42
  8
0
  0
BLOCK
  8
0
  2
*D10
 70
     1
 10
0.0
 20
0.0
 30
0.0
  3
*D10
  1

  0
LINE
  5
7F1A
  8
3
  6
CONTINUOUS
 62
     0
 10
1453.342617999999
 20
1098.904078
 30
0.0
 11
1453.342617999999
 21
1267.3685969999999
 31
0.0
  0
LINE
  5
7F1B
  8
3
  6
CONTINUOUS
 62
     0
 10
1713.3426179999999
 20
1247.931439
 30
0.0
 11
1713.3426179999999
 21
1267.3685969999999
 31
0.0
  0
LINE
  5
7F1C
  8
3
  6
CONTINUOUS
 62
     0
 10
1473.3426179999999
 20
1257.3685969999999
 30
0.0
 11
1693.342617999999
 21
1257.3685969999999
 31
0.0
  0
INSERT
  5
7F1D
  8
3
  6
CONTINUOUS
 62
     0
  2
_OPEN
 10
1453.342617999999
 20
1257.3685969999999
 30
0.0
 41
20.0
 42
20.0
 43
20.0
 50
180.0
  0
INSERT
  5
7F1E
  8
3
  6
CONTINUOUS
 62
     0
  2
_OPEN
 10
1713.3426179999999
 20
1257.3685969999999
 30
0.0
 41
20.0
 42
20.0
 43
20.0
  0
TEXT
  8
3
  40
30
  5
7F67
  62
0
  72
0
  71
0
 10
1514.23
 20
1254.27
 30
0.000000
  1
MAX
  0
TEXT
  8
3
  40
30
  5
7F68
  62
0
  72
0
  71
0
 10
1514.23
 20
1215.27
 30
0.000000
  1
260
  0
POINT
  5
7F20
  8
DEFPOINTS
  6
CONTINUOUS
 62
     0
 10
1453.342617999999
 20
1093.904078
 30
0.0
  0
POINT
  5
7F21
  8
DEFPOINTS
  6
CONTINUOUS
 62
     0
 10
1713.3426179999999
 20
1242.931439
 30
0.0
  0
POINT
  5
7F22
  8
DEFPOINTS
  6
CONTINUOUS
 62
     0
 10
1713.3426179999999
 20
1257.3685969999999
 30
0.0
  0
ENDBLK
  5
7DBA
  8
0
  0
BLOCK
  8
0
  2
*D11
 70
     1
 10
0.0
 20
0.0
 30
0.0
  3
*D11
  1

  0
LINE
  5
7F23
  8
3
  6
CONTINUOUS
 62
     0
 10
1441.3426179999999
 20
733.90407800000003
 30
0.0
 11
1441.3426179999999
 21
665.88453800000002
 31
0.0
  0
LINE
  5
7F24
  8
3
  6
CONTINUOUS
 62
     0
 10
1713.3426179999999
 20
733.90407800000003
 30
0.0
 11
1713.3426179999999
 21
665.88453800000002
 31
0.0
  0
LINE
  5
7F25
  8
3
  6
CONTINUOUS
 62
     0
 10
1461.342617999999
 20
675.88453800000002
 30
0.0
 11
1693.342617999999
 21
675.88453800000002
 31
0.0
  0
INSERT
  5
7F26
  8
3
  6
CONTINUOUS
 62
     0
  2
_OPEN
 10
1441.3426179999999
 20
675.88453800000002
 30
0.0
 41
20.0
 42
20.0
 43
20.0
 50
180.0
  0
INSERT
  5
7F27
  8
3
  6
CONTINUOUS
 62
     0
  2
_OPEN
 10
1713.3426179999999
 20
675.88453800000002
 30
0.0
 41
20.0
 42
20.0
 43
20.0
  0
TEXT
  8
3
  40
30
  5
7F69
  62
0
  72
0
  71
0
 10
1514.30
 20
647.785
 30
0.000000
  1
272
  0
POINT
  5
7F29
  8
DEFPOINTS
  6
CONTINUOUS
 62
     0
 10
1441.3426179999999
 20
738.90407800000003
 30
0.0
  0
POINT
  5
7F2A
  8
DEFPOINTS
  6
CONTINUOUS
 62
     0
 10
1713.3426179999999
 20
738.90407800000003
 30
0.0
  0
POINT
  5
7F2B
  8
DEFPOINTS
  6
CONTINUOUS
 62
     0
 10
1713.3426179999999
 20
675.88453800000002
 30
0.0
  0
ENDBLK
  5
7C5C
  8
0
  0
BLOCK
  8
0
  2
*D12
 70
     1
 10
0.0
 20
0.0
 30
0.0
  3
*D12
  1

  0
LINE
  5
7F2C
  8
3
  6
CONTINUOUS
 62
     0
 10
1871.342617999999
 20
733.90407800000003
 30
0.0
 11
1871.342617999999
 21
665.88453800000002
 31
0.0
  0
LINE
  5
7F2D
  8
3
  6
CONTINUOUS
 62
     0
 10
1733.3426179999999
 20
675.88453800000002
 30
0.0
 11
1851.3426179999999
 21
675.88453800000002
 31
0.0
  0
INSERT
  5
7F2E
  8
3
  6
CONTINUOUS
 62
     0
  2
_OPEN
 10
1713.3426179999999
 20
675.88453800000002
 30
0.0
 41
20.0
 42
20.0
 43
20.0
 50
180.0
  0
INSERT
  5
7F2F
  8
3
  6
CONTINUOUS
 62
     0
  2
_OPEN
 10
1871.342617999999
 20
675.88453800000002
 30
0.0
 41
20.0
 42
20.0
 43
20.0
  0
TEXT
  8
3
  40
30
  5
7F6A
  62
0
  72
0
  71
0
 10
1732.34
 20
647.785
 30
0.000000
  1
158
  0
POINT
  5
7F31
  8
DEFPOINTS
  6
CONTINUOUS
 62
     0
 10
1713.3426179999999
 20
738.90407800000003
 30
0.0
  0
POINT
  5
7F32
  8
DEFPOINTS
  6
CONTINUOUS
 62
     0
 10
1871.342617999999
 20
738.90407800000003
 30
0.0
  0
POINT
  5
7F33
  8
DEFPOINTS
  6
CONTINUOUS
 62
     0
 10
1871.342617999999
 20
675.88453800000002
 30
0.0
  0
ENDBLK
  5
7C68
  8
0
  0
BLOCK
  8
0
  2
*D13
 70
     1
 10
0.0
 20
0.0
 30
0.0
  3
*D13
  1

  0
LINE
  5
7F34
  8
3
  6
CONTINUOUS
 62
     0
 10
1015.093871
 20
2234.3040780000001
 30
0.0
 11
1101.142517
 21
2234.3040779999992
 31
0.0
  0
LINE
  5
7F35
  8
3
  6
CONTINUOUS
 62
     0
 10
1015.093871
 20
1804.3040779999999
 30
0.0
 11
1101.142517
 21
1804.3040779999999
 31
0.0
  0
LINE
  5
7F36
  8
3
  6
CONTINUOUS
 62
     0
 10
1091.142517
 20
2214.3040779999992
 30
0.0
 11
1091.142517
 21
1824.3040779999999
 31
0.0
  0
INSERT
  5
7F37
  8
3
  6
CONTINUOUS
 62
     0
  2
_OPEN
 10
1091.142517
 20
2234.3040779999992
 30
0.0
 41
20.0
 42
20.0
 43
20.0
 50
90.0
  0
INSERT
  5
7F38
  8
3
  6
CONTINUOUS
 62
     0
  2
_OPEN
 10
1091.142517
 20
1804.3040779999999
 30
0.0
 41
20.0
 42
20.0
 43
20.0
 50
270.0
  0
TEXT
  8
3
  40
30
  5
7F6B
  62
0
  72
0
  71
0
 10
1006.14
 20
1975.41
 30
0.000000
  1
430
  0
POINT
  5
7F3A
  8
DEFPOINTS
  6
CONTINUOUS
 62
     0
 10
1010.093871
 20
2234.3040780000001
 30
0.0
  0
POINT
  5
7F3B
  8
DEFPOINTS
  6
CONTINUOUS
 62
     0
 10
1010.093871
 20
1804.3040779999999
 30
0.0
  0
POINT
  5
7F3C
  8
DEFPOINTS
  6
CONTINUOUS
 62
     0
 10
1091.142517
 20
1804.3040779999999
 30
0.0
  0
ENDBLK
  5
7C75
  8
0
  0
BLOCK
  8
0
  2
*D14
 70
     1
 10
0.0
 20
0.0
 30
0.0
  3
*D14
  1

  0
LINE
  5
7F3D
  8
3
  6
CONTINUOUS
 62
     0
 10
450.09387099999992
 20
1799.3040779999999
 30
0.0
 11
450.09387099999992
 21
1720.7087610000001
 31
0.0
  0
LINE
  5
7F3E
  8
3
  6
CONTINUOUS
 62
     0
 10
1010.093871
 20
1799.3040779999999
 30
0.0
 11
1010.093871
 21
1720.7087610000001
 31
0.0
  0
LINE
  5
7F3F
  8
3
  6
CONTINUOUS
 62
     0
 10
470.09387099999992
 20
1730.708760999999
 30
0.0
 11
990.09387100000004
 21
1730.708760999999
 31
0.0
  0
INSERT
  5
7F40
  8
3
  6
CONTINUOUS
 62
     0
  2
_OPEN
 10
450.09387099999992
 20
1730.708760999999
 30
0.0
 41
20.0
 42
20.0
 43
20.0
 50
180.0
  0
INSERT
  5
7F41
  8
3
  6
CONTINUOUS
 62
     0
  2
_OPEN
 10
1010.093871
 20
1730.708760999999
 30
0.0
 41
20.0
 42
20.0
 43
20.0
  0
TEXT
  8
3
  40
30
  5
7F6C
  62
0
  72
0
  71
0
 10
677.153
 20
1702.61
 30
0.000000
  1
560
  0
POINT
  5
7F43
  8
DEFPOINTS
  6
CONTINUOUS
 62
     0
 10
450.09387099999992
 20
1804.3040779999999
 30
0.0
  0
POINT
  5
7F44
  8
DEFPOINTS
  6
CONTINUOUS
 62
     0
 10
1010.093871
 20
1804.3040779999999
 30
0.0
  0
POINT
  5
7F45
  8
DEFPOINTS
  6
CONTINUOUS
 62
     0
 10
1010.093871
 20
1730.708760999999
 30
0.0
  0
ENDBLK
  5
7C82
  8
0
  0
BLOCK
  8
0
  2
*D15
 70
     1
 10
0.0
 20
0.0
 30
0.0
  3
*D15
  1

  0
LINE
  5
7F46
  8
3
  6
CONTINUOUS
 62
     0
 10
730.09387100000004
 20
1003.904077999999
 30
0.0
 11
730.09387100000004
 21
1223.975400999999
 31
0.0
  0
LINE
  5
7F47
  8
3
  6
CONTINUOUS
 62
     0
 10
585.09387100000004
 20
1191.3396768697571
 30
0.0
 11
585.09387100000004
 21
1223.975400999999
 31
0.0
  0
LINE
  5
7F48
  8
3
  6
CONTINUOUS
 62
     0
 10
710.09387100000004
 20
1213.975400999999
 30
0.0
 11
605.09387100000004
 21
1213.975400999999
 31
0.0
  0
INSERT
  5
7F49
  8
3
  6
CONTINUOUS
 62
     0
  2
_OPEN
 10
730.09387100000004
 20
1213.975400999999
 30
0.0
 41
20.0
 42
20.0
 43
20.0
  0
INSERT
  5
7F4A
  8
3
  6
CONTINUOUS
 62
     0
  2
_OPEN
 10
585.09387100000004
 20
1213.975400999999
 30
0.0
 41
20.0
 42
20.0
 43
20.0
 50
180.0
  0
TEXT
  8
3
  40
30
  5
7F6D
  62
0
  72
0
  71
0
 10
604.380
 20
1185.88
 30
0.000000
  1
145
  0
POINT
  5
7F4C
  8
DEFPOINTS
  6
CONTINUOUS
 62
     0
 10
730.09387100000004
 20
998.90407799999991
 30
0.0
  0
POINT
  5
7F4D
  8
DEFPOINTS
  6
CONTINUOUS
 62
     0
 10
585.09387100000004
 20
1186.3396768697571
 30
0.0
  0
POINT
  5
7F4E
  8
DEFPOINTS
  6
CONTINUOUS
 62
     0
 10
585.09387100000004
 20
1213.975400999999
 30
0.0
  0
ENDBLK
  5
7E06
  8
0
  0
BLOCK
  8
0
  2
*D16
 70
     1
 10
0.0
 20
0.0
 30
0.0
  3
*D16
  1

  0
LINE
  5
7F4F
  8
3
  6
CONTINUOUS
 62
     0
 10
455.09387099999992
 20
1185.904078
 30
0.0
 11
455.09387099999992
 21
1223.975400999999
 31
0.0
  0
LINE
  5
7F50
  8
3
  6
CONTINUOUS
 62
     0
 10
565.09387100000004
 20
1213.975400999999
 30
0.0
 11
475.09387099999992
 21
1213.975400999999
 31
0.0
  0
TEXT
  8
3
  40
30
  5
7F6E
  62
0
  72
0
  71
0
 10
459.033
 20
1185.24
 30
0.000000
  1
130
  0
INSERT
  5
7F52
  8
3
  6
CONTINUOUS
 62
     0
  2
_OPEN
 10
585.09387100000004
 20
1213.975400999999
 30
0.0
 41
20.0
 42
20.0
 43
20.0
  0
INSERT
  5
7F53
  8
3
  6
CONTINUOUS
 62
     0
  2
_OPEN
 10
455.09387099999992
 20
1213.975400999999
 30
0.0
 41
20.0
 42
20.0
 43
20.0
 50
180.0
  0
POINT
  5
7F54
  8
DEFPOINTS
  6
CONTINUOUS
 62
     0
 10
585.09387100000004
 20
1186.3396768697571
 30
0.0
  0
POINT
  5
7F55
  8
DEFPOINTS
  6
CONTINUOUS
 62
     0
 10
455.09387099999992
 20
1180.9040779999989
 30
0.0
  0
POINT
  5
7F56
  8
DEFPOINTS
  6
CONTINUOUS
 62
     0
 10
455.09387099999992
 20
1213.975400999999
 30
0.0
  0
ENDBLK
  5
7DCF
  8
0
  0
BLOCK
  8
0
  2
*D17
 70
     1
 10
0.0
 20
0.0
 30
0.0
  3
*D17
  1

  0
LINE
  5
7F57
  8
3
 62
     0
 10
455.09387099999992
 20
1185.904078
 30
0.0
 11
455.09387099999992
 21
1282.737242152346
 31
0.0
  0
LINE
  5
7F58
  8
3
 62
     0
 10
1010.093871
 20
818.90407800000003
 30
0.0
 11
1010.093871
 21
1282.737242152346
 31
0.0
  0
LINE
  5
7F59
  8
3
 62
     0
 10
475.09387099999992
 20
1272.737242152346
 30
0.0
 11
990.09387100000004
 21
1272.737242152346
 31
0.0
  0
INSERT
  5
7F5A
  8
3
 62
     0
  2
_OPEN
 10
455.09387099999992
 20
1272.737242152346
 30
0.0
 41
20.0
 42
20.0
 43
20.0
 50
180.0
  0
INSERT
  5
7F5B
  8
3
 62
     0
  2
_OPEN
 10
1010.093871
 20
1272.737242152346
 30
0.0
 41
20.0
 42
20.0
 43
20.0
  0
TEXT
  8
3
  40
30
  5
7F6F
  62
0
  72
0
  71
0
 10
658.398
 20
1244.64
 30
0.000000
  1
555
  0
POINT
  5
7F5D
  8
DEFPOINTS
 62
     0
 10
455.09387099999992
 20
1180.9040779999989
 30
0.0
  0
POINT
  5
7F5E
  8
DEFPOINTS
 62
     0
 10
1010.093871
 20
813.90407800000003
 30
0.0
  0
POINT
  5
7F5F
  8
DEFPOINTS
 62
     0
 10
1010.093871
 20
1272.737242152346
 30
0.0
  0
ENDBLK
  5
7DAE
  8
0
  0
BLOCK
  8
0
  2
*D18
 70
     1
 10
0.0
 20
0.0
 30
0.0
  3
*D18
  1

  0
LINE
  5
7DEE
  8
0
  6
BYBLOCK
 62
     0
 10
1777.342617999999
 20
1103.904078
 30
0.0
 11
1777.342617999999
 21
1267.3685969999999
 31
0.0
  0
LINE
  5
7DEF
  8
0
  6
BYBLOCK
 62
     0
 10
1733.3426179999999
 20
1257.3685969999999
 30
0.0
 11
1757.3426179999999
 21
1257.3685969999999
 31
0.0
  0
TEXT
  5
7DF0
  8
3
 62
     0
 10
1720.3426179999999
 20
1271.6893095989381
 30
0.0
 40
30.0
  1
64
  0
INSERT
  5
7DF1
  8
0
  6
BYBLOCK
 62
     0
  2
_OPEN
 10
1713.3426179999999
 20
1257.3685969999999
 30
0.0
 41
20.0
 42
20.0
 43
20.0
 50
180.0
  0
INSERT
  5
7DF2
  8
0
  6
BYBLOCK
 62
     0
  2
_OPEN
 10
1777.342617999999
 20
1257.3685969999999
 30
0.0
 41
20.0
 42
20.0
 43
20.0
  0
POINT
  5
7DF3
  8
DEFPOINTS
  6
BYBLOCK
 62
     0
 10
1713.3426179999999
 20
1242.931439
 30
0.0
  0
POINT
  5
7DF4
  8
DEFPOINTS
  6
BYBLOCK
 62
     0
 10
1777.342617999999
 20
1098.904078
 30
0.0
  0
POINT
  5
7DF5
  8
DEFPOINTS
  6
BYBLOCK
 62
     0
 10
1777.342617999999
 20
1257.3685969999999
 30
0.0
  0
ENDBLK
  5
7DF6
  8
0
  0
ENDSEC
  0
SECTION
  2
ENTITIES
  0
CIRCLE
  5
7A8A
  8
1
  6
CONTINUOUS
 10
585.09387100000004
 20
998.90407799999991
 30
0.0
 40
80.0
  0
CIRCLE
  5
7A8B
  8
1
  6
CONTINUOUS
 10
585.09387100000004
 20
998.90407799999991
 30
0.0
 40
100.0
  0
LINE
  5
7A8C
  8
1
  6
CONTINUOUS
 10
485.09387099999998
 20
2140.3040780000001
 30
0.0
 11
685.09387100000004
 21
2140.3040780000001
 31
0.0
  0
LINE
  5
7A8D
  8
1
  6
CONTINUOUS
 10
470.09387099999992
 20
998.90407799999991
 30
0.0
 11
470.09387099999992
 21
988.90407800000003
 31
0.0
  0
LINE
  5
7A8E
  8
1
  6
CONTINUOUS
 10
470.09387099999992
 20
1169.904078
 30
0.0
 11
470.09387099999992
 21
1158.904078
 31
0.0
  0
LINE
  5
7A8F
  8
1
  6
CONTINUOUS
 10
470.09387099999992
 20
998.90407799999991
 30
0.0
 11
455.09387099999992
 21
998.90407799999991
 31
0.0
  0
LINE
  5
7A90
  8
1
  6
CONTINUOUS
 10
470.09387099999992
 20
1158.904078
 30
0.0
 11
455.09387099999992
 21
1158.904078
 31
0.0
  0
LINE
  5
7A91
  8
1
  6
CONTINUOUS
 10
861.69387100000006
 20
880.00407799999994
 30
0.0
 11
573.69387099999994
 21
955.40407799999991
 31
0.0
  0
LINE
  5
7A92
  8
1
  6
CONTINUOUS
 10
881.69387099999994
 20
947.10407799999984
 30
0.0
 11
599.39387099999999
 21
1041.6040779999989
 31
0.0
  0
LINE
  5
7A93
  8
2
  6
CENTER
 10
1787.054691
 20
998.90407799999991
 30
0.0
 11
1430.530133
 21
998.90407799999991
 31
0.0
  0
LINE
  5
7A94
  8
2
  6
CENTER
 10
585.09387100000004
 20
735.97650485291524
 30
0.0
 11
585.09387100000004
 21
1183.237914992977
 31
0.0
  0
LINE
  5
7A95
  8
1
  6
CONTINUOUS
 10
759.09387100000004
 20
833.90407800000014
 30
0.0
 11
759.09387100000004
 21
813.90407800000003
 31
0.0
  0
LINE
  5
7A96
  8
1
  6
CONTINUOUS
 10
455.09387099999992
 20
997.90407800000003
 30
0.0
 11
470.09387099999992
 21
1012.904077999999
 31
0.0
  0
LINE
  5
7A97
  8
1
  6
CONTINUOUS
 10
470.09387099999992
 20
1144.904078
 30
0.0
 11
470.09387099999992
 21
1012.904077999999
 31
0.0
  0
LINE
  5
7A98
  8
1
  6
CONTINUOUS
 10
455.09387099999992
 20
1159.904078
 30
0.0
 11
470.09387099999992
 21
1144.904078
 31
0.0
  0
ARC
  5
7A99
  8
1
  6
CONTINUOUS
 10
596.09387100000004
 20
1009.904077999999
 30
0.0
 40
134.0
 50
269.5
 51
350.10000000000002
  0
ARC
  5
7A9A
  8
1
  6
CONTINUOUS
 10
594.09387100000004
 20
989.90407799999991
 30
0.0
 40
114.0
 50
180.49999999999989
 51
270.5
  0
ARC
  5
7A9B
  8
1
  6
CONTINUOUS
 10
572.09387100000004
 20
1011.904077999999
 30
0.0
 40
158.0
 50
350.89999999999992
 51
90.0
  0
LINE
  5
7A9C
  8
1
  6
CONTINUOUS
 10
470.09387099999992
 20
1169.904078
 30
0.0
 11
572.09387100000004
 21
1169.904078
 31
0.0
  0
LINE
  5
7A9D
  8
1
  6
CONTINUOUS
 10
455.09387099999992
 20
1180.9040779999989
 30
0.0
 11
455.09387099999992
 21
976.90407799999991
 31
0.0
  0
LINE
  5
7A9E
  8
1
  6
CONTINUOUS
 10
470.09387099999992
 20
988.90407800000003
 30
0.0
 11
480.09387099999992
 21
988.90407800000003
 31
0.0
  0
LINE
  5
7A9F
  8
1
  6
CONTINUOUS
 10
455.09387099999992
 20
2019.3040779999999
 30
0.0
 11
470.09387099999992
 21
2034.3040779999999
 31
0.0
  0
LINE
  5
7AA0
  8
1
  6
CONTINUOUS
 10
455.09387099999992
 20
2133.3040780000001
 30
0.0
 11
470.09387099999992
 21
2118.3040780000001
 31
0.0
  0
LINE
  5
7AA1
  8
1
  6
CONTINUOUS
 10
719.19387099999994
 20
2124.3040780000001
 30
0.0
 11
719.19387099999994
 21
2028.3040779999999
 31
0.0
  0
LINE
  5
7AA2
  8
1
  6
CONTINUOUS
 10
470.09387099999992
 20
2118.3040780000001
 30
0.0
 11
470.09387099999992
 21
2034.3040779999999
 31
0.0
  0
ARC
  5
7AA3
  8
1
  6
CONTINUOUS
 10
711.19387099999994
 20
2124.3040780000001
 30
0.0
 40
8.0
 50
0.0
 51
90.0
  0
ARC
  5
7AA4
  8
1
  6
CONTINUOUS
 10
711.19387099999994
 20
2028.3040779999999
 30
0.0
 40
8.0
 50
270.0
 51
0.0
  0
LINE
  5
7AA5
  8
1
  6
CONTINUOUS
 10
711.19387099999994
 20
2020.3040779999999
 30
0.0
 11
455.09387099999992
 21
2020.3040779999999
 31
0.0
  0
LINE
  5
7AA6
  8
1
  6
CONTINUOUS
 10
455.09387099999992
 20
2153.3040780000001
 30
0.0
 11
455.09387099999992
 21
1999.3040779999999
 31
0.0
  0
LINE
  5
7AA7
  8
1
  6
CONTINUOUS
 10
485.09387099999998
 20
2012.704078
 30
0.0
 11
485.09387099999998
 21
2020.3040779999999
 31
0.0
  0
LINE
  5
7AA8
  8
1
  6
CONTINUOUS
 10
711.19387099999994
 20
2132.3040780000001
 30
0.0
 11
455.09387099999992
 21
2132.3040780000001
 31
0.0
  0
LINE
  5
7AA9
  8
1
  6
CONTINUOUS
 10
475.09387099999992
 20
2012.704078
 30
0.0
 11
695.09387100000004
 21
2012.704078
 31
0.0
  0
LINE
  5
7AAA
  8
1
  6
CONTINUOUS
 10
685.09387100000004
 20
2012.704078
 30
0.0
 11
685.09387100000004
 21
2020.3040779999999
 31
0.0
  0
LINE
  5
7AAB
  8
1
  6
CONTINUOUS
 10
685.09387100000004
 20
2140.3040780000001
 30
0.0
 11
685.09387100000004
 21
2132.3040780000001
 31
0.0
  0
LINE
  5
7AAC
  8
1
  6
CONTINUOUS
 10
485.09387099999998
 20
2140.3040780000001
 30
0.0
 11
485.09387099999998
 21
2132.3040780000001
 31
0.0
  0
LINE
  5
7AAD
  8
1
  6
CONTINUOUS
 10
1010.093871
 20
1888.3040779999999
 30
0.0
 11
880.09387100000004
 21
1888.3040779999999
 31
0.0
  0
LINE
  5
7AAE
  8
1
  6
CONTINUOUS
 10
450.09387099999992
 20
1804.3040779999999
 30
0.0
 11
450.09387099999992
 21
2234.3040780000001
 31
0.0
  0
LINE
  5
7AAF
  8
1
  6
CONTINUOUS
 10
450.09387099999992
 20
2112.3040780000001
 30
0.0
 11
455.09387099999992
 21
2112.3040780000001
 31
0.0
  0
LINE
  5
7AB0
  8
1
  6
CONTINUOUS
 10
1010.093871
 20
2234.3040780000001
 30
0.0
 11
1010.093871
 21
1804.3040779999999
 31
0.0
  0
LINE
  5
7AB1
  8
1
  6
CONTINUOUS
 10
475.09387099999992
 20
1041.0040779999999
 30
0.0
 11
548.49387100000001
 21
1103.904078
 31
0.0
  0
LINE
  5
7AB2
  8
1
  6
CONTINUOUS
 10
695.09387100000004
 20
1041.0040779999999
 30
0.0
 11
621.69387099999994
 21
1103.904078
 31
0.0
  0
LINE
  5
7AB3
  8
1
  6
CONTINUOUS
 10
548.49387100000001
 20
1103.904078
 30
0.0
 11
621.69387099999994
 21
1103.904078
 31
0.0
  0
LINE
  5
7AB4
  8
1
  6
CONTINUOUS
 10
695.09387100000004
 20
965.60407799999984
 30
0.0
 11
475.09387099999992
 21
965.60407799999984
 31
0.0
  0
LINE
  5
7AB5
  8
1
  6
CONTINUOUS
 10
695.09387100000004
 20
1041.0040779999999
 30
0.0
 11
695.09387100000004
 21
813.90407800000003
 31
0.0
  0
LINE
  5
7AB6
  8
1
  6
CONTINUOUS
 10
475.09387099999992
 20
813.90407800000003
 30
0.0
 11
475.09387099999992
 21
1041.0040779999999
 31
0.0
  0
CIRCLE
  5
7AB7
  8
1
  6
CONTINUOUS
 10
870.59387099999992
 20
913.90407800000003
 30
0.0
 40
35.0
  0
LINE
  5
7AB8
  8
1
  6
CONTINUOUS
 10
967.79387100000008
 20
1093.904078
 30
0.0
 11
967.79387100000008
 21
813.90407800000003
 31
0.0
  0
LINE
  5
7AB9
  8
1
  6
CONTINUOUS
 10
487.79387100000002
 20
1093.904078
 30
0.0
 11
967.79387100000008
 21
1093.904078
 31
0.0
  0
LINE
  5
7ABA
  8
1
  6
CONTINUOUS
 10
1010.093871
 20
813.90407800000003
 30
0.0
 11
450.09387099999992
 21
813.90407800000003
 31
0.0
  0
LINE
  5
7ABB
  8
1
  6
CONTINUOUS
 10
1010.093871
 20
763.90407800000003
 30
0.0
 11
450.09387099999992
 21
763.90407800000003
 31
0.0
  0
LINE
  5
7ABC
  8
1
  6
CONTINUOUS
 10
1010.093871
 20
833.90407800000014
 30
0.0
 11
1010.093871
 21
738.90407800000003
 31
0.0
  0
ARC
  5
7ABD
  8
1
  6
CONTINUOUS
 10
870.59387099999992
 20
913.90407800000003
 30
0.0
 40
85.0
 50
324.69999999999987
 51
215.30000000000001
  0
LINE
  5
7ABE
  8
1
  6
CONTINUOUS
 10
948.09387100000004
 20
841.90407799999991
 30
0.0
 11
939.8938710000001
 21
864.70407799999987
 31
0.0
  0
LINE
  5
7ABF
  8
1
  6
CONTINUOUS
 10
793.09387100000004
 20
833.90407800000014
 30
0.0
 11
793.09387100000004
 21
841.90407799999991
 31
0.0
  0
LINE
  5
7AC0
  8
1
  6
CONTINUOUS
 10
793.09387100000004
 20
841.90407799999991
 30
0.0
 11
801.29387099999997
 21
864.70407799999987
 31
0.0
  0
LINE
  5
7AC1
  8
1
  6
CONTINUOUS
 10
948.09387100000004
 20
833.90407800000014
 30
0.0
 11
948.09387100000004
 21
841.90407799999991
 31
0.0
  0
LINE
  5
7AC2
  8
1
  6
CONTINUOUS
 10
1010.093871
 20
833.90407800000014
 30
0.0
 11
759.09387100000004
 21
833.90407800000014
 31
0.0
  0
CIRCLE
  5
7AC3
  8
1
  6
CONTINUOUS
 10
585.09387100000004
 20
998.90407799999991
 30
0.0
 40
45.0
  0
LINE
  5
7AC4
  8
1
  6
CONTINUOUS
 10
487.79387100000002
 20
813.90407800000003
 30
0.0
 11
487.79387100000002
 21
1093.904078
 31
0.0
  0
LINE
  5
7AC5
  8
1
  6
CONTINUOUS
 10
450.09387099999992
 20
738.90407800000003
 30
0.0
 11
450.09387099999992
 21
813.90407800000003
 31
0.0
  0
LINE
  5
7AC6
  8
1
  6
CONTINUOUS
 10
695.09387100000004
 20
2012.704078
 30
0.0
 11
695.09387100000004
 21
1888.3040779999999
 31
0.0
  0
LINE
  5
7AC7
  8
1
  6
CONTINUOUS
 10
475.09387099999992
 20
1888.3040779999999
 30
0.0
 11
475.09387099999992
 21
2012.704078
 31
0.0
  0
LINE
  5
7AC8
  8
1
  6
CONTINUOUS
 10
955.59387100000015
 20
1902.0040779999999
 30
0.0
 11
955.59387100000015
 21
2092.8040779999992
 31
0.0
  0
LINE
  5
7AC9
  8
1
  6
CONTINUOUS
 10
861.09387100000004
 20
1872.204078
 30
0.0
 11
861.09387100000004
 21
1902.0040779999999
 31
0.0
  0
LINE
  5
7ACA
  8
1
  6
CONTINUOUS
 10
880.09387100000004
 20
1872.204078
 30
0.0
 11
880.09387100000004
 21
1902.0040779999999
 31
0.0
  0
LINE
  5
7ACB
  8
1
  6
CONTINUOUS
 10
785.59387100000004
 20
1902.0040779999999
 30
0.0
 11
955.59387100000015
 21
1902.0040779999999
 31
0.0
  0
LINE
  5
7ACC
  8
1
  6
CONTINUOUS
 10
785.59387100000004
 20
2092.8040779999992
 30
0.0
 11
955.59387100000015
 21
2092.8040779999992
 31
0.0
  0
LINE
  5
7ACD
  8
1
  6
CONTINUOUS
 10
785.59387100000004
 20
1902.0040779999999
 30
0.0
 11
785.59387100000004
 21
2092.8040779999992
 31
0.0
  0
LINE
  5
7ACE
  8
1
  6
CONTINUOUS
 10
487.79387100000002
 20
1816.3040779999999
 30
0.0
 11
967.79387100000008
 21
1816.3040779999999
 31
0.0
  0
LINE
  5
7ACF
  8
1
  6
CONTINUOUS
 10
487.79387100000002
 20
1891.3040779999999
 30
0.0
 11
967.79387100000008
 21
1891.3040779999999
 31
0.0
  0
LINE
  5
7AD0
  8
1
  6
CONTINUOUS
 10
630.09387100000004
 20
1872.204078
 30
0.0
 11
630.09387100000004
 21
1837.204078
 31
0.0
  0
LINE
  5
7AD1
  8
1
  6
CONTINUOUS
 10
540.09387100000004
 20
1872.204078
 30
0.0
 11
540.09387100000004
 21
1837.204078
 31
0.0
  0
LINE
  5
7AD2
  8
1
  6
CONTINUOUS
 10
540.09387100000004
 20
1837.204078
 30
0.0
 11
630.09387100000004
 21
1837.204078
 31
0.0
  0
LINE
  5
7AD3
  8
1
  6
CONTINUOUS
 10
540.09387100000004
 20
1872.204078
 30
0.0
 11
630.09387100000004
 21
1872.204078
 31
0.0
  0
LINE
  5
7AD4
  8
1
  6
CONTINUOUS
 10
597.09387100000004
 20
2012.704078
 30
0.0
 11
597.09387100000004
 21
1872.204078
 31
0.0
  0
LINE
  5
7AD5
  8
1
  6
CONTINUOUS
 10
573.09387100000004
 20
2012.704078
 30
0.0
 11
573.09387100000004
 21
1872.204078
 31
0.0
  0
LINE
  5
7AD6
  8
1
  6
CONTINUOUS
 10
967.79387100000008
 20
1891.3040779999999
 30
0.0
 11
967.79387100000008
 21
1816.3040779999999
 31
0.0
  0
LINE
  5
7AD7
  8
1
  6
CONTINUOUS
 10
487.79387100000002
 20
1816.3040779999999
 30
0.0
 11
487.79387100000002
 21
1891.3040779999999
 31
0.0
  0
LINE
  5
7AD8
  8
1
  6
CONTINUOUS
 10
573.09387100000004
 20
1888.3040779999999
 30
0.0
 11
450.09387099999992
 21
1888.3040779999999
 31
0.0
  0
LINE
  5
7AD9
  8
1
  6
CONTINUOUS
 10
835.59387100000004
 20
1872.204078
 30
0.0
 11
905.59387100000015
 21
1872.204078
 31
0.0
  0
LINE
  5
7ADA
  8
1
  6
CONTINUOUS
 10
835.59387100000004
 20
1837.204078
 30
0.0
 11
905.59387100000015
 21
1837.204078
 31
0.0
  0
LINE
  5
7ADB
  8
1
  6
CONTINUOUS
 10
835.59387100000004
 20
1872.204078
 30
0.0
 11
835.59387100000004
 21
1837.204078
 31
0.0
  0
LINE
  5
7ADC
  8
1
  6
CONTINUOUS
 10
905.59387100000015
 20
1872.204078
 30
0.0
 11
905.59387100000015
 21
1837.204078
 31
0.0
  0
LINE
  5
7ADD
  8
2
  6
CENTER
 10
870.59387099999992
 20
878.9040779999998
 30
0.0
 11
870.59387099999992
 21
948.90407799999991
 31
0.0
  0
LINE
  5
7ADE
  8
2
  6
CENTER
 10
905.59387100000015
 20
913.90407800000003
 30
0.0
 11
835.59387100000004
 21
913.90407800000003
 31
0.0
  0
LINE
  5
7ADF
  8
1
  6
CONTINUOUS
 10
719.19387099999994
 20
2112.3040780000001
 30
0.0
 11
1010.093871
 21
2112.3040780000001
 31
0.0
  0
LINE
  5
7AE0
  8
1
  6
CONTINUOUS
 10
861.09387100000004
 20
1888.3040779999999
 30
0.0
 11
597.09387100000004
 21
1888.3040779999999
 31
0.0
  0
LINE
  5
7AE1
  8
1
  6
CONTINUOUS
 10
985.09387100000015
 20
2234.3040780000001
 30
0.0
 11
1010.093871
 21
2234.3040780000001
 31
0.0
  0
LINE
  5
7AE2
  8
1
  6
CONTINUOUS
 10
985.09387100000015
 20
1804.3040779999999
 30
0.0
 11
1010.093871
 21
1804.3040779999999
 31
0.0
  0
LINE
  5
7AE3
  8
1
  6
CONTINUOUS
 10
1010.093871
 20
738.90407800000003
 30
0.0
 11
985.09387100000015
 21
738.90407800000003
 31
0.0
  0
LINE
  5
7AE4
  8
1
  6
CONTINUOUS
 10
475.09387099999992
 20
738.90407800000003
 30
0.0
 11
475.09387099999992
 21
763.90407800000003
 31
0.0
  0
LINE
  5
7AE5
  8
1
  6
CONTINUOUS
 10
985.09387100000015
 20
763.90407800000003
 30
0.0
 11
985.09387100000015
 21
738.90407800000003
 31
0.0
  0
LINE
  5
7AE6
  8
1
  6
CONTINUOUS
 10
475.09387099999992
 20
738.90407800000003
 30
0.0
 11
450.09387099999992
 21
738.90407800000003
 31
0.0
  0
LINE
  5
7AE7
  8
1
  6
CONTINUOUS
 10
985.09387100000015
 20
2234.3040780000001
 30
0.0
 11
985.09387100000015
 21
2112.3040780000001
 31
0.0
  0
LINE
  5
7AE8
  8
1
  6
CONTINUOUS
 10
475.09387099999992
 20
1804.3040779999999
 30
0.0
 11
450.09387099999992
 21
1804.3040779999999
 31
0.0
  0
LINE
  5
7AE9
  8
1
  6
CONTINUOUS
 10
475.09387099999992
 20
2234.3040780000001
 30
0.0
 11
450.09387099999992
 21
2234.3040780000001
 31
0.0
  0
LINE
  5
7AEA
  8
1
  6
CONTINUOUS
 10
985.09387100000015
 20
1888.3040779999999
 30
0.0
 11
985.09387100000015
 21
1804.3040779999999
 31
0.0
  0
LINE
  5
7AEB
  8
1
  6
CONTINUOUS
 10
475.09387099999992
 20
2234.3040780000001
 30
0.0
 11
475.09387099999992
 21
2132.3040780000001
 31
0.0
  0
LINE
  5
7AEC
  8
1
  6
CONTINUOUS
 10
475.09387099999992
 20
1888.3040779999999
 30
0.0
 11
475.09387099999992
 21
1804.3040779999999
 31
0.0
  0
LINE
  5
7AED
  8
1
  6
CONTINUOUS
 10
1441.3426179999999
 20
738.90407800000003
 30
0.0
 11
1871.342617999999
 21
738.90407800000003
 31
0.0
  0
LINE
  5
7AEE
  8
1
  6
CONTINUOUS
 10
1441.3426179999999
 20
763.90407800000003
 30
0.0
 11
1441.3426179999999
 21
738.90407800000003
 31
0.0
  0
LINE
  5
7AEF
  8
1
  6
CONTINUOUS
 10
1871.342617999999
 20
763.90407800000003
 30
0.0
 11
1871.342617999999
 21
738.90407800000003
 31
0.0
  0
LINE
  5
7AF0
  8
1
  6
CONTINUOUS
 10
1649.742618
 20
1041.0040779999999
 30
0.0
 11
1550.3426179999999
 21
965.60407799999984
 31
0.0
  0
LINE
  5
7AF1
  8
1
  6
CONTINUOUS
 10
1550.3426179999999
 20
965.60407799999984
 30
0.0
 11
1550.3426179999999
 21
813.90407800000003
 31
0.0
  0
LINE
  5
7AF2
  8
1
  6
CONTINUOUS
 10
1525.342617999999
 20
813.90407800000003
 30
0.0
 11
1525.342617999999
 21
763.90407800000003
 31
0.0
  0
LINE
  5
7AF3
  8
1
  6
CONTINUOUS
 10
1453.342617999999
 20
813.90407800000003
 30
0.0
 11
1749.3426179999999
 21
813.90407800000003
 31
0.0
  0
LINE
  5
7AF4
  8
1
  6
CONTINUOUS
 10
1441.3426179999999
 20
763.90407800000003
 30
0.0
 11
1871.342617999999
 21
763.90407800000003
 31
0.0
  0
LINE
  5
7AF5
  8
1
  6
CONTINUOUS
 10
1749.3426179999999
 20
813.90407800000003
 30
0.0
 11
1749.3426179999999
 21
763.90407800000003
 31
0.0
  0
LINE
  5
7AF6
  8
1
  6
CONTINUOUS
 10
1769.3426179999999
 20
1158.904078
 30
0.0
 11
1657.342617999999
 21
998.90407799999991
 31
0.0
  0
LINE
  5
7AF7
  8
1
  6
CONTINUOUS
 10
1769.3426179999999
 20
998.90407799999991
 30
0.0
 11
1657.342617999999
 21
1158.904078
 31
0.0
  0
ARC
  5
7AF8
  8
1
  6
CONTINUOUS
 10
1669.342617999999
 20
876.80407799999989
 30
0.0
 40
12.0
 50
180.0
 51
270.0
  0
ARC
  5
7AF9
  8
1
  6
CONTINUOUS
 10
1757.3426179999999
 20
876.80407799999989
 30
0.0
 40
12.0
 50
270.0
 51
0.0
  0
LINE
  5
7AFA
  8
1
  6
CONTINUOUS
 10
1657.342617999999
 20
1158.904078
 30
0.0
 11
1657.342617999999
 21
876.80407799999989
 31
0.0
  0
LINE
  5
7AFB
  8
1
  6
CONTINUOUS
 10
1769.3426179999999
 20
1158.904078
 30
0.0
 11
1657.342617999999
 21
1158.904078
 31
0.0
  0
LINE
  5
7AFC
  8
1
  6
CONTINUOUS
 10
1769.3426179999999
 20
876.80407799999989
 30
0.0
 11
1769.3426179999999
 21
1158.904078
 31
0.0
  0
LINE
  5
7AFD
  8
1
  6
CONTINUOUS
 10
1657.342617999999
 20
998.90407799999991
 30
0.0
 11
1769.3426179999999
 21
998.90407799999991
 31
0.0
  0
LINE
  5
7AFE
  8
1
  6
CONTINUOUS
 10
1649.742618
 20
1098.904078
 30
0.0
 11
1657.742618
 21
1098.904078
 31
0.0
  0
LINE
  5
7AFF
  8
1
  6
CONTINUOUS
 10
1649.742618
 20
1098.904078
 30
0.0
 11
1649.742618
 21
813.90407800000003
 31
0.0
  0
LINE
  5
7B00
  8
1
  6
CONTINUOUS
 10
1649.742618
 20
898.90407799999991
 30
0.0
 11
1657.742618
 21
898.90407799999991
 31
0.0
  0
LINE
  5
7B01
  8
1
  6
CONTINUOUS
 10
1777.342617999999
 20
898.90407799999991
 30
0.0
 11
1768.942618
 21
898.90407799999991
 31
0.0
  0
LINE
  5
7B02
  8
1
  6
CONTINUOUS
 10
1777.342617999999
 20
1098.904078
 30
0.0
 11
1768.942618
 21
1098.904078
 31
0.0
  0
LINE
  5
7B03
  8
1
  6
CONTINUOUS
 10
1669.342617999999
 20
864.80407799999978
 30
0.0
 11
1757.3426179999999
 21
864.80407799999978
 31
0.0
  0
LINE
  5
7B04
  8
1
  6
CONTINUOUS
 10
1528.342617999999
 20
1093.904078
 30
0.0
 11
1453.342617999999
 21
1093.904078
 31
0.0
  0
LINE
  5
7B05
  8
1
  6
CONTINUOUS
 10
1453.342617999999
 20
813.90407800000003
 30
0.0
 11
1453.342617999999
 21
1093.904078
 31
0.0
  0
LINE
  5
7B06
  8
1
  6
CONTINUOUS
 10
1528.342617999999
 20
813.90407800000003
 30
0.0
 11
1528.342617999999
 21
1093.904078
 31
0.0
  0
LINE
  5
7B07
  8
1
  6
CONTINUOUS
 10
1508.3426179999999
 20
904.40407799999991
 30
0.0
 11
1550.3426179999999
 21
904.40407799999991
 31
0.0
  0
LINE
  5
7B08
  8
1
  6
CONTINUOUS
 10
1508.3426179999999
 20
923.40407799999991
 30
0.0
 11
1550.3426179999999
 21
923.40407799999991
 31
0.0
  0
LINE
  5
7B09
  8
1
  6
CONTINUOUS
 10
1508.3426179999999
 20
878.9040779999998
 30
0.0
 11
1508.3426179999999
 21
948.90407799999991
 31
0.0
  0
LINE
  5
7B0A
  8
1
  6
CONTINUOUS
 10
1473.3426179999999
 20
878.9040779999998
 30
0.0
 11
1473.3426179999999
 21
948.90407799999991
 31
0.0
  0
LINE
  5
7B0B
  8
1
  6
CONTINUOUS
 10
1508.3426179999999
 20
878.9040779999998
 30
0.0
 11
1473.3426179999999
 21
878.9040779999998
 31
0.0
  0
LINE
  5
7B0C
  8
1
  6
CONTINUOUS
 10
1508.3426179999999
 20
948.90407799999991
 30
0.0
 11
1473.3426179999999
 21
948.90407799999991
 31
0.0
  0
LINE
  5
7B0D
  8
1
  6
CONTINUOUS
 10
1508.3426179999999
 20
1043.904078
 30
0.0
 11
1473.3426179999999
 21
1043.904078
 31
0.0
  0
LINE
  5
7B0E
  8
1
  6
CONTINUOUS
 10
1508.3426179999999
 20
953.9040779999998
 30
0.0
 11
1473.3426179999999
 21
953.9040779999998
 31
0.0
  0
LINE
  5
7B0F
  8
1
  6
CONTINUOUS
 10
1473.3426179999999
 20
953.9040779999998
 30
0.0
 11
1473.3426179999999
 21
1043.904078
 31
0.0
  0
LINE
  5
7B10
  8
1
  6
CONTINUOUS
 10
1508.3426179999999
 20
953.9040779999998
 30
0.0
 11
1508.3426179999999
 21
1043.904078
 31
0.0
  0
LINE
  5
7B11
  8
1
  6
CONTINUOUS
 10
1610.0426179999999
 20
1010.904078
 30
0.0
 11
1508.3426179999999
 21
1010.904078
 31
0.0
  0
LINE
  5
7B12
  8
1
  6
CONTINUOUS
 10
1578.442618
 20
986.9040779999998
 30
0.0
 11
1508.3426179999999
 21
986.9040779999998
 31
0.0
  0
LINE
  5
7B14
  8
2
  6
CENTER
 10
1713.3426179999999
 20
1201.95973
 30
0.0
 11
1713.3426179999999
 21
733.22543299999995
 31
0.0
  0
LINE
  5
7B15
  8
2
  6
CENTER
 10
986.75294176903662
 20
998.90407799999991
 30
0.0
 11
387.44692500000002
 21
998.90407799999991
 31
0.0
  0
LINE
  5
7B16
  8
2
  6
CENTER
 10
585.09387100000004
 20
1778.7521809999989
 30
0.0
 11
585.09387100000004
 21
2160.0106660000001
 31
0.0
  0
DIMENSION
  5
7B37
  8
3
  6
CONTINUOUS
  2
*D1
 10
423.42876700000011
 20
998.90407799999991
 30
0.0
 11
423.42876699999988
 21
1079.887553
 31
0.0
 70
   128
 13
455.09387099999992
 23
1158.904078
 33
0.0
 14
455.09387099999992
 24
998.90407799999991
 34
0.0
 50
90.0
1001
ACAD
1000
DSTYLE
1002
{
1070
   287
1070
     3
1070
   287
1070
     3
1070
    40
1040
10.0
1070
   143
1040
0.039
1070
   172
1070
     1
1070
   271
1070
     0
1070
   279
1070
     0
1070
   288
1070
     1
1002
}
  0
DIMENSION
  5
7B8D
  8
3
  6
CONTINUOUS
  2
*D2
 10
309.85749199999998
 20
738.90407800000003
 30
0.0
 11
309.85749199999992
 21
963.78430500000002
 31
0.0
 70
   128
 13
455.09387099999992
 23
1180.9040779999989
 33
0.0
 14
450.09387099999992
 24
738.90407800000003
 34
0.0
 50
90.0
1001
ACAD
1000
DSTYLE
1002
{
1070
   287
1070
     3
1070
   287
1070
     3
1070
    40
1040
10.0
1070
   143
1040
0.039
1070
   172
1070
     1
1070
   271
1070
     0
1070
   279
1070
     0
1070
   288
1070
     1
1002
}
  0
DIMENSION
  5
7B9A
  8
3
  6
CONTINUOUS
  2
*D3
 10
585.09387100000004
 20
687.31976599999985
 30
0.0
 11
519.37958499999979
 21
687.31976599999985
 31
0.0
 70
   128
 13
450.09387099999992
 23
738.90407800000003
 33
0.0
 14
585.09387100000004
 24
763.90407800000003
 34
0.0
1001
ACAD
1000
DSTYLE
1002
{
1070
   287
1070
     3
1070
   287
1070
     3
1070
    40
1040
10.0
1070
   143
1040
0.039
1070
   172
1070
     1
1070
   271
1070
     0
1070
   279
1070
     0
1070
   288
1070
     1
1002
}
  0
DIMENSION
  5
7BA6
  8
3
  6
CONTINUOUS
  2
*D4
 10
1010.093871
 20
687.31976599999985
 30
0.0
 11
797.59387100000004
 21
712.31976599999985
 31
0.0
 70
     0
 13
585.09387100000004
 23
763.90407800000003
 33
0.0
 14
1010.093871
 24
738.90407800000003
 34
0.0
1001
ACAD
1000
DSTYLE
1002
{
1070
   287
1070
     4
1070
   287
1070
     4
1070
    40
1040
10.0
1070
    75
1070
     1
1070
   143
1040
0.039
1070
   172
1070
     1
1070
   271
1070
     0
1070
   279
1070
     1
1070
   288
1070
     1
1002
}
  0
DIMENSION
  5
7BC0
  8
3
  6
CONTINUOUS
  2
*D5
 10
371.48323500000021
 20
998.90407799999991
 30
0.0
 11
371.48323499999998
 21
1081.185843999999
 31
0.0
 70
   128
 13
470.09387099999992
 23
1169.904078
 33
0.0
 14
455.09387099999992
 24
998.90407799999991
 34
0.0
 50
90.0
1001
ACAD
1000
DSTYLE
1002
{
1070
   287
1070
     3
1070
   287
1070
     3
1070
    40
1040
10.0
1070
   143
1040
0.039
1070
   172
1070
     1
1070
   271
1070
     0
1070
   279
1070
     0
1070
   288
1070
     1
1002
}
  0
DIMENSION
  5
7BCC
  8
3
  6
CONTINUOUS
  2
*D6
 10
371.48323499999998
 20
763.90407800000003
 30
0.0
 11
346.48323499999992
 21
881.40407800000003
 31
0.0
 70
     0
 13
455.09387099999992
 23
998.90407799999991
 33
0.0
 14
450.09387099999992
 24
763.90407800000003
 34
0.0
 50
90.0
1001
ACAD
1000
DSTYLE
1002
{
1070
   287
1070
     4
1070
   287
1070
     4
1070
    40
1040
10.0
1070
    75
1070
     1
1070
   143
1040
0.039
1070
   172
1070
     1
1070
   271
1070
     0
1070
   279
1070
     1
1070
   288
1070
     1
1002
}
  0
DIMENSION
  5
7BDC
  8
3
  6
CONTINUOUS
  2
*D7
 10
371.48323500000009
 20
738.90407800000003
 30
0.0
 11
371.48323499999998
 21
664.61836371428581
 31
0.0
 70
   128
 13
450.09387099999992
 23
763.90407800000003
 33
0.0
 14
450.09387099999992
 24
738.90407800000003
 34
0.0
 50
90.0
1001
ACAD
1000
DSTYLE
1002
{
1070
   287
1070
     3
1070
   287
1070
     3
1070
    40
1040
10.0
1070
   143
1040
0.039
1070
   172
1070
     1
1070
   271
1070
     0
1070
   279
1070
     0
1070
   288
1070
     1
1002
}
  0
LINE
  5
7BF9
  8
3
  6
CONTINUOUS
 10
1777.342617999999
 20
1078.904078
 30
0.0
 11
1807.1188899999991
 21
1078.904078
 31
0.0
  0
LINE
  5
7BFB
  8
3
  6
CONTINUOUS
 10
1777.342617999999
 20
918.90407799999991
 30
0.0
 11
1824.316769
 21
918.90407799999991
 31
0.0
  0
DIMENSION
  5
7C08
  8
3
  6
CONTINUOUS
  2
*D8
 10
1840.0815
 20
918.90407799999991
 30
0.0
 11
1813.815168869867
 21
998.90407799999991
 31
0.0
 70
   128
 13
1777.342617999999
 23
1078.904078
 33
0.0
 14
1777.342617999999
 24
918.90407799999991
 34
0.0
 50
90.0
1001
ACAD
1000
DSTYLE
1002
{
1070
   288
1070
     1
1070
   172
1070
     1
1070
    40
1040
10.0
1070
     3
1000
φ<>
1070
   271
1070
     0
1070
   143
1040
0.039
1002
}
  0
LINE
  5
7C09
  8
1
  6
CONTINUOUS
 10
1777.342617999999
 20
1098.904078
 30
0.0
 11
1777.342617999999
 21
898.90407799999991
 31
0.0
  0
DIMENSION
  5
7C19
  8
3
  6
CONTINUOUS
  2
*D9
 10
1769.3426179999999
 20
1197.0947000000001
 30
0.0
 11
1713.3426179999999
 21
1217.791778904214
 31
0.0
 70
   128
 13
1657.342617999999
 23
1158.904078
 33
0.0
 14
1769.3426179999999
 24
1158.904078
 34
0.0
1001
ACAD
1000
DSTYLE
1002
{
1070
   288
1070
     1
1070
   172
1070
     1
1070
    40
1040
10.0
1070
   271
1070
     0
1070
   143
1040
0.039
1002
}
  0
DIMENSION
  5
7C26
  8
3
  6
CONTINUOUS
  2
*D10
 10
1713.3426179999999
 20
1257.3685969999999
 30
0.0
 11
1574.2309150000001
 21
1257.3685969999999
 31
0.0
 70
   128
  1
MAX\P260
 13
1453.342617999999
 23
1093.904078
 33
0.0
 14
1713.3426179999999
 24
1242.931439
 34
0.0
1001
ACAD
1000
DSTYLE
1002
{
1070
   287
1070
     3
1070
   287
1070
     3
1070
    40
1040
10.0
1070
   143
1040
0.039
1070
   172
1070
     1
1070
   271
1070
     0
1070
   279
1070
     0
1070
   288
1070
     1
1002
}
  0
DIMENSION
  5
7C5D
  8
3
  6
CONTINUOUS
  2
*D11
 10
1713.3426179999999
 20
675.88453800000002
 30
0.0
 11
1574.3024740000001
 21
675.88453800000002
 31
0.0
 70
   128
 13
1441.3426179999999
 23
738.90407800000003
 33
0.0
 14
1713.3426179999999
 24
738.90407800000003
 34
0.0
1001
ACAD
1000
DSTYLE
1002
{
1070
   287
1070
     3
1070
   287
1070
     3
1070
    40
1040
10.0
1070
   143
1040
0.039
1070
   172
1070
     1
1070
   271
1070
     0
1070
   279
1070
     0
1070
   288
1070
     1
1002
}
  0
DIMENSION
  5
7C69
  8
3
  6
CONTINUOUS
  2
*D12
 10
1871.342617999999
 20
675.88453800000002
 30
0.0
 11
1792.3426179999999
 21
700.88453800000002
 31
0.0
 70
     0
 13
1713.3426179999999
 23
738.90407800000003
 33
0.0
 14
1871.342617999999
 24
738.90407800000003
 34
0.0
1001
ACAD
1000
DSTYLE
1002
{
1070
   287
1070
     4
1070
   287
1070
     4
1070
    40
1040
10.0
1070
    75
1070
     1
1070
   143
1040
0.039
1070
   172
1070
     1
1070
   271
1070
     0
1070
   279
1070
     1
1070
   288
1070
     1
1002
}
  0
DIMENSION
  5
7C76
  8
3
  6
CONTINUOUS
  2
*D13
 10
1091.142517
 20
1804.3040779999999
 30
0.0
 11
1091.1425169999991
 21
2028.507801
 31
0.0
 70
   128
 13
1010.093871
 23
2234.3040780000001
 33
0.0
 14
1010.093871
 24
1804.3040779999999
 34
0.0
 50
90.0
1001
ACAD
1000
DSTYLE
1002
{
1070
   287
1070
     3
1070
   287
1070
     3
1070
    40
1040
10.0
1070
   143
1040
0.039
1070
   172
1070
     1
1070
   271
1070
     0
1070
   279
1070
     0
1070
   288
1070
     1
1002
}
  0
DIMENSION
  5
7C83
  8
3
  6
CONTINUOUS
  2
*D14
 10
1010.093871
 20
1730.708760999999
 30
0.0
 11
737.15278899999998
 21
1730.708760999999
 31
0.0
 70
   128
 13
450.09387099999992
 23
1804.3040779999999
 33
0.0
 14
1010.093871
 24
1804.3040779999999
 34
0.0
1001
ACAD
1000
DSTYLE
1002
{
1070
   287
1070
     3
1070
   287
1070
     3
1070
    40
1040
10.0
1070
   143
1040
0.039
1070
   172
1070
     1
1070
   271
1070
     0
1070
   279
1070
     0
1070
   288
1070
     1
1002
}
  0
LINE
  5
7C85
  8
4
  6
CONTINUOUS
 10
1850.0
 20
500.0
 30
0.0
 11
1850.0
 21
300.0
 31
0.0
  0
LINE
  5
7C86
  8
4
  6
CONTINUOUS
 10
1150.0
 20
500.0
 30
0.0
 11
1150.0
 21
300.0
 31
0.0
  0
LINE
  5
7C87
  8
4
  6
CONTINUOUS
 10
650.0
 20
500.0
 30
0.0
 11
650.0
 21
300.0
 31
0.0
  0
LINE
  5
7C8A
  8
4
  6
CONTINUOUS
 10
650.0
 20
300.0
 30
0.0
 11
1850.0
 21
300.0
 31
0.0
  0
LINE
  5
7C8B
  8
4
  6
CONTINUOUS
 10
650.0
 20
400.0
 30
0.0
 11
1850.0
 21
400.0
 31
0.0
  0
TEXT
  5
7C8C
  8
4
  6
CONTINUOUS
 10
688.50208099999998
 20
431.543026
 30
0.0
 40
50.0
  1
機器名称
  0
TEXT
  5
7C8D
  8
4
  6
CONTINUOUS
 10
686.258106
 20
321.64515699999993
 30
0.0
 40
50.0
  1
機器型番
  0
TEXT
  5
7C8E
  8
4
  6
CONTINUOUS
 10
1177.678744999999
 20
422.57176900000002
 30
0.0
 40
45.0
  1
ミツヤニューマルチファン
  0
TEXT
  5
7C8F
  8
4
  6
CONTINUOUS
 10
1186.6544960000001
 20
317.159584
 30
0.0
 40
50.0
  1
NM#1-1
  0
TEXT
  5
7C91
  8
4
  6
CONTINUOUS
 10
842.96854599999995
 20
2383.4288409999999
 30
0.0
 40
54.0
  1
天井吊ベット
  0
TEXT
  5
7C92
  8
4
  6
CONTINUOUS
 10
316.16759300000001
 20
2533.8809759999999
 30
0.0
 40
72.0
  1
ベルト駆動式片吸込片持多翼ファン
  0
LINE
  5
7C93
  8
4
  6
CONTINUOUS
 10
250.0
 20
2469.408754
 30
0.0
 11
1850.0
 21
2469.408754
 31
0.0
  0
LINE
  5
7C94
  8
4
  6
CONTINUOUS
 10
250.0
 20
2669.408754
 30
0.0
 11
1850.0
 21
2669.408754
 31
0.0
  0
LINE
  5
7C95
  8
4
  6
CONTINUOUS
 10
650.0
 20
500.0
 30
0.0
 11
1850.0
 21
500.0
 31
0.0
  0
LINE
  5
7C96
  8
4
  6
CONTINUOUS
 10
250.0
 20
2669.408754
 30
0.0
 11
250.0
 21
2469.408754
 31
0.0
  0
TEXT
  5
7C97
  8
4
  6
CONTINUOUS
 10
407.109714
 20
2382.3194779999999
 30
0.0
 40
54.0
  1
左回転左横向
  0
TEXT
  5
7C98
  8
4
  6
CONTINUOUS
 10
1468.9695589999999
 20
2706.0610809999998
 30
0.0
 40
56.0
  1
No.
  0
TEXT
  5
7C99
  8
4
  6
CONTINUOUS
 10
1311.296063
 20
2383.4288409999999
 30
0.0
 40
54.0
  1
縮尺：1/10
  0
LINE
  5
7C9A
  8
4
  6
CONTINUOUS
 10
1850.0
 20
2669.408754
 30
0.0
 11
1850.0
 21
2469.408754
 31
0.0
  0
LINE
  5
7C9C
  8
4
  6
CONTINUOUS
 10
1440.617422
 20
2681.2635829999999
 30
0.0
 11
1440.617422
 21
2786.6522620000001
 31
0.0
  0
LINE
  5
7C9D
  8
4
  6
CONTINUOUS
 10
1440.617422
 20
2786.6522620000001
 30
0.0
 11
1850.0
 21
2786.6522620000001
 31
0.0
  0
LINE
  5
7C9E
  8
4
  6
CONTINUOUS
 10
1850.0
 20
2786.6522620000001
 30
0.0
 11
1850.0
 21
2681.2635829999999
 31
0.0
  0
LINE
  5
7C9F
  8
4
  6
CONTINUOUS
 10
1850.0
 20
2681.2635829999999
 30
0.0
 11
1440.617422
 21
2681.2635829999999
 31
0.0
  0
DIMENSION
  5
7CBD
  8
3
  6
CONTINUOUS
  2
*D15
 10
585.09387100000004
 20
1213.975400999999
 30
0.0
 11
664.37958528571426
 21
1213.975400999999
 31
0.0
 70
   128
 13
730.09387100000004
 23
998.90407799999991
 33
0.0
 14
585.09387100000004
 24
1186.3396768697571
 34
0.0
1001
ACAD
1000
DSTYLE
1002
{
1070
   287
1070
     3
1070
   287
1070
     3
1070
    40
1040
10.0
1070
   143
1040
0.039
1070
   172
1070
     1
1070
   271
1070
     0
1070
   279
1070
     0
1070
   288
1070
     1
1002
}
  0
DIMENSION
  5
7CD7
  8
3
  6
CONTINUOUS
  2
*D16
 10
455.09387099999992
 20
1213.975400999999
 30
0.0
 11
519.03300599999989
 21
1213.336307999999
 31
0.0
 70
   128
 13
585.09387100000004
 23
1186.3396768697571
 33
0.0
 14
455.09387099999992
 24
1180.9040779999989
 34
0.0
1001
ACAD
1000
DSTYLE
1002
{
1070
   287
1070
     4
1070
   287
1070
     4
1070
    40
1040
10.0
1070
    75
1070
     1
1070
   143
1040
0.039
1070
   172
1070
     1
1070
   271
1070
     0
1070
   279
1070
     1
1070
   288
1070
     1
1002
}
  0
LINE
  5
7CF5
  8
2
  6
CENTER
 10
414.69052199999999
 20
2076.3040780000001
 30
0.0
 11
1031.048782999999
 21
2076.3040780000001
 31
0.0
  0
DIMENSION
  5
7DAF
  8
3
  2
*D17
 10
1010.093871
 20
1272.737242152346
 30
0.0
 11
718.39764719046605
 21
1272.737242152346
 31
0.0
 70
   128
 13
455.09387099999992
 23
1180.9040779999989
 33
0.0
 14
1010.093871
 24
813.90407800000003
 34
0.0
1001
ACAD
1000
DSTYLE
1002
{
1070
   287
1070
     3
1070
   287
1070
     3
1070
    40
1040
10.0
1070
   143
1040
0.039
1070
   172
1070
     1
1070
   271
1070
     0
1070
   279
1070
     0
1070
   288
1070
     1
1002
}
  0
DIMENSION
  5
7DE2
  8
3
  2
*D18
 10
1777.342617999999
 20
1257.3685969999999
 30
0.0
 11
1745.3426179999999
 21
1286.689309598939
 31
0.0
 70
   128
 13
1713.3426179999999
 23
1242.931439
 33
0.0
 14
1777.342617999999
 24
1098.904078
 34
0.0
1001
ACAD
1000
DSTYLE
1002
{
1070
   288
1070
     1
1070
   172
1070
     1
1070
    75
1070
     1
1070
    40
1040
10.0
1070
   271
1070
     0
1070
   143
1040
0.039
1002
}
  0
ENDSEC
  0
EOF
