  0
SECTION
  2
HEADER
  9
$ACADVER
  1
AC1009
  9
$INSBASE
 10
0.0
 20
0.0
 30
0.0
  9
$EXTMIN
 10
-3946.6814203145332
 20
-5231.5296037572616
 30
0.0
  9
$EXTMAX
 10
6553.3185796854659
 20
9518.4703962427375
 30
0.0
  9
$LIMMIN
 10
0.0
 20
0.0
  9
$LIMMAX
 10
297.0
 20
210.0
  9
$ORTHOMODE
 70
     0
  9
$REGENMODE
 70
     1
  9
$FILLMODE
 70
     0
  9
$QTEXTMODE
 70
     0
  9
$MIRRTEXT
 70
     1
  9
$DRAGMODE
 70
     2
  9
$LTSCALE
 40
100.0
  9
$OSMODE
 70
    37
  9
$ATTMODE
 70
     1
  9
$TEXTSIZE
 40
180.0
  9
$TRACEWID
 40
0.05
  9
$TEXTSTYLE
  7
STANDARD
  9
$CLAYER
  8
3
  9
$CELTYPE
  6
BYLAYER
  9
$CECOLOR
 62
   256
  9
$DIMSCALE
 40
50.0
  9
$DIMASZ
 40
2.0
  9
$DIMEXO
 40
0.5
  9
$DIMDLI
 40
10.0
  9
$DIMRND
 40
0.0
  9
$DIMDLE
 40
0.0
  9
$DIMEXE
 40
1.0
  9
$DIMTP
 40
1.0
  9
$DIMTM
 40
1.0
  9
$DIMTXT
 40
3.0
  9
$DIMCEN
 40
0.0
  9
$DIMTSZ
 40
0.0
  9
$DIMTOL
 70
     0
  9
$DIMLIM
 70
     0
  9
$DIMTIH
 70
     0
  9
$DIMTOH
 70
     0
  9
$DIMSE1
 70
     0
  9
$DIMSE2
 70
     0
  9
$DIMTAD
 70
     1
  9
$DIMZIN
 70
     8
  9
$DIMBLK
  1
OPEN
  9
$DIMASO
 70
     1
  9
$DIMSHO
 70
     1
  9
$DIMPOST
  1

  9
$DIMAPOST
  1

  9
$DIMALT
 70
     0
  9
$DIMALTD
 70
     2
  9
$DIMALTF
 40
0.039
  9
$DIMLFAC
 40
1.0
  9
$DIMTOFL
 70
     1
  9
$DIMTVP
 40
0.0
  9
$DIMTIX
 70
     0
  9
$DIMSOXD
 70
     0
  9
$DIMSAH
 70
     0
  9
$DIMBLK1
  1

  9
$DIMBLK2
  1

  9
$DIMSTYLE
  2
IGA
  9
$DIMCLRD
 70
     0
  9
$DIMCLRE
 70
     0
  9
$DIMCLRT
 70
     0
  9
$DIMTFAC
 40
10.0
  9
$DIMGAP
 40
1.0
  9
$LUNITS
 70
     2
  9
$LUPREC
 70
     3
  9
$SKETCHINC
 40
0.1
  9
$FILLETRAD
 40
50.0
  9
$AUNITS
 70
     0
  9
$AUPREC
 70
     0
  9
$MENU
  1
acad
  9
$ELEVATION
 40
0.0
  9
$PELEVATION
 40
0.0
  9
$THICKNESS
 40
0.0
  9
$LIMCHECK
 70
     0
  9
$BLIPMODE
 70
     0
  9
$CHAMFERA
 40
0.5
  9
$CHAMFERB
 40
0.5
  9
$SKPOLY
 70
     0
  9
$TDCREATE
 40
2453304.4208819792
  9
$TDUPDATE
 40
2454953.8563934718
  9
$TDINDWG
 40
0.0646032176
  9
$TDUSRTIMER
 40
0.0646026736
  9
$USRTIMER
 70
     1
  9
$ANGBASE
 50
0.0
  9
$ANGDIR
 70
     0
  9
$PDMODE
 70
     0
  9
$PDSIZE
 40
0.0
  9
$PLINEWID
 40
0.0
  9
$COORDS
 70
     1
  9
$SPLFRAME
 70
     0
  9
$SPLINETYPE
 70
     6
  9
$SPLINESEGS
 70
     8
  9
$ATTDIA
 70
     0
  9
$ATTREQ
 70
     1
  9
$HANDLING
 70
 10241
  9
$HANDSEED
  5
86C3
  9
$SURFTAB1
 70
     6
  9
$SURFTAB2
 70
     6
  9
$SURFTYPE
 70
     6
  9
$SURFU
 70
     6
  9
$SURFV
 70
     6
  9
$UCSNAME
  2

  9
$UCSORG
 10
0.0
 20
0.0
 30
0.0
  9
$UCSXDIR
 10
1.0
 20
0.0
 30
0.0
  9
$UCSYDIR
 10
0.0
 20
1.0
 30
0.0
  9
$PUCSNAME
  2

  9
$PUCSORG
 10
0.0
 20
0.0
 30
0.0
  9
$PUCSXDIR
 10
1.0
 20
0.0
 30
0.0
  9
$PUCSYDIR
 10
0.0
 20
1.0
 30
0.0
  9
$USERI1
 70
     0
  9
$USERI2
 70
     0
  9
$USERI3
 70
     0
  9
$USERI4
 70
     0
  9
$USERI5
 70
     0
  9
$USERR1
 40
0.0
  9
$USERR2
 40
0.0
  9
$USERR3
 40
0.0
  9
$USERR4
 40
0.0
  9
$USERR5
 40
0.0
  9
$WORLDVIEW
 70
     1
  9
$SHADEDGE
 70
     3
  9
$SHADEDIF
 70
    70
  9
$TILEMODE
 70
     1
  9
$MAXACTVP
 70
    16
  9
$PLIMCHECK
 70
     0
  9
$PEXTMIN
 10
1.0000000000000000E+020
 20
1.0000000000000000E+020
 30
1.0000000000000000E+020
  9
$PEXTMAX
 10
-1.0000000000000000E+020
 20
-1.0000000000000000E+020
 30
-1.0000000000000000E+020
  9
$PLIMMIN
 10
0.0
 20
0.0
  9
$PLIMMAX
 10
12.0
 20
9.0
  9
$UNITMODE
 70
     0
  9
$VISRETAIN
 70
     0
  9
$PLINEGEN
 70
     0
  9
$PSLTSCALE
 70
     1
  0
ENDSEC
  0
SECTION
  2
TABLES
  0
TABLE
  2
VPORT
 70
     2
  0
VPORT
  2
*ACTIVE
 70
     0
 10
0.0
 20
0.0
 11
1.0
 21
1.0
 12
9387.3185796854614
 22
3627.5935908051829
 13
0.0
 23
0.0
 14
10.0
 24
10.0
 15
10.0
 25
10.0
 16
0.0
 26
0.0
 36
1.0
 17
0.0
 27
0.0
 37
0.0
 40
17718.246389124881
 41
1.5051150895140659
 42
50.0
 43
0.0
 44
0.0
 50
0.0
 51
0.0
 71
     0
 72
   100
 73
     1
 74
     0
 75
     0
 76
     0
 77
     0
 78
     0
  0
ENDTAB
  0
TABLE
  2
LTYPE
 70
     2
  0
LTYPE
  2
CONTINUOUS
 70
     0
  3
Solid line
 72
    65
 73
     0
 40
0.0
  0
LTYPE
  2
CENTER
 70
     0
  3
____ _ ____ _ ____ _ ____ _ ____ _ ____ _ ____ 
 72
    65
 73
     4
 40
2.0
 49
1.25
 49
-0.25
 49
0.25
 49
-0.25
  0
ENDTAB
  0
TABLE
  2
LAYER
 70
     6
  0
LAYER
  2
0
 70
     0
 62
     7
  6
CONTINUOUS
  0
LAYER
  2
1
 70
     0
 62
     4
  6
CONTINUOUS
  0
LAYER
  2
2
 70
     0
 62
     3
  6
CENTER
  0
LAYER
  2
4
 70
     0
 62
     7
  6
CONTINUOUS
  0
LAYER
  2
DEFPOINTS
 70
     0
 62
     7
  6
CONTINUOUS
  0
LAYER
  2
3
 70
     0
 62
     2
  6
CONTINUOUS
  0
ENDTAB
  0
TABLE
  2
STYLE
 70
     1
  0
STYLE
  2
STANDARD
 70
     0
 40
0.0
 41
1.0
 50
0.0
 71
     0
 42
180.0
  3
simplex.shx
  4
extfont.shx
  0
ENDTAB
  0
TABLE
  2
VIEW
 70
     0
  0
ENDTAB
  0
TABLE
  2
UCS
 70
     0
  0
ENDTAB
  0
TABLE
  2
APPID
 70
     1
  0
APPID
  2
ACAD
 70
     0
  0
ENDTAB
  0
TABLE
  2
DIMSTYLE
 70
     2
  0
DIMSTYLE
  2
IGA
 70
     0
  3

  4

  5

  6

  7

 40
2.0
 41
2.0
 42
0.5
 43
10.0
 44
1.0
 45
0.0
 46
0.0
 47
1.0
 48
1.0
140
3.0
141
0.0
142
0.0
143
0.03937
144
1.0
145
0.0
146
10.0
147
1.0
 71
     0
 72
     0
 73
     0
 74
     0
 75
     0
 76
     0
 77
     1
 78
     8
170
     0
171
     2
172
     0
173
     1
174
     0
175
     0
176
     0
177
     0
178
     0
  0
DIMSTYLE
  2
STANDARD
 70
     0
  3

  4

  5

  6

  7

 40
1.0
 41
0.18
 42
0.0625
 43
0.38
 44
0.18
 45
0.0
 46
0.0
 47
0.0
 48
0.0
140
0.18
141
0.09
142
0.0
143
25.399999999999999
144
1.0
145
0.0
146
1.0
147
0.09
 71
     0
 72
     0
 73
     1
 74
     1
 75
     0
 76
     0
 77
     0
 78
     0
170
     0
171
     2
172
     0
173
     0
174
     0
175
     0
176
     0
177
     0
178
     0
  0
ENDTAB
  0
ENDSEC
  0
SECTION
  2
BLOCKS
  0
BLOCK
  8
0
  2
$MODEL_SPACE
 70
     0
 10
0.0
 20
0.0
 30
0.0
  3
$MODEL_SPACE
  1

  0
ENDBLK
  5
8157
  8
0
  0
BLOCK
 67
     1
  8
0
  2
$PAPER_SPACE
 70
     0
 10
0.0
 20
0.0
 30
0.0
  3
$PAPER_SPACE
  1

  0
ENDBLK
  5
8153
 67
     1
  8
0
  0
BLOCK
  8
0
  2
*D2
 70
     1
 10
0.0
 20
0.0
 30
0.0
  3
*D2
  1

  0
LINE
  5
8619
  8
3
 62
     0
 10
2196.5712586845329
 20
4639.5234164060821
 30
0.0
 11
3016.2772890999622
 21
4639.5234164060821
 31
0.0
  0
LINE
  5
861A
  8
3
 62
     0
 10
2196.5712586845329
 20
3119.5234164060821
 30
0.0
 11
3016.2772890999622
 21
3119.5234164060821
 31
0.0
  0
LINE
  5
861B
  8
3
 62
     0
 10
2966.2772890999622
 20
4539.5234164060821
 30
0.0
 11
2966.2772890999622
 21
3219.5234164060821
 31
0.0
  0
INSERT
  5
861C
  8
3
 62
     0
  2
_OPEN
 10
2966.2772890999622
 20
4639.5234164060821
 30
0.0
 41
100.0
 42
100.0
 43
100.0
 50
90.0
  0
INSERT
  5
861D
  8
3
 62
     0
  2
_OPEN
 10
2966.2772890999622
 20
3119.5234164060821
 30
0.0
 41
100.0
 42
100.0
 43
100.0
 50
270.0
  0
TEXT
  8
3
  40
150
  5
86B2
  62
0
  72
0
  71
0
 10
2541.28
 20
3614.02
 30
0.000000
  1
1520
  0
POINT
  5
861F
  8
DEFPOINTS
 62
     0
 10
2171.5712586845329
 20
4639.5234164060821
 30
0.0
  0
POINT
  5
8620
  8
DEFPOINTS
 62
     0
 10
2171.5712586845329
 20
3119.5234164060821
 30
0.0
  0
POINT
  5
8621
  8
DEFPOINTS
 62
     0
 10
2966.2772890999622
 20
3119.5234164060821
 30
0.0
  0
ENDBLK
  5
82D2
  8
0
  0
BLOCK
  8
0
  2
CATA_A4
 70
     0
 10
0.0
 20
0.0
 30
0.0
  3
CATA_A4
  1

  0
LINE
  5
82D4
  8
4
 10
185.0
 20
50.0
 30
0.0
 11
185.0
 21
20.0
 31
0.0
  0
LINE
  5
82D5
  8
4
 10
115.0
 20
50.0
 30
0.0
 11
115.0
 21
20.0
 31
0.0
  0
LINE
  5
82D6
  8
4
 10
65.0
 20
50.0
 30
0.0
 11
65.0
 21
20.0
 31
0.0
  0
TEXT
  5
82D7
  8
4
 10
68.850208084690166
 20
22.520422896343
 30
0.0
 40
5.0
  1
ファイル名
  0
LINE
  5
82D8
  8
4
 10
65.0
 20
20.0
 30
0.0
 11
185.0
 21
20.0
 31
0.0
  0
LINE
  5
82D9
  8
4
 10
65.0
 20
30.0
 30
0.0
 11
185.0
 21
30.0
 31
0.0
  0
LINE
  5
82DA
  8
4
 10
65.0
 20
40.0
 30
0.0
 11
185.0
 21
40.0
 31
0.0
  0
TEXT
  5
82DB
  8
4
 10
68.850208084690166
 20
43.154302586661281
 30
0.0
 40
5.0
  1
機器名称
  0
TEXT
  5
82DC
  8
4
 10
68.625810602479746
 20
32.164515673201088
 30
0.0
 40
5.0
  1
機器型番
  0
TEXT
  5
82DD
  8
4
 10
117.7678745487664
 20
42.257176895756849
 30
0.0
 40
5.0
  1
ミツヤ多翼送風機
  0
TEXT
  5
82DE
  8
4
 10
118.665449558548
 20
31.71595842799433
 30
0.0
 40
5.0
  1
MF#5-4
  0
TEXT
  5
82DF
  8
4
 10
118.2166545941308
 20
22.071854450645329
 30
0.0
 40
5.0
  1
MF504C10.dxf
  0
TEXT
  5
82E0
  8
4
 10
90.47857654660038
 20
238.34288413325149
 30
0.0
 40
5.3999999999999986
  1
床置ベット
  0
TEXT
  5
82E1
  8
4
 10
31.616759332944639
 20
253.38809761992979
 30
0.0
 40
7.2000000000000002
  1
遠心式片吸込片持多翼ファン
  0
LINE
  5
82E2
  8
4
 10
25.0
 20
246.9408754264804
 30
0.0
 11
185.0
 21
246.9408754264804
 31
0.0
  0
LINE
  5
82E3
  8
4
 10
25.0
 20
266.94087542648049
 30
0.0
 11
185.0
 21
266.94087542648049
 31
0.0
  0
LINE
  5
82E4
  8
4
 10
65.0
 20
50.0
 30
0.0
 11
185.0
 21
50.0
 31
0.0
  0
LINE
  5
82E5
  8
4
 10
25.0
 20
266.94087542648049
 30
0.0
 11
25.0
 21
246.9408754264804
 31
0.0
  0
TEXT
  5
82E6
  8
4
 10
46.89269332233016
 20
238.23194775463429
 30
0.0
 40
5.3999999999999986
  1
左回転上向
  0
TEXT
  5
82E7
  8
4
 10
146.8969559249289
 20
270.60610814953083
 30
0.0
 40
5.5999999999999996
  1
No.
  0
TEXT
  5
82E8
  8
4
 10
131.12960626000131
 20
238.34288413325149
 30
0.0
 40
5.3999999999999986
  1
縮尺：1/30
  0
LINE
  5
82E9
  8
4
 10
185.0
 20
266.94087542648049
 30
0.0
 11
185.0
 21
246.9408754264804
 31
0.0
  0
LINE
  5
82EA
  8
4
 10
210.0
 20
295.0
 30
0.0
 11
210.0
 21
295.0
 31
0.0
  0
LINE
  5
82EB
  8
4
 10
144.0617422359864
 20
268.12635831254011
 30
0.0
 11
144.0617422359864
 21
278.66522615497519
 31
0.0
  0
LINE
  5
82EC
  8
4
 10
144.0617422359864
 20
278.66522615497519
 30
0.0
 11
185.0
 21
278.66522615497519
 31
0.0
  0
LINE
  5
82ED
  8
4
 10
185.0
 20
278.66522615497519
 30
0.0
 11
185.0
 21
268.12635831254011
 31
0.0
  0
LINE
  5
82EE
  8
4
 10
185.0
 20
268.12635831254011
 30
0.0
 11
144.0617422359864
 21
268.12635831254011
 31
0.0
  0
LINE
  5
82EF
  8
4
 10
0.0
 20
0.0
 30
0.0
 11
0.0
 21
295.0
 31
0.0
  0
LINE
  5
82F0
  8
4
 10
0.0
 20
295.0
 30
0.0
 11
210.0
 21
295.0
 31
0.0
  0
LINE
  5
82F1
  8
4
 10
210.0
 20
295.0
 30
0.0
 11
210.0
 21
0.0
 31
0.0
  0
LINE
  5
82F2
  8
4
 10
210.0
 20
0.0
 30
0.0
 11
0.0
 21
0.0
 31
0.0
  0
ENDBLK
  5
82F4
  8
0
  0
BLOCK
  8
0
  2
CAD_DATA枠DWG
 70
     0
 10
0.0
 20
0.0
 30
0.0
  3
CAD_DATA枠DWG
  1

  0
INSERT
  5
82F7
  8
4
  2
CATA_A4
 10
0.0
 20
0.0
 30
0.0
  0
ENDBLK
  5
82F9
  8
0
  0
BLOCK
  8
0
  2
*D5
 70
     1
 10
0.0
 20
0.0
 30
0.0
  3
*D5
  1

  0
LINE
  5
8622
  8
3
 62
     0
 10
51.571258684533873
 20
4664.5234164060821
 30
0.0
 11
51.571258684533909
 21
5469.8220586490497
 31
0.0
  0
LINE
  5
8623
  8
3
 62
     0
 10
2171.5712586845329
 20
4664.5234164060821
 30
0.0
 11
2171.5712586845329
 21
5469.8220586490497
 31
0.0
  0
LINE
  5
8624
  8
3
 62
     0
 10
151.57125868453389
 20
5419.8220586490488
 30
0.0
 11
2071.5712586845329
 21
5419.8220586490488
 31
0.0
  0
INSERT
  5
8625
  8
3
 62
     0
  2
_OPEN
 10
51.571258684533909
 20
5419.8220586490488
 30
0.0
 41
100.0
 42
100.0
 43
100.0
 50
180.0
  0
INSERT
  5
8626
  8
3
 62
     0
  2
_OPEN
 10
2171.5712586845329
 20
5419.8220586490488
 30
0.0
 41
100.0
 42
100.0
 43
100.0
  0
TEXT
  8
3
  40
150
  5
86B3
  62
0
  72
0
  71
0
 10
811.571
 20
5279.32
 30
0.000000
  1
2120
  0
POINT
  5
8628
  8
DEFPOINTS
 62
     0
 10
51.571258684533873
 20
4639.5234164060821
 30
0.0
  0
POINT
  5
8629
  8
DEFPOINTS
 62
     0
 10
2171.5712586845329
 20
4639.5234164060821
 30
0.0
  0
POINT
  5
862A
  8
DEFPOINTS
 62
     0
 10
2171.5712586845329
 20
5419.8220586490488
 30
0.0
  0
ENDBLK
  5
8327
  8
0
  0
BLOCK
  8
0
  2
*D6
 70
     1
 10
0.0
 20
0.0
 30
0.0
  3
*D6
  1

  0
LINE
  5
862B
  8
3
 62
     0
 10
3222.7912180731892
 20
1132.1583713860341
 30
0.0
 11
3222.7912180731892
 21
1733.8647666646791
 31
0.0
  0
LINE
  5
862C
  8
3
 62
     0
 10
4127.7912180731892
 20
1451.6233438220841
 30
0.0
 11
4127.7912180731892
 21
1733.8647666646791
 31
0.0
  0
LINE
  5
862D
  8
3
 62
     0
 10
3322.7912180731892
 20
1683.8647666646791
 30
0.0
 11
4027.7912180731892
 21
1683.8647666646791
 31
0.0
  0
INSERT
  5
862E
  8
3
 62
     0
  2
_OPEN
 10
3222.7912180731892
 20
1683.8647666646791
 30
0.0
 41
100.0
 42
100.0
 43
100.0
 50
180.0
  0
INSERT
  5
862F
  8
3
 62
     0
  2
_OPEN
 10
4127.7912180731892
 20
1683.8647666646791
 30
0.0
 41
100.0
 42
100.0
 43
100.0
  0
TEXT
  8
3
  40
150
  5
86B4
  62
0
  72
0
  71
0
 10
3375.29
 20
1543.36
 30
0.000000
  1
905
  0
POINT
  5
8631
  8
DEFPOINTS
 62
     0
 10
3222.7912180731892
 20
1107.1583713860341
 30
0.0
  0
POINT
  5
8632
  8
DEFPOINTS
 62
     0
 10
4127.7912180731892
 20
1426.6233438220829
 30
0.0
  0
POINT
  5
8633
  8
DEFPOINTS
 62
     0
 10
4127.7912180731892
 20
1683.8647666646791
 30
0.0
  0
ENDBLK
  5
833D
  8
0
  0
BLOCK
  8
0
  2
_OPEN
 70
     0
 10
0.0
 20
0.0
 30
0.0
  3
_OPEN
  1

  0
LINE
  5
833F
  8
3
 62
     0
 10
-1.0
 20
0.1666666666666666
 30
0.0
 11
0.0
 21
0.0
 31
0.0
  0
LINE
  5
8340
  8
3
 62
     0
 10
-1.0
 20
-0.1666666666666666
 30
0.0
 11
0.0
 21
0.0
 31
0.0
  0
LINE
  5
8341
  8
3
 62
     0
 10
0.0
 20
0.0
 30
0.0
 11
-1.0
 21
0.0
 31
0.0
  0
ENDBLK
  5
8343
  8
0
  0
BLOCK
  8
0
  2
*D8
 70
     1
 10
0.0
 20
0.0
 30
0.0
  3
*D8
  1

  0
LINE
  5
8634
  8
3
 62
     0
 10
4127.7912180731892
 20
1451.6233438220841
 30
0.0
 11
4127.7912180731892
 21
1733.8647666646791
 31
0.0
  0
LINE
  5
8635
  8
3
 62
     0
 10
4742.7912180731892
 20
1132.1583713860341
 30
0.0
 11
4742.7912180731892
 21
1733.8647666646791
 31
0.0
  0
LINE
  5
8636
  8
3
 62
     0
 10
4227.7912180731892
 20
1683.8647666646791
 30
0.0
 11
4642.7912180731892
 21
1683.8647666646791
 31
0.0
  0
INSERT
  5
8637
  8
3
 62
     0
  2
_OPEN
 10
4127.7912180731892
 20
1683.8647666646791
 30
0.0
 41
100.0
 42
100.0
 43
100.0
 50
180.0
  0
INSERT
  5
8638
  8
3
 62
     0
  2
_OPEN
 10
4742.7912180731892
 20
1683.8647666646791
 30
0.0
 41
100.0
 42
100.0
 43
100.0
  0
TEXT
  8
3
  40
150
  5
86B5
  62
0
  72
0
  71
0
 10
4135.29
 20
1543.36
 30
0.000000
  1
615
  0
POINT
  5
863A
  8
DEFPOINTS
 62
     0
 10
4127.7912180731892
 20
1426.6233438220829
 30
0.0
  0
POINT
  5
863B
  8
DEFPOINTS
 62
     0
 10
4742.7912180731892
 20
1107.1583713860341
 30
0.0
  0
POINT
  5
863C
  8
DEFPOINTS
 62
     0
 10
4742.7912180731892
 20
1683.8647666646791
 30
0.0
  0
ENDBLK
  5
836C
  8
0
  0
BLOCK
  8
0
  2
*D9
 70
     1
 10
0.0
 20
0.0
 30
0.0
  3
*D9
  1

  0
LINE
  5
863D
  8
3
 62
     0
 10
3222.7912180731892
 20
-732.84162861396442
 30
0.0
 11
3222.7912180731892
 21
-1530.9648606121409
 31
0.0
  0
LINE
  5
863E
  8
3
 62
     0
 10
4742.7912180731892
 20
-732.84162861396442
 30
0.0
 11
4742.7912180731892
 21
-1530.9648606121409
 31
0.0
  0
LINE
  5
863F
  8
3
 62
     0
 10
3322.7912180731892
 20
-1480.9648606121409
 30
0.0
 11
4642.7912180731892
 21
-1480.9648606121409
 31
0.0
  0
INSERT
  5
8640
  8
3
 62
     0
  2
_OPEN
 10
3222.7912180731892
 20
-1480.9648606121409
 30
0.0
 41
100.0
 42
100.0
 43
100.0
 50
180.0
  0
INSERT
  5
8641
  8
3
 62
     0
  2
_OPEN
 10
4742.7912180731892
 20
-1480.9648606121409
 30
0.0
 41
100.0
 42
100.0
 43
100.0
  0
TEXT
  8
3
  40
150
  5
86B6
  62
0
  72
0
  71
0
 10
3682.79
 20
-1621.46
 30
0.000000
  1
1520
  0
POINT
  5
8643
  8
DEFPOINTS
 62
     0
 10
3222.7912180731892
 20
-707.84162861396442
 30
0.0
  0
POINT
  5
8644
  8
DEFPOINTS
 62
     0
 10
4742.7912180731892
 20
-707.84162861396442
 30
0.0
  0
POINT
  5
8645
  8
DEFPOINTS
 62
     0
 10
4742.7912180731892
 20
-1480.9648606121409
 30
0.0
  0
ENDBLK
  5
8379
  8
0
  0
BLOCK
  8
0
  2
*D10
 70
     1
 10
0.0
 20
0.0
 30
0.0
  3
*D10
  1

  0
LINE
  5
8646
  8
3
 62
     0
 10
4530.7912180731892
 20
530.15837138603536
 30
0.0
 11
5343.8964973631664
 21
530.15837138603536
 31
0.0
  0
LINE
  5
8647
  8
3
 62
     0
 10
4530.7912180731892
 20
-505.84162861396459
 30
0.0
 11
5343.8964973631664
 21
-505.84162861396487
 31
0.0
  0
LINE
  5
8648
  8
3
 62
     0
 10
5293.8964973631664
 20
430.15837138603518
 30
0.0
 11
5293.8964973631664
 21
-405.84162861396487
 31
0.0
  0
INSERT
  5
8649
  8
3
 62
     0
  2
_OPEN
 10
5293.8964973631664
 20
530.15837138603536
 30
0.0
 41
100.0
 42
100.0
 43
100.0
 50
90.0
  0
INSERT
  5
864A
  8
3
 62
     0
  2
_OPEN
 10
5293.8964973631664
 20
-505.84162861396487
 30
0.0
 41
100.0
 42
100.0
 43
100.0
 50
270.0
  0
TEXT
  8
3
  40
150
  5
86B7
  62
0
  72
0
  71
0
 10
4868.90
 20
-253.342
 30
0.000000
  1
1036
  0
POINT
  5
864C
  8
DEFPOINTS
 62
     0
 10
4505.7912180731892
 20
530.15837138603536
 30
0.0
  0
POINT
  5
864D
  8
DEFPOINTS
 62
     0
 10
4505.7912180731892
 20
-505.84162861396459
 30
0.0
  0
POINT
  5
864E
  8
DEFPOINTS
 62
     0
 10
5293.8964973631664
 20
-505.84162861396487
 30
0.0
  0
ENDBLK
  5
8386
  8
0
  0
BLOCK
  8
0
  2
*D11
 70
     1
 10
0.0
 20
0.0
 30
0.0
  3
*D11
  1

  0
LINE
  5
864F
  8
3
 62
     0
 10
4505.7912180731892
 20
555.15837138603536
 30
0.0
 11
4505.7912180731892
 21
798.78398943477805
 31
0.0
  0
LINE
  5
8650
  8
3
 62
     0
 10
3749.7912180731892
 20
555.15837138603536
 30
0.0
 11
3749.7912180731892
 21
798.78398943477805
 31
0.0
  0
LINE
  5
8651
  8
3
 62
     0
 10
4405.7912180731892
 20
748.78398943477805
 30
0.0
 11
3849.7912180731892
 21
748.78398943477805
 31
0.0
  0
INSERT
  5
8652
  8
3
 62
     0
  2
_OPEN
 10
4505.7912180731892
 20
748.78398943477805
 30
0.0
 41
100.0
 42
100.0
 43
100.0
  0
INSERT
  5
8653
  8
3
 62
     0
  2
_OPEN
 10
3749.7912180731892
 20
748.78398943477805
 30
0.0
 41
100.0
 42
100.0
 43
100.0
 50
180.0
  0
TEXT
  8
3
  40
150
  5
86B8
  62
0
  72
0
  71
0
 10
3827.79
 20
608.284
 30
0.000000
  1
756
  0
POINT
  5
8655
  8
DEFPOINTS
 62
     0
 10
4505.7912180731892
 20
530.15837138603536
 30
0.0
  0
POINT
  5
8656
  8
DEFPOINTS
 62
     0
 10
3749.7912180731892
 20
530.15837138603536
 30
0.0
  0
POINT
  5
8657
  8
DEFPOINTS
 62
     0
 10
3749.7912180731892
 20
748.78398943477805
 30
0.0
  0
ENDBLK
  5
8393
  8
0
  0
BLOCK
  8
0
  2
*D12
 70
     1
 10
0.0
 20
0.0
 30
0.0
  3
*D12
  1

  0
LINE
  5
8658
  8
3
 62
     0
 10
2091.571258684532
 20
1132.1583713860341
 30
0.0
 11
2091.571258684532
 21
1734.945703915502
 31
0.0
  0
LINE
  5
8659
  8
3
 62
     0
 10
131.5712586845338
 20
1132.1583713860341
 30
0.0
 11
131.5712586845338
 21
1734.945703915502
 31
0.0
  0
LINE
  5
865A
  8
3
 62
     0
 10
1991.5712586845329
 20
1684.945703915502
 30
0.0
 11
231.5712586845338
 21
1684.945703915502
 31
0.0
  0
INSERT
  5
865B
  8
3
 62
     0
  2
_OPEN
 10
2091.571258684532
 20
1684.945703915502
 30
0.0
 41
100.0
 42
100.0
 43
100.0
  0
INSERT
  5
865C
  8
3
 62
     0
  2
_OPEN
 10
131.5712586845338
 20
1684.945703915502
 30
0.0
 41
100.0
 42
100.0
 43
100.0
 50
180.0
  0
TEXT
  8
3
  40
150
  5
86B9
  62
0
  72
0
  71
0
 10
811.571
 20
1544.45
 30
0.000000
  1
1960
  0
POINT
  5
865E
  8
DEFPOINTS
 62
     0
 10
2091.571258684532
 20
1107.1583713860341
 30
0.0
  0
POINT
  5
865F
  8
DEFPOINTS
 62
     0
 10
131.5712586845338
 20
1107.1583713860341
 30
0.0
  0
POINT
  5
8660
  8
DEFPOINTS
 62
     0
 10
131.5712586845338
 20
1684.945703915502
 30
0.0
  0
ENDBLK
  5
83A2
  8
0
  0
BLOCK
  8
0
  2
*D13
 70
     1
 10
0.0
 20
0.0
 30
0.0
  3
*D13
  1

  0
LINE
  5
8661
  8
3
 62
     0
 10
51.571258684534762
 20
-732.84162861396453
 30
0.0
 11
51.571258684534712
 21
-1592.8837805353389
 31
0.0
  0
LINE
  5
8662
  8
3
 62
     0
 10
2171.5712586845329
 20
-732.84162861396453
 30
0.0
 11
2171.5712586845329
 21
-1592.8837805353389
 31
0.0
  0
LINE
  5
8663
  8
3
 62
     0
 10
151.57125868453471
 20
-1542.8837805353389
 30
0.0
 11
2071.5712586845329
 21
-1542.8837805353389
 31
0.0
  0
INSERT
  5
8664
  8
3
 62
     0
  2
_OPEN
 10
51.571258684534719
 20
-1542.8837805353389
 30
0.0
 41
100.0
 42
100.0
 43
100.0
 50
180.0
  0
INSERT
  5
8665
  8
3
 62
     0
  2
_OPEN
 10
2171.5712586845329
 20
-1542.8837805353389
 30
0.0
 41
100.0
 42
100.0
 43
100.0
  0
TEXT
  8
3
  40
150
  5
86BA
  62
0
  72
0
  71
0
 10
811.571
 20
-1683.38
 30
0.000000
  1
2120
  0
POINT
  5
8667
  8
DEFPOINTS
 62
     0
 10
51.571258684534762
 20
-707.84162861396453
 30
0.0
  0
POINT
  5
8668
  8
DEFPOINTS
 62
     0
 10
2171.5712586845329
 20
-707.84162861396453
 30
0.0
  0
POINT
  5
8669
  8
DEFPOINTS
 62
     0
 10
2171.5712586845329
 20
-1542.8837805353389
 30
0.0
  0
ENDBLK
  5
83EE
  8
0
  0
BLOCK
  8
0
  2
*D14
 70
     1
 10
0.0
 20
0.0
 30
0.0
  3
*D14
  1

  0
LINE
  5
866A
  8
3
 62
     0
 10
2196.5712586845329
 20
-707.84162861396453
 30
0.0
 11
2865.4882303758491
 21
-707.84162861396464
 31
0.0
  0
LINE
  5
866B
  8
3
 62
     0
 10
2252.5381659061959
 20
12.15837138603546
 30
0.0
 11
2865.4882303758491
 21
12.158371386035279
 31
0.0
  0
LINE
  5
866C
  8
3
 62
     0
 10
2815.4882303758491
 20
-607.84162861396464
 30
0.0
 11
2815.4882303758491
 21
-87.841628613964701
 31
0.0
  0
INSERT
  5
866D
  8
3
 62
     0
  2
_OPEN
 10
2815.4882303758491
 20
-707.84162861396464
 30
0.0
 41
100.0
 42
100.0
 43
100.0
 50
270.0
  0
INSERT
  5
866E
  8
3
 62
     0
  2
_OPEN
 10
2815.4882303758491
 20
12.1583713860353
 30
0.0
 41
100.0
 42
100.0
 43
100.0
 50
90.0
  0
TEXT
  8
3
  40
150
  5
86BB
  62
0
  72
0
  71
0
 10
2390.49
 20
-613.342
 30
0.000000
  1
720
  0
POINT
  5
8670
  8
DEFPOINTS
 62
     0
 10
2171.5712586845329
 20
-707.84162861396453
 30
0.0
  0
POINT
  5
8671
  8
DEFPOINTS
 62
     0
 10
2227.538165906195
 20
12.15837138603546
 30
0.0
  0
POINT
  5
8672
  8
DEFPOINTS
 62
     0
 10
2815.4882303758491
 20
12.1583713860353
 30
0.0
  0
ENDBLK
  5
83FB
  8
0
  0
BLOCK
  8
0
  2
*D15
 70
     1
 10
0.0
 20
0.0
 30
0.0
  3
*D15
  1

  0
LINE
  5
8673
  8
3
 62
     0
 10
26.571258684534762
 20
-707.84162861396453
 30
0.0
 11
-255.80617579081451
 21
-707.84162861396453
 31
0.0
  0
LINE
  5
8674
  8
3
 62
     0
 10
-71.34081480227178
 20
12.158371386035469
 30
0.0
 11
-255.80617579081439
 21
12.158371386035521
 31
0.0
  0
LINE
  5
8675
  8
3
 62
     0
 10
-205.80617579081451
 20
-607.84162861396453
 30
0.0
 11
-205.80617579081439
 21
-87.841628613964488
 31
0.0
  0
INSERT
  5
8676
  8
3
 62
     0
  2
_OPEN
 10
-205.80617579081451
 20
-707.84162861396453
 30
0.0
 41
100.0
 42
100.0
 43
100.0
 50
270.0
  0
INSERT
  5
8677
  8
3
 62
     0
  2
_OPEN
 10
-205.80617579081439
 20
12.15837138603551
 30
0.0
 41
100.0
 42
100.0
 43
100.0
 50
90.0
  0
TEXT
  8
3
  40
150
  5
86BC
  62
0
  72
0
  71
0
 10
-630.806
 20
-613.342
 30
0.000000
  1
720
  0
POINT
  5
8679
  8
DEFPOINTS
 62
     0
 10
51.571258684534762
 20
-707.84162861396453
 30
0.0
  0
POINT
  5
867A
  8
DEFPOINTS
 62
     0
 10
-46.34081480227178
 20
12.15837138603546
 30
0.0
  0
POINT
  5
867B
  8
DEFPOINTS
 62
     0
 10
-205.80617579081439
 20
12.15837138603551
 30
0.0
  0
ENDBLK
  5
8408
  8
0
  0
BLOCK
  8
0
  2
*D16
 70
     1
 10
0.0
 20
0.0
 30
0.0
  3
*D16
  1

  0
LINE
  5
867C
  8
3
 62
     0
 10
26.571258684534762
 20
-707.84162861396453
 30
0.0
 11
-627.98246839888475
 21
-707.84162861396442
 31
0.0
  0
LINE
  5
867D
  8
3
 62
     0
 10
106.57125868453291
 20
1107.1583713860341
 30
0.0
 11
-627.98246839888429
 21
1107.158371386035
 31
0.0
  0
LINE
  5
867E
  8
3
 62
     0
 10
-577.98246839888475
 20
-607.84162861396442
 30
0.0
 11
-577.98246839888429
 21
1007.158371386035
 31
0.0
  0
INSERT
  5
867F
  8
3
 62
     0
  2
_OPEN
 10
-577.98246839888475
 20
-707.84162861396442
 30
0.0
 41
100.0
 42
100.0
 43
100.0
 50
270.0
  0
INSERT
  5
8680
  8
3
 62
     0
  2
_OPEN
 10
-577.98246839888429
 20
1107.158371386035
 30
0.0
 41
100.0
 42
100.0
 43
100.0
 50
90.0
  0
TEXT
  8
3
  40
150
  5
86BD
  62
0
  72
0
  71
0
 10
-1002.98
 20
-65.8416
 30
0.000000
  1
1815
  0
POINT
  5
8682
  8
DEFPOINTS
 62
     0
 10
51.571258684534762
 20
-707.84162861396453
 30
0.0
  0
POINT
  5
8683
  8
DEFPOINTS
 62
     0
 10
131.57125868453289
 20
1107.1583713860341
 30
0.0
  0
POINT
  5
8684
  8
DEFPOINTS
 62
     0
 10
-577.98246839888429
 20
1107.158371386035
 30
0.0
  0
ENDBLK
  5
8415
  8
0
  0
BLOCK
  8
0
  2
*D17
 70
     1
 10
0.0
 20
0.0
 30
0.0
  3
*D17
  1

  0
LINE
  5
8685
  8
3
 62
     0
 10
-1496.776200489468
 20
-732.84162861396453
 30
0.0
 11
-1496.776200489468
 21
-1566.791371703606
 31
0.0
  0
LINE
  5
8686
  8
3
 62
     0
 10
-3016.776200489468
 20
-732.84162861396453
 30
0.0
 11
-3016.776200489468
 21
-1566.791371703606
 31
0.0
  0
LINE
  5
8687
  8
3
 62
     0
 10
-1596.776200489468
 20
-1516.791371703606
 30
0.0
 11
-2916.776200489468
 21
-1516.791371703606
 31
0.0
  0
INSERT
  5
8688
  8
3
 62
     0
  2
_OPEN
 10
-1496.776200489468
 20
-1516.791371703606
 30
0.0
 41
100.0
 42
100.0
 43
100.0
  0
INSERT
  5
8689
  8
3
 62
     0
  2
_OPEN
 10
-3016.776200489468
 20
-1516.791371703606
 30
0.0
 41
100.0
 42
100.0
 43
100.0
 50
180.0
  0
TEXT
  8
3
  40
150
  5
86BE
  62
0
  72
0
  71
0
 10
-2556.78
 20
-1657.29
 30
0.000000
  1
1520
  0
POINT
  5
868B
  8
DEFPOINTS
 62
     0
 10
-1496.776200489468
 20
-707.84162861396453
 30
0.0
  0
POINT
  5
868C
  8
DEFPOINTS
 62
     0
 10
-3016.776200489468
 20
-707.84162861396453
 30
0.0
  0
POINT
  5
868D
  8
DEFPOINTS
 62
     0
 10
-3016.776200489468
 20
-1516.791371703606
 30
0.0
  0
ENDBLK
  5
8422
  8
0
  0
BLOCK
  8
0
  2
*D18
 70
     1
 10
0.0
 20
0.0
 30
0.0
  3
*D18
  1

  0
LINE
  5
868E
  8
3
 62
     0
 10
-2111.776200489468
 20
1451.6233438220841
 30
0.0
 11
-2111.776200489468
 21
1715.2868377935149
 31
0.0
  0
LINE
  5
868F
  8
3
 62
     0
 10
-1496.776200489468
 20
1132.1583713860341
 30
0.0
 11
-1496.776200489468
 21
1715.2868377935149
 31
0.0
  0
LINE
  5
8690
  8
3
 62
     0
 10
-2011.776200489468
 20
1665.2868377935149
 30
0.0
 11
-1596.776200489468
 21
1665.2868377935149
 31
0.0
  0
INSERT
  5
8691
  8
3
 62
     0
  2
_OPEN
 10
-2111.776200489468
 20
1665.2868377935149
 30
0.0
 41
100.0
 42
100.0
 43
100.0
 50
180.0
  0
INSERT
  5
8692
  8
3
 62
     0
  2
_OPEN
 10
-1496.776200489468
 20
1665.2868377935149
 30
0.0
 41
100.0
 42
100.0
 43
100.0
  0
TEXT
  8
3
  40
150
  5
86BF
  62
0
  72
0
  71
0
 10
-2104.28
 20
1524.79
 30
0.000000
  1
615
  0
POINT
  5
8694
  8
DEFPOINTS
 62
     0
 10
-2111.776200489468
 20
1426.6233438220829
 30
0.0
  0
POINT
  5
8695
  8
DEFPOINTS
 62
     0
 10
-1496.776200489468
 20
1107.1583713860341
 30
0.0
  0
POINT
  5
8696
  8
DEFPOINTS
 62
     0
 10
-1496.776200489468
 20
1665.2868377935149
 30
0.0
  0
ENDBLK
  5
842F
  8
0
  0
BLOCK
  8
0
  2
*D19
 70
     1
 10
0.0
 20
0.0
 30
0.0
  3
*D19
  1

  0
LINE
  5
8697
  8
3
 62
     0
 10
-2111.776200489468
 20
1451.6233438220841
 30
0.0
 11
-2111.776200489468
 21
1715.2868377935149
 31
0.0
  0
LINE
  5
8698
  8
3
 62
     0
 10
-3016.776200489468
 20
1132.1583713860341
 30
0.0
 11
-3016.776200489468
 21
1715.2868377935149
 31
0.0
  0
LINE
  5
8699
  8
3
 62
     0
 10
-2211.776200489468
 20
1665.2868377935149
 30
0.0
 11
-2916.776200489468
 21
1665.2868377935149
 31
0.0
  0
INSERT
  5
869A
  8
3
 62
     0
  2
_OPEN
 10
-2111.776200489468
 20
1665.2868377935149
 30
0.0
 41
100.0
 42
100.0
 43
100.0
  0
INSERT
  5
869B
  8
3
 62
     0
  2
_OPEN
 10
-3016.776200489468
 20
1665.2868377935149
 30
0.0
 41
100.0
 42
100.0
 43
100.0
 50
180.0
  0
TEXT
  8
3
  40
150
  5
86C0
  62
0
  72
0
  71
0
 10
-2864.28
 20
1524.79
 30
0.000000
  1
905
  0
POINT
  5
869D
  8
DEFPOINTS
 62
     0
 10
-2111.776200489468
 20
1426.6233438220829
 30
0.0
  0
POINT
  5
869E
  8
DEFPOINTS
 62
     0
 10
-3016.776200489468
 20
1107.1583713860341
 30
0.0
  0
POINT
  5
869F
  8
DEFPOINTS
 62
     0
 10
-3016.776200489468
 20
1665.2868377935149
 30
0.0
  0
ENDBLK
  5
843C
  8
0
  0
BLOCK
  8
0
  2
*D20
 70
     1
 10
0.0
 20
0.0
 30
0.0
  3
*D20
  1

  0
LINE
  5
86A0
  8
3
 62
     0
 10
-2489.776200489468
 20
555.15837138603536
 30
0.0
 11
-2489.776200489468
 21
796.42342217999976
 31
0.0
  0
LINE
  5
86A1
  8
3
 62
     0
 10
-1733.776200489468
 20
555.15837138603536
 30
0.0
 11
-1733.776200489468
 21
796.42342217999976
 31
0.0
  0
LINE
  5
86A2
  8
3
 62
     0
 10
-2389.776200489468
 20
746.42342217999976
 30
0.0
 11
-1833.776200489468
 21
746.42342217999976
 31
0.0
  0
INSERT
  5
86A3
  8
3
 62
     0
  2
_OPEN
 10
-2489.776200489468
 20
746.42342217999976
 30
0.0
 41
100.0
 42
100.0
 43
100.0
 50
180.0
  0
INSERT
  5
86A4
  8
3
 62
     0
  2
_OPEN
 10
-1733.776200489468
 20
746.42342217999976
 30
0.0
 41
100.0
 42
100.0
 43
100.0
  0
TEXT
  8
3
  40
150
  5
86C1
  62
0
  72
0
  71
0
 10
-2411.78
 20
605.923
 30
0.000000
  1
756
  0
POINT
  5
86A6
  8
DEFPOINTS
 62
     0
 10
-2489.776200489468
 20
530.15837138603536
 30
0.0
  0
POINT
  5
86A7
  8
DEFPOINTS
 62
     0
 10
-1733.776200489468
 20
530.15837138603536
 30
0.0
  0
POINT
  5
86A8
  8
DEFPOINTS
 62
     0
 10
-1733.776200489468
 20
746.42342217999976
 30
0.0
  0
ENDBLK
  5
8449
  8
0
  0
BLOCK
  8
0
  2
*D21
 70
     1
 10
0.0
 20
0.0
 30
0.0
  3
*D21
  1

  0
LINE
  5
86A9
  8
3
 62
     0
 10
-1708.776200489468
 20
530.15837138603536
 30
0.0
 11
-1073.2534693189659
 21
530.15837138603536
 31
0.0
  0
LINE
  5
86AA
  8
3
 62
     0
 10
-1708.776200489468
 20
-505.84162861396447
 30
0.0
 11
-1073.2534693189659
 21
-505.8416286139647
 31
0.0
  0
LINE
  5
86AB
  8
3
 62
     0
 10
-1123.2534693189659
 20
430.1583713860353
 30
0.0
 11
-1123.2534693189659
 21
-405.8416286139647
 31
0.0
  0
INSERT
  5
86AC
  8
3
 62
     0
  2
_OPEN
 10
-1123.2534693189659
 20
530.15837138603536
 30
0.0
 41
100.0
 42
100.0
 43
100.0
 50
90.0
  0
INSERT
  5
86AD
  8
3
 62
     0
  2
_OPEN
 10
-1123.2534693189659
 20
-505.8416286139647
 30
0.0
 41
100.0
 42
100.0
 43
100.0
 50
270.0
  0
TEXT
  8
3
  40
150
  5
86C2
  62
0
  72
0
  71
0
 10
-1548.25
 20
-253.342
 30
0.000000
  1
1036
  0
POINT
  5
86AF
  8
DEFPOINTS
 62
     0
 10
-1733.776200489468
 20
530.15837138603536
 30
0.0
  0
POINT
  5
86B0
  8
DEFPOINTS
 62
     0
 10
-1733.776200489468
 20
-505.84162861396447
 30
0.0
  0
POINT
  5
86B1
  8
DEFPOINTS
 62
     0
 10
-1123.2534693189659
 20
-505.8416286139647
 30
0.0
  0
ENDBLK
  5
8458
  8
0
  0
ENDSEC
  0
SECTION
  2
ENTITIES
  0
LINE
  5
8169
  8
1
 10
51.571258684534762
 20
-707.84162861396453
 30
0.0
 11
2171.5712586845329
 21
-707.84162861396453
 31
0.0
  0
LINE
  5
816A
  8
1
 10
51.571258684534762
 20
-607.84162861396453
 30
0.0
 11
2171.5712586845329
 21
-607.84162861396453
 31
0.0
  0
LINE
  5
816B
  8
1
 10
51.571258684534762
 20
-707.84162861396453
 30
0.0
 11
51.571258684534762
 21
-607.84162861396453
 31
0.0
  0
LINE
  5
816C
  8
1
 10
2171.5712586845329
 20
-707.84162861396453
 30
0.0
 11
2171.5712586845329
 21
-607.84162861396453
 31
0.0
  0
LINE
  5
816D
  8
1
 10
131.57125868453289
 20
1107.1583713860341
 30
0.0
 11
2091.571258684532
 21
1107.1583713860341
 31
0.0
  0
LINE
  5
816E
  8
1
 10
131.57125868453289
 20
-607.84162861396453
 30
0.0
 11
131.57125868453289
 21
1107.1583713860341
 31
0.0
  0
LINE
  5
816F
  8
1
 10
2091.571258684532
 20
-607.84162861396453
 30
0.0
 11
2091.571258684532
 21
1107.1583713860341
 31
0.0
  0
LINE
  5
8170
  8
0
 10
336.57125868453289
 20
982.15837138603433
 30
0.0
 11
1416.5712586845329
 21
982.15837138603536
 31
0.0
  0
LINE
  5
8171
  8
2
  6
CENTER
 10
85.046894684533967
 20
387.15837138603541
 30
0.0
 11
1596.836896684533
 21
387.15837138603541
 31
0.0
  0
LINE
  5
8172
  8
0
 10
1741.4712586845319
 20
-347.66162861396418
 30
0.0
 11
775.96125868453407
 21
214.30837138603511
 31
0.0
  0
LINE
  5
8173
  8
0
 10
1830.311258684532
 20
-227.96162861396439
 30
0.0
 11
1012.891258684532
 21
533.49837138603505
 31
0.0
  0
ARC
  5
8174
  8
0
 10
920.57125868453295
 20
343.15837138603541
 30
0.0
 40
621.54999999999995
 50
4.760000000001118
 51
96.500000000003823
  0
ARC
  5
8175
  8
0
 10
824.57125868453284
 20
335.15837138603541
 30
0.0
 40
717.88999999999976
 50
274.15000000000742
 51
4.760000000001118
  0
LINE
  5
8176
  8
0
 10
356.57125868453289
 20
-582.84162861396453
 30
0.0
 11
1956.5712586845309
 21
-582.84162861396453
 31
0.0
  0
LINE
  5
8177
  8
0
 10
336.57125868453289
 20
-482.84162861396447
 30
0.0
 11
1956.5712586845309
 21
-482.84162861396447
 31
0.0
  0
ARC
  5
8178
  8
0
 10
911.57125868453295
 20
422.15837138603541
 30
0.0
 40
542.03999999999985
 50
96.500000000003823
 51
179.68000000000211
  0
LINE
  5
8179
  8
0
 10
281.57125868453289
 20
-399.84162861396447
 30
0.0
 11
876.57125868453295
 21
-380.84162861396447
 31
0.0
  0
LINE
  5
817A
  8
0
 10
336.57125868453289
 20
982.15837138603536
 30
0.0
 11
336.57125868453289
 21
-482.84162861396447
 31
0.0
  0
LINE
  5
817B
  8
0
 10
281.57125868453289
 20
467.65837138603541
 30
0.0
 11
281.57125868453289
 21
-442.34162861396447
 31
0.0
  0
LINE
  5
817C
  8
0
 10
356.57125868453289
 20
-482.84162861396447
 30
0.0
 11
356.57125868453289
 21
-582.84162861396453
 31
0.0
  0
LINE
  5
817D
  8
0
 10
369.54125868453411
 20
425.15837138603541
 30
0.0
 11
281.57125868453289
 21
425.15837138603541
 31
0.0
  0
LINE
  5
817E
  8
2
  6
CENTER
 10
876.57125868453295
 20
1064.5392293860341
 30
0.0
 11
876.57125868453295
 21
-938.00748244152055
 31
0.0
  0
CIRCLE
  5
817F
  8
0
 10
876.57125868453295
 20
387.15837138603541
 30
0.0
 40
200.0
  0
LINE
  5
8180
  8
0
 10
1416.5712586845329
 20
982.15837138603536
 30
0.0
 11
1416.5712586845329
 21
-482.84162861396447
 31
0.0
  0
CIRCLE
  5
8181
  8
0
 10
1779.191258684534
 20
-282.84162861396447
 30
0.0
 40
75.0
  0
LINE
  5
8182
  8
2
  6
CENTER
 10
1854.1912586845319
 20
-282.84162861396447
 30
0.0
 11
1704.191258684534
 21
-282.84162861396447
 31
0.0
  0
LINE
  5
8183
  8
2
  6
CENTER
 10
1779.191258684534
 20
-357.84162861396447
 30
0.0
 11
1779.191258684534
 21
-207.8416286139645
 31
0.0
  0
LINE
  5
8184
  8
0
 10
1956.5712586845309
 20
-482.84162861396447
 30
0.0
 11
1956.5712586845309
 21
-582.84162861396453
 31
0.0
  0
LINE
  5
8185
  8
2
  6
CENTER
 10
-46.34081480227178
 20
12.15837138603546
 30
0.0
 11
467.86207423915579
 21
12.15837138603546
 31
0.0
  0
LINE
  5
8186
  8
0
 10
281.57125868453289
 20
425.15837138603541
 30
0.0
 11
131.57125868453289
 21
425.15837138603541
 31
0.0
  0
LINE
  5
8187
  8
0
 10
281.57125868453289
 20
-399.84162861396447
 30
0.0
 11
131.57125868453289
 21
-399.84162861396447
 31
0.0
  0
LINE
  5
8188
  8
2
  6
CENTER
 10
1833.3222344826461
 20
12.15837138603546
 30
0.0
 11
2227.538165906195
 21
12.15837138603546
 31
0.0
  0
LINE
  5
8189
  8
1
 10
51.571258684533873
 20
3119.5234164060821
 30
0.0
 11
2171.5712586845329
 21
3119.5234164060821
 31
0.0
  0
LINE
  5
818A
  8
1
 10
2171.5712586845329
 20
3119.5234164060821
 30
0.0
 11
2171.5712586845329
 21
3169.5234164060821
 31
0.0
  0
LINE
  5
818B
  8
1
 10
51.571258684533873
 20
3119.5234164060821
 30
0.0
 11
51.571258684533873
 21
3169.5234164060821
 31
0.0
  0
LINE
  5
818C
  8
1
 10
51.571258684533873
 20
4639.5234164060821
 30
0.0
 11
2171.5712586845329
 21
4639.5234164060821
 31
0.0
  0
LINE
  5
818D
  8
1
 10
51.571258684533873
 20
4589.5234164060821
 30
0.0
 11
131.5712586845338
 21
4589.5234164060821
 31
0.0
  0
LINE
  5
818E
  8
1
 10
51.571258684533873
 20
3169.5234164060821
 30
0.0
 11
131.5712586845338
 21
3169.5234164060821
 31
0.0
  0
LINE
  5
818F
  8
1
 10
2171.5712586845329
 20
4589.5234164060821
 30
0.0
 11
2171.5712586845329
 21
4639.5234164060821
 31
0.0
  0
LINE
  5
8190
  8
1
 10
51.571258684533873
 20
4589.5234164060821
 30
0.0
 11
51.571258684533873
 21
4639.5234164060821
 31
0.0
  0
LINE
  5
8191
  8
1
 10
2091.571258684532
 20
3119.5234164060821
 30
0.0
 11
2091.571258684532
 21
4639.5234164060821
 31
0.0
  0
LINE
  5
8192
  8
1
 10
131.5712586845338
 20
3119.5234164060821
 30
0.0
 11
131.5712586845338
 21
4639.5234164060821
 31
0.0
  0
LINE
  5
8193
  8
1
 10
2091.571258684532
 20
4589.5234164060821
 30
0.0
 11
2171.5712586845329
 21
4589.5234164060821
 31
0.0
  0
LINE
  5
8194
  8
1
 10
2091.571258684532
 20
3169.5234164060821
 30
0.0
 11
2171.5712586845329
 21
3169.5234164060821
 31
0.0
  0
LINE
  5
8195
  8
1
 10
136.5712586845338
 20
4639.5234164060821
 30
0.0
 11
136.5712586845338
 21
4654.523416406083
 31
0.0
  0
LINE
  5
8196
  8
1
 10
2086.5712586845329
 20
4639.5234164060821
 30
0.0
 11
2086.5712586845329
 21
4654.5234164060821
 31
0.0
  0
LINE
  5
8197
  8
1
 10
136.5712586845338
 20
4654.523416406083
 30
0.0
 11
2086.5712586845329
 21
4654.5234164060821
 31
0.0
  0
LINE
  5
8198
  8
1
 10
136.5712586845338
 20
3119.5234164060821
 30
0.0
 11
136.5712586845338
 21
3104.5234164060812
 31
0.0
  0
LINE
  5
8199
  8
1
 10
2086.5712586845329
 20
3119.5234164060821
 30
0.0
 11
2086.5712586845329
 21
3104.5234164060821
 31
0.0
  0
LINE
  5
819A
  8
1
 10
136.5712586845338
 20
3104.5234164060812
 30
0.0
 11
2086.5712586845329
 21
3104.5234164060821
 31
0.0
  0
LINE
  5
819B
  8
2
  6
CENTER
 10
22.56503067311132
 20
3734.5234164060821
 30
0.0
 11
360.78936020474788
 21
3734.5234164060821
 31
0.0
  0
LINE
  5
819C
  8
1
 10
131.5712586845338
 20
4112.5234164060812
 30
0.0
 11
81.571258684533873
 21
4112.5234164060812
 31
0.0
  0
LINE
  5
819D
  8
1
 10
121.0712586845338
 20
4116.5234164060812
 30
0.0
 11
84.571258684533859
 21
4116.5234164060812
 31
0.0
  0
LINE
  5
819E
  8
1
 10
131.5712586845338
 20
4112.5234164060812
 30
0.0
 11
131.5712586845338
 21
4162.5234164060812
 31
0.0
  0
LINE
  5
819F
  8
1
 10
127.5712586845338
 20
4123.0234164060812
 30
0.0
 11
127.5712586845338
 21
4159.5234164060812
 31
0.0
  0
ARC
  5
81A0
  8
1
 10
121.071258684534
 20
4123.0234164060812
 30
0.0
 40
6.5
 50
270.0
 51
0.0
  0
LINE
  5
81A1
  8
1
 10
131.5712586845338
 20
4162.5234164060812
 30
0.0
 11
130.5712586845338
 21
4162.5234164060812
 31
0.0
  0
ARC
  5
81A2
  8
1
 10
130.571258684534
 20
4159.5234164060812
 30
0.0
 40
3.0
 50
90.0
 51
180.0
  0
LINE
  5
81A3
  8
1
 10
81.571258684533873
 20
4112.5234164060812
 30
0.0
 11
81.571258684533873
 21
4113.5234164060803
 31
0.0
  0
ARC
  5
81A4
  8
1
 10
84.571258684534115
 20
4113.5234164060803
 30
0.0
 40
3.0
 50
90.0
 51
180.0
  0
LINE
  5
81A5
  8
1
 10
131.5712586845338
 20
3356.5234164060821
 30
0.0
 11
131.5712586845338
 21
3306.5234164060812
 31
0.0
  0
LINE
  5
81A6
  8
1
 10
127.5712586845338
 20
3346.0234164060821
 30
0.0
 11
127.5712586845338
 21
3309.5234164060821
 31
0.0
  0
LINE
  5
81A7
  8
1
 10
131.5712586845338
 20
3356.5234164060821
 30
0.0
 11
81.571258684533873
 21
3356.5234164060821
 31
0.0
  0
LINE
  5
81A8
  8
1
 10
121.0712586845338
 20
3352.5234164060821
 30
0.0
 11
84.571258684533859
 21
3352.5234164060821
 31
0.0
  0
LINE
  5
81A9
  8
1
 10
81.571258684533873
 20
3356.5234164060821
 30
0.0
 11
81.571258684533873
 21
3355.5234164060821
 31
0.0
  0
ARC
  5
81AA
  8
1
 10
84.571258684534115
 20
3355.5234164060821
 30
0.0
 40
3.0
 50
180.0
 51
270.0
  0
ARC
  5
81AB
  8
1
 10
121.071258684534
 20
3346.0234164060821
 30
0.0
 40
6.5
 50
0.0
 51
90.000000000000057
  0
ARC
  5
81AC
  8
1
 10
130.571258684534
 20
3309.5234164060821
 30
0.0
 40
3.0
 50
180.0
 51
270.0
  0
LINE
  5
81AD
  8
1
 10
131.5712586845338
 20
3306.5234164060812
 30
0.0
 11
130.5712586845338
 21
3306.5234164060812
 31
0.0
  0
LINE
  5
81AE
  8
1
 10
81.571258684533873
 20
3356.5234164060821
 30
0.0
 11
81.571258684533873
 21
4112.5234164060812
 31
0.0
  0
LINE
  5
81AF
  8
1
 10
127.5712586845338
 20
3356.5234164060821
 30
0.0
 11
127.5712586845338
 21
4112.5234164060812
 31
0.0
  0
LINE
  5
81B0
  8
1
 10
2141.5712586845329
 20
4402.5234164060812
 30
0.0
 11
2141.5712586845329
 21
3646.5234164060812
 31
0.0
  0
LINE
  5
81B1
  8
1
 10
2095.5712586845329
 20
4402.5234164060812
 30
0.0
 11
2095.571258684532
 21
3646.5234164060812
 31
0.0
  0
ARC
  5
81B2
  8
1
 10
2092.571258684532
 20
4449.523416406083
 30
0.0
 40
3.0
 50
359.99999999999977
 51
89.999999999999957
  0
LINE
  5
81B3
  8
1
 10
2091.571258684532
 20
4402.5234164060812
 30
0.0
 11
2141.5712586845329
 21
4402.5234164060812
 31
0.0
  0
LINE
  5
81B4
  8
1
 10
2095.5712586845329
 20
4413.0234164060812
 30
0.0
 11
2095.5712586845329
 21
4449.523416406083
 31
0.0
  0
LINE
  5
81B5
  8
1
 10
2102.0712586845329
 20
4406.5234164060812
 30
0.0
 11
2138.5712586845329
 21
4406.5234164060812
 31
0.0
  0
ARC
  5
81B6
  8
1
 10
2138.5712586845329
 20
4403.5234164060812
 30
0.0
 40
3.0
 50
359.99999999999977
 51
89.999999999999957
  0
LINE
  5
81B7
  8
1
 10
2141.5712586845329
 20
4402.5234164060812
 30
0.0
 11
2141.5712586845329
 21
4403.5234164060812
 31
0.0
  0
ARC
  5
81B8
  8
1
 10
2102.0712586845329
 20
4413.0234164060812
 30
0.0
 40
6.5
 50
179.9999999999998
 51
270.0
  0
LINE
  5
81B9
  8
1
 10
2091.571258684532
 20
4402.5234164060812
 30
0.0
 11
2091.571258684532
 21
4452.5234164060812
 31
0.0
  0
LINE
  5
81BA
  8
1
 10
2091.571258684532
 20
4452.5234164060812
 30
0.0
 11
2092.5712586845329
 21
4452.5234164060812
 31
0.0
  0
LINE
  5
81BB
  8
2
  6
CENTER
 10
2200.577486695955
 20
4024.5234164060821
 30
0.0
 11
1862.3531571643191
 21
4024.5234164060821
 31
0.0
  0
LINE
  5
81BC
  8
1
 10
2091.571258684532
 20
3646.5234164060812
 30
0.0
 11
2091.571258684532
 21
3596.5234164060821
 31
0.0
  0
LINE
  5
81BD
  8
1
 10
2095.571258684532
 20
3636.0234164060821
 30
0.0
 11
2095.571258684532
 21
3599.5234164060821
 31
0.0
  0
LINE
  5
81BE
  8
1
 10
2091.571258684532
 20
3646.5234164060812
 30
0.0
 11
2141.5712586845329
 21
3646.5234164060812
 31
0.0
  0
LINE
  5
81BF
  8
1
 10
2102.0712586845329
 20
3642.5234164060812
 30
0.0
 11
2138.5712586845329
 21
3642.5234164060812
 31
0.0
  0
LINE
  5
81C0
  8
1
 10
2141.5712586845329
 20
3646.5234164060812
 30
0.0
 11
2141.5712586845329
 21
3645.5234164060798
 31
0.0
  0
ARC
  5
81C1
  8
1
 10
2138.5712586845329
 20
3645.5234164060798
 30
0.0
 40
3.0
 50
270.0
 51
359.99999999999977
  0
ARC
  5
81C2
  8
1
 10
2102.0712586845329
 20
3636.0234164060821
 30
0.0
 40
6.5
 50
89.999999999999957
 51
179.9999999999998
  0
ARC
  5
81C3
  8
1
 10
2092.571258684532
 20
3599.5234164060821
 30
0.0
 40
3.0
 50
270.0
 51
359.99999999999977
  0
LINE
  5
81C4
  8
1
 10
2091.571258684532
 20
3596.5234164060821
 30
0.0
 11
2092.571258684532
 21
3596.5234164060821
 31
0.0
  0
LINE
  5
81C5
  8
0
 10
2375.502539190823
 20
4056.7149287747352
 30
0.0
 11
2500.7424624153919
 21
4056.7149287747352
 31
0.0
  0
LINE
  5
81C6
  8
0
 10
2500.7424624153919
 20
4056.7149287747352
 30
0.0
 11
2500.7424624153919
 21
3994.055511349774
 31
0.0
  0
LINE
  5
81C7
  8
0
 10
2500.7424624153919
 20
3994.055511349774
 30
0.0
 11
2375.502539190823
 21
3994.055511349774
 31
0.0
  0
LINE
  5
81C8
  8
0
 10
2375.502539190823
 20
3994.055511349774
 30
0.0
 11
2375.502539190823
 21
3948.2315642248441
 31
0.0
  0
LINE
  5
81C9
  8
0
 10
2375.502539190823
 20
3948.2315642248441
 30
0.0
 11
2275.7424624153919
 21
4025.385220062255
 31
0.0
  0
LINE
  5
81CA
  8
0
 10
2275.7424624153919
 20
4025.385220062255
 30
0.0
 11
2375.502539190823
 21
4102.5388758996669
 31
0.0
  0
LINE
  5
81CB
  8
0
 10
2375.502539190823
 20
4102.5388758996669
 30
0.0
 11
2375.502539190823
 21
4056.7149287747352
 31
0.0
  0
LINE
  5
81CC
  8
0
 10
-199.8697059904618
 20
3742.0982659950459
 30
0.0
 11
-74.629782765893893
 21
3742.0982659950459
 31
0.0
  0
LINE
  5
81CD
  8
0
 10
-74.629782765893893
 20
3742.0982659950459
 30
0.0
 11
-74.629782765893893
 21
3679.4388485700852
 31
0.0
  0
LINE
  5
81CE
  8
0
 10
-74.629782765893893
 20
3679.4388485700852
 30
0.0
 11
-199.8697059904618
 21
3679.4388485700852
 31
0.0
  0
LINE
  5
81CF
  8
0
 10
-199.8697059904618
 20
3679.4388485700852
 30
0.0
 11
-199.8697059904618
 21
3633.6149014451539
 31
0.0
  0
LINE
  5
81D0
  8
0
 10
-199.8697059904618
 20
3633.6149014451539
 30
0.0
 11
-299.62978276589382
 21
3710.7685572825649
 31
0.0
  0
LINE
  5
81D1
  8
0
 10
-299.62978276589382
 20
3710.7685572825649
 30
0.0
 11
-199.8697059904618
 21
3787.9222131199772
 31
0.0
  0
LINE
  5
81D2
  8
0
 10
-199.8697059904618
 20
3787.9222131199772
 30
0.0
 11
-199.8697059904618
 21
3742.0982659950459
 31
0.0
  0
LINE
  5
81D3
  8
1
 10
81.571258684534754
 20
-505.84162861396487
 30
0.0
 11
81.571258684534754
 21
530.15837138603536
 31
0.0
  0
LINE
  5
81D4
  8
1
 10
127.57125868453291
 20
-505.84162861396487
 30
0.0
 11
127.57125868453291
 21
530.15837138603536
 31
0.0
  0
LINE
  5
81D5
  8
1
 10
131.57125868453289
 20
-505.84162861396447
 30
0.0
 11
81.571258684534754
 21
-505.84162861396447
 31
0.0
  0
ARC
  5
81D6
  8
1
 10
84.571258684534769
 20
-506.84162861396447
 30
0.0
 40
3.0
 50
180.0
 51
270.0
  0
LINE
  5
81D7
  8
1
 10
81.571258684534754
 20
-505.84162861396447
 30
0.0
 11
81.571258684534754
 21
-506.84162861396447
 31
0.0
  0
LINE
  5
81D8
  8
1
 10
131.57125868453289
 20
-505.84162861396447
 30
0.0
 11
131.57125868453289
 21
-555.84162861396453
 31
0.0
  0
LINE
  5
81D9
  8
1
 10
127.57125868453291
 20
-516.34162861396453
 30
0.0
 11
127.57125868453291
 21
-552.84162861396453
 31
0.0
  0
LINE
  5
81DA
  8
1
 10
131.57125868453289
 20
-555.84162861396453
 30
0.0
 11
130.57125868453289
 21
-555.84162861396453
 31
0.0
  0
ARC
  5
81DB
  8
1
 10
130.57125868453471
 20
-552.84162861396453
 30
0.0
 40
3.0
 50
180.0
 51
270.0
  0
LINE
  5
81DC
  8
1
 10
121.07125868453291
 20
-509.84162861396447
 30
0.0
 11
84.571258684534769
 21
-509.84162861396447
 31
0.0
  0
ARC
  5
81DD
  8
1
 10
121.0712586845347
 20
-516.34162861396453
 30
0.0
 40
6.5
 50
0.0
 51
90.000000000000057
  0
LINE
  5
81DE
  8
1
 10
131.57125868453289
 20
530.15837138603536
 30
0.0
 11
81.571258684534754
 21
530.15837138603536
 31
0.0
  0
ARC
  5
81DF
  8
1
 10
84.571258684534769
 20
531.15837138603536
 30
0.0
 40
3.0
 50
90.0
 51
180.0
  0
LINE
  5
81E0
  8
1
 10
81.571258684534754
 20
530.15837138603536
 30
0.0
 11
81.571258684534754
 21
531.15837138603536
 31
0.0
  0
LINE
  5
81E1
  8
1
 10
131.57125868453289
 20
530.15837138603536
 30
0.0
 11
131.57125868453289
 21
580.15837138603536
 31
0.0
  0
ARC
  5
81E2
  8
1
 10
121.0712586845347
 20
540.65837138603547
 30
0.0
 40
6.5
 50
270.0
 51
0.0
  0
LINE
  5
81E3
  8
1
 10
121.07125868453291
 20
534.15837138603536
 30
0.0
 11
84.571258684534769
 21
534.15837138603536
 31
0.0
  0
LINE
  5
81E4
  8
1
 10
127.57125868453291
 20
540.65837138603547
 30
0.0
 11
127.57125868453291
 21
577.15837138603536
 31
0.0
  0
LINE
  5
81E5
  8
1
 10
131.57125868453289
 20
580.15837138603536
 30
0.0
 11
130.57125868453289
 21
580.15837138603536
 31
0.0
  0
ARC
  5
81E6
  8
1
 10
130.57125868453471
 20
577.15837138603536
 30
0.0
 40
3.0
 50
90.0
 51
180.0
  0
LINE
  5
81E7
  8
1
 10
2095.571258684532
 20
-505.84162861396487
 30
0.0
 11
2095.571258684532
 21
530.15837138603536
 31
0.0
  0
LINE
  5
81E8
  8
1
 10
2141.5712586845329
 20
-505.84162861396487
 30
0.0
 11
2141.5712586845329
 21
530.15837138603536
 31
0.0
  0
LINE
  5
81E9
  8
1
 10
2095.571258684532
 20
-516.34162861396453
 30
0.0
 11
2095.571258684532
 21
-552.84162861396453
 31
0.0
  0
LINE
  5
81EA
  8
1
 10
2091.571258684532
 20
-505.84162861396447
 30
0.0
 11
2091.571258684532
 21
-555.84162861396453
 31
0.0
  0
ARC
  5
81EB
  8
1
 10
2092.571258684532
 20
-552.84162861396453
 30
0.0
 40
3.0
 50
270.0
 51
0.000000000000007
  0
LINE
  5
81EC
  8
1
 10
2091.571258684532
 20
-555.84162861396453
 30
0.0
 11
2092.571258684532
 21
-555.84162861396453
 31
0.0
  0
LINE
  5
81ED
  8
1
 10
2091.571258684532
 20
-505.84162861396447
 30
0.0
 11
2141.5712586845329
 21
-505.84162861396447
 31
0.0
  0
LINE
  5
81EE
  8
1
 10
2102.0712586845329
 20
-509.84162861396447
 30
0.0
 11
2138.5712586845329
 21
-509.84162861396447
 31
0.0
  0
LINE
  5
81EF
  8
1
 10
2141.5712586845329
 20
-505.84162861396447
 30
0.0
 11
2141.5712586845329
 21
-506.84162861396447
 31
0.0
  0
ARC
  5
81F0
  8
1
 10
2138.5712586845329
 20
-506.84162861396447
 30
0.0
 40
3.0
 50
270.0
 51
0.000000000000007
  0
ARC
  5
81F1
  8
1
 10
2102.0712586845329
 20
-516.34162861396453
 30
0.0
 40
6.5
 50
89.999999999999986
 51
180.0
  0
ARC
  5
81F2
  8
1
 10
2092.571258684532
 20
577.15837138603536
 30
0.0
 40
3.0
 50
0.000000000000007
 51
90.0
  0
LINE
  5
81F3
  8
1
 10
2091.571258684532
 20
530.15837138603536
 30
0.0
 11
2141.5712586845329
 21
530.15837138603536
 31
0.0
  0
LINE
  5
81F4
  8
1
 10
2095.571258684532
 20
540.65837138603547
 30
0.0
 11
2095.571258684532
 21
577.15837138603536
 31
0.0
  0
LINE
  5
81F5
  8
1
 10
2102.0712586845329
 20
534.15837138603536
 30
0.0
 11
2138.5712586845329
 21
534.15837138603536
 31
0.0
  0
LINE
  5
81F6
  8
1
 10
2141.5712586845329
 20
530.15837138603536
 30
0.0
 11
2141.5712586845329
 21
531.15837138603536
 31
0.0
  0
ARC
  5
81F7
  8
1
 10
2138.5712586845329
 20
531.15837138603536
 30
0.0
 40
3.0
 50
0.000000000000007
 51
90.0
  0
ARC
  5
81F8
  8
1
 10
2102.0712586845329
 20
540.65837138603547
 30
0.0
 40
6.5
 50
180.0
 51
270.0
  0
LINE
  5
81F9
  8
1
 10
2091.571258684532
 20
530.15837138603536
 30
0.0
 11
2091.571258684532
 21
580.15837138603536
 31
0.0
  0
LINE
  5
81FA
  8
1
 10
2091.571258684532
 20
580.15837138603536
 30
0.0
 11
2092.571258684532
 21
580.15837138603536
 31
0.0
  0
LINE
  5
81FB
  8
1
 10
-3016.776200489468
 20
-707.84162861396453
 30
0.0
 11
-1496.776200489468
 21
-707.84162861396453
 31
0.0
  0
LINE
  5
81FC
  8
1
 10
-3016.776200489468
 20
-607.84162861396453
 30
0.0
 11
-1496.776200489468
 21
-607.84162861396453
 31
0.0
  0
LINE
  5
81FD
  8
1
 10
-3016.776200489468
 20
1107.1583713860341
 30
0.0
 11
-1496.776200489468
 21
1107.1583713860341
 31
0.0
  0
LINE
  5
81FE
  8
2
 10
-2111.776200489468
 20
1426.6233438220829
 30
0.0
 11
-2111.776200489468
 21
1017.431193795222
 31
0.0
  0
LINE
  5
81FF
  8
1
 10
-1496.776200489468
 20
1107.1583713860341
 30
0.0
 11
-1496.776200489468
 21
-607.84162861396453
 31
0.0
  0
LINE
  5
8200
  8
1
 10
-3016.776200489468
 20
1107.1583713860341
 30
0.0
 11
-3016.776200489468
 21
-607.84162861396453
 31
0.0
  0
LINE
  5
8201
  8
2
  6
CENTER
 10
-2772.634740923007
 20
12.15837138603546
 30
0.0
 11
-1425.852182390619
 21
12.15837138603546
 31
0.0
  0
LINE
  5
8202
  8
1
 10
-2966.776200489468
 20
-707.84162861396453
 30
0.0
 11
-3016.7762004894662
 21
-707.84162861396453
 31
0.0
  0
ARC
  5
8203
  8
1
 10
-2981.776200489468
 20
-689.2010730781044
 30
0.0
 40
10.0
 50
274.99999999999972
 51
0.0
  0
LINE
  5
8204
  8
1
 10
-2966.776200489468
 20
-607.84162861396453
 30
0.0
 11
-3016.7762004894662
 21
-607.84162861396453
 31
0.0
  0
ARC
  5
8205
  8
1
 10
-2981.776200489468
 20
-626.48218414982421
 30
0.0
 40
10.0
 50
0.0
 51
85.000000000000256
  0
LINE
  5
8206
  8
1
 10
-2966.776200489468
 20
-607.84162861396453
 30
0.0
 11
-2966.776200489468
 21
-707.84162861396453
 31
0.0
  0
LINE
  5
8207
  8
1
 10
-2971.776200489468
 20
-626.48218414982421
 30
0.0
 11
-2971.7762004894671
 21
-689.2010730781044
 31
0.0
  0
LINE
  5
8208
  8
1
 10
-2980.904643061991
 20
-616.52023716890687
 30
0.0
 11
-3013.1248234604568
 21
-613.70133664728098
 31
0.0
  0
LINE
  5
8209
  8
1
 10
-3016.7762004894662
 20
-607.84162861396453
 30
0.0
 11
-3016.7762004894662
 21
-609.71655785491384
 31
0.0
  0
LINE
  5
820A
  8
1
 10
-3016.7762004894662
 20
-707.84162861396453
 30
0.0
 11
-3016.7762004894662
 21
-705.96669937301465
 31
0.0
  0
LINE
  5
820B
  8
1
 10
-2980.904643061991
 20
-699.16302005902162
 30
0.0
 11
-3013.1248234604568
 21
-701.98192058064751
 31
0.0
  0
ARC
  5
820C
  8
1
 10
-3012.776200489468
 20
-705.96669937301465
 30
0.0
 40
4.0
 50
94.99999999999973
 51
180.0
  0
ARC
  5
820D
  8
1
 10
-3012.776200489468
 20
-609.71655785491384
 30
0.0
 40
4.0
 50
180.0
 51
265.00000000000028
  0
LINE
  5
820E
  8
1
 10
-1532.6477579169441
 20
-616.52023716890687
 30
0.0
 11
-1500.4275775184769
 21
-613.70133664728098
 31
0.0
  0
LINE
  5
820F
  8
1
 10
-1546.776200489468
 20
-607.84162861396453
 30
0.0
 11
-1496.776200489468
 21
-607.84162861396453
 31
0.0
  0
LINE
  5
8210
  8
1
 10
-1532.6477579169441
 20
-699.16302005902162
 30
0.0
 11
-1500.4275775184769
 21
-701.98192058064751
 31
0.0
  0
LINE
  5
8211
  8
1
 10
-1546.776200489468
 20
-707.84162861396453
 30
0.0
 11
-1496.776200489468
 21
-707.84162861396453
 31
0.0
  0
ARC
  5
8212
  8
1
 10
-1500.776200489468
 20
-705.96669937301465
 30
0.0
 40
4.0
 50
0.000000000000007
 51
85.000000000000256
  0
LINE
  5
8213
  8
1
 10
-1496.776200489468
 20
-707.84162861396453
 30
0.0
 11
-1496.776200489468
 21
-705.96669937301465
 31
0.0
  0
ARC
  5
8214
  8
1
 10
-1500.776200489468
 20
-609.71655785491384
 30
0.0
 40
4.0
 50
274.99999999999972
 51
0.000000000000007
  0
LINE
  5
8215
  8
1
 10
-1496.776200489468
 20
-607.84162861396453
 30
0.0
 11
-1496.776200489468
 21
-609.71655785491384
 31
0.0
  0
LINE
  5
8216
  8
1
 10
-1546.776200489468
 20
-607.84162861396453
 30
0.0
 11
-1546.776200489468
 21
-707.84162861396453
 31
0.0
  0
LINE
  5
8217
  8
1
 10
-1541.776200489468
 20
-626.48218414982421
 30
0.0
 11
-1541.776200489468
 21
-689.2010730781044
 31
0.0
  0
ARC
  5
8218
  8
1
 10
-1531.776200489468
 20
-689.2010730781044
 30
0.0
 40
10.0
 50
180.0
 51
265.00000000000028
  0
ARC
  5
8219
  8
1
 10
-1531.776200489468
 20
-626.48218414982421
 30
0.0
 40
10.0
 50
94.99999999999973
 51
180.0
  0
LINE
  5
821A
  8
1
 10
164.07125868453289
 20
1107.1583713860341
 30
0.0
 11
199.07125868453471
 21
1107.1583713860359
 31
0.0
  0
ARC
  5
821B
  8
1
 10
181.57125868453289
 20
1157.1583713860341
 30
0.0
 40
20.0
 50
299.9999999999971
 51
240.00000000000259
  0
ARC
  5
821C
  8
1
 10
181.57125868453289
 20
1157.1583713860341
 30
0.0
 40
36.0
 50
308.17385692872438
 51
231.8261430712754
  0
LINE
  5
821D
  8
1
 10
199.07125868453471
 20
1107.1583713860359
 30
0.0
 11
193.6809840454498
 21
1137.72813794943
 31
0.0
  0
LINE
  5
821E
  8
2
  6
CENTER
 10
139.59940860816451
 20
1157.1583713860341
 30
0.0
 11
223.55340928517759
 21
1157.1583713860341
 31
0.0
  0
LINE
  5
821F
  8
1
 10
164.0712586845311
 20
1107.1583713860359
 30
0.0
 11
169.46153332361791
 21
1137.72813794943
 31
0.0
  0
LINE
  5
8220
  8
2
  6
CENTER
 10
181.57125868453289
 20
1200.1493321781729
 30
0.0
 11
181.57125868453289
 21
1097.98108985882
 31
0.0
  0
ARC
  5
8221
  8
1
 10
149.4326712626152
 20
1116.2791444055299
 30
0.0
 40
16.0
 50
349.999999999995
 51
51.826143071275588
  0
LINE
  5
8222
  8
1
 10
171.57125868453289
 20
1139.8378633103459
 30
0.0
 11
191.57125868453289
 21
1139.8378633103459
 31
0.0
  0
LINE
  5
8223
  8
1
 10
169.46153332361791
 20
1137.72813794943
 30
0.0
 11
193.6809840454498
 21
1137.72813794943
 31
0.0
  0
LINE
  5
8224
  8
1
 10
171.57125868453289
 20
1139.8378633103459
 30
0.0
 11
169.46153332361791
 21
1137.72813794943
 31
0.0
  0
LINE
  5
8225
  8
1
 10
191.57125868453289
 20
1139.8378633103459
 30
0.0
 11
193.6809840454498
 21
1137.72813794943
 31
0.0
  0
ARC
  5
8226
  8
1
 10
213.7098461064524
 20
1116.2791444055299
 30
0.0
 40
16.0
 50
128.1738569287244
 51
190.000000000005
  0
LINE
  5
8227
  8
2
  6
CENTER
 10
2041.5712586845341
 20
1200.1493321781729
 30
0.0
 11
2041.5712586845341
 21
1097.98108985882
 31
0.0
  0
ARC
  5
8228
  8
1
 10
2009.432671262615
 20
1116.2791444055299
 30
0.0
 40
16.0
 50
349.999999999995
 51
51.826143071275588
  0
ARC
  5
8229
  8
1
 10
2073.709846106452
 20
1116.2791444055299
 30
0.0
 40
16.0
 50
128.1738569287244
 51
190.000000000005
  0
LINE
  5
822A
  8
1
 10
2059.0712586845339
 20
1107.1583713860359
 30
0.0
 11
2053.680984045448
 21
1137.72813794943
 31
0.0
  0
LINE
  5
822B
  8
1
 10
2024.0712586845309
 20
1107.1583713860359
 30
0.0
 11
2029.4615333236179
 21
1137.72813794943
 31
0.0
  0
ARC
  5
822C
  8
1
 10
2041.5712586845341
 20
1157.1583713860341
 30
0.0
 40
36.0
 50
308.17385692872438
 51
231.8261430712754
  0
LINE
  5
822D
  8
1
 10
2059.0712586845329
 20
1107.1583713860341
 30
0.0
 11
2024.0712586845309
 21
1107.1583713860359
 31
0.0
  0
LINE
  5
822E
  8
2
  6
CENTER
 10
2083.5431087609031
 20
1157.1583713860341
 30
0.0
 11
1999.589108083888
 21
1157.1583713860341
 31
0.0
  0
ARC
  5
822F
  8
1
 10
2041.5712586845341
 20
1157.1583713860341
 30
0.0
 40
20.0
 50
299.99999999999733
 51
240.00000000000259
  0
LINE
  5
8230
  8
1
 10
2031.5712586845341
 20
1139.8378633103459
 30
0.0
 11
2029.4615333236179
 21
1137.72813794943
 31
0.0
  0
LINE
  5
8231
  8
1
 10
2051.571258684532
 20
1139.8378633103459
 30
0.0
 11
2053.680984045448
 21
1137.72813794943
 31
0.0
  0
LINE
  5
8232
  8
1
 10
2053.680984045448
 20
1137.72813794943
 30
0.0
 11
2029.4615333236179
 21
1137.72813794943
 31
0.0
  0
LINE
  5
8233
  8
1
 10
2051.571258684532
 20
1139.8378633103459
 30
0.0
 11
2031.5712586845341
 21
1139.8378633103459
 31
0.0
  0
LINE
  5
8234
  8
1
 10
-2984.276200489468
 20
1107.1583713860341
 30
0.0
 11
-2949.2762004894671
 21
1107.1583713860359
 31
0.0
  0
LINE
  5
8235
  8
1
 10
-2949.2762004894671
 20
1107.1583713860359
 30
0.0
 11
-2954.6664751285512
 21
1137.72813794943
 31
0.0
  0
LINE
  5
8236
  8
1
 10
-2958.776200489468
 20
1185.1583713860341
 30
0.0
 11
-2958.776200489468
 21
1121.500773562859
 31
0.0
  0
LINE
  5
8237
  8
1
 10
-2974.776200489468
 20
1185.1583713860341
 30
0.0
 11
-2974.776200489468
 21
1121.500773562859
 31
0.0
  0
LINE
  5
8238
  8
1
 10
-2984.2762004894698
 20
1107.1583713860359
 30
0.0
 11
-2978.885925850383
 21
1137.72813794943
 31
0.0
  0
ARC
  5
8239
  8
1
 10
-2966.776200489468
 20
1121.500773562859
 30
0.0
 40
8.0
 50
180.0
 51
0.0
  0
LINE
  5
823A
  8
1
 10
-2976.776200489468
 20
1139.8378633103459
 30
0.0
 11
-2974.776200489468
 21
1139.8378633103459
 31
0.0
  0
LINE
  5
823B
  8
1
 10
-2978.885925850383
 20
1137.72813794943
 30
0.0
 11
-2974.776200489468
 21
1137.72813794943
 31
0.0
  0
LINE
  5
823C
  8
1
 10
-2976.776200489468
 20
1139.8378633103459
 30
0.0
 11
-2978.885925850383
 21
1137.72813794943
 31
0.0
  0
LINE
  5
823D
  8
1
 10
-2958.776200489468
 20
1139.8378633103459
 30
0.0
 11
-2956.776200489468
 21
1139.8378633103459
 31
0.0
  0
LINE
  5
823E
  8
1
 10
-2958.776200489468
 20
1137.72813794943
 30
0.0
 11
-2954.6664751285512
 21
1137.72813794943
 31
0.0
  0
LINE
  5
823F
  8
1
 10
-2956.776200489468
 20
1139.8378633103459
 30
0.0
 11
-2954.6664751285512
 21
1137.72813794943
 31
0.0
  0
ARC
  5
8240
  8
1
 10
-2966.776200489468
 20
1185.1583713860341
 30
0.0
 40
8.0
 50
0.0
 51
180.0
  0
LINE
  5
8241
  8
1
 10
-1529.2762004894639
 20
1107.1583713860359
 30
0.0
 11
-1534.6664751285509
 21
1137.72813794943
 31
0.0
  0
LINE
  5
8242
  8
1
 10
-1538.776200489468
 20
1185.1583713860341
 30
0.0
 11
-1538.776200489468
 21
1121.500773562859
 31
0.0
  0
LINE
  5
8243
  8
1
 10
-1554.776200489468
 20
1185.1583713860341
 30
0.0
 11
-1554.776200489468
 21
1121.500773562859
 31
0.0
  0
LINE
  5
8244
  8
1
 10
-1564.276200489468
 20
1107.1583713860359
 30
0.0
 11
-1558.885925850383
 21
1137.72813794943
 31
0.0
  0
LINE
  5
8245
  8
1
 10
-1529.276200489468
 20
1107.1583713860341
 30
0.0
 11
-1564.276200489468
 21
1107.1583713860359
 31
0.0
  0
ARC
  5
8246
  8
1
 10
-1546.776200489468
 20
1121.500773562859
 30
0.0
 40
8.0
 50
180.0
 51
0.000000000000007
  0
LINE
  5
8247
  8
1
 10
-1556.776200489468
 20
1139.8378633103459
 30
0.0
 11
-1558.885925850383
 21
1137.72813794943
 31
0.0
  0
LINE
  5
8248
  8
1
 10
-1554.776200489468
 20
1137.72813794943
 30
0.0
 11
-1558.885925850383
 21
1137.72813794943
 31
0.0
  0
LINE
  5
8249
  8
1
 10
-1554.776200489468
 20
1139.8378633103459
 30
0.0
 11
-1556.776200489468
 21
1139.8378633103459
 31
0.0
  0
LINE
  5
824A
  8
1
 10
-1536.776200489468
 20
1139.8378633103459
 30
0.0
 11
-1534.6664751285509
 21
1137.72813794943
 31
0.0
  0
LINE
  5
824B
  8
1
 10
-1534.6664751285509
 20
1137.72813794943
 30
0.0
 11
-1538.776200489468
 21
1137.72813794943
 31
0.0
  0
LINE
  5
824C
  8
1
 10
-1536.776200489468
 20
1139.8378633103459
 30
0.0
 11
-1538.776200489468
 21
1139.8378633103459
 31
0.0
  0
ARC
  5
824D
  8
1
 10
-1546.776200489468
 20
1185.1583713860341
 30
0.0
 40
8.0
 50
0.000000000000007
 51
180.0
  0
LINE
  5
824E
  8
1
 10
-2489.7762004894662
 20
530.15837138603536
 30
0.0
 11
-2489.776200489468
 21
-505.84162861396447
 31
0.0
  0
LINE
  5
824F
  8
1
 10
-1733.776200489468
 20
530.15837138603536
 30
0.0
 11
-1733.776200489468
 21
-505.84162861396447
 31
0.0
  0
LINE
  5
8250
  8
1
 10
-2489.776200489468
 20
530.15837138603536
 30
0.0
 11
-1733.776200489468
 21
530.15837138603536
 31
0.0
  0
LINE
  5
8251
  8
1
 10
-2489.776200489468
 20
-505.84162861396447
 30
0.0
 11
-1733.776200489468
 21
-505.84162861396447
 31
0.0
  0
LINE
  5
8252
  8
1
 10
-2539.776200489468
 20
580.15837138603536
 30
0.0
 11
-1683.776200489468
 21
580.15837138603536
 31
0.0
  0
LINE
  5
8253
  8
1
 10
-2539.776200489468
 20
-555.84162861396453
 30
0.0
 11
-1683.776200489468
 21
-555.84162861396453
 31
0.0
  0
LINE
  5
8254
  8
1
 10
-1683.776200489468
 20
580.15837138603536
 30
0.0
 11
-1683.776200489468
 21
-555.84162861396453
 31
0.0
  0
LINE
  5
8255
  8
1
 10
-2539.776200489468
 20
580.15837138603536
 30
0.0
 11
-2539.776200489468
 21
-555.84162861396453
 31
0.0
  0
LINE
  5
8256
  8
0
 10
-2489.776200489468
 20
-505.84162861396447
 30
0.0
 11
-1733.776200489468
 21
530.15837138603536
 31
0.0
  0
LINE
  5
8257
  8
0
 10
-1733.776200489468
 20
-505.84162861396447
 30
0.0
 11
-2489.7762004894662
 21
530.15837138603536
 31
0.0
  0
LINE
  5
8258
  8
0
 10
3749.7912180731892
 20
-505.84162861396447
 30
0.0
 11
4505.7912180731892
 21
530.15837138603536
 31
0.0
  0
LINE
  5
8259
  8
0
 10
4505.7912180731892
 20
-505.84162861396447
 30
0.0
 11
3749.791218073191
 21
530.15837138603536
 31
0.0
  0
LINE
  5
825A
  8
1
 10
3699.7912180731892
 20
580.15837138603536
 30
0.0
 11
3699.7912180731892
 21
-555.84162861396453
 31
0.0
  0
LINE
  5
825B
  8
1
 10
4555.7912180731882
 20
580.15837138603536
 30
0.0
 11
4555.7912180731882
 21
-555.84162861396453
 31
0.0
  0
LINE
  5
825C
  8
1
 10
3749.791218073191
 20
530.15837138603536
 30
0.0
 11
3749.7912180731892
 21
-505.84162861396447
 31
0.0
  0
LINE
  5
825D
  8
1
 10
4505.7912180731892
 20
530.15837138603536
 30
0.0
 11
4505.7912180731892
 21
-505.84162861396447
 31
0.0
  0
LINE
  5
825E
  8
1
 10
3222.7912180731892
 20
1107.1583713860341
 30
0.0
 11
3222.7912180731892
 21
-607.84162861396453
 31
0.0
  0
LINE
  5
825F
  8
1
 10
4742.7912180731892
 20
1107.1583713860341
 30
0.0
 11
4742.7912180731892
 21
-607.84162861396453
 31
0.0
  0
LINE
  5
8260
  8
2
 10
4127.7912180731892
 20
1426.6233438220829
 30
0.0
 11
4127.7912180731892
 21
999.32473866430519
 31
0.0
  0
LINE
  5
8261
  8
1
 10
3699.7912180731892
 20
-555.84162861396453
 30
0.0
 11
4555.7912180731882
 21
-555.84162861396453
 31
0.0
  0
LINE
  5
8262
  8
1
 10
3749.7912180731892
 20
-505.84162861396447
 30
0.0
 11
4505.7912180731892
 21
-505.84162861396447
 31
0.0
  0
LINE
  5
8263
  8
1
 10
4742.7912180731892
 20
-707.84162861396453
 30
0.0
 11
3222.7912180731892
 21
-707.84162861396453
 31
0.0
  0
LINE
  5
8264
  8
1
 10
4742.7912180731892
 20
-607.84162861396453
 30
0.0
 11
3222.7912180731892
 21
-607.84162861396453
 31
0.0
  0
LINE
  5
8265
  8
1
 10
4706.9196606457117
 20
-616.52023716890687
 30
0.0
 11
4739.139841044178
 21
-613.70133664728098
 31
0.0
  0
LINE
  5
8266
  8
1
 10
4692.7912180731892
 20
-607.84162861396453
 30
0.0
 11
4742.7912180731882
 21
-607.84162861396453
 31
0.0
  0
LINE
  5
8267
  8
1
 10
4706.9196606457117
 20
-699.16302005902162
 30
0.0
 11
4739.139841044178
 21
-701.98192058064751
 31
0.0
  0
LINE
  5
8268
  8
1
 10
4692.7912180731892
 20
-707.84162861396453
 30
0.0
 11
4742.7912180731882
 21
-707.84162861396453
 31
0.0
  0
ARC
  5
8269
  8
1
 10
4738.7912180731873
 20
-705.96669937301465
 30
0.0
 40
4.0
 50
0.000000000000007
 51
85.000000000000256
  0
LINE
  5
826A
  8
1
 10
4742.7912180731882
 20
-707.84162861396453
 30
0.0
 11
4742.7912180731882
 21
-705.96669937301465
 31
0.0
  0
ARC
  5
826B
  8
1
 10
4738.7912180731873
 20
-609.71655785491384
 30
0.0
 40
4.0
 50
274.99999999999972
 51
0.000000000000007
  0
LINE
  5
826C
  8
1
 10
4742.7912180731882
 20
-607.84162861396453
 30
0.0
 11
4742.7912180731882
 21
-609.71655785491384
 31
0.0
  0
LINE
  5
826D
  8
1
 10
4692.7912180731892
 20
-607.84162861396453
 30
0.0
 11
4692.7912180731892
 21
-707.84162861396453
 31
0.0
  0
LINE
  5
826E
  8
1
 10
4697.7912180731892
 20
-626.48218414982421
 30
0.0
 11
4697.7912180731882
 21
-689.2010730781044
 31
0.0
  0
ARC
  5
826F
  8
1
 10
4707.7912180731892
 20
-689.2010730781044
 30
0.0
 40
10.0
 50
180.0
 51
265.00000000000028
  0
ARC
  5
8270
  8
1
 10
4707.7912180731892
 20
-626.48218414982421
 30
0.0
 40
10.0
 50
94.99999999999973
 51
180.0
  0
LINE
  5
8271
  8
1
 10
3272.7912180731892
 20
-607.84162861396453
 30
0.0
 11
3272.7912180731892
 21
-707.84162861396453
 31
0.0
  0
LINE
  5
8272
  8
1
 10
3258.6627755006662
 20
-616.52023716890687
 30
0.0
 11
3226.4425951021981
 21
-613.70133664728098
 31
0.0
  0
ARC
  5
8273
  8
1
 10
3257.7912180731892
 20
-626.48218414982421
 30
0.0
 40
10.0
 50
0.000000000000007
 51
85.000000000000256
  0
ARC
  5
8274
  8
1
 10
3257.7912180731892
 20
-689.2010730781044
 30
0.0
 40
10.0
 50
274.99999999999972
 51
0.000000000000007
  0
LINE
  5
8275
  8
1
 10
3272.7912180731892
 20
-707.84162861396453
 30
0.0
 11
3222.7912180731892
 21
-707.84162861396453
 31
0.0
  0
LINE
  5
8276
  8
1
 10
3267.7912180731892
 20
-626.48218414982421
 30
0.0
 11
3267.7912180731892
 21
-689.2010730781044
 31
0.0
  0
LINE
  5
8277
  8
1
 10
3258.6627755006662
 20
-699.16302005902162
 30
0.0
 11
3226.4425951021981
 21
-701.98192058064751
 31
0.0
  0
LINE
  5
8278
  8
1
 10
3222.7912180731892
 20
-707.84162861396453
 30
0.0
 11
3222.7912180731892
 21
-705.96669937301465
 31
0.0
  0
ARC
  5
8279
  8
1
 10
3226.7912180731892
 20
-705.96669937301465
 30
0.0
 40
4.0
 50
94.99999999999973
 51
180.0
  0
LINE
  5
827A
  8
1
 10
3272.7912180731892
 20
-607.84162861396453
 30
0.0
 11
3222.7912180731892
 21
-607.84162861396453
 31
0.0
  0
LINE
  5
827B
  8
1
 10
3222.7912180731892
 20
-607.84162861396453
 30
0.0
 11
3222.7912180731892
 21
-609.71655785491384
 31
0.0
  0
ARC
  5
827C
  8
1
 10
3226.7912180731892
 20
-609.71655785491384
 30
0.0
 40
4.0
 50
180.0
 51
265.00000000000028
  0
LINE
  5
827D
  8
1
 10
3699.7912180731892
 20
580.15837138603536
 30
0.0
 11
4555.7912180731882
 21
580.15837138603536
 31
0.0
  0
LINE
  5
827E
  8
1
 10
3749.7912180731892
 20
530.15837138603536
 30
0.0
 11
4505.7912180731892
 21
530.15837138603536
 31
0.0
  0
LINE
  5
827F
  8
2
  6
CENTER
 10
3466.9326776396501
 20
12.15837138603546
 30
0.0
 11
4813.7152361720382
 21
12.15837138603546
 31
0.0
  0
LINE
  5
8280
  8
1
 10
4742.7912180731892
 20
1107.1583713860341
 30
0.0
 11
3222.7912180731892
 21
1107.1583713860341
 31
0.0
  0
LINE
  5
8281
  8
1
 10
4710.291218073191
 20
1107.1583713860359
 30
0.0
 11
4704.9009434341051
 21
1137.72813794943
 31
0.0
  0
LINE
  5
8282
  8
1
 10
4700.7912180731892
 20
1185.1583713860341
 30
0.0
 11
4700.7912180731892
 21
1121.500773562859
 31
0.0
  0
LINE
  5
8283
  8
1
 10
4684.7912180731892
 20
1185.1583713860341
 30
0.0
 11
4684.7912180731892
 21
1121.500773562859
 31
0.0
  0
LINE
  5
8284
  8
1
 10
4675.2912180731873
 20
1107.1583713860359
 30
0.0
 11
4680.6814927122732
 21
1137.72813794943
 31
0.0
  0
LINE
  5
8285
  8
1
 10
4710.2912180731892
 20
1107.1583713860341
 30
0.0
 11
4675.2912180731873
 21
1107.1583713860359
 31
0.0
  0
ARC
  5
8286
  8
1
 10
4692.7912180731892
 20
1121.500773562859
 30
0.0
 40
8.0
 50
180.0
 51
0.000000000000007
  0
LINE
  5
8287
  8
1
 10
4682.7912180731892
 20
1139.8378633103459
 30
0.0
 11
4680.6814927122732
 21
1137.72813794943
 31
0.0
  0
LINE
  5
8288
  8
1
 10
4684.7912180731892
 20
1137.72813794943
 30
0.0
 11
4680.6814927122732
 21
1137.72813794943
 31
0.0
  0
LINE
  5
8289
  8
1
 10
4684.7912180731892
 20
1139.8378633103459
 30
0.0
 11
4682.7912180731892
 21
1139.8378633103459
 31
0.0
  0
LINE
  5
828A
  8
1
 10
4702.7912180731901
 20
1139.8378633103459
 30
0.0
 11
4704.9009434341051
 21
1137.72813794943
 31
0.0
  0
LINE
  5
828B
  8
1
 10
4704.9009434341051
 20
1137.72813794943
 30
0.0
 11
4700.7912180731892
 21
1137.72813794943
 31
0.0
  0
LINE
  5
828C
  8
1
 10
4702.7912180731901
 20
1139.8378633103459
 30
0.0
 11
4700.7912180731892
 21
1139.8378633103459
 31
0.0
  0
ARC
  5
828D
  8
1
 10
4692.7912180731892
 20
1185.1583713860341
 30
0.0
 40
8.0
 50
0.000000000000007
 51
180.0
  0
LINE
  5
828E
  8
1
 10
3290.2912180731892
 20
1107.1583713860359
 30
0.0
 11
3284.9009434341042
 21
1137.72813794943
 31
0.0
  0
LINE
  5
828F
  8
1
 10
3280.7912180731892
 20
1185.1583713860341
 30
0.0
 11
3280.7912180731892
 21
1121.500773562859
 31
0.0
  0
LINE
  5
8290
  8
1
 10
3264.7912180731869
 20
1185.1583713860341
 30
0.0
 11
3264.7912180731869
 21
1121.500773562859
 31
0.0
  0
LINE
  5
8291
  8
1
 10
3255.2912180731851
 20
1107.1583713860359
 30
0.0
 11
3260.6814927122718
 21
1137.72813794943
 31
0.0
  0
ARC
  5
8292
  8
1
 10
3272.7912180731869
 20
1121.500773562859
 30
0.0
 40
8.0
 50
180.0
 51
0.000000000000007
  0
LINE
  5
8293
  8
1
 10
3255.2912180731869
 20
1107.1583713860341
 30
0.0
 11
3290.2912180731892
 21
1107.1583713860359
 31
0.0
  0
ARC
  5
8294
  8
1
 10
3272.7912180731869
 20
1185.1583713860341
 30
0.0
 40
8.0
 50
0.000000000000007
 51
180.0
  0
LINE
  5
8295
  8
1
 10
3280.7912180731892
 20
1139.8378633103459
 30
0.0
 11
3282.7912180731869
 21
1139.8378633103459
 31
0.0
  0
LINE
  5
8296
  8
1
 10
3280.7912180731892
 20
1137.72813794943
 30
0.0
 11
3284.9009434341042
 21
1137.72813794943
 31
0.0
  0
LINE
  5
8297
  8
1
 10
3282.7912180731869
 20
1139.8378633103459
 30
0.0
 11
3284.9009434341042
 21
1137.72813794943
 31
0.0
  0
LINE
  5
8298
  8
1
 10
3262.7912180731892
 20
1139.8378633103459
 30
0.0
 11
3264.7912180731869
 21
1139.8378633103459
 31
0.0
  0
LINE
  5
8299
  8
1
 10
3260.6814927122718
 20
1137.72813794943
 30
0.0
 11
3264.7912180731869
 21
1137.72813794943
 31
0.0
  0
LINE
  5
829A
  8
1
 10
3262.7912180731892
 20
1139.8378633103459
 30
0.0
 11
3260.6814927122718
 21
1137.72813794943
 31
0.0
  0
LINE
  5
829B
  8
1
 10
-3031.776200489468
 20
1102.1583713860341
 30
0.0
 11
-3031.776200489468
 21
-602.84162861396453
 31
0.0
  0
LINE
  5
829C
  8
1
 10
-1481.776200489468
 20
1102.1583713860341
 30
0.0
 11
-1481.776200489468
 21
-602.84162861396453
 31
0.0
  0
LINE
  5
829D
  8
1
 10
3207.7912180731892
 20
1102.1583713860341
 30
0.0
 11
3207.7912180731892
 21
-602.84162861396453
 31
0.0
  0
LINE
  5
829E
  8
1
 10
4757.7912180731892
 20
1102.158371386035
 30
0.0
 11
4757.7912180731892
 21
-602.84162861396453
 31
0.0
  0
LINE
  5
829F
  8
1
 10
-3016.776200489468
 20
1102.1583713860341
 30
0.0
 11
-3031.776200489468
 21
1102.1583713860341
 31
0.0
  0
LINE
  5
82A0
  8
1
 10
-3016.7762004894662
 20
-602.84162861396453
 30
0.0
 11
-3031.776200489468
 21
-602.84162861396453
 31
0.0
  0
LINE
  5
82A1
  8
1
 10
-1496.776200489468
 20
1102.1583713860341
 30
0.0
 11
-1481.776200489468
 21
1102.1583713860341
 31
0.0
  0
LINE
  5
82A2
  8
1
 10
-1496.776200489468
 20
-602.84162861396453
 30
0.0
 11
-1481.776200489468
 21
-602.84162861396453
 31
0.0
  0
LINE
  5
82A3
  8
1
 10
3222.7912180731892
 20
1102.1583713860341
 30
0.0
 11
3207.7912180731892
 21
1102.1583713860341
 31
0.0
  0
LINE
  5
82A4
  8
1
 10
3222.7912180731892
 20
-602.84162861396453
 30
0.0
 11
3207.7912180731892
 21
-602.84162861396453
 31
0.0
  0
LINE
  5
82A5
  8
1
 10
4742.7912180731892
 20
-602.84162861396453
 30
0.0
 11
4757.7912180731892
 21
-602.84162861396453
 31
0.0
  0
LINE
  5
82A6
  8
4
 10
5303.3185796854659
 20
-2731.5296037572621
 30
0.0
 11
5303.3185796854659
 21
-3731.5296037572621
 31
0.0
  0
LINE
  5
82A7
  8
4
 10
1803.318579685465
 20
-2731.5296037572621
 30
0.0
 11
1803.318579685465
 21
-3731.5296037572621
 31
0.0
  0
LINE
  5
82A8
  8
4
 10
-696.68142031453294
 20
-2731.5296037572621
 30
0.0
 11
-696.68142031453294
 21
-3731.5296037572621
 31
0.0
  0
LINE
  5
82AB
  8
4
 10
-696.68142031453294
 20
-3731.5296037572621
 30
0.0
 11
5303.3185796854659
 21
-3731.5296037572621
 31
0.0
  0
LINE
  5
82AC
  8
4
 10
-696.68142031453294
 20
-3231.5296037572621
 30
0.0
 11
5303.3185796854659
 21
-3231.5296037572621
 31
0.0
  0
TEXT
  5
82AD
  8
4
 10
-504.17101608002469
 20
-3073.8144744241981
 30
0.0
 40
250.0
  1
機器名称
  0
TEXT
  5
82AE
  8
4
 10
-515.39089019054518
 20
-3623.3038200972078
 30
0.0
 40
250.0
  1
機器型番
  0
TEXT
  5
82AF
  8
4
 10
1941.7123071237911
 20
-3118.6707589694201
 30
0.0
 40
250.0
  1
ミツヤファンユニット
  0
TEXT
  5
82B0
  8
4
 10
1986.591057612869
 20
-3645.7316823575461
 30
0.0
 40
250.0
  1
MFU#5004-4
  0
TEXT
  5
82B2
  8
4
 10
577.24740701548558
 20
6685.6146029053161
 30
0.0
 40
270.0
  1
床置ベット
  0
TEXT
  5
82B3
  8
4
 10
-2574.195884536472
 20
7437.8752772392281
 30
0.0
 40
360.0
  1
ベルト駆動式消音ボックス付多翼ファン
  0
LINE
  5
82B4
  8
4
 10
-2696.6814203145332
 20
7115.5141675667619
 30
0.0
 11
5303.3185796854659
 21
7115.5141675667619
 31
0.0
  0
LINE
  5
82B5
  8
4
 10
-2696.6814203145332
 20
8115.5141675667628
 30
0.0
 11
5303.3185796854659
 21
8115.5141675667628
 31
0.0
  0
LINE
  5
82B6
  8
4
 10
-696.68142031453294
 20
-2731.5296037572621
 30
0.0
 11
5303.3185796854659
 21
-2731.5296037572621
 31
0.0
  0
LINE
  5
82B7
  8
4
 10
-2696.6814203145332
 20
8115.5141675667628
 30
0.0
 11
-2696.6814203145332
 21
7115.5141675667619
 31
0.0
  0
TEXT
  5
82B8
  8
4
 10
-1602.0467541980249
 20
6680.0677839744567
 30
0.0
 40
270.0
  1
右回転左横向
  0
TEXT
  5
82B9
  8
4
 10
3398.1663759319158
 20
8298.7758037192816
 30
0.0
 40
280.0
  1
No.
  0
TEXT
  5
82BA
  8
4
 10
2609.7988926855319
 20
6685.6146029053161
 30
0.0
 40
270.0
  1
縮尺：1/50
  0
LINE
  5
82BB
  8
4
 10
5303.3185796854659
 20
8115.5141675667628
 30
0.0
 11
5303.3185796854659
 21
7115.5141675667619
 31
0.0
  0
LINE
  5
82BC
  8
4
 10
6553.3185796854659
 20
9518.4703962427375
 30
0.0
 11
6553.3185796854659
 21
9518.4703962427375
 31
0.0
  0
LINE
  5
82BD
  8
4
 10
3256.4056914847879
 20
8174.7883118697446
 30
0.0
 11
3256.4056914847879
 21
8701.7317039914997
 31
0.0
  0
LINE
  5
82BE
  8
4
 10
3256.4056914847879
 20
8701.7317039914997
 30
0.0
 11
5303.3185796854659
 21
8701.7317039914997
 31
0.0
  0
LINE
  5
82BF
  8
4
 10
5303.3185796854659
 20
8701.7317039914997
 30
0.0
 11
5303.3185796854659
 21
8174.7883118697446
 31
0.0
  0
LINE
  5
82C0
  8
4
 10
5303.3185796854659
 20
8174.7883118697446
 30
0.0
 11
3256.4056914847879
 21
8174.7883118697446
 31
0.0
  0
LINE
  5
82C1
  8
4
 10
-3946.6814203145332
 20
-5231.5296037572616
 30
0.0
 11
-3946.6814203145332
 21
9518.4703962427375
 31
0.0
  0
LINE
  5
82C2
  8
4
 10
-3946.6814203145332
 20
9518.4703962427375
 30
0.0
 11
6553.3185796854659
 21
9518.4703962427375
 31
0.0
  0
LINE
  5
82C3
  8
4
 10
6553.3185796854659
 20
9518.4703962427375
 30
0.0
 11
6553.3185796854659
 21
-5231.5296037572616
 31
0.0
  0
LINE
  5
82C4
  8
4
 10
6553.3185796854659
 20
-5231.5296037572616
 30
0.0
 11
-3946.6814203145332
 21
-5231.5296037572616
 31
0.0
  0
DIMENSION
  5
82C6
  8
3
  2
*D2
 10
2966.2772890999622
 20
3119.5234164060821
 30
0.0
 11
2841.2772890999609
 21
3879.523416406083
 31
0.0
 70
     0
 13
2171.5712586845329
 23
4639.5234164060821
 33
0.0
 14
2171.5712586845329
 24
3119.5234164060821
 34
0.0
 50
90.0
1001
ACAD
1000
DSTYLE
1002
{
1070
   287
1070
     3
1070
   287
1070
     3
1070
   287
1070
     3
1070
    40
1040
50.0
1070
   143
1040
0.039
1070
   172
1070
     1
1070
   173
1070
     0
1070
   271
1070
     4
1070
   272
1070
     4
1070
   279
1070
     0
1070
   284
1070
     0
1070
   285
1070
     0
1070
   286
1070
     0
1070
   341
1005
833E
1070
     5
1000
OPEN
1002
}
  0
DIMENSION
  5
831B
  8
3
  2
*D5
 10
2171.5712586845329
 20
5419.8220586490488
 30
0.0
 11
1111.5712586845329
 21
5544.8220586490488
 31
0.0
 70
     0
 13
51.571258684533873
 23
4639.5234164060821
 33
0.0
 14
2171.5712586845329
 24
4639.5234164060821
 34
0.0
1001
ACAD
1000
DSTYLE
1002
{
1070
   287
1070
     3
1070
   287
1070
     3
1070
   287
1070
     3
1070
    40
1040
50.0
1070
   143
1040
0.039
1070
   172
1070
     1
1070
   173
1070
     0
1070
   271
1070
     4
1070
   272
1070
     4
1070
   279
1070
     0
1070
   284
1070
     0
1070
   285
1070
     0
1070
   286
1070
     0
1070
   341
1005
833E
1070
     5
1000
OPEN
1002
}
  0
DIMENSION
  5
8331
  8
3
  2
*D6
 10
4127.7912180731892
 20
1683.8647666646791
 30
0.0
 11
3675.2912180731892
 21
1808.8647666646791
 31
0.0
 70
     0
 13
3222.7912180731892
 23
1107.1583713860341
 33
0.0
 14
4127.7912180731892
 24
1426.6233438220829
 34
0.0
1001
ACAD
1000
DSTYLE
1002
{
1070
   287
1070
     3
1070
   287
1070
     3
1070
   287
1070
     3
1070
    40
1040
50.0
1070
   143
1040
0.039
1070
   172
1070
     1
1070
   173
1070
     0
1070
   271
1070
     4
1070
   272
1070
     4
1070
   279
1070
     0
1070
   284
1070
     0
1070
   285
1070
     0
1070
   286
1070
     0
1070
   341
1005
833E
1070
     5
1000
OPEN
1002
}
  0
LINE
  5
835F
  8
1
 10
4742.7912180731892
 20
1102.1583713860341
 30
0.0
 11
4757.7912180731892
 21
1102.158371386035
 31
0.0
  0
DIMENSION
  5
8360
  8
3
  2
*D8
 10
4742.7912180731892
 20
1683.8647666646791
 30
0.0
 11
4435.2912180731892
 21
1808.8647666646791
 31
0.0
 70
     0
 13
4127.7912180731892
 23
1426.6233438220829
 33
0.0
 14
4742.7912180731892
 24
1107.1583713860341
 34
0.0
1001
ACAD
1000
DSTYLE
1002
{
1070
   287
1070
     4
1070
   287
1070
     4
1070
   287
1070
     4
1070
    40
1040
50.0
1070
   143
1040
0.039
1070
   172
1070
     1
1070
   173
1070
     0
1070
   271
1070
     4
1070
   272
1070
     4
1070
   279
1070
     1
1070
   284
1070
     0
1070
   285
1070
     0
1070
   286
1070
     0
1070
   341
1005
833E
1070
     5
1000
OPEN
1002
}
  0
DIMENSION
  5
836D
  8
3
  2
*D9
 10
4742.7912180731892
 20
-1480.9648606121409
 30
0.0
 11
3982.7912180731892
 21
-1355.9648606121409
 31
0.0
 70
     0
 13
3222.7912180731892
 23
-707.84162861396442
 33
0.0
 14
4742.7912180731892
 24
-707.84162861396442
 34
0.0
1001
ACAD
1000
DSTYLE
1002
{
1070
   287
1070
     3
1070
   287
1070
     3
1070
   287
1070
     3
1070
    40
1040
50.0
1070
   143
1040
0.039
1070
   172
1070
     1
1070
   173
1070
     0
1070
   271
1070
     4
1070
   272
1070
     4
1070
   279
1070
     0
1070
   284
1070
     0
1070
   285
1070
     0
1070
   286
1070
     0
1070
   341
1005
833E
1070
     5
1000
OPEN
1002
}
  0
DIMENSION
  5
837A
  8
3
  2
*D10
 10
5293.8964973631664
 20
-505.84162861396487
 30
0.0
 11
5168.8964973631664
 21
12.158371386036089
 31
0.0
 70
     0
 13
4505.7912180731892
 23
530.15837138603536
 33
0.0
 14
4505.7912180731892
 24
-505.84162861396459
 34
0.0
 50
90.0
1001
ACAD
1000
DSTYLE
1002
{
1070
   287
1070
     3
1070
   287
1070
     3
1070
   287
1070
     3
1070
    40
1040
50.0
1070
   143
1040
0.039
1070
   172
1070
     1
1070
   173
1070
     0
1070
   271
1070
     4
1070
   272
1070
     4
1070
   279
1070
     0
1070
   284
1070
     0
1070
   285
1070
     0
1070
   286
1070
     0
1070
   341
1005
833E
1070
     5
1000
OPEN
1002
}
  0
DIMENSION
  5
8387
  8
3
  2
*D11
 10
3749.7912180731892
 20
748.78398943477805
 30
0.0
 11
4127.7912180731892
 21
873.78398943477805
 31
0.0
 70
     0
 13
4505.7912180731892
 23
530.15837138603536
 33
0.0
 14
3749.7912180731892
 24
530.15837138603536
 34
0.0
1001
ACAD
1000
DSTYLE
1002
{
1070
   287
1070
     3
1070
   287
1070
     3
1070
   287
1070
     3
1070
    40
1040
50.0
1070
   143
1040
0.039
1070
   172
1070
     1
1070
   173
1070
     0
1070
   271
1070
     4
1070
   272
1070
     4
1070
   279
1070
     0
1070
   284
1070
     0
1070
   285
1070
     0
1070
   286
1070
     0
1070
   341
1005
833E
1070
     5
1000
OPEN
1002
}
  0
LINE
  5
8395
  8
2
 10
4127.7912180731892
 20
714.26203620449814
 30
0.0
 11
4127.7912180731892
 21
-1079.3814471557989
 31
0.0
  0
DIMENSION
  5
8396
  8
3
  2
*D12
 10
131.5712586845338
 20
1684.945703915502
 30
0.0
 11
1111.5712586845329
 21
1809.945703915502
 31
0.0
 70
     0
 13
2091.571258684532
 23
1107.1583713860341
 33
0.0
 14
131.5712586845338
 24
1107.1583713860341
 34
0.0
1001
ACAD
1000
DSTYLE
1002
{
1070
   287
1070
     3
1070
   287
1070
     3
1070
   287
1070
     3
1070
    40
1040
50.0
1070
   143
1040
0.039
1070
   172
1070
     1
1070
   173
1070
     0
1070
   271
1070
     4
1070
   272
1070
     4
1070
   279
1070
     0
1070
   284
1070
     0
1070
   285
1070
     0
1070
   286
1070
     0
1070
   341
1005
833E
1070
     5
1000
OPEN
1002
}
  0
DIMENSION
  5
83E2
  8
3
  2
*D13
 10
2171.5712586845329
 20
-1542.8837805353389
 30
0.0
 11
1111.5712586845329
 21
-1417.8837805353389
 31
0.0
 70
     0
 13
51.571258684534762
 23
-707.84162861396453
 33
0.0
 14
2171.5712586845329
 24
-707.84162861396453
 34
0.0
1001
ACAD
1000
DSTYLE
1002
{
1070
   287
1070
     3
1070
   287
1070
     3
1070
   287
1070
     3
1070
    40
1040
50.0
1070
   143
1040
0.039
1070
   172
1070
     1
1070
   173
1070
     0
1070
   271
1070
     4
1070
   272
1070
     4
1070
   279
1070
     0
1070
   284
1070
     0
1070
   285
1070
     0
1070
   286
1070
     0
1070
   341
1005
833E
1070
     5
1000
OPEN
1002
}
  0
DIMENSION
  5
83EF
  8
3
  2
*D14
 10
2815.4882303758491
 20
12.1583713860353
 30
0.0
 11
2690.4882303758491
 21
-347.84162861396419
 31
0.0
 70
     0
 13
2171.5712586845329
 23
-707.84162861396453
 33
0.0
 14
2227.538165906195
 24
12.15837138603546
 34
0.0
 50
90.0
1001
ACAD
1000
DSTYLE
1002
{
1070
   287
1070
     3
1070
   287
1070
     3
1070
   287
1070
     3
1070
    40
1040
50.0
1070
   143
1040
0.039
1070
   172
1070
     1
1070
   173
1070
     0
1070
   271
1070
     4
1070
   272
1070
     4
1070
   279
1070
     0
1070
   284
1070
     0
1070
   285
1070
     0
1070
   286
1070
     0
1070
   341
1005
833E
1070
     5
1000
OPEN
1002
}
  0
DIMENSION
  5
83FC
  8
3
  2
*D15
 10
-205.80617579081439
 20
12.15837138603551
 30
0.0
 11
-330.80617579081439
 21
-347.84162861396447
 31
0.0
 70
     0
 13
51.571258684534762
 23
-707.84162861396453
 33
0.0
 14
-46.34081480227178
 24
12.15837138603546
 34
0.0
 50
90.0
1001
ACAD
1000
DSTYLE
1002
{
1070
   287
1070
     3
1070
   287
1070
     3
1070
   287
1070
     3
1070
    40
1040
50.0
1070
   143
1040
0.039
1070
   172
1070
     1
1070
   173
1070
     0
1070
   271
1070
     4
1070
   272
1070
     4
1070
   279
1070
     0
1070
   284
1070
     0
1070
   285
1070
     0
1070
   286
1070
     0
1070
   341
1005
833E
1070
     5
1000
OPEN
1002
}
  0
DIMENSION
  5
8409
  8
3
  2
*D16
 10
-577.98246839888429
 20
1107.158371386035
 30
0.0
 11
-702.98246839888463
 21
199.6583713860351
 31
0.0
 70
     0
 13
51.571258684534762
 23
-707.84162861396453
 33
0.0
 14
131.57125868453289
 24
1107.1583713860341
 34
0.0
 50
90.0
1001
ACAD
1000
DSTYLE
1002
{
1070
   287
1070
     3
1070
   287
1070
     3
1070
   287
1070
     3
1070
    40
1040
50.0
1070
   143
1040
0.039
1070
   172
1070
     1
1070
   173
1070
     0
1070
   271
1070
     4
1070
   272
1070
     4
1070
   279
1070
     0
1070
   284
1070
     0
1070
   285
1070
     0
1070
   286
1070
     0
1070
   341
1005
833E
1070
     5
1000
OPEN
1002
}
  0
DIMENSION
  5
8416
  8
3
  2
*D17
 10
-3016.776200489468
 20
-1516.791371703606
 30
0.0
 11
-2256.776200489468
 21
-1391.791371703606
 31
0.0
 70
     0
 13
-1496.776200489468
 23
-707.84162861396453
 33
0.0
 14
-3016.776200489468
 24
-707.84162861396453
 34
0.0
1001
ACAD
1000
DSTYLE
1002
{
1070
   287
1070
     3
1070
   287
1070
     3
1070
   287
1070
     3
1070
    40
1040
50.0
1070
   143
1040
0.039
1070
   172
1070
     1
1070
   173
1070
     0
1070
   271
1070
     4
1070
   272
1070
     4
1070
   279
1070
     0
1070
   284
1070
     0
1070
   285
1070
     0
1070
   286
1070
     0
1070
   341
1005
833E
1070
     5
1000
OPEN
1002
}
  0
DIMENSION
  5
8423
  8
3
  2
*D18
 10
-1496.776200489468
 20
1665.2868377935149
 30
0.0
 11
-1804.276200489468
 21
1790.2868377935149
 31
0.0
 70
     0
 13
-2111.776200489468
 23
1426.6233438220829
 33
0.0
 14
-1496.776200489468
 24
1107.1583713860341
 34
0.0
1001
ACAD
1000
DSTYLE
1002
{
1070
   287
1070
     3
1070
   287
1070
     3
1070
   287
1070
     3
1070
    40
1040
50.0
1070
   143
1040
0.039
1070
   172
1070
     1
1070
   173
1070
     0
1070
   271
1070
     4
1070
   272
1070
     4
1070
   279
1070
     0
1070
   284
1070
     0
1070
   285
1070
     0
1070
   286
1070
     0
1070
   341
1005
833E
1070
     5
1000
OPEN
1002
}
  0
DIMENSION
  5
8430
  8
3
  2
*D19
 10
-3016.776200489468
 20
1665.2868377935149
 30
0.0
 11
-2564.276200489468
 21
1790.2868377935149
 31
0.0
 70
     0
 13
-2111.776200489468
 23
1426.6233438220829
 33
0.0
 14
-3016.776200489468
 24
1107.1583713860341
 34
0.0
1001
ACAD
1000
DSTYLE
1002
{
1070
   287
1070
     4
1070
   287
1070
     4
1070
   287
1070
     4
1070
    40
1040
50.0
1070
   143
1040
0.039
1070
   172
1070
     1
1070
   173
1070
     0
1070
   271
1070
     4
1070
   272
1070
     4
1070
   279
1070
     1
1070
   284
1070
     0
1070
   285
1070
     0
1070
   286
1070
     0
1070
   341
1005
833E
1070
     5
1000
OPEN
1002
}
  0
DIMENSION
  5
843D
  8
3
  2
*D20
 10
-1733.776200489468
 20
746.42342217999976
 30
0.0
 11
-2111.776200489468
 21
871.42342217999976
 31
0.0
 70
     0
 13
-2489.776200489468
 23
530.15837138603536
 33
0.0
 14
-1733.776200489468
 24
530.15837138603536
 34
0.0
1001
ACAD
1000
DSTYLE
1002
{
1070
   287
1070
     3
1070
   287
1070
     3
1070
   287
1070
     3
1070
    40
1040
50.0
1070
   143
1040
0.039
1070
   172
1070
     1
1070
   173
1070
     0
1070
   271
1070
     4
1070
   272
1070
     4
1070
   279
1070
     0
1070
   284
1070
     0
1070
   285
1070
     0
1070
   286
1070
     0
1070
   341
1005
833E
1070
     5
1000
OPEN
1002
}
  0
LINE
  5
844B
  8
2
 10
-2111.776200489468
 20
717.23794257357065
 30
0.0
 11
-2111.776200489468
 21
-1079.3814471557989
 31
0.0
  0
DIMENSION
  5
844C
  8
3
  2
*D21
 10
-1123.2534693189659
 20
-505.8416286139647
 30
0.0
 11
-1248.2534693189659
 21
12.158371386035149
 31
0.0
 70
     0
 13
-1733.776200489468
 23
530.15837138603536
 33
0.0
 14
-1733.776200489468
 24
-505.84162861396447
 34
0.0
 50
90.0
1001
ACAD
1000
DSTYLE
1002
{
1070
   287
1070
     3
1070
   287
1070
     3
1070
   287
1070
     3
1070
    40
1040
50.0
1070
   143
1040
0.039
1070
   172
1070
     1
1070
   173
1070
     0
1070
   271
1070
     4
1070
   272
1070
     4
1070
   279
1070
     0
1070
   284
1070
     0
1070
   285
1070
     0
1070
   286
1070
     0
1070
   341
1005
833E
1070
     5
1000
OPEN
1002
}
  0
ENDSEC
  0
EOF
