  0
SECTION
  2
HEADER
  9
$ACADVER
  1
AC1009
  9
$INSBASE
 10
0.0
 20
0.0
 30
0.0
  9
$EXTMIN
 10
-3946.6814203145332
 20
-5231.5296037572616
 30
0.0
  9
$EXTMAX
 10
6553.3185796854659
 20
9518.4703962427375
 30
0.0
  9
$LIMMIN
 10
0.0
 20
0.0
  9
$LIMMAX
 10
297.0
 20
210.0
  9
$ORTHOMODE
 70
     0
  9
$REGENMODE
 70
     1
  9
$FILLMODE
 70
     0
  9
$QTEXTMODE
 70
     0
  9
$MIRRTEXT
 70
     1
  9
$DRAGMODE
 70
     2
  9
$LTSCALE
 40
100.0
  9
$OSMODE
 70
    37
  9
$ATTMODE
 70
     1
  9
$TEXTSIZE
 40
180.0
  9
$TRACEWID
 40
0.05
  9
$TEXTSTYLE
  7
STANDARD
  9
$CLAYER
  8
3
  9
$CELTYPE
  6
BYLAYER
  9
$CECOLOR
 62
   256
  9
$DIMSCALE
 40
50.0
  9
$DIMASZ
 40
2.0
  9
$DIMEXO
 40
0.5
  9
$DIMDLI
 40
10.0
  9
$DIMRND
 40
0.0
  9
$DIMDLE
 40
0.0
  9
$DIMEXE
 40
1.0
  9
$DIMTP
 40
1.0
  9
$DIMTM
 40
1.0
  9
$DIMTXT
 40
3.0
  9
$DIMCEN
 40
0.0
  9
$DIMTSZ
 40
0.0
  9
$DIMTOL
 70
     0
  9
$DIMLIM
 70
     0
  9
$DIMTIH
 70
     0
  9
$DIMTOH
 70
     0
  9
$DIMSE1
 70
     0
  9
$DIMSE2
 70
     0
  9
$DIMTAD
 70
     1
  9
$DIMZIN
 70
     8
  9
$DIMBLK
  1
OPEN
  9
$DIMASO
 70
     1
  9
$DIMSHO
 70
     1
  9
$DIMPOST
  1

  9
$DIMAPOST
  1

  9
$DIMALT
 70
     0
  9
$DIMALTD
 70
     2
  9
$DIMALTF
 40
0.039
  9
$DIMLFAC
 40
1.0
  9
$DIMTOFL
 70
     1
  9
$DIMTVP
 40
0.0
  9
$DIMTIX
 70
     0
  9
$DIMSOXD
 70
     0
  9
$DIMSAH
 70
     0
  9
$DIMBLK1
  1

  9
$DIMBLK2
  1

  9
$DIMSTYLE
  2
IGA
  9
$DIMCLRD
 70
     0
  9
$DIMCLRE
 70
     0
  9
$DIMCLRT
 70
     0
  9
$DIMTFAC
 40
10.0
  9
$DIMGAP
 40
1.0
  9
$LUNITS
 70
     2
  9
$LUPREC
 70
     3
  9
$SKETCHINC
 40
0.1
  9
$FILLETRAD
 40
50.0
  9
$AUNITS
 70
     0
  9
$AUPREC
 70
     0
  9
$MENU
  1
acad
  9
$ELEVATION
 40
0.0
  9
$PELEVATION
 40
0.0
  9
$THICKNESS
 40
0.0
  9
$LIMCHECK
 70
     0
  9
$BLIPMODE
 70
     0
  9
$CHAMFERA
 40
0.5
  9
$CHAMFERB
 40
0.5
  9
$SKPOLY
 70
     0
  9
$TDCREATE
 40
2453304.4208819792
  9
$TDUPDATE
 40
2454953.8563316781
  9
$TDINDWG
 40
0.0646603472
  9
$TDUSRTIMER
 40
0.0646598032
  9
$USRTIMER
 70
     1
  9
$ANGBASE
 50
0.0
  9
$ANGDIR
 70
     0
  9
$PDMODE
 70
     0
  9
$PDSIZE
 40
0.0
  9
$PLINEWID
 40
0.0
  9
$COORDS
 70
     1
  9
$SPLFRAME
 70
     0
  9
$SPLINETYPE
 70
     6
  9
$SPLINESEGS
 70
     8
  9
$ATTDIA
 70
     0
  9
$ATTREQ
 70
     1
  9
$HANDLING
 70
 10241
  9
$HANDSEED
  5
8894
  9
$SURFTAB1
 70
     6
  9
$SURFTAB2
 70
     6
  9
$SURFTYPE
 70
     6
  9
$SURFU
 70
     6
  9
$SURFV
 70
     6
  9
$UCSNAME
  2

  9
$UCSORG
 10
0.0
 20
0.0
 30
0.0
  9
$UCSXDIR
 10
1.0
 20
0.0
 30
0.0
  9
$UCSYDIR
 10
0.0
 20
1.0
 30
0.0
  9
$PUCSNAME
  2

  9
$PUCSORG
 10
0.0
 20
0.0
 30
0.0
  9
$PUCSXDIR
 10
1.0
 20
0.0
 30
0.0
  9
$PUCSYDIR
 10
0.0
 20
1.0
 30
0.0
  9
$USERI1
 70
     0
  9
$USERI2
 70
     0
  9
$USERI3
 70
     0
  9
$USERI4
 70
     0
  9
$USERI5
 70
     0
  9
$USERR1
 40
0.0
  9
$USERR2
 40
0.0
  9
$USERR3
 40
0.0
  9
$USERR4
 40
0.0
  9
$USERR5
 40
0.0
  9
$WORLDVIEW
 70
     1
  9
$SHADEDGE
 70
     3
  9
$SHADEDIF
 70
    70
  9
$TILEMODE
 70
     1
  9
$MAXACTVP
 70
    16
  9
$PLIMCHECK
 70
     0
  9
$PEXTMIN
 10
1.0000000000000000E+020
 20
1.0000000000000000E+020
 30
1.0000000000000000E+020
  9
$PEXTMAX
 10
-1.0000000000000000E+020
 20
-1.0000000000000000E+020
 30
-1.0000000000000000E+020
  9
$PLIMMIN
 10
0.0
 20
0.0
  9
$PLIMMAX
 10
12.0
 20
9.0
  9
$UNITMODE
 70
     0
  9
$VISRETAIN
 70
     0
  9
$PLINEGEN
 70
     0
  9
$PSLTSCALE
 70
     1
  0
ENDSEC
  0
SECTION
  2
TABLES
  0
TABLE
  2
VPORT
 70
     2
  0
VPORT
  2
*ACTIVE
 70
     0
 10
0.0
 20
0.0
 11
1.0
 21
1.0
 12
9387.3185796854614
 22
3627.5935908051829
 13
0.0
 23
0.0
 14
10.0
 24
10.0
 15
10.0
 25
10.0
 16
0.0
 26
0.0
 36
1.0
 17
0.0
 27
0.0
 37
0.0
 40
17718.246389124881
 41
1.5051150895140659
 42
50.0
 43
0.0
 44
0.0
 50
0.0
 51
0.0
 71
     0
 72
   100
 73
     1
 74
     0
 75
     0
 76
     0
 77
     0
 78
     0
  0
ENDTAB
  0
TABLE
  2
LTYPE
 70
     2
  0
LTYPE
  2
CONTINUOUS
 70
     0
  3
Solid line
 72
    65
 73
     0
 40
0.0
  0
LTYPE
  2
CENTER
 70
     0
  3
____ _ ____ _ ____ _ ____ _ ____ _ ____ _ ____ 
 72
    65
 73
     4
 40
2.0
 49
1.25
 49
-0.25
 49
0.25
 49
-0.25
  0
ENDTAB
  0
TABLE
  2
LAYER
 70
     6
  0
LAYER
  2
0
 70
     0
 62
     7
  6
CONTINUOUS
  0
LAYER
  2
1
 70
     0
 62
     4
  6
CONTINUOUS
  0
LAYER
  2
2
 70
     0
 62
     3
  6
CENTER
  0
LAYER
  2
4
 70
     0
 62
     7
  6
CONTINUOUS
  0
LAYER
  2
DEFPOINTS
 70
     0
 62
     7
  6
CONTINUOUS
  0
LAYER
  2
3
 70
     0
 62
     2
  6
CONTINUOUS
  0
ENDTAB
  0
TABLE
  2
STYLE
 70
     1
  0
STYLE
  2
STANDARD
 70
     0
 40
0.0
 41
1.0
 50
0.0
 71
     0
 42
180.0
  3
simplex.shx
  4
extfont.shx
  0
ENDTAB
  0
TABLE
  2
VIEW
 70
     0
  0
ENDTAB
  0
TABLE
  2
UCS
 70
     0
  0
ENDTAB
  0
TABLE
  2
APPID
 70
     1
  0
APPID
  2
ACAD
 70
     0
  0
ENDTAB
  0
TABLE
  2
DIMSTYLE
 70
     2
  0
DIMSTYLE
  2
IGA
 70
     0
  3

  4

  5

  6

  7

 40
2.0
 41
2.0
 42
0.5
 43
10.0
 44
1.0
 45
0.0
 46
0.0
 47
1.0
 48
1.0
140
3.0
141
0.0
142
0.0
143
0.03937
144
1.0
145
0.0
146
10.0
147
1.0
 71
     0
 72
     0
 73
     0
 74
     0
 75
     0
 76
     0
 77
     1
 78
     8
170
     0
171
     2
172
     0
173
     1
174
     0
175
     0
176
     0
177
     0
178
     0
  0
DIMSTYLE
  2
STANDARD
 70
     0
  3

  4

  5

  6

  7

 40
1.0
 41
0.18
 42
0.0625
 43
0.38
 44
0.18
 45
0.0
 46
0.0
 47
0.0
 48
0.0
140
0.18
141
0.09
142
0.0
143
25.399999999999999
144
1.0
145
0.0
146
1.0
147
0.09
 71
     0
 72
     0
 73
     1
 74
     1
 75
     0
 76
     0
 77
     0
 78
     0
170
     0
171
     2
172
     0
173
     0
174
     0
175
     0
176
     0
177
     0
178
     0
  0
ENDTAB
  0
ENDSEC
  0
SECTION
  2
BLOCKS
  0
BLOCK
  8
0
  2
$MODEL_SPACE
 70
     0
 10
0.0
 20
0.0
 30
0.0
  3
$MODEL_SPACE
  1

  0
ENDBLK
  5
8157
  8
0
  0
BLOCK
 67
     1
  8
0
  2
$PAPER_SPACE
 70
     0
 10
0.0
 20
0.0
 30
0.0
  3
$PAPER_SPACE
  1

  0
ENDBLK
  5
8153
 67
     1
  8
0
  0
BLOCK
  8
0
  2
*D2
 70
     1
 10
0.0
 20
0.0
 30
0.0
  3
*D2
  1

  0
LINE
  5
87EA
  8
3
 62
     0
 10
-171.92464577278579
 20
4639.5234164060821
 30
0.0
 11
-991.63067618821481
 21
4639.5234164060821
 31
0.0
  0
LINE
  5
87EB
  8
3
 62
     0
 10
-171.92464577278579
 20
3119.5234164060821
 30
0.0
 11
-991.63067618821515
 21
3119.5234164060821
 31
0.0
  0
LINE
  5
87EC
  8
3
 62
     0
 10
-941.63067618821481
 20
4539.5234164060821
 30
0.0
 11
-941.63067618821515
 21
3219.5234164060821
 31
0.0
  0
INSERT
  5
87ED
  8
3
 62
     0
  2
_OPEN
 10
-941.63067618821481
 20
4639.5234164060821
 30
0.0
 41
100.0
 42
100.0
 43
100.0
 50
90.0
  0
INSERT
  5
87EE
  8
3
 62
     0
  2
_OPEN
 10
-941.63067618821515
 20
3119.5234164060821
 30
0.0
 41
100.0
 42
100.0
 43
100.0
 50
270.0
  0
TEXT
  8
3
  40
150
  5
8883
  62
0
  72
0
  71
0
 10
-1366.63
 20
3614.02
 30
0.000000
  1
1520
  0
POINT
  5
87F0
  8
DEFPOINTS
 62
     0
 10
-146.92464577278579
 20
4639.5234164060821
 30
0.0
  0
POINT
  5
87F1
  8
DEFPOINTS
 62
     0
 10
-146.92464577278579
 20
3119.5234164060821
 30
0.0
  0
POINT
  5
87F2
  8
DEFPOINTS
 62
     0
 10
-941.63067618821515
 20
3119.5234164060821
 30
0.0
  0
ENDBLK
  5
82D2
  8
0
  0
BLOCK
  8
0
  2
CATA_A4
 70
     0
 10
0.0
 20
0.0
 30
0.0
  3
CATA_A4
  1

  0
LINE
  5
82D4
  8
4
 10
185.0
 20
50.0
 30
0.0
 11
185.0
 21
20.0
 31
0.0
  0
LINE
  5
82D5
  8
4
 10
115.0
 20
50.0
 30
0.0
 11
115.0
 21
20.0
 31
0.0
  0
LINE
  5
82D6
  8
4
 10
65.0
 20
50.0
 30
0.0
 11
65.0
 21
20.0
 31
0.0
  0
TEXT
  5
82D7
  8
4
 10
68.850208084690166
 20
22.520422896343
 30
0.0
 40
5.0
  1
ファイル名
  0
LINE
  5
82D8
  8
4
 10
65.0
 20
20.0
 30
0.0
 11
185.0
 21
20.0
 31
0.0
  0
LINE
  5
82D9
  8
4
 10
65.0
 20
30.0
 30
0.0
 11
185.0
 21
30.0
 31
0.0
  0
LINE
  5
82DA
  8
4
 10
65.0
 20
40.0
 30
0.0
 11
185.0
 21
40.0
 31
0.0
  0
TEXT
  5
82DB
  8
4
 10
68.850208084690166
 20
43.154302586661281
 30
0.0
 40
5.0
  1
機器名称
  0
TEXT
  5
82DC
  8
4
 10
68.625810602479746
 20
32.164515673201088
 30
0.0
 40
5.0
  1
機器型番
  0
TEXT
  5
82DD
  8
4
 10
117.7678745487664
 20
42.257176895756849
 30
0.0
 40
5.0
  1
ミツヤ多翼送風機
  0
TEXT
  5
82DE
  8
4
 10
118.665449558548
 20
31.71595842799433
 30
0.0
 40
5.0
  1
MF#5-4
  0
TEXT
  5
82DF
  8
4
 10
118.2166545941308
 20
22.071854450645329
 30
0.0
 40
5.0
  1
MF504C10.dxf
  0
TEXT
  5
82E0
  8
4
 10
90.47857654660038
 20
238.34288413325149
 30
0.0
 40
5.3999999999999986
  1
床置ベット
  0
TEXT
  5
82E1
  8
4
 10
31.616759332944639
 20
253.38809761992979
 30
0.0
 40
7.2000000000000002
  1
遠心式片吸込片持多翼ファン
  0
LINE
  5
82E2
  8
4
 10
25.0
 20
246.9408754264804
 30
0.0
 11
185.0
 21
246.9408754264804
 31
0.0
  0
LINE
  5
82E3
  8
4
 10
25.0
 20
266.94087542648049
 30
0.0
 11
185.0
 21
266.94087542648049
 31
0.0
  0
LINE
  5
82E4
  8
4
 10
65.0
 20
50.0
 30
0.0
 11
185.0
 21
50.0
 31
0.0
  0
LINE
  5
82E5
  8
4
 10
25.0
 20
266.94087542648049
 30
0.0
 11
25.0
 21
246.9408754264804
 31
0.0
  0
TEXT
  5
82E6
  8
4
 10
46.89269332233016
 20
238.23194775463429
 30
0.0
 40
5.3999999999999986
  1
左回転上向
  0
TEXT
  5
82E7
  8
4
 10
146.8969559249289
 20
270.60610814953083
 30
0.0
 40
5.5999999999999996
  1
No.
  0
TEXT
  5
82E8
  8
4
 10
131.12960626000131
 20
238.34288413325149
 30
0.0
 40
5.3999999999999986
  1
縮尺：1/30
  0
LINE
  5
82E9
  8
4
 10
185.0
 20
266.94087542648049
 30
0.0
 11
185.0
 21
246.9408754264804
 31
0.0
  0
LINE
  5
82EA
  8
4
 10
210.0
 20
295.0
 30
0.0
 11
210.0
 21
295.0
 31
0.0
  0
LINE
  5
82EB
  8
4
 10
144.0617422359864
 20
268.12635831254011
 30
0.0
 11
144.0617422359864
 21
278.66522615497519
 31
0.0
  0
LINE
  5
82EC
  8
4
 10
144.0617422359864
 20
278.66522615497519
 30
0.0
 11
185.0
 21
278.66522615497519
 31
0.0
  0
LINE
  5
82ED
  8
4
 10
185.0
 20
278.66522615497519
 30
0.0
 11
185.0
 21
268.12635831254011
 31
0.0
  0
LINE
  5
82EE
  8
4
 10
185.0
 20
268.12635831254011
 30
0.0
 11
144.0617422359864
 21
268.12635831254011
 31
0.0
  0
LINE
  5
82EF
  8
4
 10
0.0
 20
0.0
 30
0.0
 11
0.0
 21
295.0
 31
0.0
  0
LINE
  5
82F0
  8
4
 10
0.0
 20
295.0
 30
0.0
 11
210.0
 21
295.0
 31
0.0
  0
LINE
  5
82F1
  8
4
 10
210.0
 20
295.0
 30
0.0
 11
210.0
 21
0.0
 31
0.0
  0
LINE
  5
82F2
  8
4
 10
210.0
 20
0.0
 30
0.0
 11
0.0
 21
0.0
 31
0.0
  0
ENDBLK
  5
82F4
  8
0
  0
BLOCK
  8
0
  2
CAD_DATA枠DWG
 70
     0
 10
0.0
 20
0.0
 30
0.0
  3
CAD_DATA枠DWG
  1

  0
INSERT
  5
82F7
  8
4
  2
CATA_A4
 10
0.0
 20
0.0
 30
0.0
  0
ENDBLK
  5
82F9
  8
0
  0
BLOCK
  8
0
  2
*D5
 70
     1
 10
0.0
 20
0.0
 30
0.0
  3
*D5
  1

  0
LINE
  5
87F3
  8
3
 62
     0
 10
1973.075354227213
 20
4664.5234164060821
 30
0.0
 11
1973.075354227213
 21
5469.8220586490497
 31
0.0
  0
LINE
  5
87F4
  8
3
 62
     0
 10
-146.92464577278579
 20
4664.5234164060821
 30
0.0
 11
-146.92464577278579
 21
5469.8220586490497
 31
0.0
  0
LINE
  5
87F5
  8
3
 62
     0
 10
1873.075354227213
 20
5419.8220586490488
 30
0.0
 11
-46.924645772785823
 21
5419.8220586490488
 31
0.0
  0
INSERT
  5
87F6
  8
3
 62
     0
  2
_OPEN
 10
1973.075354227213
 20
5419.8220586490488
 30
0.0
 41
100.0
 42
100.0
 43
100.0
  0
INSERT
  5
87F7
  8
3
 62
     0
  2
_OPEN
 10
-146.92464577278579
 20
5419.8220586490488
 30
0.0
 41
100.0
 42
100.0
 43
100.0
 50
180.0
  0
TEXT
  8
3
  40
150
  5
8884
  62
0
  72
0
  71
0
 10
613.075
 20
5279.32
 30
0.000000
  1
2120
  0
POINT
  5
87F9
  8
DEFPOINTS
 62
     0
 10
1973.075354227213
 20
4639.5234164060821
 30
0.0
  0
POINT
  5
87FA
  8
DEFPOINTS
 62
     0
 10
-146.92464577278579
 20
4639.5234164060821
 30
0.0
  0
POINT
  5
87FB
  8
DEFPOINTS
 62
     0
 10
-146.92464577278579
 20
5419.8220586490488
 30
0.0
  0
ENDBLK
  5
8327
  8
0
  0
BLOCK
  8
0
  2
*D6
 70
     1
 10
0.0
 20
0.0
 30
0.0
  3
*D6
  1

  0
LINE
  5
87FC
  8
3
 62
     0
 10
-1198.1446051614421
 20
1132.1583713860341
 30
0.0
 11
-1198.1446051614421
 21
1733.8647666646791
 31
0.0
  0
LINE
  5
87FD
  8
3
 62
     0
 10
-2103.1446051614421
 20
1451.6233438220841
 30
0.0
 11
-2103.1446051614421
 21
1733.8647666646791
 31
0.0
  0
LINE
  5
87FE
  8
3
 62
     0
 10
-1298.1446051614421
 20
1683.8647666646791
 30
0.0
 11
-2003.1446051614421
 21
1683.8647666646791
 31
0.0
  0
INSERT
  5
87FF
  8
3
 62
     0
  2
_OPEN
 10
-1198.1446051614421
 20
1683.8647666646791
 30
0.0
 41
100.0
 42
100.0
 43
100.0
  0
INSERT
  5
8800
  8
3
 62
     0
  2
_OPEN
 10
-2103.1446051614421
 20
1683.8647666646791
 30
0.0
 41
100.0
 42
100.0
 43
100.0
 50
180.0
  0
TEXT
  8
3
  40
150
  5
8885
  62
0
  72
0
  71
0
 10
-1950.64
 20
1543.36
 30
0.000000
  1
905
  0
POINT
  5
8802
  8
DEFPOINTS
 62
     0
 10
-1198.1446051614421
 20
1107.1583713860341
 30
0.0
  0
POINT
  5
8803
  8
DEFPOINTS
 62
     0
 10
-2103.1446051614421
 20
1426.6233438220829
 30
0.0
  0
POINT
  5
8804
  8
DEFPOINTS
 62
     0
 10
-2103.1446051614421
 20
1683.8647666646791
 30
0.0
  0
ENDBLK
  5
833D
  8
0
  0
BLOCK
  8
0
  2
_OPEN
 70
     0
 10
0.0
 20
0.0
 30
0.0
  3
_OPEN
  1

  0
LINE
  5
833F
  8
3
 62
     0
 10
-1.0
 20
0.1666666666666666
 30
0.0
 11
0.0
 21
0.0
 31
0.0
  0
LINE
  5
8340
  8
3
 62
     0
 10
-1.0
 20
-0.1666666666666666
 30
0.0
 11
0.0
 21
0.0
 31
0.0
  0
LINE
  5
8341
  8
3
 62
     0
 10
0.0
 20
0.0
 30
0.0
 11
-1.0
 21
0.0
 31
0.0
  0
ENDBLK
  5
8343
  8
0
  0
BLOCK
  8
0
  2
*D8
 70
     1
 10
0.0
 20
0.0
 30
0.0
  3
*D8
  1

  0
LINE
  5
8805
  8
3
 62
     0
 10
-2103.1446051614421
 20
1451.6233438220841
 30
0.0
 11
-2103.1446051614421
 21
1733.8647666646791
 31
0.0
  0
LINE
  5
8806
  8
3
 62
     0
 10
-2718.1446051614421
 20
1132.1583713860341
 30
0.0
 11
-2718.1446051614421
 21
1733.8647666646791
 31
0.0
  0
LINE
  5
8807
  8
3
 62
     0
 10
-2203.1446051614421
 20
1683.8647666646791
 30
0.0
 11
-2618.1446051614421
 21
1683.8647666646791
 31
0.0
  0
INSERT
  5
8808
  8
3
 62
     0
  2
_OPEN
 10
-2103.1446051614421
 20
1683.8647666646791
 30
0.0
 41
100.0
 42
100.0
 43
100.0
  0
INSERT
  5
8809
  8
3
 62
     0
  2
_OPEN
 10
-2718.1446051614421
 20
1683.8647666646791
 30
0.0
 41
100.0
 42
100.0
 43
100.0
 50
180.0
  0
TEXT
  8
3
  40
150
  5
8886
  62
0
  72
0
  71
0
 10
-2710.64
 20
1543.36
 30
0.000000
  1
615
  0
POINT
  5
880B
  8
DEFPOINTS
 62
     0
 10
-2103.1446051614421
 20
1426.6233438220829
 30
0.0
  0
POINT
  5
880C
  8
DEFPOINTS
 62
     0
 10
-2718.1446051614421
 20
1107.1583713860341
 30
0.0
  0
POINT
  5
880D
  8
DEFPOINTS
 62
     0
 10
-2718.1446051614421
 20
1683.8647666646791
 30
0.0
  0
ENDBLK
  5
836C
  8
0
  0
BLOCK
  8
0
  2
*D9
 70
     1
 10
0.0
 20
0.0
 30
0.0
  3
*D9
  1

  0
LINE
  5
880E
  8
3
 62
     0
 10
-1198.1446051614421
 20
-732.84162861396442
 30
0.0
 11
-1198.1446051614421
 21
-1530.9648606121409
 31
0.0
  0
LINE
  5
880F
  8
3
 62
     0
 10
-2718.1446051614421
 20
-732.84162861396442
 30
0.0
 11
-2718.1446051614421
 21
-1530.9648606121409
 31
0.0
  0
LINE
  5
8810
  8
3
 62
     0
 10
-1298.1446051614421
 20
-1480.9648606121409
 30
0.0
 11
-2618.1446051614421
 21
-1480.9648606121409
 31
0.0
  0
INSERT
  5
8811
  8
3
 62
     0
  2
_OPEN
 10
-1198.1446051614421
 20
-1480.9648606121409
 30
0.0
 41
100.0
 42
100.0
 43
100.0
  0
INSERT
  5
8812
  8
3
 62
     0
  2
_OPEN
 10
-2718.1446051614421
 20
-1480.9648606121409
 30
0.0
 41
100.0
 42
100.0
 43
100.0
 50
180.0
  0
TEXT
  8
3
  40
150
  5
8887
  62
0
  72
0
  71
0
 10
-2258.14
 20
-1621.46
 30
0.000000
  1
1520
  0
POINT
  5
8814
  8
DEFPOINTS
 62
     0
 10
-1198.1446051614421
 20
-707.84162861396442
 30
0.0
  0
POINT
  5
8815
  8
DEFPOINTS
 62
     0
 10
-2718.1446051614421
 20
-707.84162861396442
 30
0.0
  0
POINT
  5
8816
  8
DEFPOINTS
 62
     0
 10
-2718.1446051614421
 20
-1480.9648606121409
 30
0.0
  0
ENDBLK
  5
8379
  8
0
  0
BLOCK
  8
0
  2
*D10
 70
     1
 10
0.0
 20
0.0
 30
0.0
  3
*D10
  1

  0
LINE
  5
8817
  8
3
 62
     0
 10
-2506.1446051614421
 20
530.15837138603536
 30
0.0
 11
-3319.2498844514189
 21
530.15837138603547
 31
0.0
  0
LINE
  5
8818
  8
3
 62
     0
 10
-2506.1446051614421
 20
-505.84162861396459
 30
0.0
 11
-3319.2498844514189
 21
-505.84162861396442
 31
0.0
  0
LINE
  5
8819
  8
3
 62
     0
 10
-3269.2498844514189
 20
430.15837138603558
 30
0.0
 11
-3269.2498844514189
 21
-405.84162861396442
 31
0.0
  0
INSERT
  5
881A
  8
3
 62
     0
  2
_OPEN
 10
-3269.2498844514189
 20
530.15837138603547
 30
0.0
 41
100.0
 42
100.0
 43
100.0
 50
90.0
  0
INSERT
  5
881B
  8
3
 62
     0
  2
_OPEN
 10
-3269.2498844514189
 20
-505.84162861396442
 30
0.0
 41
100.0
 42
100.0
 43
100.0
 50
270.0
  0
TEXT
  8
3
  40
150
  5
8888
  62
0
  72
0
  71
0
 10
-3694.25
 20
-253.342
 30
0.000000
  1
1036
  0
POINT
  5
881D
  8
DEFPOINTS
 62
     0
 10
-2481.1446051614421
 20
530.15837138603536
 30
0.0
  0
POINT
  5
881E
  8
DEFPOINTS
 62
     0
 10
-2481.1446051614421
 20
-505.84162861396459
 30
0.0
  0
POINT
  5
881F
  8
DEFPOINTS
 62
     0
 10
-3269.2498844514189
 20
-505.84162861396442
 30
0.0
  0
ENDBLK
  5
8386
  8
0
  0
BLOCK
  8
0
  2
*D11
 70
     1
 10
0.0
 20
0.0
 30
0.0
  3
*D11
  1

  0
LINE
  5
8820
  8
3
 62
     0
 10
-2481.1446051614421
 20
555.15837138603536
 30
0.0
 11
-2481.1446051614421
 21
798.78398943477805
 31
0.0
  0
LINE
  5
8821
  8
3
 62
     0
 10
-1725.1446051614421
 20
555.15837138603536
 30
0.0
 11
-1725.1446051614421
 21
798.78398943477805
 31
0.0
  0
LINE
  5
8822
  8
3
 62
     0
 10
-2381.1446051614421
 20
748.78398943477805
 30
0.0
 11
-1825.1446051614421
 21
748.78398943477805
 31
0.0
  0
INSERT
  5
8823
  8
3
 62
     0
  2
_OPEN
 10
-2481.1446051614421
 20
748.78398943477805
 30
0.0
 41
100.0
 42
100.0
 43
100.0
 50
180.0
  0
INSERT
  5
8824
  8
3
 62
     0
  2
_OPEN
 10
-1725.1446051614421
 20
748.78398943477805
 30
0.0
 41
100.0
 42
100.0
 43
100.0
  0
TEXT
  8
3
  40
150
  5
8889
  62
0
  72
0
  71
0
 10
-2403.14
 20
608.284
 30
0.000000
  1
756
  0
POINT
  5
8826
  8
DEFPOINTS
 62
     0
 10
-2481.1446051614421
 20
530.15837138603536
 30
0.0
  0
POINT
  5
8827
  8
DEFPOINTS
 62
     0
 10
-1725.1446051614421
 20
530.15837138603536
 30
0.0
  0
POINT
  5
8828
  8
DEFPOINTS
 62
     0
 10
-1725.1446051614421
 20
748.78398943477805
 30
0.0
  0
ENDBLK
  5
8393
  8
0
  0
BLOCK
  8
0
  2
*D12
 70
     1
 10
0.0
 20
0.0
 30
0.0
  3
*D12
  1

  0
LINE
  5
8829
  8
3
 62
     0
 10
-66.92464577278588
 20
1132.1583713860341
 30
0.0
 11
-66.924645772785837
 21
1734.945703915502
 31
0.0
  0
LINE
  5
882A
  8
3
 62
     0
 10
1893.075354227213
 20
1132.1583713860341
 30
0.0
 11
1893.075354227213
 21
1734.945703915502
 31
0.0
  0
LINE
  5
882B
  8
3
 62
     0
 10
33.075354227214142
 20
1684.945703915502
 30
0.0
 11
1793.075354227213
 21
1684.945703915502
 31
0.0
  0
INSERT
  5
882C
  8
3
 62
     0
  2
_OPEN
 10
-66.924645772785851
 20
1684.945703915502
 30
0.0
 41
100.0
 42
100.0
 43
100.0
 50
180.0
  0
INSERT
  5
882D
  8
3
 62
     0
  2
_OPEN
 10
1893.075354227213
 20
1684.945703915502
 30
0.0
 41
100.0
 42
100.0
 43
100.0
  0
TEXT
  8
3
  40
150
  5
888A
  62
0
  72
0
  71
0
 10
613.075
 20
1544.45
 30
0.000000
  1
1960
  0
POINT
  5
882F
  8
DEFPOINTS
 62
     0
 10
-66.92464577278588
 20
1107.1583713860341
 30
0.0
  0
POINT
  5
8830
  8
DEFPOINTS
 62
     0
 10
1893.075354227213
 20
1107.1583713860341
 30
0.0
  0
POINT
  5
8831
  8
DEFPOINTS
 62
     0
 10
1893.075354227213
 20
1684.945703915502
 30
0.0
  0
ENDBLK
  5
83A2
  8
0
  0
BLOCK
  8
0
  2
*D13
 70
     1
 10
0.0
 20
0.0
 30
0.0
  3
*D13
  1

  0
LINE
  5
8832
  8
3
 62
     0
 10
1973.0753542272121
 20
-732.84162861396453
 30
0.0
 11
1973.0753542272121
 21
-1592.8837805353389
 31
0.0
  0
LINE
  5
8833
  8
3
 62
     0
 10
-146.92464577278579
 20
-732.84162861396453
 30
0.0
 11
-146.92464577278591
 21
-1592.8837805353389
 31
0.0
  0
LINE
  5
8834
  8
3
 62
     0
 10
1873.0753542272121
 20
-1542.8837805353389
 30
0.0
 11
-46.924645772785937
 21
-1542.8837805353389
 31
0.0
  0
INSERT
  5
8835
  8
3
 62
     0
  2
_OPEN
 10
1973.0753542272121
 20
-1542.8837805353389
 30
0.0
 41
100.0
 42
100.0
 43
100.0
  0
INSERT
  5
8836
  8
3
 62
     0
  2
_OPEN
 10
-146.92464577278591
 20
-1542.8837805353389
 30
0.0
 41
100.0
 42
100.0
 43
100.0
 50
180.0
  0
TEXT
  8
3
  40
150
  5
888B
  62
0
  72
0
  71
0
 10
613.075
 20
-1683.38
 30
0.000000
  1
2120
  0
POINT
  5
8838
  8
DEFPOINTS
 62
     0
 10
1973.0753542272121
 20
-707.84162861396453
 30
0.0
  0
POINT
  5
8839
  8
DEFPOINTS
 62
     0
 10
-146.92464577278579
 20
-707.84162861396453
 30
0.0
  0
POINT
  5
883A
  8
DEFPOINTS
 62
     0
 10
-146.92464577278591
 20
-1542.8837805353389
 30
0.0
  0
ENDBLK
  5
83EE
  8
0
  0
BLOCK
  8
0
  2
*D14
 70
     1
 10
0.0
 20
0.0
 30
0.0
  3
*D14
  1

  0
LINE
  5
883B
  8
3
 62
     0
 10
-171.92464577278579
 20
-707.84162861396453
 30
0.0
 11
-840.84161746410246
 21
-707.8416286139643
 31
0.0
  0
LINE
  5
883C
  8
3
 62
     0
 10
-227.8915529944488
 20
12.158371386035469
 30
0.0
 11
-840.84161746410246
 21
12.15837138603565
 31
0.0
  0
LINE
  5
883D
  8
3
 62
     0
 10
-790.84161746410246
 20
-607.8416286139643
 30
0.0
 11
-790.84161746410246
 21
-87.841628613964374
 31
0.0
  0
INSERT
  5
883E
  8
3
 62
     0
  2
_OPEN
 10
-790.84161746410246
 20
-707.8416286139643
 30
0.0
 41
100.0
 42
100.0
 43
100.0
 50
270.0
  0
INSERT
  5
883F
  8
3
 62
     0
  2
_OPEN
 10
-790.84161746410246
 20
12.158371386035631
 30
0.0
 41
100.0
 42
100.0
 43
100.0
 50
90.0
  0
TEXT
  8
3
  40
150
  5
888C
  62
0
  72
0
  71
0
 10
-1215.84
 20
-613.342
 30
0.000000
  1
720
  0
POINT
  5
8841
  8
DEFPOINTS
 62
     0
 10
-146.92464577278579
 20
-707.84162861396453
 30
0.0
  0
POINT
  5
8842
  8
DEFPOINTS
 62
     0
 10
-202.8915529944488
 20
12.15837138603546
 30
0.0
  0
POINT
  5
8843
  8
DEFPOINTS
 62
     0
 10
-790.84161746410246
 20
12.158371386035631
 30
0.0
  0
ENDBLK
  5
83FB
  8
0
  0
BLOCK
  8
0
  2
*D15
 70
     1
 10
0.0
 20
0.0
 30
0.0
  3
*D15
  1

  0
LINE
  5
8844
  8
3
 62
     0
 10
1998.0753542272121
 20
-707.84162861396453
 30
0.0
 11
2280.4527887025611
 21
-707.84162861396453
 31
0.0
  0
LINE
  5
8845
  8
3
 62
     0
 10
2095.9874277140179
 20
12.15837138603546
 30
0.0
 11
2280.4527887025611
 21
12.158371386035411
 31
0.0
  0
LINE
  5
8846
  8
3
 62
     0
 10
2230.4527887025611
 20
-607.84162861396453
 30
0.0
 11
2230.4527887025611
 21
-87.841628613964573
 31
0.0
  0
INSERT
  5
8847
  8
3
 62
     0
  2
_OPEN
 10
2230.4527887025611
 20
-707.84162861396453
 30
0.0
 41
100.0
 42
100.0
 43
100.0
 50
270.0
  0
INSERT
  5
8848
  8
3
 62
     0
  2
_OPEN
 10
2230.4527887025611
 20
12.158371386035419
 30
0.0
 41
100.0
 42
100.0
 43
100.0
 50
90.0
  0
TEXT
  8
3
  40
150
  5
888D
  62
0
  72
0
  71
0
 10
1805.45
 20
-613.342
 30
0.000000
  1
720
  0
POINT
  5
884A
  8
DEFPOINTS
 62
     0
 10
1973.0753542272121
 20
-707.84162861396453
 30
0.0
  0
POINT
  5
884B
  8
DEFPOINTS
 62
     0
 10
2070.9874277140188
 20
12.15837138603546
 30
0.0
  0
POINT
  5
884C
  8
DEFPOINTS
 62
     0
 10
2230.4527887025611
 20
12.158371386035419
 30
0.0
  0
ENDBLK
  5
8408
  8
0
  0
BLOCK
  8
0
  2
*D16
 70
     1
 10
0.0
 20
0.0
 30
0.0
  3
*D16
  1

  0
LINE
  5
884D
  8
3
 62
     0
 10
1998.0753542272121
 20
-707.84162861396453
 30
0.0
 11
2652.6290813106311
 21
-707.84162861396464
 31
0.0
  0
LINE
  5
884E
  8
3
 62
     0
 10
1918.0753542272139
 20
1107.1583713860341
 30
0.0
 11
2652.629081310632
 21
1107.1583713860341
 31
0.0
  0
LINE
  5
884F
  8
3
 62
     0
 10
2602.6290813106311
 20
-607.84162861396464
 30
0.0
 11
2602.6290813106311
 21
1007.158371386034
 31
0.0
  0
INSERT
  5
8850
  8
3
 62
     0
  2
_OPEN
 10
2602.6290813106311
 20
-707.84162861396464
 30
0.0
 41
100.0
 42
100.0
 43
100.0
 50
270.0
  0
INSERT
  5
8851
  8
3
 62
     0
  2
_OPEN
 10
2602.6290813106311
 20
1107.1583713860341
 30
0.0
 41
100.0
 42
100.0
 43
100.0
 50
90.0
  0
TEXT
  8
3
  40
150
  5
888E
  62
0
  72
0
  71
0
 10
2177.63
 20
-65.8416
 30
0.000000
  1
1815
  0
POINT
  5
8853
  8
DEFPOINTS
 62
     0
 10
1973.0753542272121
 20
-707.84162861396453
 30
0.0
  0
POINT
  5
8854
  8
DEFPOINTS
 62
     0
 10
1893.0753542272139
 20
1107.1583713860341
 30
0.0
  0
POINT
  5
8855
  8
DEFPOINTS
 62
     0
 10
2602.6290813106311
 20
1107.1583713860341
 30
0.0
  0
ENDBLK
  5
8415
  8
0
  0
BLOCK
  8
0
  2
*D17
 70
     1
 10
0.0
 20
0.0
 30
0.0
  3
*D17
  1

  0
LINE
  5
8856
  8
3
 62
     0
 10
3521.4228134012151
 20
-732.84162861396453
 30
0.0
 11
3521.4228134012151
 21
-1566.791371703606
 31
0.0
  0
LINE
  5
8857
  8
3
 62
     0
 10
5041.4228134012146
 20
-732.84162861396453
 30
0.0
 11
5041.4228134012146
 21
-1566.791371703606
 31
0.0
  0
LINE
  5
8858
  8
3
 62
     0
 10
3621.4228134012151
 20
-1516.791371703606
 30
0.0
 11
4941.4228134012146
 21
-1516.791371703606
 31
0.0
  0
INSERT
  5
8859
  8
3
 62
     0
  2
_OPEN
 10
3521.4228134012151
 20
-1516.791371703606
 30
0.0
 41
100.0
 42
100.0
 43
100.0
 50
180.0
  0
INSERT
  5
885A
  8
3
 62
     0
  2
_OPEN
 10
5041.4228134012146
 20
-1516.791371703606
 30
0.0
 41
100.0
 42
100.0
 43
100.0
  0
TEXT
  8
3
  40
150
  5
888F
  62
0
  72
0
  71
0
 10
3981.42
 20
-1657.29
 30
0.000000
  1
1520
  0
POINT
  5
885C
  8
DEFPOINTS
 62
     0
 10
3521.4228134012151
 20
-707.84162861396453
 30
0.0
  0
POINT
  5
885D
  8
DEFPOINTS
 62
     0
 10
5041.4228134012146
 20
-707.84162861396453
 30
0.0
  0
POINT
  5
885E
  8
DEFPOINTS
 62
     0
 10
5041.4228134012146
 20
-1516.791371703606
 30
0.0
  0
ENDBLK
  5
8422
  8
0
  0
BLOCK
  8
0
  2
*D18
 70
     1
 10
0.0
 20
0.0
 30
0.0
  3
*D18
  1

  0
LINE
  5
885F
  8
3
 62
     0
 10
4136.4228134012164
 20
1451.6233438220841
 30
0.0
 11
4136.4228134012164
 21
1715.2868377935149
 31
0.0
  0
LINE
  5
8860
  8
3
 62
     0
 10
3521.4228134012151
 20
1132.1583713860341
 30
0.0
 11
3521.4228134012151
 21
1715.2868377935149
 31
0.0
  0
LINE
  5
8861
  8
3
 62
     0
 10
4036.4228134012151
 20
1665.2868377935149
 30
0.0
 11
3621.4228134012151
 21
1665.2868377935149
 31
0.0
  0
INSERT
  5
8862
  8
3
 62
     0
  2
_OPEN
 10
4136.4228134012164
 20
1665.2868377935149
 30
0.0
 41
100.0
 42
100.0
 43
100.0
  0
INSERT
  5
8863
  8
3
 62
     0
  2
_OPEN
 10
3521.4228134012151
 20
1665.2868377935149
 30
0.0
 41
100.0
 42
100.0
 43
100.0
 50
180.0
  0
TEXT
  8
3
  40
150
  5
8890
  62
0
  72
0
  71
0
 10
3528.92
 20
1524.79
 30
0.000000
  1
615
  0
POINT
  5
8865
  8
DEFPOINTS
 62
     0
 10
4136.4228134012164
 20
1426.6233438220829
 30
0.0
  0
POINT
  5
8866
  8
DEFPOINTS
 62
     0
 10
3521.4228134012151
 20
1107.1583713860341
 30
0.0
  0
POINT
  5
8867
  8
DEFPOINTS
 62
     0
 10
3521.4228134012151
 20
1665.2868377935149
 30
0.0
  0
ENDBLK
  5
842F
  8
0
  0
BLOCK
  8
0
  2
*D19
 70
     1
 10
0.0
 20
0.0
 30
0.0
  3
*D19
  1

  0
LINE
  5
8868
  8
3
 62
     0
 10
4136.4228134012164
 20
1451.6233438220841
 30
0.0
 11
4136.4228134012164
 21
1715.2868377935149
 31
0.0
  0
LINE
  5
8869
  8
3
 62
     0
 10
5041.4228134012146
 20
1132.1583713860341
 30
0.0
 11
5041.4228134012146
 21
1715.2868377935149
 31
0.0
  0
LINE
  5
886A
  8
3
 62
     0
 10
4236.4228134012146
 20
1665.2868377935149
 30
0.0
 11
4941.4228134012146
 21
1665.2868377935149
 31
0.0
  0
INSERT
  5
886B
  8
3
 62
     0
  2
_OPEN
 10
4136.4228134012164
 20
1665.2868377935149
 30
0.0
 41
100.0
 42
100.0
 43
100.0
 50
180.0
  0
INSERT
  5
886C
  8
3
 62
     0
  2
_OPEN
 10
5041.4228134012146
 20
1665.2868377935149
 30
0.0
 41
100.0
 42
100.0
 43
100.0
  0
TEXT
  8
3
  40
150
  5
8891
  62
0
  72
0
  71
0
 10
4288.92
 20
1524.79
 30
0.000000
  1
905
  0
POINT
  5
886E
  8
DEFPOINTS
 62
     0
 10
4136.4228134012164
 20
1426.6233438220829
 30
0.0
  0
POINT
  5
886F
  8
DEFPOINTS
 62
     0
 10
5041.4228134012146
 20
1107.1583713860341
 30
0.0
  0
POINT
  5
8870
  8
DEFPOINTS
 62
     0
 10
5041.4228134012146
 20
1665.2868377935149
 30
0.0
  0
ENDBLK
  5
843C
  8
0
  0
BLOCK
  8
0
  2
*D20
 70
     1
 10
0.0
 20
0.0
 30
0.0
  3
*D20
  1

  0
LINE
  5
8871
  8
3
 62
     0
 10
4514.4228134012164
 20
555.15837138603536
 30
0.0
 11
4514.4228134012164
 21
796.42342217999976
 31
0.0
  0
LINE
  5
8872
  8
3
 62
     0
 10
3758.422813401216
 20
555.15837138603536
 30
0.0
 11
3758.422813401216
 21
796.42342217999976
 31
0.0
  0
LINE
  5
8873
  8
3
 62
     0
 10
4414.4228134012146
 20
746.42342217999976
 30
0.0
 11
3858.4228134012151
 21
746.42342217999976
 31
0.0
  0
INSERT
  5
8874
  8
3
 62
     0
  2
_OPEN
 10
4514.4228134012164
 20
746.42342217999976
 30
0.0
 41
100.0
 42
100.0
 43
100.0
  0
INSERT
  5
8875
  8
3
 62
     0
  2
_OPEN
 10
3758.422813401216
 20
746.42342217999976
 30
0.0
 41
100.0
 42
100.0
 43
100.0
 50
180.0
  0
TEXT
  8
3
  40
150
  5
8892
  62
0
  72
0
  71
0
 10
3836.42
 20
605.923
 30
0.000000
  1
756
  0
POINT
  5
8877
  8
DEFPOINTS
 62
     0
 10
4514.4228134012164
 20
530.15837138603536
 30
0.0
  0
POINT
  5
8878
  8
DEFPOINTS
 62
     0
 10
3758.422813401216
 20
530.15837138603536
 30
0.0
  0
POINT
  5
8879
  8
DEFPOINTS
 62
     0
 10
3758.422813401216
 20
746.42342217999976
 30
0.0
  0
ENDBLK
  5
8449
  8
0
  0
BLOCK
  8
0
  2
*D21
 70
     1
 10
0.0
 20
0.0
 30
0.0
  3
*D21
  1

  0
LINE
  5
887A
  8
3
 62
     0
 10
3733.4228134012151
 20
530.15837138603536
 30
0.0
 11
3097.900082230713
 21
530.15837138603547
 31
0.0
  0
LINE
  5
887B
  8
3
 62
     0
 10
3733.4228134012151
 20
-505.84162861396447
 30
0.0
 11
3097.900082230713
 21
-505.84162861396419
 31
0.0
  0
LINE
  5
887C
  8
3
 62
     0
 10
3147.900082230713
 20
430.15837138603553
 30
0.0
 11
3147.900082230713
 21
-405.84162861396419
 31
0.0
  0
INSERT
  5
887D
  8
3
 62
     0
  2
_OPEN
 10
3147.900082230713
 20
530.15837138603547
 30
0.0
 41
100.0
 42
100.0
 43
100.0
 50
90.0
  0
INSERT
  5
887E
  8
3
 62
     0
  2
_OPEN
 10
3147.900082230713
 20
-505.84162861396419
 30
0.0
 41
100.0
 42
100.0
 43
100.0
 50
270.0
  0
TEXT
  8
3
  40
150
  5
8893
  62
0
  72
0
  71
0
 10
2722.90
 20
-253.342
 30
0.000000
  1
1036
  0
POINT
  5
8880
  8
DEFPOINTS
 62
     0
 10
3758.422813401216
 20
530.15837138603536
 30
0.0
  0
POINT
  5
8881
  8
DEFPOINTS
 62
     0
 10
3758.422813401216
 20
-505.84162861396447
 30
0.0
  0
POINT
  5
8882
  8
DEFPOINTS
 62
     0
 10
3147.900082230713
 20
-505.84162861396419
 30
0.0
  0
ENDBLK
  5
8458
  8
0
  0
ENDSEC
  0
SECTION
  2
ENTITIES
  0
LINE
  5
8169
  8
1
 10
1973.0753542272121
 20
-707.84162861396453
 30
0.0
 11
-146.92464577278579
 21
-707.84162861396453
 31
0.0
  0
LINE
  5
816A
  8
1
 10
1973.0753542272121
 20
-607.84162861396453
 30
0.0
 11
-146.92464577278579
 21
-607.84162861396453
 31
0.0
  0
LINE
  5
816B
  8
1
 10
1973.0753542272121
 20
-707.84162861396453
 30
0.0
 11
1973.0753542272121
 21
-607.84162861396453
 31
0.0
  0
LINE
  5
816C
  8
1
 10
-146.92464577278579
 20
-707.84162861396453
 30
0.0
 11
-146.92464577278579
 21
-607.84162861396453
 31
0.0
  0
LINE
  5
816D
  8
1
 10
1893.0753542272139
 20
1107.1583713860341
 30
0.0
 11
-66.92464577278588
 21
1107.1583713860341
 31
0.0
  0
LINE
  5
816E
  8
1
 10
1893.0753542272139
 20
-607.84162861396453
 30
0.0
 11
1893.0753542272139
 21
1107.1583713860341
 31
0.0
  0
LINE
  5
816F
  8
1
 10
-66.92464577278588
 20
-607.84162861396453
 30
0.0
 11
-66.92464577278588
 21
1107.1583713860341
 31
0.0
  0
LINE
  5
8170
  8
0
 10
1688.0753542272139
 20
982.15837138603433
 30
0.0
 11
608.07535422721412
 21
982.15837138603536
 31
0.0
  0
LINE
  5
8171
  8
2
  6
CENTER
 10
1939.5997182272131
 20
387.15837138603541
 30
0.0
 11
427.8097162272133
 21
387.15837138603541
 31
0.0
  0
LINE
  5
8172
  8
0
 10
283.17535422721443
 20
-347.66162861396418
 30
0.0
 11
1248.685354227212
 21
214.30837138603511
 31
0.0
  0
LINE
  5
8173
  8
0
 10
194.33535422721431
 20
-227.96162861396439
 30
0.0
 11
1011.755354227214
 21
533.49837138603505
 31
0.0
  0
ARC
  5
8174
  8
0
 10
1104.0753542272139
 20
343.15837138603541
 30
0.0
 40
621.54999999999995
 50
83.499999999996163
 51
175.23999999999879
  0
ARC
  5
8175
  8
0
 10
1200.0753542272139
 20
335.15837138603541
 30
0.0
 40
717.88999999999976
 50
175.23999999999879
 51
265.84999999999252
  0
LINE
  5
8176
  8
0
 10
1668.0753542272139
 20
-582.84162861396453
 30
0.0
 11
68.075354227215939
 21
-582.84162861396453
 31
0.0
  0
LINE
  5
8177
  8
0
 10
1688.0753542272139
 20
-482.84162861396447
 30
0.0
 11
68.075354227215939
 21
-482.84162861396447
 31
0.0
  0
ARC
  5
8178
  8
0
 10
1113.0753542272139
 20
422.15837138603541
 30
0.0
 40
542.03999999999985
 50
0.3199999999978752
 51
83.499999999996163
  0
LINE
  5
8179
  8
0
 10
1743.0753542272139
 20
-399.84162861396447
 30
0.0
 11
1148.0753542272139
 21
-380.84162861396447
 31
0.0
  0
LINE
  5
817A
  8
0
 10
1688.0753542272139
 20
982.15837138603536
 30
0.0
 11
1688.0753542272139
 21
-482.84162861396447
 31
0.0
  0
LINE
  5
817B
  8
0
 10
1743.0753542272139
 20
467.65837138603541
 30
0.0
 11
1743.0753542272139
 21
-442.34162861396447
 31
0.0
  0
LINE
  5
817C
  8
0
 10
1668.0753542272139
 20
-482.84162861396447
 30
0.0
 11
1668.0753542272139
 21
-582.84162861396453
 31
0.0
  0
LINE
  5
817D
  8
0
 10
1655.105354227212
 20
425.15837138603541
 30
0.0
 11
1743.0753542272139
 21
425.15837138603541
 31
0.0
  0
LINE
  5
817E
  8
2
  6
CENTER
 10
1148.0753542272139
 20
1064.5392293860341
 30
0.0
 11
1148.0753542272139
 21
-938.00748244152055
 31
0.0
  0
CIRCLE
  5
817F
  8
0
 10
1148.0753542272139
 20
387.15837138603541
 30
0.0
 40
200.0
  0
LINE
  5
8180
  8
0
 10
608.07535422721412
 20
982.15837138603536
 30
0.0
 11
608.07535422721412
 21
-482.84162861396447
 31
0.0
  0
CIRCLE
  5
8181
  8
0
 10
245.45535422721329
 20
-282.84162861396447
 30
0.0
 40
75.0
  0
LINE
  5
8182
  8
2
  6
CENTER
 10
170.45535422721511
 20
-282.84162861396447
 30
0.0
 11
320.45535422721332
 21
-282.84162861396447
 31
0.0
  0
LINE
  5
8183
  8
2
  6
CENTER
 10
245.45535422721329
 20
-357.84162861396447
 30
0.0
 11
245.45535422721329
 21
-207.8416286139645
 31
0.0
  0
LINE
  5
8184
  8
0
 10
68.075354227215939
 20
-482.84162861396447
 30
0.0
 11
68.075354227215939
 21
-582.84162861396453
 31
0.0
  0
LINE
  5
8185
  8
2
  6
CENTER
 10
2070.9874277140188
 20
12.15837138603546
 30
0.0
 11
1556.784538672591
 21
12.15837138603546
 31
0.0
  0
LINE
  5
8186
  8
0
 10
1743.0753542272139
 20
425.15837138603541
 30
0.0
 11
1893.0753542272139
 21
425.15837138603541
 31
0.0
  0
LINE
  5
8187
  8
0
 10
1743.0753542272139
 20
-399.84162861396447
 30
0.0
 11
1893.0753542272139
 21
-399.84162861396447
 31
0.0
  0
LINE
  5
8188
  8
2
  6
CENTER
 10
191.3243784291007
 20
12.15837138603546
 30
0.0
 11
-202.89155299444971
 21
12.15837138603546
 31
0.0
  0
LINE
  5
8189
  8
1
 10
1973.075354227213
 20
3119.5234164060821
 30
0.0
 11
-146.92464577278579
 21
3119.5234164060821
 31
0.0
  0
LINE
  5
818A
  8
1
 10
-146.92464577278579
 20
3119.5234164060821
 30
0.0
 11
-146.92464577278579
 21
3169.5234164060821
 31
0.0
  0
LINE
  5
818B
  8
1
 10
1973.075354227213
 20
3119.5234164060821
 30
0.0
 11
1973.075354227213
 21
3169.5234164060821
 31
0.0
  0
LINE
  5
818C
  8
1
 10
1973.075354227213
 20
4639.5234164060821
 30
0.0
 11
-146.92464577278579
 21
4639.5234164060821
 31
0.0
  0
LINE
  5
818D
  8
1
 10
1973.075354227213
 20
4589.5234164060821
 30
0.0
 11
1893.075354227213
 21
4589.5234164060821
 31
0.0
  0
LINE
  5
818E
  8
1
 10
1973.075354227213
 20
3169.5234164060821
 30
0.0
 11
1893.075354227213
 21
3169.5234164060821
 31
0.0
  0
LINE
  5
818F
  8
1
 10
-146.92464577278579
 20
4589.5234164060821
 30
0.0
 11
-146.92464577278579
 21
4639.5234164060821
 31
0.0
  0
LINE
  5
8190
  8
1
 10
1973.075354227213
 20
4589.5234164060821
 30
0.0
 11
1973.075354227213
 21
4639.5234164060821
 31
0.0
  0
LINE
  5
8191
  8
1
 10
-66.92464577278588
 20
3119.5234164060821
 30
0.0
 11
-66.92464577278588
 21
4639.5234164060821
 31
0.0
  0
LINE
  5
8192
  8
1
 10
1893.075354227213
 20
3119.5234164060821
 30
0.0
 11
1893.075354227213
 21
4639.5234164060821
 31
0.0
  0
LINE
  5
8193
  8
1
 10
-66.92464577278588
 20
4589.5234164060821
 30
0.0
 11
-146.92464577278579
 21
4589.5234164060821
 31
0.0
  0
LINE
  5
8194
  8
1
 10
-66.92464577278588
 20
3169.5234164060821
 30
0.0
 11
-146.92464577278579
 21
3169.5234164060821
 31
0.0
  0
LINE
  5
8195
  8
1
 10
1888.075354227213
 20
4639.5234164060821
 30
0.0
 11
1888.075354227213
 21
4654.523416406083
 31
0.0
  0
LINE
  5
8196
  8
1
 10
-61.92464577278588
 20
4639.5234164060821
 30
0.0
 11
-61.92464577278588
 21
4654.5234164060821
 31
0.0
  0
LINE
  5
8197
  8
1
 10
1888.075354227213
 20
4654.523416406083
 30
0.0
 11
-61.92464577278588
 21
4654.5234164060821
 31
0.0
  0
LINE
  5
8198
  8
1
 10
1888.075354227213
 20
3119.5234164060821
 30
0.0
 11
1888.075354227213
 21
3104.5234164060812
 31
0.0
  0
LINE
  5
8199
  8
1
 10
-61.92464577278588
 20
3119.5234164060821
 30
0.0
 11
-61.92464577278588
 21
3104.5234164060821
 31
0.0
  0
LINE
  5
819A
  8
1
 10
1888.075354227213
 20
3104.5234164060812
 30
0.0
 11
-61.92464577278588
 21
3104.5234164060821
 31
0.0
  0
LINE
  5
819B
  8
2
  6
CENTER
 10
2002.0815822386351
 20
3734.5234164060821
 30
0.0
 11
1663.8572527069989
 21
3734.5234164060821
 31
0.0
  0
LINE
  5
819C
  8
1
 10
1893.075354227213
 20
4112.5234164060812
 30
0.0
 11
1943.075354227213
 21
4112.5234164060812
 31
0.0
  0
LINE
  5
819D
  8
1
 10
1903.575354227213
 20
4116.5234164060812
 30
0.0
 11
1940.075354227213
 21
4116.5234164060812
 31
0.0
  0
LINE
  5
819E
  8
1
 10
1893.075354227213
 20
4112.5234164060812
 30
0.0
 11
1893.075354227213
 21
4162.5234164060812
 31
0.0
  0
LINE
  5
819F
  8
1
 10
1897.075354227213
 20
4123.0234164060812
 30
0.0
 11
1897.075354227213
 21
4159.5234164060812
 31
0.0
  0
ARC
  5
81A0
  8
1
 10
1903.575354227213
 20
4123.0234164060812
 30
0.0
 40
6.5
 50
180.0
 51
270.0
  0
LINE
  5
81A1
  8
1
 10
1893.075354227213
 20
4162.5234164060812
 30
0.0
 11
1894.075354227213
 21
4162.5234164060812
 31
0.0
  0
ARC
  5
81A2
  8
1
 10
1894.075354227213
 20
4159.5234164060812
 30
0.0
 40
3.0
 50
0.000000000000007
 51
90.0
  0
LINE
  5
81A3
  8
1
 10
1943.075354227213
 20
4112.5234164060812
 30
0.0
 11
1943.075354227213
 21
4113.5234164060803
 31
0.0
  0
ARC
  5
81A4
  8
1
 10
1940.075354227213
 20
4113.5234164060803
 30
0.0
 40
3.0
 50
0.000000000000007
 51
90.0
  0
LINE
  5
81A5
  8
1
 10
1893.075354227213
 20
3356.5234164060821
 30
0.0
 11
1893.075354227213
 21
3306.5234164060812
 31
0.0
  0
LINE
  5
81A6
  8
1
 10
1897.075354227213
 20
3346.0234164060821
 30
0.0
 11
1897.075354227213
 21
3309.5234164060821
 31
0.0
  0
LINE
  5
81A7
  8
1
 10
1893.075354227213
 20
3356.5234164060821
 30
0.0
 11
1943.075354227213
 21
3356.5234164060821
 31
0.0
  0
LINE
  5
81A8
  8
1
 10
1903.575354227213
 20
3352.5234164060821
 30
0.0
 11
1940.075354227213
 21
3352.5234164060821
 31
0.0
  0
LINE
  5
81A9
  8
1
 10
1943.075354227213
 20
3356.5234164060821
 30
0.0
 11
1943.075354227213
 21
3355.5234164060821
 31
0.0
  0
ARC
  5
81AA
  8
1
 10
1940.075354227213
 20
3355.5234164060821
 30
0.0
 40
3.0
 50
270.0
 51
0.000000000000007
  0
ARC
  5
81AB
  8
1
 10
1903.575354227213
 20
3346.0234164060821
 30
0.0
 40
6.5
 50
89.999999999999943
 51
180.0
  0
ARC
  5
81AC
  8
1
 10
1894.075354227213
 20
3309.5234164060821
 30
0.0
 40
3.0
 50
270.0
 51
0.000000000000007
  0
LINE
  5
81AD
  8
1
 10
1893.075354227213
 20
3306.5234164060812
 30
0.0
 11
1894.075354227213
 21
3306.5234164060812
 31
0.0
  0
LINE
  5
81AE
  8
1
 10
1943.075354227213
 20
3356.5234164060821
 30
0.0
 11
1943.075354227213
 21
4112.5234164060812
 31
0.0
  0
LINE
  5
81AF
  8
1
 10
1897.075354227213
 20
3356.5234164060821
 30
0.0
 11
1897.075354227213
 21
4112.5234164060812
 31
0.0
  0
LINE
  5
81B0
  8
1
 10
-116.92464577278579
 20
4402.5234164060812
 30
0.0
 11
-116.92464577278579
 21
3646.5234164060812
 31
0.0
  0
LINE
  5
81B1
  8
1
 10
-70.92464577278588
 20
4402.5234164060812
 30
0.0
 11
-70.92464577278588
 21
3646.5234164060812
 31
0.0
  0
ARC
  5
81B2
  8
1
 10
-67.92464577278588
 20
4449.523416406083
 30
0.0
 40
3.0
 50
90.000000000000057
 51
180.00000000000011
  0
LINE
  5
81B3
  8
1
 10
-66.92464577278588
 20
4402.5234164060812
 30
0.0
 11
-116.92464577278579
 21
4402.5234164060812
 31
0.0
  0
LINE
  5
81B4
  8
1
 10
-70.92464577278588
 20
4413.0234164060812
 30
0.0
 11
-70.92464577278588
 21
4449.523416406083
 31
0.0
  0
LINE
  5
81B5
  8
1
 10
-77.42464577278588
 20
4406.5234164060812
 30
0.0
 11
-113.92464577278579
 21
4406.5234164060812
 31
0.0
  0
ARC
  5
81B6
  8
1
 10
-113.92464577278579
 20
4403.5234164060812
 30
0.0
 40
3.0
 50
90.000000000000057
 51
180.00000000000011
  0
LINE
  5
81B7
  8
1
 10
-116.92464577278579
 20
4402.5234164060812
 30
0.0
 11
-116.92464577278579
 21
4403.5234164060812
 31
0.0
  0
ARC
  5
81B8
  8
1
 10
-77.42464577278588
 20
4413.0234164060812
 30
0.0
 40
6.5
 50
270.0
 51
0.0000000000001088
  0
LINE
  5
81B9
  8
1
 10
-66.92464577278588
 20
4402.5234164060812
 30
0.0
 11
-66.92464577278588
 21
4452.5234164060812
 31
0.0
  0
LINE
  5
81BA
  8
1
 10
-66.92464577278588
 20
4452.5234164060812
 30
0.0
 11
-67.92464577278588
 21
4452.5234164060812
 31
0.0
  0
LINE
  5
81BB
  8
2
  6
CENTER
 10
-175.93087378420751
 20
4024.5234164060821
 30
0.0
 11
162.2934557474272
 21
4024.5234164060821
 31
0.0
  0
LINE
  5
81BC
  8
1
 10
-66.92464577278588
 20
3646.5234164060812
 30
0.0
 11
-66.92464577278588
 21
3596.5234164060821
 31
0.0
  0
LINE
  5
81BD
  8
1
 10
-70.92464577278588
 20
3636.0234164060821
 30
0.0
 11
-70.92464577278588
 21
3599.5234164060821
 31
0.0
  0
LINE
  5
81BE
  8
1
 10
-66.92464577278588
 20
3646.5234164060812
 30
0.0
 11
-116.92464577278579
 21
3646.5234164060812
 31
0.0
  0
LINE
  5
81BF
  8
1
 10
-77.42464577278588
 20
3642.5234164060812
 30
0.0
 11
-113.92464577278579
 21
3642.5234164060812
 31
0.0
  0
LINE
  5
81C0
  8
1
 10
-116.92464577278579
 20
3646.5234164060812
 30
0.0
 11
-116.92464577278579
 21
3645.5234164060798
 31
0.0
  0
ARC
  5
81C1
  8
1
 10
-113.92464577278579
 20
3645.5234164060798
 30
0.0
 40
3.0
 50
180.00000000000011
 51
270.0
  0
ARC
  5
81C2
  8
1
 10
-77.42464577278588
 20
3636.0234164060821
 30
0.0
 40
6.5
 50
0.0000000000001088
 51
90.000000000000057
  0
ARC
  5
81C3
  8
1
 10
-67.92464577278588
 20
3599.5234164060821
 30
0.0
 40
3.0
 50
180.00000000000011
 51
270.0
  0
LINE
  5
81C4
  8
1
 10
-66.92464577278588
 20
3596.5234164060821
 30
0.0
 11
-67.92464577278588
 21
3596.5234164060821
 31
0.0
  0
LINE
  5
81C5
  8
0
 10
-350.85592627907681
 20
4056.7149287747352
 30
0.0
 11
-476.09584950364467
 21
4056.7149287747352
 31
0.0
  0
LINE
  5
81C6
  8
0
 10
-476.09584950364467
 20
4056.7149287747352
 30
0.0
 11
-476.09584950364467
 21
3994.055511349774
 31
0.0
  0
LINE
  5
81C7
  8
0
 10
-476.09584950364467
 20
3994.055511349774
 30
0.0
 11
-350.85592627907681
 21
3994.055511349774
 31
0.0
  0
LINE
  5
81C8
  8
0
 10
-350.85592627907681
 20
3994.055511349774
 30
0.0
 11
-350.85592627907681
 21
3948.2315642248441
 31
0.0
  0
LINE
  5
81C9
  8
0
 10
-350.85592627907681
 20
3948.2315642248441
 30
0.0
 11
-251.0958495036447
 21
4025.385220062255
 31
0.0
  0
LINE
  5
81CA
  8
0
 10
-251.0958495036447
 20
4025.385220062255
 30
0.0
 11
-350.85592627907681
 21
4102.5388758996669
 31
0.0
  0
LINE
  5
81CB
  8
0
 10
-350.85592627907681
 20
4102.5388758996669
 30
0.0
 11
-350.85592627907681
 21
4056.7149287747352
 31
0.0
  0
LINE
  5
81CC
  8
0
 10
2224.5163189022078
 20
3742.0982659950459
 30
0.0
 11
2099.2763956776412
 21
3742.0982659950459
 31
0.0
  0
LINE
  5
81CD
  8
0
 10
2099.2763956776412
 20
3742.0982659950459
 30
0.0
 11
2099.2763956776412
 21
3679.4388485700852
 31
0.0
  0
LINE
  5
81CE
  8
0
 10
2099.2763956776412
 20
3679.4388485700852
 30
0.0
 11
2224.5163189022078
 21
3679.4388485700852
 31
0.0
  0
LINE
  5
81CF
  8
0
 10
2224.5163189022078
 20
3679.4388485700852
 30
0.0
 11
2224.5163189022078
 21
3633.6149014451539
 31
0.0
  0
LINE
  5
81D0
  8
0
 10
2224.5163189022078
 20
3633.6149014451539
 30
0.0
 11
2324.2763956776398
 21
3710.7685572825649
 31
0.0
  0
LINE
  5
81D1
  8
0
 10
2324.2763956776398
 20
3710.7685572825649
 30
0.0
 11
2224.5163189022078
 21
3787.9222131199772
 31
0.0
  0
LINE
  5
81D2
  8
0
 10
2224.5163189022078
 20
3787.9222131199772
 30
0.0
 11
2224.5163189022078
 21
3742.0982659950459
 31
0.0
  0
LINE
  5
81D3
  8
1
 10
1943.0753542272121
 20
-505.84162861396487
 30
0.0
 11
1943.0753542272121
 21
530.15837138603536
 31
0.0
  0
LINE
  5
81D4
  8
1
 10
1897.0753542272139
 20
-505.84162861396487
 30
0.0
 11
1897.0753542272139
 21
530.15837138603536
 31
0.0
  0
LINE
  5
81D5
  8
1
 10
1893.0753542272139
 20
-505.84162861396447
 30
0.0
 11
1943.0753542272121
 21
-505.84162861396447
 31
0.0
  0
ARC
  5
81D6
  8
1
 10
1940.0753542272121
 20
-506.84162861396447
 30
0.0
 40
3.0
 50
270.0
 51
0.000000000000007
  0
LINE
  5
81D7
  8
1
 10
1943.0753542272121
 20
-505.84162861396447
 30
0.0
 11
1943.0753542272121
 21
-506.84162861396447
 31
0.0
  0
LINE
  5
81D8
  8
1
 10
1893.0753542272139
 20
-505.84162861396447
 30
0.0
 11
1893.0753542272139
 21
-555.84162861396453
 31
0.0
  0
LINE
  5
81D9
  8
1
 10
1897.0753542272139
 20
-516.34162861396453
 30
0.0
 11
1897.0753542272139
 21
-552.84162861396453
 31
0.0
  0
LINE
  5
81DA
  8
1
 10
1893.0753542272139
 20
-555.84162861396453
 30
0.0
 11
1894.0753542272139
 21
-555.84162861396453
 31
0.0
  0
ARC
  5
81DB
  8
1
 10
1894.0753542272121
 20
-552.84162861396453
 30
0.0
 40
3.0
 50
270.0
 51
0.000000000000007
  0
LINE
  5
81DC
  8
1
 10
1903.5753542272139
 20
-509.84162861396447
 30
0.0
 11
1940.0753542272121
 21
-509.84162861396447
 31
0.0
  0
ARC
  5
81DD
  8
1
 10
1903.5753542272121
 20
-516.34162861396453
 30
0.0
 40
6.5
 50
89.999999999999943
 51
180.0
  0
LINE
  5
81DE
  8
1
 10
1893.0753542272139
 20
530.15837138603536
 30
0.0
 11
1943.0753542272121
 21
530.15837138603536
 31
0.0
  0
ARC
  5
81DF
  8
1
 10
1940.0753542272121
 20
531.15837138603536
 30
0.0
 40
3.0
 50
0.000000000000007
 51
90.0
  0
LINE
  5
81E0
  8
1
 10
1943.0753542272121
 20
530.15837138603536
 30
0.0
 11
1943.0753542272121
 21
531.15837138603536
 31
0.0
  0
LINE
  5
81E1
  8
1
 10
1893.0753542272139
 20
530.15837138603536
 30
0.0
 11
1893.0753542272139
 21
580.15837138603536
 31
0.0
  0
ARC
  5
81E2
  8
1
 10
1903.5753542272121
 20
540.65837138603547
 30
0.0
 40
6.5
 50
180.0
 51
270.0
  0
LINE
  5
81E3
  8
1
 10
1903.5753542272139
 20
534.15837138603536
 30
0.0
 11
1940.0753542272121
 21
534.15837138603536
 31
0.0
  0
LINE
  5
81E4
  8
1
 10
1897.0753542272139
 20
540.65837138603547
 30
0.0
 11
1897.0753542272139
 21
577.15837138603536
 31
0.0
  0
LINE
  5
81E5
  8
1
 10
1893.0753542272139
 20
580.15837138603536
 30
0.0
 11
1894.0753542272139
 21
580.15837138603536
 31
0.0
  0
ARC
  5
81E6
  8
1
 10
1894.0753542272121
 20
577.15837138603536
 30
0.0
 40
3.0
 50
0.000000000000007
 51
90.0
  0
LINE
  5
81E7
  8
1
 10
-70.92464577278588
 20
-505.84162861396487
 30
0.0
 11
-70.92464577278588
 21
530.15837138603536
 31
0.0
  0
LINE
  5
81E8
  8
1
 10
-116.92464577278579
 20
-505.84162861396487
 30
0.0
 11
-116.92464577278579
 21
530.15837138603536
 31
0.0
  0
LINE
  5
81E9
  8
1
 10
-70.92464577278588
 20
-516.34162861396453
 30
0.0
 11
-70.92464577278588
 21
-552.84162861396453
 31
0.0
  0
LINE
  5
81EA
  8
1
 10
-66.92464577278588
 20
-505.84162861396447
 30
0.0
 11
-66.92464577278588
 21
-555.84162861396453
 31
0.0
  0
ARC
  5
81EB
  8
1
 10
-67.92464577278588
 20
-552.84162861396453
 30
0.0
 40
3.0
 50
180.0
 51
270.0
  0
LINE
  5
81EC
  8
1
 10
-66.92464577278588
 20
-555.84162861396453
 30
0.0
 11
-67.92464577278588
 21
-555.84162861396453
 31
0.0
  0
LINE
  5
81ED
  8
1
 10
-66.92464577278588
 20
-505.84162861396447
 30
0.0
 11
-116.92464577278579
 21
-505.84162861396447
 31
0.0
  0
LINE
  5
81EE
  8
1
 10
-77.42464577278588
 20
-509.84162861396447
 30
0.0
 11
-113.92464577278579
 21
-509.84162861396447
 31
0.0
  0
LINE
  5
81EF
  8
1
 10
-116.92464577278579
 20
-505.84162861396447
 30
0.0
 11
-116.92464577278579
 21
-506.84162861396447
 31
0.0
  0
ARC
  5
81F0
  8
1
 10
-113.92464577278579
 20
-506.84162861396447
 30
0.0
 40
3.0
 50
180.0
 51
270.0
  0
ARC
  5
81F1
  8
1
 10
-77.42464577278588
 20
-516.34162861396453
 30
0.0
 40
6.5
 50
0.000000000000007
 51
90.000000000000028
  0
ARC
  5
81F2
  8
1
 10
-67.92464577278588
 20
577.15837138603536
 30
0.0
 40
3.0
 50
90.0
 51
180.0
  0
LINE
  5
81F3
  8
1
 10
-66.92464577278588
 20
530.15837138603536
 30
0.0
 11
-116.92464577278579
 21
530.15837138603536
 31
0.0
  0
LINE
  5
81F4
  8
1
 10
-70.92464577278588
 20
540.65837138603547
 30
0.0
 11
-70.92464577278588
 21
577.15837138603536
 31
0.0
  0
LINE
  5
81F5
  8
1
 10
-77.42464577278588
 20
534.15837138603536
 30
0.0
 11
-113.92464577278579
 21
534.15837138603536
 31
0.0
  0
LINE
  5
81F6
  8
1
 10
-116.92464577278579
 20
530.15837138603536
 30
0.0
 11
-116.92464577278579
 21
531.15837138603536
 31
0.0
  0
ARC
  5
81F7
  8
1
 10
-113.92464577278579
 20
531.15837138603536
 30
0.0
 40
3.0
 50
90.0
 51
180.0
  0
ARC
  5
81F8
  8
1
 10
-77.42464577278588
 20
540.65837138603547
 30
0.0
 40
6.5
 50
270.0
 51
0.000000000000007
  0
LINE
  5
81F9
  8
1
 10
-66.92464577278588
 20
530.15837138603536
 30
0.0
 11
-66.92464577278588
 21
580.15837138603536
 31
0.0
  0
LINE
  5
81FA
  8
1
 10
-66.92464577278588
 20
580.15837138603536
 30
0.0
 11
-67.92464577278588
 21
580.15837138603536
 31
0.0
  0
LINE
  5
81FB
  8
1
 10
5041.4228134012146
 20
-707.84162861396453
 30
0.0
 11
3521.4228134012151
 21
-707.84162861396453
 31
0.0
  0
LINE
  5
81FC
  8
1
 10
5041.4228134012146
 20
-607.84162861396453
 30
0.0
 11
3521.4228134012151
 21
-607.84162861396453
 31
0.0
  0
LINE
  5
81FD
  8
1
 10
5041.4228134012146
 20
1107.1583713860341
 30
0.0
 11
3521.4228134012151
 21
1107.1583713860341
 31
0.0
  0
LINE
  5
81FE
  8
2
 10
4136.4228134012164
 20
1426.6233438220829
 30
0.0
 11
4136.4228134012164
 21
1017.431193795222
 31
0.0
  0
LINE
  5
81FF
  8
1
 10
3521.4228134012151
 20
1107.1583713860341
 30
0.0
 11
3521.4228134012151
 21
-607.84162861396453
 31
0.0
  0
LINE
  5
8200
  8
1
 10
5041.4228134012146
 20
1107.1583713860341
 30
0.0
 11
5041.4228134012146
 21
-607.84162861396453
 31
0.0
  0
LINE
  5
8201
  8
2
  6
CENTER
 10
4797.2813538347536
 20
12.15837138603546
 30
0.0
 11
3450.498795302366
 21
12.15837138603546
 31
0.0
  0
LINE
  5
8202
  8
1
 10
4991.4228134012146
 20
-707.84162861396453
 30
0.0
 11
5041.4228134012137
 21
-707.84162861396453
 31
0.0
  0
ARC
  5
8203
  8
1
 10
5006.4228134012146
 20
-689.2010730781044
 30
0.0
 40
10.0
 50
180.0
 51
265.00000000000028
  0
LINE
  5
8204
  8
1
 10
4991.4228134012146
 20
-607.84162861396453
 30
0.0
 11
5041.4228134012137
 21
-607.84162861396453
 31
0.0
  0
ARC
  5
8205
  8
1
 10
5006.4228134012146
 20
-626.48218414982421
 30
0.0
 40
10.0
 50
94.99999999999973
 51
180.0
  0
LINE
  5
8206
  8
1
 10
4991.4228134012146
 20
-607.84162861396453
 30
0.0
 11
4991.4228134012146
 21
-707.84162861396453
 31
0.0
  0
LINE
  5
8207
  8
1
 10
4996.4228134012164
 20
-626.48218414982421
 30
0.0
 11
4996.4228134012128
 21
-689.2010730781044
 31
0.0
  0
LINE
  5
8208
  8
1
 10
5005.5512559737381
 20
-616.52023716890687
 30
0.0
 11
5037.7714363722043
 21
-613.70133664728098
 31
0.0
  0
LINE
  5
8209
  8
1
 10
5041.4228134012137
 20
-607.84162861396453
 30
0.0
 11
5041.4228134012137
 21
-609.71655785491384
 31
0.0
  0
LINE
  5
820A
  8
1
 10
5041.4228134012137
 20
-707.84162861396453
 30
0.0
 11
5041.4228134012137
 21
-705.96669937301465
 31
0.0
  0
LINE
  5
820B
  8
1
 10
5005.5512559737381
 20
-699.16302005902162
 30
0.0
 11
5037.7714363722043
 21
-701.98192058064751
 31
0.0
  0
ARC
  5
820C
  8
1
 10
5037.4228134012164
 20
-705.96669937301465
 30
0.0
 40
4.0
 50
0.000000000000007
 51
85.000000000000284
  0
ARC
  5
820D
  8
1
 10
5037.4228134012164
 20
-609.71655785491384
 30
0.0
 40
4.0
 50
274.99999999999972
 51
0.000000000000007
  0
LINE
  5
820E
  8
1
 10
3557.2943708286912
 20
-616.52023716890687
 30
0.0
 11
3525.0741904302249
 21
-613.70133664728098
 31
0.0
  0
LINE
  5
820F
  8
1
 10
3571.4228134012151
 20
-607.84162861396453
 30
0.0
 11
3521.4228134012151
 21
-607.84162861396453
 31
0.0
  0
LINE
  5
8210
  8
1
 10
3557.2943708286912
 20
-699.16302005902162
 30
0.0
 11
3525.0741904302249
 21
-701.98192058064751
 31
0.0
  0
LINE
  5
8211
  8
1
 10
3571.4228134012151
 20
-707.84162861396453
 30
0.0
 11
3521.4228134012151
 21
-707.84162861396453
 31
0.0
  0
ARC
  5
8212
  8
1
 10
3525.4228134012151
 20
-705.96669937301465
 30
0.0
 40
4.0
 50
94.99999999999973
 51
180.0
  0
LINE
  5
8213
  8
1
 10
3521.4228134012151
 20
-707.84162861396453
 30
0.0
 11
3521.4228134012151
 21
-705.96669937301465
 31
0.0
  0
ARC
  5
8214
  8
1
 10
3525.4228134012151
 20
-609.71655785491384
 30
0.0
 40
4.0
 50
180.0
 51
265.00000000000028
  0
LINE
  5
8215
  8
1
 10
3521.4228134012151
 20
-607.84162861396453
 30
0.0
 11
3521.4228134012151
 21
-609.71655785491384
 31
0.0
  0
LINE
  5
8216
  8
1
 10
3571.4228134012151
 20
-607.84162861396453
 30
0.0
 11
3571.4228134012151
 21
-707.84162861396453
 31
0.0
  0
LINE
  5
8217
  8
1
 10
3566.4228134012151
 20
-626.48218414982421
 30
0.0
 11
3566.4228134012151
 21
-689.2010730781044
 31
0.0
  0
ARC
  5
8218
  8
1
 10
3556.4228134012151
 20
-689.2010730781044
 30
0.0
 40
10.0
 50
274.99999999999972
 51
0.000000000000007
  0
ARC
  5
8219
  8
1
 10
3556.4228134012151
 20
-626.48218414982421
 30
0.0
 40
10.0
 50
0.000000000000007
 51
85.000000000000284
  0
LINE
  5
821A
  8
1
 10
1860.5753542272139
 20
1107.1583713860341
 30
0.0
 11
1825.5753542272121
 21
1107.1583713860359
 31
0.0
  0
ARC
  5
821B
  8
1
 10
1843.0753542272139
 20
1157.1583713860341
 30
0.0
 40
20.0
 50
299.99999999999739
 51
240.00000000000281
  0
ARC
  5
821C
  8
1
 10
1843.0753542272139
 20
1157.1583713860341
 30
0.0
 40
36.0
 50
308.17385692872438
 51
231.82614307127551
  0
LINE
  5
821D
  8
1
 10
1825.5753542272121
 20
1107.1583713860359
 30
0.0
 11
1830.965628866297
 21
1137.72813794943
 31
0.0
  0
LINE
  5
821E
  8
2
  6
CENTER
 10
1885.047204303582
 20
1157.1583713860341
 30
0.0
 11
1801.093203626569
 21
1157.1583713860341
 31
0.0
  0
LINE
  5
821F
  8
1
 10
1860.5753542272159
 20
1107.1583713860359
 30
0.0
 11
1855.1850795881289
 21
1137.72813794943
 31
0.0
  0
LINE
  5
8220
  8
2
  6
CENTER
 10
1843.0753542272139
 20
1200.1493321781729
 30
0.0
 11
1843.0753542272139
 21
1097.98108985882
 31
0.0
  0
ARC
  5
8221
  8
1
 10
1875.2139416491309
 20
1116.2791444055299
 30
0.0
 40
16.0
 50
128.1738569287244
 51
190.000000000005
  0
LINE
  5
8222
  8
1
 10
1853.0753542272139
 20
1139.8378633103459
 30
0.0
 11
1833.0753542272139
 21
1139.8378633103459
 31
0.0
  0
LINE
  5
8223
  8
1
 10
1855.1850795881289
 20
1137.72813794943
 30
0.0
 11
1830.965628866297
 21
1137.72813794943
 31
0.0
  0
LINE
  5
8224
  8
1
 10
1853.0753542272139
 20
1139.8378633103459
 30
0.0
 11
1855.1850795881289
 21
1137.72813794943
 31
0.0
  0
LINE
  5
8225
  8
1
 10
1833.0753542272139
 20
1139.8378633103459
 30
0.0
 11
1830.965628866297
 21
1137.72813794943
 31
0.0
  0
ARC
  5
8226
  8
1
 10
1810.9367668052939
 20
1116.2791444055299
 30
0.0
 40
16.0
 50
349.999999999995
 51
51.826143071275588
  0
LINE
  5
8227
  8
2
  6
CENTER
 10
-16.924645772787692
 20
1200.1493321781729
 30
0.0
 11
-16.924645772787692
 21
1097.98108985882
 31
0.0
  0
ARC
  5
8228
  8
1
 10
15.21394164913181
 20
1116.2791444055299
 30
0.0
 40
16.0
 50
128.1738569287244
 51
190.000000000005
  0
ARC
  5
8229
  8
1
 10
-49.06323319470539
 20
1116.2791444055299
 30
0.0
 40
16.0
 50
349.999999999995
 51
51.826143071275588
  0
LINE
  5
822A
  8
1
 10
-34.424645772787692
 20
1107.1583713860359
 30
0.0
 11
-29.034371133700908
 21
1137.72813794943
 31
0.0
  0
LINE
  5
822B
  8
1
 10
0.5753542272159394
 20
1107.1583713860359
 30
0.0
 11
-4.8149204118708431
 21
1137.72813794943
 31
0.0
  0
ARC
  5
822C
  8
1
 10
-16.924645772787692
 20
1157.1583713860341
 30
0.0
 40
36.0
 50
308.17385692872438
 51
231.82614307127551
  0
LINE
  5
822D
  8
1
 10
-34.42464577278588
 20
1107.1583713860341
 30
0.0
 11
0.5753542272159394
 21
1107.1583713860359
 31
0.0
  0
LINE
  5
822E
  8
2
  6
CENTER
 10
-58.896495849156061
 20
1157.1583713860341
 30
0.0
 11
25.057504827858789
 21
1157.1583713860341
 31
0.0
  0
ARC
  5
822F
  8
1
 10
-16.924645772787692
 20
1157.1583713860341
 30
0.0
 40
20.0
 50
299.99999999999733
 51
240.00000000000259
  0
LINE
  5
8230
  8
1
 10
-6.9246457727876978
 20
1139.8378633103459
 30
0.0
 11
-4.8149204118708431
 21
1137.72813794943
 31
0.0
  0
LINE
  5
8231
  8
1
 10
-26.92464577278588
 20
1139.8378633103459
 30
0.0
 11
-29.034371133700908
 21
1137.72813794943
 31
0.0
  0
LINE
  5
8232
  8
1
 10
-29.034371133700908
 20
1137.72813794943
 30
0.0
 11
-4.8149204118708431
 21
1137.72813794943
 31
0.0
  0
LINE
  5
8233
  8
1
 10
-26.92464577278588
 20
1139.8378633103459
 30
0.0
 11
-6.9246457727876978
 21
1139.8378633103459
 31
0.0
  0
LINE
  5
8234
  8
1
 10
5008.9228134012164
 20
1107.1583713860341
 30
0.0
 11
4973.9228134012128
 21
1107.1583713860359
 31
0.0
  0
LINE
  5
8235
  8
1
 10
4973.9228134012128
 20
1107.1583713860359
 30
0.0
 11
4979.3130880402987
 21
1137.72813794943
 31
0.0
  0
LINE
  5
8236
  8
1
 10
4983.4228134012146
 20
1185.1583713860341
 30
0.0
 11
4983.4228134012146
 21
1121.500773562859
 31
0.0
  0
LINE
  5
8237
  8
1
 10
4999.4228134012146
 20
1185.1583713860341
 30
0.0
 11
4999.4228134012146
 21
1121.500773562859
 31
0.0
  0
LINE
  5
8238
  8
1
 10
5008.9228134012174
 20
1107.1583713860359
 30
0.0
 11
5003.5325387621297
 21
1137.72813794943
 31
0.0
  0
ARC
  5
8239
  8
1
 10
4991.4228134012146
 20
1121.500773562859
 30
0.0
 40
8.0
 50
180.0
 51
0.000000000000007
  0
LINE
  5
823A
  8
1
 10
5001.4228134012164
 20
1139.8378633103459
 30
0.0
 11
4999.4228134012146
 21
1139.8378633103459
 31
0.0
  0
LINE
  5
823B
  8
1
 10
5003.5325387621297
 20
1137.72813794943
 30
0.0
 11
4999.4228134012146
 21
1137.72813794943
 31
0.0
  0
LINE
  5
823C
  8
1
 10
5001.4228134012164
 20
1139.8378633103459
 30
0.0
 11
5003.5325387621297
 21
1137.72813794943
 31
0.0
  0
LINE
  5
823D
  8
1
 10
4983.4228134012146
 20
1139.8378633103459
 30
0.0
 11
4981.4228134012146
 21
1139.8378633103459
 31
0.0
  0
LINE
  5
823E
  8
1
 10
4983.4228134012146
 20
1137.72813794943
 30
0.0
 11
4979.3130880402987
 21
1137.72813794943
 31
0.0
  0
LINE
  5
823F
  8
1
 10
4981.4228134012146
 20
1139.8378633103459
 30
0.0
 11
4979.3130880402987
 21
1137.72813794943
 31
0.0
  0
ARC
  5
8240
  8
1
 10
4991.4228134012146
 20
1185.1583713860341
 30
0.0
 40
8.0
 50
0.000000000000007
 51
180.0
  0
LINE
  5
8241
  8
1
 10
3553.9228134012119
 20
1107.1583713860359
 30
0.0
 11
3559.3130880402991
 21
1137.72813794943
 31
0.0
  0
LINE
  5
8242
  8
1
 10
3563.4228134012151
 20
1185.1583713860341
 30
0.0
 11
3563.4228134012151
 21
1121.500773562859
 31
0.0
  0
LINE
  5
8243
  8
1
 10
3579.4228134012151
 20
1185.1583713860341
 30
0.0
 11
3579.4228134012151
 21
1121.500773562859
 31
0.0
  0
LINE
  5
8244
  8
1
 10
3588.9228134012151
 20
1107.1583713860359
 30
0.0
 11
3583.5325387621301
 21
1137.72813794943
 31
0.0
  0
LINE
  5
8245
  8
1
 10
3553.9228134012151
 20
1107.1583713860341
 30
0.0
 11
3588.9228134012151
 21
1107.1583713860359
 31
0.0
  0
ARC
  5
8246
  8
1
 10
3571.4228134012151
 20
1121.500773562859
 30
0.0
 40
8.0
 50
180.0
 51
0.000000000000007
  0
LINE
  5
8247
  8
1
 10
3581.4228134012151
 20
1139.8378633103459
 30
0.0
 11
3583.5325387621301
 21
1137.72813794943
 31
0.0
  0
LINE
  5
8248
  8
1
 10
3579.4228134012151
 20
1137.72813794943
 30
0.0
 11
3583.5325387621301
 21
1137.72813794943
 31
0.0
  0
LINE
  5
8249
  8
1
 10
3579.4228134012151
 20
1139.8378633103459
 30
0.0
 11
3581.4228134012151
 21
1139.8378633103459
 31
0.0
  0
LINE
  5
824A
  8
1
 10
3561.422813401216
 20
1139.8378633103459
 30
0.0
 11
3559.3130880402991
 21
1137.72813794943
 31
0.0
  0
LINE
  5
824B
  8
1
 10
3559.3130880402991
 20
1137.72813794943
 30
0.0
 11
3563.4228134012151
 21
1137.72813794943
 31
0.0
  0
LINE
  5
824C
  8
1
 10
3561.422813401216
 20
1139.8378633103459
 30
0.0
 11
3563.4228134012151
 21
1139.8378633103459
 31
0.0
  0
ARC
  5
824D
  8
1
 10
3571.4228134012151
 20
1185.1583713860341
 30
0.0
 40
8.0
 50
0.000000000000007
 51
180.0
  0
LINE
  5
824E
  8
1
 10
4514.4228134012128
 20
530.15837138603536
 30
0.0
 11
4514.4228134012164
 21
-505.84162861396447
 31
0.0
  0
LINE
  5
824F
  8
1
 10
3758.422813401216
 20
530.15837138603536
 30
0.0
 11
3758.422813401216
 21
-505.84162861396447
 31
0.0
  0
LINE
  5
8250
  8
1
 10
4514.4228134012164
 20
530.15837138603536
 30
0.0
 11
3758.422813401216
 21
530.15837138603536
 31
0.0
  0
LINE
  5
8251
  8
1
 10
4514.4228134012164
 20
-505.84162861396447
 30
0.0
 11
3758.422813401216
 21
-505.84162861396447
 31
0.0
  0
LINE
  5
8252
  8
1
 10
4564.4228134012164
 20
580.15837138603536
 30
0.0
 11
3708.4228134012151
 21
580.15837138603536
 31
0.0
  0
LINE
  5
8253
  8
1
 10
4564.4228134012164
 20
-555.84162861396453
 30
0.0
 11
3708.4228134012151
 21
-555.84162861396453
 31
0.0
  0
LINE
  5
8254
  8
1
 10
3708.4228134012151
 20
580.15837138603536
 30
0.0
 11
3708.4228134012151
 21
-555.84162861396453
 31
0.0
  0
LINE
  5
8255
  8
1
 10
4564.4228134012164
 20
580.15837138603536
 30
0.0
 11
4564.4228134012164
 21
-555.84162861396453
 31
0.0
  0
LINE
  5
8256
  8
0
 10
4514.4228134012164
 20
-505.84162861396447
 30
0.0
 11
3758.422813401216
 21
530.15837138603536
 31
0.0
  0
LINE
  5
8257
  8
0
 10
3758.422813401216
 20
-505.84162861396447
 30
0.0
 11
4514.4228134012128
 21
530.15837138603536
 31
0.0
  0
LINE
  5
8258
  8
0
 10
-1725.1446051614421
 20
-505.84162861396447
 30
0.0
 11
-2481.1446051614421
 21
530.15837138603536
 31
0.0
  0
LINE
  5
8259
  8
0
 10
-2481.1446051614421
 20
-505.84162861396447
 30
0.0
 11
-1725.1446051614439
 21
530.15837138603536
 31
0.0
  0
LINE
  5
825A
  8
1
 10
-1675.1446051614421
 20
580.15837138603536
 30
0.0
 11
-1675.1446051614421
 21
-555.84162861396453
 31
0.0
  0
LINE
  5
825B
  8
1
 10
-2531.1446051614398
 20
580.15837138603536
 30
0.0
 11
-2531.1446051614398
 21
-555.84162861396453
 31
0.0
  0
LINE
  5
825C
  8
1
 10
-1725.1446051614439
 20
530.15837138603536
 30
0.0
 11
-1725.1446051614421
 21
-505.84162861396447
 31
0.0
  0
LINE
  5
825D
  8
1
 10
-2481.1446051614421
 20
530.15837138603536
 30
0.0
 11
-2481.1446051614421
 21
-505.84162861396447
 31
0.0
  0
LINE
  5
825E
  8
1
 10
-1198.1446051614421
 20
1107.1583713860341
 30
0.0
 11
-1198.1446051614421
 21
-607.84162861396453
 31
0.0
  0
LINE
  5
825F
  8
1
 10
-2718.1446051614421
 20
1107.1583713860341
 30
0.0
 11
-2718.1446051614421
 21
-607.84162861396453
 31
0.0
  0
LINE
  5
8260
  8
2
 10
-2103.1446051614421
 20
1426.6233438220829
 30
0.0
 11
-2103.1446051614421
 21
999.32473866430519
 31
0.0
  0
LINE
  5
8261
  8
1
 10
-1675.1446051614421
 20
-555.84162861396453
 30
0.0
 11
-2531.1446051614398
 21
-555.84162861396453
 31
0.0
  0
LINE
  5
8262
  8
1
 10
-1725.1446051614421
 20
-505.84162861396447
 30
0.0
 11
-2481.1446051614421
 21
-505.84162861396447
 31
0.0
  0
LINE
  5
8263
  8
1
 10
-2718.1446051614421
 20
-707.84162861396453
 30
0.0
 11
-1198.1446051614421
 21
-707.84162861396453
 31
0.0
  0
LINE
  5
8264
  8
1
 10
-2718.1446051614421
 20
-607.84162861396453
 30
0.0
 11
-1198.1446051614421
 21
-607.84162861396453
 31
0.0
  0
LINE
  5
8265
  8
1
 10
-2682.2730477339642
 20
-616.52023716890687
 30
0.0
 11
-2714.4932281324309
 21
-613.70133664728098
 31
0.0
  0
LINE
  5
8266
  8
1
 10
-2668.1446051614421
 20
-607.84162861396453
 30
0.0
 11
-2718.1446051614398
 21
-607.84162861396453
 31
0.0
  0
LINE
  5
8267
  8
1
 10
-2682.2730477339642
 20
-699.16302005902162
 30
0.0
 11
-2714.4932281324309
 21
-701.98192058064751
 31
0.0
  0
LINE
  5
8268
  8
1
 10
-2668.1446051614421
 20
-707.84162861396453
 30
0.0
 11
-2718.1446051614398
 21
-707.84162861396453
 31
0.0
  0
ARC
  5
8269
  8
1
 10
-2714.1446051614398
 20
-705.96669937301465
 30
0.0
 40
4.0
 50
94.99999999999973
 51
180.0
  0
LINE
  5
826A
  8
1
 10
-2718.1446051614398
 20
-707.84162861396453
 30
0.0
 11
-2718.1446051614398
 21
-705.96669937301465
 31
0.0
  0
ARC
  5
826B
  8
1
 10
-2714.1446051614398
 20
-609.71655785491384
 30
0.0
 40
4.0
 50
180.0
 51
265.00000000000028
  0
LINE
  5
826C
  8
1
 10
-2718.1446051614398
 20
-607.84162861396453
 30
0.0
 11
-2718.1446051614398
 21
-609.71655785491384
 31
0.0
  0
LINE
  5
826D
  8
1
 10
-2668.1446051614421
 20
-607.84162861396453
 30
0.0
 11
-2668.1446051614421
 21
-707.84162861396453
 31
0.0
  0
LINE
  5
826E
  8
1
 10
-2673.1446051614421
 20
-626.48218414982421
 30
0.0
 11
-2673.1446051614398
 21
-689.2010730781044
 31
0.0
  0
ARC
  5
826F
  8
1
 10
-2683.1446051614421
 20
-689.2010730781044
 30
0.0
 40
10.0
 50
274.99999999999972
 51
0.000000000000007
  0
ARC
  5
8270
  8
1
 10
-2683.1446051614421
 20
-626.48218414982421
 30
0.0
 40
10.0
 50
0.000000000000007
 51
85.000000000000284
  0
LINE
  5
8271
  8
1
 10
-1248.1446051614421
 20
-607.84162861396453
 30
0.0
 11
-1248.1446051614421
 21
-707.84162861396453
 31
0.0
  0
LINE
  5
8272
  8
1
 10
-1234.0161625889191
 20
-616.52023716890687
 30
0.0
 11
-1201.795982190451
 21
-613.70133664728098
 31
0.0
  0
ARC
  5
8273
  8
1
 10
-1233.1446051614421
 20
-626.48218414982421
 30
0.0
 40
10.0
 50
94.99999999999973
 51
180.0
  0
ARC
  5
8274
  8
1
 10
-1233.1446051614421
 20
-689.2010730781044
 30
0.0
 40
10.0
 50
180.0
 51
265.00000000000028
  0
LINE
  5
8275
  8
1
 10
-1248.1446051614421
 20
-707.84162861396453
 30
0.0
 11
-1198.1446051614421
 21
-707.84162861396453
 31
0.0
  0
LINE
  5
8276
  8
1
 10
-1243.1446051614421
 20
-626.48218414982421
 30
0.0
 11
-1243.1446051614421
 21
-689.2010730781044
 31
0.0
  0
LINE
  5
8277
  8
1
 10
-1234.0161625889191
 20
-699.16302005902162
 30
0.0
 11
-1201.795982190451
 21
-701.98192058064751
 31
0.0
  0
LINE
  5
8278
  8
1
 10
-1198.1446051614421
 20
-707.84162861396453
 30
0.0
 11
-1198.1446051614421
 21
-705.96669937301465
 31
0.0
  0
ARC
  5
8279
  8
1
 10
-1202.1446051614421
 20
-705.96669937301465
 30
0.0
 40
4.0
 50
0.000000000000007
 51
85.000000000000284
  0
LINE
  5
827A
  8
1
 10
-1248.1446051614421
 20
-607.84162861396453
 30
0.0
 11
-1198.1446051614421
 21
-607.84162861396453
 31
0.0
  0
LINE
  5
827B
  8
1
 10
-1198.1446051614421
 20
-607.84162861396453
 30
0.0
 11
-1198.1446051614421
 21
-609.71655785491384
 31
0.0
  0
ARC
  5
827C
  8
1
 10
-1202.1446051614421
 20
-609.71655785491384
 30
0.0
 40
4.0
 50
274.99999999999972
 51
0.000000000000007
  0
LINE
  5
827D
  8
1
 10
-1675.1446051614421
 20
580.15837138603536
 30
0.0
 11
-2531.1446051614398
 21
580.15837138603536
 31
0.0
  0
LINE
  5
827E
  8
1
 10
-1725.1446051614421
 20
530.15837138603536
 30
0.0
 11
-2481.1446051614421
 21
530.15837138603536
 31
0.0
  0
LINE
  5
827F
  8
2
  6
CENTER
 10
-1442.2860647279031
 20
12.15837138603546
 30
0.0
 11
-2789.0686232602911
 21
12.15837138603546
 31
0.0
  0
LINE
  5
8280
  8
1
 10
-2718.1446051614421
 20
1107.1583713860341
 30
0.0
 11
-1198.1446051614421
 21
1107.1583713860341
 31
0.0
  0
LINE
  5
8281
  8
1
 10
-2685.6446051614439
 20
1107.1583713860359
 30
0.0
 11
-2680.2543305223589
 21
1137.72813794943
 31
0.0
  0
LINE
  5
8282
  8
1
 10
-2676.1446051614421
 20
1185.1583713860341
 30
0.0
 11
-2676.1446051614421
 21
1121.500773562859
 31
0.0
  0
LINE
  5
8283
  8
1
 10
-2660.1446051614421
 20
1185.1583713860341
 30
0.0
 11
-2660.1446051614421
 21
1121.500773562859
 31
0.0
  0
LINE
  5
8284
  8
1
 10
-2650.6446051614398
 20
1107.1583713860359
 30
0.0
 11
-2656.0348798005248
 21
1137.72813794943
 31
0.0
  0
LINE
  5
8285
  8
1
 10
-2685.6446051614421
 20
1107.1583713860341
 30
0.0
 11
-2650.6446051614398
 21
1107.1583713860359
 31
0.0
  0
ARC
  5
8286
  8
1
 10
-2668.1446051614421
 20
1121.500773562859
 30
0.0
 40
8.0
 50
180.0
 51
0.000000000000007
  0
LINE
  5
8287
  8
1
 10
-2658.1446051614421
 20
1139.8378633103459
 30
0.0
 11
-2656.0348798005248
 21
1137.72813794943
 31
0.0
  0
LINE
  5
8288
  8
1
 10
-2660.1446051614421
 20
1137.72813794943
 30
0.0
 11
-2656.0348798005248
 21
1137.72813794943
 31
0.0
  0
LINE
  5
8289
  8
1
 10
-2660.1446051614421
 20
1139.8378633103459
 30
0.0
 11
-2658.1446051614421
 21
1139.8378633103459
 31
0.0
  0
LINE
  5
828A
  8
1
 10
-2678.1446051614439
 20
1139.8378633103459
 30
0.0
 11
-2680.2543305223589
 21
1137.72813794943
 31
0.0
  0
LINE
  5
828B
  8
1
 10
-2680.2543305223589
 20
1137.72813794943
 30
0.0
 11
-2676.1446051614421
 21
1137.72813794943
 31
0.0
  0
LINE
  5
828C
  8
1
 10
-2678.1446051614439
 20
1139.8378633103459
 30
0.0
 11
-2676.1446051614421
 21
1139.8378633103459
 31
0.0
  0
ARC
  5
828D
  8
1
 10
-2668.1446051614421
 20
1185.1583713860341
 30
0.0
 40
8.0
 50
0.000000000000007
 51
180.0
  0
LINE
  5
828E
  8
1
 10
-1265.6446051614421
 20
1107.1583713860359
 30
0.0
 11
-1260.2543305223569
 21
1137.72813794943
 31
0.0
  0
LINE
  5
828F
  8
1
 10
-1256.1446051614421
 20
1185.1583713860341
 30
0.0
 11
-1256.1446051614421
 21
1121.500773562859
 31
0.0
  0
LINE
  5
8290
  8
1
 10
-1240.14460516144
 20
1185.1583713860341
 30
0.0
 11
-1240.14460516144
 21
1121.500773562859
 31
0.0
  0
LINE
  5
8291
  8
1
 10
-1230.644605161438
 20
1107.1583713860359
 30
0.0
 11
-1236.034879800525
 21
1137.72813794943
 31
0.0
  0
ARC
  5
8292
  8
1
 10
-1248.14460516144
 20
1121.500773562859
 30
0.0
 40
8.0
 50
180.0
 51
0.000000000000007
  0
LINE
  5
8293
  8
1
 10
-1230.64460516144
 20
1107.1583713860341
 30
0.0
 11
-1265.6446051614421
 21
1107.1583713860359
 31
0.0
  0
ARC
  5
8294
  8
1
 10
-1248.14460516144
 20
1185.1583713860341
 30
0.0
 40
8.0
 50
0.000000000000007
 51
180.0
  0
LINE
  5
8295
  8
1
 10
-1256.1446051614421
 20
1139.8378633103459
 30
0.0
 11
-1258.14460516144
 21
1139.8378633103459
 31
0.0
  0
LINE
  5
8296
  8
1
 10
-1256.1446051614421
 20
1137.72813794943
 30
0.0
 11
-1260.2543305223569
 21
1137.72813794943
 31
0.0
  0
LINE
  5
8297
  8
1
 10
-1258.14460516144
 20
1139.8378633103459
 30
0.0
 11
-1260.2543305223569
 21
1137.72813794943
 31
0.0
  0
LINE
  5
8298
  8
1
 10
-1238.1446051614421
 20
1139.8378633103459
 30
0.0
 11
-1240.14460516144
 21
1139.8378633103459
 31
0.0
  0
LINE
  5
8299
  8
1
 10
-1236.034879800525
 20
1137.72813794943
 30
0.0
 11
-1240.14460516144
 21
1137.72813794943
 31
0.0
  0
LINE
  5
829A
  8
1
 10
-1238.1446051614421
 20
1139.8378633103459
 30
0.0
 11
-1236.034879800525
 21
1137.72813794943
 31
0.0
  0
LINE
  5
829B
  8
1
 10
5056.4228134012164
 20
1102.1583713860341
 30
0.0
 11
5056.4228134012164
 21
-602.84162861396453
 31
0.0
  0
LINE
  5
829C
  8
1
 10
3506.4228134012151
 20
1102.1583713860341
 30
0.0
 11
3506.4228134012151
 21
-602.84162861396453
 31
0.0
  0
LINE
  5
829D
  8
1
 10
-1183.1446051614421
 20
1102.1583713860341
 30
0.0
 11
-1183.1446051614421
 21
-602.84162861396453
 31
0.0
  0
LINE
  5
829E
  8
1
 10
-2733.1446051614421
 20
1102.158371386035
 30
0.0
 11
-2733.1446051614421
 21
-602.84162861396453
 31
0.0
  0
LINE
  5
829F
  8
1
 10
5041.4228134012146
 20
1102.1583713860341
 30
0.0
 11
5056.4228134012164
 21
1102.1583713860341
 31
0.0
  0
LINE
  5
82A0
  8
1
 10
5041.4228134012137
 20
-602.84162861396453
 30
0.0
 11
5056.4228134012164
 21
-602.84162861396453
 31
0.0
  0
LINE
  5
82A1
  8
1
 10
3521.4228134012151
 20
1102.1583713860341
 30
0.0
 11
3506.4228134012151
 21
1102.1583713860341
 31
0.0
  0
LINE
  5
82A2
  8
1
 10
3521.4228134012151
 20
-602.84162861396453
 30
0.0
 11
3506.4228134012151
 21
-602.84162861396453
 31
0.0
  0
LINE
  5
82A3
  8
1
 10
-1198.1446051614421
 20
1102.1583713860341
 30
0.0
 11
-1183.1446051614421
 21
1102.1583713860341
 31
0.0
  0
LINE
  5
82A4
  8
1
 10
-1198.1446051614421
 20
-602.84162861396453
 30
0.0
 11
-1183.1446051614421
 21
-602.84162861396453
 31
0.0
  0
LINE
  5
82A5
  8
1
 10
-2718.1446051614421
 20
-602.84162861396453
 30
0.0
 11
-2733.1446051614421
 21
-602.84162861396453
 31
0.0
  0
LINE
  5
82A6
  8
4
 10
5303.3185796854659
 20
-2731.5296037572621
 30
0.0
 11
5303.3185796854659
 21
-3731.5296037572621
 31
0.0
  0
LINE
  5
82A7
  8
4
 10
1803.318579685465
 20
-2731.5296037572621
 30
0.0
 11
1803.318579685465
 21
-3731.5296037572621
 31
0.0
  0
LINE
  5
82A8
  8
4
 10
-696.68142031453294
 20
-2731.5296037572621
 30
0.0
 11
-696.68142031453294
 21
-3731.5296037572621
 31
0.0
  0
LINE
  5
82AB
  8
4
 10
-696.68142031453294
 20
-3731.5296037572621
 30
0.0
 11
5303.3185796854659
 21
-3731.5296037572621
 31
0.0
  0
LINE
  5
82AC
  8
4
 10
-696.68142031453294
 20
-3231.5296037572621
 30
0.0
 11
5303.3185796854659
 21
-3231.5296037572621
 31
0.0
  0
TEXT
  5
82AD
  8
4
 10
-504.17101608002469
 20
-3073.8144744241981
 30
0.0
 40
250.0
  1
機器名称
  0
TEXT
  5
82AE
  8
4
 10
-515.39089019054518
 20
-3623.3038200972078
 30
0.0
 40
250.0
  1
機器型番
  0
TEXT
  5
82AF
  8
4
 10
1941.7123071237911
 20
-3118.6707589694201
 30
0.0
 40
250.0
  1
ミツヤファンユニット
  0
TEXT
  5
82B0
  8
4
 10
1986.591057612869
 20
-3645.7316823575461
 30
0.0
 40
250.0
  1
MFU#5004-4
  0
TEXT
  5
82B2
  8
4
 10
577.24740701548558
 20
6685.6146029053161
 30
0.0
 40
270.0
  1
床置ベット
  0
TEXT
  5
82B3
  8
4
 10
-2574.195884536472
 20
7437.8752772392281
 30
0.0
 40
360.0
  1
ベルト駆動式消音ボックス付多翼ファン
  0
LINE
  5
82B4
  8
4
 10
-2696.6814203145332
 20
7115.5141675667619
 30
0.0
 11
5303.3185796854659
 21
7115.5141675667619
 31
0.0
  0
LINE
  5
82B5
  8
4
 10
-2696.6814203145332
 20
8115.5141675667628
 30
0.0
 11
5303.3185796854659
 21
8115.5141675667628
 31
0.0
  0
LINE
  5
82B6
  8
4
 10
-696.68142031453294
 20
-2731.5296037572621
 30
0.0
 11
5303.3185796854659
 21
-2731.5296037572621
 31
0.0
  0
LINE
  5
82B7
  8
4
 10
-2696.6814203145332
 20
8115.5141675667628
 30
0.0
 11
-2696.6814203145332
 21
7115.5141675667619
 31
0.0
  0
TEXT
  5
82B8
  8
4
 10
-1602.0467541980249
 20
6680.0677839744567
 30
0.0
 40
270.0
  1
左回転右横向
  0
TEXT
  5
82B9
  8
4
 10
3398.1663759319158
 20
8298.7758037192816
 30
0.0
 40
280.0
  1
No.
  0
TEXT
  5
82BA
  8
4
 10
2609.7988926855319
 20
6685.6146029053161
 30
0.0
 40
270.0
  1
縮尺：1/50
  0
LINE
  5
82BB
  8
4
 10
5303.3185796854659
 20
8115.5141675667628
 30
0.0
 11
5303.3185796854659
 21
7115.5141675667619
 31
0.0
  0
LINE
  5
82BC
  8
4
 10
6553.3185796854659
 20
9518.4703962427375
 30
0.0
 11
6553.3185796854659
 21
9518.4703962427375
 31
0.0
  0
LINE
  5
82BD
  8
4
 10
3256.4056914847879
 20
8174.7883118697446
 30
0.0
 11
3256.4056914847879
 21
8701.7317039914997
 31
0.0
  0
LINE
  5
82BE
  8
4
 10
3256.4056914847879
 20
8701.7317039914997
 30
0.0
 11
5303.3185796854659
 21
8701.7317039914997
 31
0.0
  0
LINE
  5
82BF
  8
4
 10
5303.3185796854659
 20
8701.7317039914997
 30
0.0
 11
5303.3185796854659
 21
8174.7883118697446
 31
0.0
  0
LINE
  5
82C0
  8
4
 10
5303.3185796854659
 20
8174.7883118697446
 30
0.0
 11
3256.4056914847879
 21
8174.7883118697446
 31
0.0
  0
LINE
  5
82C1
  8
4
 10
-3946.6814203145332
 20
-5231.5296037572616
 30
0.0
 11
-3946.6814203145332
 21
9518.4703962427375
 31
0.0
  0
LINE
  5
82C2
  8
4
 10
-3946.6814203145332
 20
9518.4703962427375
 30
0.0
 11
6553.3185796854659
 21
9518.4703962427375
 31
0.0
  0
LINE
  5
82C3
  8
4
 10
6553.3185796854659
 20
9518.4703962427375
 30
0.0
 11
6553.3185796854659
 21
-5231.5296037572616
 31
0.0
  0
LINE
  5
82C4
  8
4
 10
6553.3185796854659
 20
-5231.5296037572616
 30
0.0
 11
-3946.6814203145332
 21
-5231.5296037572616
 31
0.0
  0
DIMENSION
  5
82C6
  8
3
  2
*D2
 10
-941.63067618821515
 20
3119.5234164060821
 30
0.0
 11
-1066.6306761882149
 21
3879.5234164060821
 31
0.0
 70
     0
 13
-146.92464577278579
 23
4639.5234164060821
 33
0.0
 14
-146.92464577278579
 24
3119.5234164060821
 34
0.0
 50
90.0
1001
ACAD
1000
DSTYLE
1002
{
1070
   287
1070
     3
1070
   287
1070
     3
1070
    40
1040
50.0
1070
   143
1040
0.039
1070
   172
1070
     1
1070
   173
1070
     0
1070
   271
1070
     4
1070
   272
1070
     4
1070
   279
1070
     0
1070
   284
1070
     0
1070
   285
1070
     0
1070
   286
1070
     0
1070
   341
1005
833E
1070
     5
1000
OPEN
1002
}
  0
DIMENSION
  5
831B
  8
3
  2
*D5
 10
-146.92464577278579
 20
5419.8220586490488
 30
0.0
 11
913.07535422721355
 21
5544.8220586490488
 31
0.0
 70
     0
 13
1973.075354227213
 23
4639.5234164060821
 33
0.0
 14
-146.92464577278579
 24
4639.5234164060821
 34
0.0
 50
180.0
1001
ACAD
1000
DSTYLE
1002
{
1070
   287
1070
     3
1070
   287
1070
     3
1070
    40
1040
50.0
1070
   143
1040
0.039
1070
   172
1070
     1
1070
   173
1070
     0
1070
   271
1070
     4
1070
   272
1070
     4
1070
   279
1070
     0
1070
   284
1070
     0
1070
   285
1070
     0
1070
   286
1070
     0
1070
   341
1005
833E
1070
     5
1000
OPEN
1002
}
  0
DIMENSION
  5
8331
  8
3
  2
*D6
 10
-2103.1446051614421
 20
1683.8647666646791
 30
0.0
 11
-1650.6446051614421
 21
1808.8647666646791
 31
0.0
 70
     0
 13
-1198.1446051614421
 23
1107.1583713860341
 33
0.0
 14
-2103.1446051614421
 24
1426.6233438220829
 34
0.0
 50
180.0
1001
ACAD
1000
DSTYLE
1002
{
1070
   287
1070
     3
1070
   287
1070
     3
1070
    40
1040
50.0
1070
   143
1040
0.039
1070
   172
1070
     1
1070
   173
1070
     0
1070
   271
1070
     4
1070
   272
1070
     4
1070
   279
1070
     0
1070
   284
1070
     0
1070
   285
1070
     0
1070
   286
1070
     0
1070
   341
1005
833E
1070
     5
1000
OPEN
1002
}
  0
LINE
  5
835F
  8
1
 10
-2718.1446051614421
 20
1102.1583713860341
 30
0.0
 11
-2733.1446051614421
 21
1102.158371386035
 31
0.0
  0
DIMENSION
  5
8360
  8
3
  2
*D8
 10
-2718.1446051614421
 20
1683.8647666646791
 30
0.0
 11
-2410.6446051614421
 21
1808.8647666646791
 31
0.0
 70
     0
 13
-2103.1446051614421
 23
1426.6233438220829
 33
0.0
 14
-2718.1446051614421
 24
1107.1583713860341
 34
0.0
 50
180.0
1001
ACAD
1000
DSTYLE
1002
{
1070
   287
1070
     4
1070
   287
1070
     4
1070
    40
1040
50.0
1070
   143
1040
0.039
1070
   172
1070
     1
1070
   173
1070
     0
1070
   271
1070
     4
1070
   272
1070
     4
1070
   279
1070
     1
1070
   284
1070
     0
1070
   285
1070
     0
1070
   286
1070
     0
1070
   341
1005
833E
1070
     5
1000
OPEN
1002
}
  0
DIMENSION
  5
836D
  8
3
  2
*D9
 10
-2718.1446051614421
 20
-1480.9648606121409
 30
0.0
 11
-1958.1446051614421
 21
-1355.9648606121409
 31
0.0
 70
     0
 13
-1198.1446051614421
 23
-707.84162861396442
 33
0.0
 14
-2718.1446051614421
 24
-707.84162861396442
 34
0.0
 50
180.0
1001
ACAD
1000
DSTYLE
1002
{
1070
   287
1070
     3
1070
   287
1070
     3
1070
    40
1040
50.0
1070
   143
1040
0.039
1070
   172
1070
     1
1070
   173
1070
     0
1070
   271
1070
     4
1070
   272
1070
     4
1070
   279
1070
     0
1070
   284
1070
     0
1070
   285
1070
     0
1070
   286
1070
     0
1070
   341
1005
833E
1070
     5
1000
OPEN
1002
}
  0
DIMENSION
  5
837A
  8
3
  2
*D10
 10
-3269.2498844514189
 20
-505.84162861396442
 30
0.0
 11
-3394.2498844514189
 21
12.15837138603508
 31
0.0
 70
     0
 13
-2481.1446051614421
 23
530.15837138603536
 33
0.0
 14
-2481.1446051614421
 24
-505.84162861396459
 34
0.0
 50
90.0
1001
ACAD
1000
DSTYLE
1002
{
1070
   287
1070
     3
1070
   287
1070
     3
1070
    40
1040
50.0
1070
   143
1040
0.039
1070
   172
1070
     1
1070
   173
1070
     0
1070
   271
1070
     4
1070
   272
1070
     4
1070
   279
1070
     0
1070
   284
1070
     0
1070
   285
1070
     0
1070
   286
1070
     0
1070
   341
1005
833E
1070
     5
1000
OPEN
1002
}
  0
DIMENSION
  5
8387
  8
3
  2
*D11
 10
-1725.1446051614421
 20
748.78398943477805
 30
0.0
 11
-2103.1446051614421
 21
873.78398943477805
 31
0.0
 70
     0
 13
-2481.1446051614421
 23
530.15837138603536
 33
0.0
 14
-1725.1446051614421
 24
530.15837138603536
 34
0.0
 50
180.0
1001
ACAD
1000
DSTYLE
1002
{
1070
   287
1070
     3
1070
   287
1070
     3
1070
    40
1040
50.0
1070
   143
1040
0.039
1070
   172
1070
     1
1070
   173
1070
     0
1070
   271
1070
     4
1070
   272
1070
     4
1070
   279
1070
     0
1070
   284
1070
     0
1070
   285
1070
     0
1070
   286
1070
     0
1070
   341
1005
833E
1070
     5
1000
OPEN
1002
}
  0
LINE
  5
8395
  8
2
 10
-2103.1446051614421
 20
714.26203620449814
 30
0.0
 11
-2103.1446051614421
 21
-1079.3814471557989
 31
0.0
  0
DIMENSION
  5
8396
  8
3
  2
*D12
 10
1893.075354227213
 20
1684.945703915502
 30
0.0
 11
913.07535422721355
 21
1809.945703915502
 31
0.0
 70
     0
 13
-66.92464577278588
 23
1107.1583713860341
 33
0.0
 14
1893.075354227213
 24
1107.1583713860341
 34
0.0
 50
180.0
1001
ACAD
1000
DSTYLE
1002
{
1070
   287
1070
     3
1070
   287
1070
     3
1070
    40
1040
50.0
1070
   143
1040
0.039
1070
   172
1070
     1
1070
   173
1070
     0
1070
   271
1070
     4
1070
   272
1070
     4
1070
   279
1070
     0
1070
   284
1070
     0
1070
   285
1070
     0
1070
   286
1070
     0
1070
   341
1005
833E
1070
     5
1000
OPEN
1002
}
  0
DIMENSION
  5
83E2
  8
3
  2
*D13
 10
-146.92464577278591
 20
-1542.8837805353389
 30
0.0
 11
913.0753542272131
 21
-1417.8837805353389
 31
0.0
 70
     0
 13
1973.0753542272121
 23
-707.84162861396453
 33
0.0
 14
-146.92464577278579
 24
-707.84162861396453
 34
0.0
 50
180.0
1001
ACAD
1000
DSTYLE
1002
{
1070
   287
1070
     3
1070
   287
1070
     3
1070
    40
1040
50.0
1070
   143
1040
0.039
1070
   172
1070
     1
1070
   173
1070
     0
1070
   271
1070
     4
1070
   272
1070
     4
1070
   279
1070
     0
1070
   284
1070
     0
1070
   285
1070
     0
1070
   286
1070
     0
1070
   341
1005
833E
1070
     5
1000
OPEN
1002
}
  0
DIMENSION
  5
83EF
  8
3
  2
*D14
 10
-790.84161746410246
 20
12.158371386035631
 30
0.0
 11
-915.84161746410246
 21
-347.84162861396442
 31
0.0
 70
     0
 13
-146.92464577278579
 23
-707.84162861396453
 33
0.0
 14
-202.8915529944488
 24
12.15837138603546
 34
0.0
 50
90.0
1001
ACAD
1000
DSTYLE
1002
{
1070
   287
1070
     3
1070
   287
1070
     3
1070
    40
1040
50.0
1070
   143
1040
0.039
1070
   172
1070
     1
1070
   173
1070
     0
1070
   271
1070
     4
1070
   272
1070
     4
1070
   279
1070
     0
1070
   284
1070
     0
1070
   285
1070
     0
1070
   286
1070
     0
1070
   341
1005
833E
1070
     5
1000
OPEN
1002
}
  0
DIMENSION
  5
83FC
  8
3
  2
*D15
 10
2230.4527887025611
 20
12.158371386035419
 30
0.0
 11
2105.4527887025611
 21
-347.84162861396408
 31
0.0
 70
     0
 13
1973.0753542272121
 23
-707.84162861396453
 33
0.0
 14
2070.9874277140188
 24
12.15837138603546
 34
0.0
 50
90.0
1001
ACAD
1000
DSTYLE
1002
{
1070
   287
1070
     3
1070
   287
1070
     3
1070
    40
1040
50.0
1070
   143
1040
0.039
1070
   172
1070
     1
1070
   173
1070
     0
1070
   271
1070
     4
1070
   272
1070
     4
1070
   279
1070
     0
1070
   284
1070
     0
1070
   285
1070
     0
1070
   286
1070
     0
1070
   341
1005
833E
1070
     5
1000
OPEN
1002
}
  0
DIMENSION
  5
8409
  8
3
  2
*D16
 10
2602.6290813106311
 20
1107.1583713860341
 30
0.0
 11
2477.6290813106311
 21
199.65837138603541
 31
0.0
 70
     0
 13
1973.0753542272121
 23
-707.84162861396453
 33
0.0
 14
1893.0753542272139
 24
1107.1583713860341
 34
0.0
 50
90.0
1001
ACAD
1000
DSTYLE
1002
{
1070
   287
1070
     3
1070
   287
1070
     3
1070
    40
1040
50.0
1070
   143
1040
0.039
1070
   172
1070
     1
1070
   173
1070
     0
1070
   271
1070
     4
1070
   272
1070
     4
1070
   279
1070
     0
1070
   284
1070
     0
1070
   285
1070
     0
1070
   286
1070
     0
1070
   341
1005
833E
1070
     5
1000
OPEN
1002
}
  0
DIMENSION
  5
8416
  8
3
  2
*D17
 10
5041.4228134012146
 20
-1516.791371703606
 30
0.0
 11
4281.4228134012146
 21
-1391.791371703606
 31
0.0
 70
     0
 13
3521.4228134012151
 23
-707.84162861396453
 33
0.0
 14
5041.4228134012146
 24
-707.84162861396453
 34
0.0
 50
180.0
1001
ACAD
1000
DSTYLE
1002
{
1070
   287
1070
     3
1070
   287
1070
     3
1070
    40
1040
50.0
1070
   143
1040
0.039
1070
   172
1070
     1
1070
   173
1070
     0
1070
   271
1070
     4
1070
   272
1070
     4
1070
   279
1070
     0
1070
   284
1070
     0
1070
   285
1070
     0
1070
   286
1070
     0
1070
   341
1005
833E
1070
     5
1000
OPEN
1002
}
  0
DIMENSION
  5
8423
  8
3
  2
*D18
 10
3521.4228134012151
 20
1665.2868377935149
 30
0.0
 11
3828.9228134012151
 21
1790.2868377935149
 31
0.0
 70
     0
 13
4136.4228134012164
 23
1426.6233438220829
 33
0.0
 14
3521.4228134012151
 24
1107.1583713860341
 34
0.0
 50
180.0
1001
ACAD
1000
DSTYLE
1002
{
1070
   287
1070
     3
1070
   287
1070
     3
1070
    40
1040
50.0
1070
   143
1040
0.039
1070
   172
1070
     1
1070
   173
1070
     0
1070
   271
1070
     4
1070
   272
1070
     4
1070
   279
1070
     0
1070
   284
1070
     0
1070
   285
1070
     0
1070
   286
1070
     0
1070
   341
1005
833E
1070
     5
1000
OPEN
1002
}
  0
DIMENSION
  5
8430
  8
3
  2
*D19
 10
5041.4228134012146
 20
1665.2868377935149
 30
0.0
 11
4588.9228134012146
 21
1790.2868377935149
 31
0.0
 70
     0
 13
4136.4228134012164
 23
1426.6233438220829
 33
0.0
 14
5041.4228134012146
 24
1107.1583713860341
 34
0.0
 50
180.0
1001
ACAD
1000
DSTYLE
1002
{
1070
   287
1070
     4
1070
   287
1070
     4
1070
    40
1040
50.0
1070
   143
1040
0.039
1070
   172
1070
     1
1070
   173
1070
     0
1070
   271
1070
     4
1070
   272
1070
     4
1070
   279
1070
     1
1070
   284
1070
     0
1070
   285
1070
     0
1070
   286
1070
     0
1070
   341
1005
833E
1070
     5
1000
OPEN
1002
}
  0
DIMENSION
  5
843D
  8
3
  2
*D20
 10
3758.422813401216
 20
746.42342217999976
 30
0.0
 11
4136.4228134012164
 21
871.42342217999976
 31
0.0
 70
     0
 13
4514.4228134012164
 23
530.15837138603536
 33
0.0
 14
3758.422813401216
 24
530.15837138603536
 34
0.0
 50
180.0
1001
ACAD
1000
DSTYLE
1002
{
1070
   287
1070
     3
1070
   287
1070
     3
1070
    40
1040
50.0
1070
   143
1040
0.039
1070
   172
1070
     1
1070
   173
1070
     0
1070
   271
1070
     4
1070
   272
1070
     4
1070
   279
1070
     0
1070
   284
1070
     0
1070
   285
1070
     0
1070
   286
1070
     0
1070
   341
1005
833E
1070
     5
1000
OPEN
1002
}
  0
LINE
  5
844B
  8
2
 10
4136.4228134012164
 20
717.23794257357065
 30
0.0
 11
4136.4228134012164
 21
-1079.3814471557989
 31
0.0
  0
DIMENSION
  5
844C
  8
3
  2
*D21
 10
3147.900082230713
 20
-505.84162861396419
 30
0.0
 11
3022.900082230713
 21
12.158371386036141
 31
0.0
 70
     0
 13
3758.422813401216
 23
530.15837138603536
 33
0.0
 14
3758.422813401216
 24
-505.84162861396447
 34
0.0
 50
90.0
1001
ACAD
1000
DSTYLE
1002
{
1070
   287
1070
     3
1070
   287
1070
     3
1070
    40
1040
50.0
1070
   143
1040
0.039
1070
   172
1070
     1
1070
   173
1070
     0
1070
   271
1070
     4
1070
   272
1070
     4
1070
   279
1070
     0
1070
   284
1070
     0
1070
   285
1070
     0
1070
   286
1070
     0
1070
   341
1005
833E
1070
     5
1000
OPEN
1002
}
  0
ENDSEC
  0
EOF
