  0
SECTION
  2
HEADER
  9
$ACADVER
  1
AC1015
  9
$ACADMAINTVER
 70
     6
  9
$DWGCODEPAGE
  3
ANSI_932
  9
$INSBASE
 10
0.0
 20
0.0
 30
0.0
  9
$EXTMIN
 10
-356.0075023262652
 20
1169.483602061611
 30
0.0
  9
$EXTMAX
 10
10143.99249767373
 20
15919.48360206161
 30
0.0
  9
$LIMMIN
 10
0.0
 20
0.0
  9
$LIMMAX
 10
297.0
 20
210.0
  9
$ORTHOMODE
 70
     1
  9
$REGENMODE
 70
     1
  9
$FILLMODE
 70
     0
  9
$QTEXTMODE
 70
     0
  9
$MIRRTEXT
 70
     1
  9
$LTSCALE
 40
100.0
  9
$ATTMODE
 70
     1
  9
$TEXTSIZE
 40
180.0
  9
$TRACEWID
 40
0.05
  9
$TEXTSTYLE
  7
STANDARD
  9
$CLAYER
  8
3
  9
$CELTYPE
  6
BYLAYER
  9
$CECOLOR
 62
   256
  9
$CELTSCALE
 40
1.0
  9
$DISPSILH
 70
     0
  9
$DIMSCALE
 40
50.0
  9
$DIMASZ
 40
2.0
  9
$DIMEXO
 40
0.5
  9
$DIMDLI
 40
10.0
  9
$DIMRND
 40
0.0
  9
$DIMDLE
 40
0.0
  9
$DIMEXE
 40
1.0
  9
$DIMTP
 40
1.0
  9
$DIMTM
 40
1.0
  9
$DIMTXT
 40
3.0
  9
$DIMCEN
 40
0.0
  9
$DIMTSZ
 40
0.0
  9
$DIMTOL
 70
     0
  9
$DIMLIM
 70
     0
  9
$DIMTIH
 70
     0
  9
$DIMTOH
 70
     0
  9
$DIMSE1
 70
     0
  9
$DIMSE2
 70
     0
  9
$DIMTAD
 70
     1
  9
$DIMZIN
 70
     8
  9
$DIMBLK
  1

  9
$DIMASO
 70
     1
  9
$DIMSHO
 70
     1
  9
$DIMPOST
  1

  9
$DIMAPOST
  1

  9
$DIMALT
 70
     0
  9
$DIMALTD
 70
     2
  9
$DIMALTF
 40
0.039
  9
$DIMLFAC
 40
1.0
  9
$DIMTOFL
 70
     1
  9
$DIMTVP
 40
0.0
  9
$DIMTIX
 70
     0
  9
$DIMSOXD
 70
     0
  9
$DIMSAH
 70
     1
  9
$DIMBLK1
  1
OPEN
  9
$DIMBLK2
  1
OPEN
  9
$DIMSTYLE
  2
IGA
  9
$DIMCLRD
 70
     0
  9
$DIMCLRE
 70
     0
  9
$DIMCLRT
 70
     0
  9
$DIMTFAC
 40
10.0
  9
$DIMGAP
 40
1.0
  9
$DIMJUST
 70
     0
  9
$DIMSD1
 70
     0
  9
$DIMSD2
 70
     0
  9
$DIMTOLJ
 70
     1
  9
$DIMTZIN
 70
     8
  9
$DIMALTZ
 70
     0
  9
$DIMALTTZ
 70
     0
  9
$DIMUPT
 70
     0
  9
$DIMDEC
 70
     0
  9
$DIMTDEC
 70
     0
  9
$DIMALTU
 70
     2
  9
$DIMALTTD
 70
     2
  9
$DIMTXSTY
  7
STANDARD
  9
$DIMAUNIT
 70
     0
  9
$DIMADEC
 70
     0
  9
$DIMALTRND
 40
0.0
  9
$DIMAZIN
 70
     0
  9
$DIMDSEP
 70
    46
  9
$DIMATFIT
 70
     3
  9
$DIMFRAC
 70
     0
  9
$DIMLDRBLK
  1
OPEN
  9
$DIMLUNIT
 70
     2
  9
$DIMLWD
 70
    -2
  9
$DIMLWE
 70
    -2
  9
$DIMTMOVE
 70
     0
  9
$LUNITS
 70
     2
  9
$LUPREC
 70
     3
  9
$SKETCHINC
 40
0.1
  9
$FILLETRAD
 40
50.0
  9
$AUNITS
 70
     0
  9
$AUPREC
 70
     0
  9
$MENU
  1
acad
  9
$ELEVATION
 40
0.0
  9
$PELEVATION
 40
0.0
  9
$THICKNESS
 40
0.0
  9
$LIMCHECK
 70
     0
  9
$CHAMFERA
 40
0.5
  9
$CHAMFERB
 40
0.5
  9
$CHAMFERC
 40
20.0
  9
$CHAMFERD
 40
0.0
  9
$SKPOLY
 70
     0
  9
$TDCREATE
 40
2452810.595890046
  9
$TDUCREATE
 40
2452810.220890046
  9
$TDUPDATE
 40
2456463.573054930
  9
$TDUUPDATE
 40
2456463.198054930
  9
$TDINDWG
 40
0.0867387731
  9
$TDUSRTIMER
 40
0.0867387731
  9
$USRTIMER
 70
     1
  9
$ANGBASE
 50
0.0
  9
$ANGDIR
 70
     0
  9
$PDMODE
 70
     0
  9
$PDSIZE
 40
0.0
  9
$PLINEWID
 40
0.0
  9
$SPLFRAME
 70
     0
  9
$SPLINETYPE
 70
     6
  9
$SPLINESEGS
 70
     8
  9
$HANDSEED
  5
A26C
  9
$SURFTAB1
 70
     6
  9
$SURFTAB2
 70
     6
  9
$SURFTYPE
 70
     6
  9
$SURFU
 70
     6
  9
$SURFV
 70
     6
  9
$UCSBASE
  2

  9
$UCSNAME
  2

  9
$UCSORG
 10
0.0
 20
0.0
 30
0.0
  9
$UCSXDIR
 10
1.0
 20
0.0
 30
0.0
  9
$UCSYDIR
 10
0.0
 20
1.0
 30
0.0
  9
$UCSORTHOREF
  2

  9
$UCSORTHOVIEW
 70
     0
  9
$UCSORGTOP
 10
0.0
 20
0.0
 30
0.0
  9
$UCSORGBOTTOM
 10
0.0
 20
0.0
 30
0.0
  9
$UCSORGLEFT
 10
0.0
 20
0.0
 30
0.0
  9
$UCSORGRIGHT
 10
0.0
 20
0.0
 30
0.0
  9
$UCSORGFRONT
 10
0.0
 20
0.0
 30
0.0
  9
$UCSORGBACK
 10
0.0
 20
0.0
 30
0.0
  9
$PUCSBASE
  2

  9
$PUCSNAME
  2

  9
$PUCSORG
 10
0.0
 20
0.0
 30
0.0
  9
$PUCSXDIR
 10
1.0
 20
0.0
 30
0.0
  9
$PUCSYDIR
 10
0.0
 20
1.0
 30
0.0
  9
$PUCSORTHOREF
  2

  9
$PUCSORTHOVIEW
 70
     0
  9
$PUCSORGTOP
 10
0.0
 20
0.0
 30
0.0
  9
$PUCSORGBOTTOM
 10
0.0
 20
0.0
 30
0.0
  9
$PUCSORGLEFT
 10
0.0
 20
0.0
 30
0.0
  9
$PUCSORGRIGHT
 10
0.0
 20
0.0
 30
0.0
  9
$PUCSORGFRONT
 10
0.0
 20
0.0
 30
0.0
  9
$PUCSORGBACK
 10
0.0
 20
0.0
 30
0.0
  9
$USERI1
 70
     0
  9
$USERI2
 70
     0
  9
$USERI3
 70
     0
  9
$USERI4
 70
     0
  9
$USERI5
 70
     0
  9
$USERR1
 40
0.0
  9
$USERR2
 40
0.0
  9
$USERR3
 40
0.0
  9
$USERR4
 40
0.0
  9
$USERR5
 40
0.0
  9
$WORLDVIEW
 70
     1
  9
$SHADEDGE
 70
     3
  9
$SHADEDIF
 70
    70
  9
$TILEMODE
 70
     1
  9
$MAXACTVP
 70
    16
  9
$PINSBASE
 10
0.0
 20
0.0
 30
0.0
  9
$PLIMCHECK
 70
     0
  9
$PEXTMIN
 10
1.000000000000000E+20
 20
1.000000000000000E+20
 30
1.000000000000000E+20
  9
$PEXTMAX
 10
-1.000000000000000E+20
 20
-1.000000000000000E+20
 30
-1.000000000000000E+20
  9
$PLIMMIN
 10
0.0
 20
0.0
  9
$PLIMMAX
 10
12.0
 20
9.0
  9
$UNITMODE
 70
     0
  9
$VISRETAIN
 70
     0
  9
$PLINEGEN
 70
     0
  9
$PSLTSCALE
 70
     1
  9
$TREEDEPTH
 70
  3020
  9
$CMLSTYLE
  2
STANDARD
  9
$CMLJUST
 70
     0
  9
$CMLSCALE
 40
20.0
  9
$PROXYGRAPHICS
 70
     1
  9
$MEASUREMENT
 70
     1
  9
$CELWEIGHT
370
    -1
  9
$ENDCAPS
280
     0
  9
$JOINSTYLE
280
     0
  9
$LWDISPLAY
290
     0
  9
$INSUNITS
 70
     0
  9
$HYPERLINKBASE
  1

  9
$STYLESHEET
  1

  9
$XEDIT
290
     1
  9
$CEPSNTYPE
380
     0
  9
$PSTYLEMODE
290
     1
  9
$FINGERPRINTGUID
  2
{23B15708-C03F-47C7-ABE1-47DAFDDC7254}
  9
$VERSIONGUID
  2
{DF7762EE-9D7B-4A97-B610-32E6B8881642}
  9
$EXTNAMES
290
     1
  9
$PSVPSCALE
 40
0.0
  9
$OLESTARTUP
290
     0
  0
ENDSEC
  0
SECTION
  2
CLASSES
  0
CLASS
  1
XRECORD
  2
AcDbXrecord
  3
AutoCAD 2000
 90
    32768
280
     0
281
     0
  0
CLASS
  1
OLE2FRAME
  2
AcDbOle2Frame
  3
AutoCAD 2000
 90
    32768
280
     0
281
     1
  0
CLASS
  1
ACDBDICTIONARYWDFLT
  2
AcDbDictionaryWithDefault
  3
AutoCAD 2000
 90
        0
280
     0
281
     0
  0
CLASS
  1
ACDBPLACEHOLDER
  2
AcDbPlaceHolder
  3
AutoCAD 2000
 90
        0
280
     0
281
     0
  0
CLASS
  1
LAYOUT
  2
AcDbLayout
  3
AutoCAD 2000
 90
        0
280
     0
281
     0
  0
ENDSEC
  0
SECTION
  2
TABLES
  0
TABLE
  2
VPORT
  5
8
330
0
100
AcDbSymbolTable
 70
     3
  0
VPORT
  5
A26B
330
8
100
AcDbSymbolTableRecord
100
AcDbViewportTableRecord
  2
*Active
 70
     0
 10
0.0
 20
0.0
 11
1.0
 21
1.0
 12
14025.83746595865
 22
9892.335518437917
 13
0.0
 23
0.0
 14
10.0
 24
10.0
 15
10.0
 25
10.0
 16
0.0
 26
0.0
 36
1.0
 17
0.0
 27
0.0
 37
0.0
 40
17445.70383275261
 41
1.64875491480996
 42
50.0
 43
0.0
 44
0.0
 50
0.0
 51
0.0
 71
     0
 72
   100
 73
     1
 74
     0
 75
     0
 76
     0
 77
     0
 78
     0
281
     0
 65
     1
110
0.0
120
0.0
130
0.0
111
1.0
121
0.0
131
0.0
112
0.0
122
1.0
132
0.0
 79
     0
146
0.0
  0
ENDTAB
  0
TABLE
  2
LTYPE
  5
5
330
0
100
AcDbSymbolTable
 70
     2
  0
LTYPE
  5
13
330
5
100
AcDbSymbolTableRecord
100
AcDbLinetypeTableRecord
  2
BYBLOCK
 70
     0
  3

 72
    65
 73
     0
 40
0.0
  0
LTYPE
  5
14
330
5
100
AcDbSymbolTableRecord
100
AcDbLinetypeTableRecord
  2
BYLAYER
 70
     0
  3

 72
    65
 73
     0
 40
0.0
  0
LTYPE
  5
15
330
5
100
AcDbSymbolTableRecord
100
AcDbLinetypeTableRecord
  2
CONTINUOUS
 70
     0
  3
Solid line
 72
    65
 73
     0
 40
0.0
  0
LTYPE
  5
1F
330
5
100
AcDbSymbolTableRecord
100
AcDbLinetypeTableRecord
  2
CENTER
 70
     0
  3
____ _ ____ _ ____ _ ____ _ ____ _ ____ _ ____ 
 72
    65
 73
     4
 40
2.0
 49
1.25
 74
     0
 49
-0.25
 74
     0
 49
0.25
 74
     0
 49
-0.25
 74
     0
  0
ENDTAB
  0
TABLE
  2
LAYER
  5
2
330
0
100
AcDbSymbolTable
 70
     6
  0
LAYER
  5
F
330
2
100
AcDbSymbolTableRecord
100
AcDbLayerTableRecord
  2
0
 70
     0
 62
     7
  6
CONTINUOUS
370
    -3
390
A25D
  0
LAYER
  5
31
330
2
100
AcDbSymbolTableRecord
100
AcDbLayerTableRecord
  2
3
 70
     0
 62
     2
  6
CONTINUOUS
370
    -3
390
A25D
  0
LAYER
  5
76D0
330
2
100
AcDbSymbolTableRecord
100
AcDbLayerTableRecord
  2
2
 70
     0
 62
     3
  6
CENTER
370
    -3
390
A25D
  0
LAYER
  5
76D1
330
2
100
AcDbSymbolTableRecord
100
AcDbLayerTableRecord
  2
1
 70
     0
 62
     4
  6
CONTINUOUS
370
    -3
390
A25D
  0
LAYER
  5
76D2
330
2
100
AcDbSymbolTableRecord
100
AcDbLayerTableRecord
  2
4
 70
     0
 62
     7
  6
CONTINUOUS
370
    -3
390
A25D
  0
LAYER
  5
7A1C
330
2
100
AcDbSymbolTableRecord
100
AcDbLayerTableRecord
  2
DEFPOINTS
 70
     0
 62
     7
  6
CONTINUOUS
290
     0
370
    -3
390
A25D
  0
ENDTAB
  0
TABLE
  2
STYLE
  5
3
330
0
100
AcDbSymbolTable
 70
     1
  0
STYLE
  5
10
330
3
100
AcDbSymbolTableRecord
100
AcDbTextStyleTableRecord
  2
STANDARD
 70
     0
 40
0.0
 41
1.0
 50
0.0
 71
     0
 42
180.0
  3
simplex.shx
  4
extfont.shx
  0
ENDTAB
  0
TABLE
  2
VIEW
  5
6
330
0
100
AcDbSymbolTable
 70
     0
  0
ENDTAB
  0
TABLE
  2
UCS
  5
7
330
0
100
AcDbSymbolTable
 70
     0
  0
ENDTAB
  0
TABLE
  2
APPID
  5
9
330
0
100
AcDbSymbolTable
 70
     2
  0
APPID
  5
11
330
9
100
AcDbSymbolTableRecord
100
AcDbRegAppTableRecord
  2
ACAD
 70
     0
  0
APPID
  5
7A23
330
9
100
AcDbSymbolTableRecord
100
AcDbRegAppTableRecord
  2
CONTENTBLOCKICON
 70
     0
  0
ENDTAB
  0
TABLE
  2
DIMSTYLE
  5
A
330
0
100
AcDbSymbolTable
 70
     1
100
AcDbDimStyleTable
 71
     0
  0
DIMSTYLE
105
1D
102
{ACAD_REACTORS
330
A033
330
A060
330
A06F
330
A07C
330
A089
330
A096
330
A0A3
330
A0B0
330
A0BD
330
A0D9
330
A0E8
330
A0F5
330
A104
330
A111
330
A1DD
102
}
330
A
100
AcDbSymbolTableRecord
100
AcDbDimStyleTableRecord
  2
IGA
 70
     0
 40
2.0
 41
2.0
 42
0.5
 43
10.0
 44
1.0
 47
1.0
 48
1.0
 73
     0
 74
     0
 77
     1
 78
     8
140
3.0
141
0.0
143
0.03937
146
10.0
147
1.0
173
     1
271
     1
272
     0
279
     2
284
     8
340
10
341
79FC
343
79FC
344
79FC
  0
ENDTAB
  0
TABLE
  2
BLOCK_RECORD
  5
1
330
0
100
AcDbSymbolTable
 70
    17
  0
BLOCK_RECORD
  5
19
330
1
100
AcDbSymbolTableRecord
100
AcDbBlockTableRecord
  2
*MODEL_SPACE
340
A260
  0
BLOCK_RECORD
  5
16
330
1
100
AcDbSymbolTableRecord
100
AcDbBlockTableRecord
  2
*PAPER_SPACE
340
A261
  0
BLOCK_RECORD
  5
79FC
330
1
100
AcDbSymbolTableRecord
100
AcDbBlockTableRecord
  2
_OPEN
340
0
102
{BLKREFS
331
A02C
331
A02D
331
A212
331
A213
331
A237
331
A238
331
A24D
331
A24E
331
A205
331
A206
331
A1FA
331
A1FB
331
A1A1
331
A1A2
331
A1B9
331
A1BA
331
A242
331
A243
331
A196
331
A197
331
A1EF
331
A1F0
331
A1E2
331
A1E3
331
A21F
331
A220
331
A22A
331
A22B
331
A1D6
331
A1D7
102
}
  0
BLOCK_RECORD
  5
7A02
330
1
100
AcDbSymbolTableRecord
100
AcDbBlockTableRecord
  2
L-40-3
340
0
  0
BLOCK_RECORD
  5
A027
330
1
100
AcDbSymbolTableRecord
100
AcDbBlockTableRecord
  2
*D2
340
0
  0
BLOCK_RECORD
  5
A052
330
1
100
AcDbSymbolTableRecord
100
AcDbBlockTableRecord
  2
*D3
340
0
  0
BLOCK_RECORD
  5
A061
330
1
100
AcDbSymbolTableRecord
100
AcDbBlockTableRecord
  2
*D4
340
0
  0
BLOCK_RECORD
  5
A070
330
1
100
AcDbSymbolTableRecord
100
AcDbBlockTableRecord
  2
*D5
340
0
  0
BLOCK_RECORD
  5
A07D
330
1
100
AcDbSymbolTableRecord
100
AcDbBlockTableRecord
  2
*D6
340
0
  0
BLOCK_RECORD
  5
A08A
330
1
100
AcDbSymbolTableRecord
100
AcDbBlockTableRecord
  2
*D7
340
0
  0
BLOCK_RECORD
  5
A097
330
1
100
AcDbSymbolTableRecord
100
AcDbBlockTableRecord
  2
*D8
340
0
  0
BLOCK_RECORD
  5
A0A4
330
1
100
AcDbSymbolTableRecord
100
AcDbBlockTableRecord
  2
*D9
340
0
  0
BLOCK_RECORD
  5
A0B1
330
1
100
AcDbSymbolTableRecord
100
AcDbBlockTableRecord
  2
*D10
340
0
  0
BLOCK_RECORD
  5
A0CD
330
1
100
AcDbSymbolTableRecord
100
AcDbBlockTableRecord
  2
*D11
340
0
  0
BLOCK_RECORD
  5
A0DA
330
1
100
AcDbSymbolTableRecord
100
AcDbBlockTableRecord
  2
*D12
340
0
  0
BLOCK_RECORD
  5
A0E9
330
1
100
AcDbSymbolTableRecord
100
AcDbBlockTableRecord
  2
*D13
340
0
  0
BLOCK_RECORD
  5
A0F6
330
1
100
AcDbSymbolTableRecord
100
AcDbBlockTableRecord
  2
*D14
340
0
  0
BLOCK_RECORD
  5
A105
330
1
100
AcDbSymbolTableRecord
100
AcDbBlockTableRecord
  2
*D15
340
0
  0
BLOCK_RECORD
  5
A1CF
330
1
100
AcDbSymbolTableRecord
100
AcDbBlockTableRecord
  2
*D16
340
0
  0
ENDTAB
  0
ENDSEC
  0
SECTION
  2
BLOCKS
  0
BLOCK
  5
1A
330
19
100
AcDbEntity
  8
0
100
AcDbBlockBegin
  2
*MODEL_SPACE
 70
     0
 10
0.0
 20
0.0
 30
0.0
  3
*MODEL_SPACE
  1

  0
ENDBLK
  5
1B
330
19
100
AcDbEntity
  8
0
100
AcDbBlockEnd
  0
BLOCK
  5
17
330
16
100
AcDbEntity
 67
     1
  8
0
100
AcDbBlockBegin
  2
*PAPER_SPACE
 70
     0
 10
0.0
 20
0.0
 30
0.0
  3
*PAPER_SPACE
  1

  0
ENDBLK
  5
18
330
16
100
AcDbEntity
 67
     1
  8
0
100
AcDbBlockEnd
  0
BLOCK
  5
7A00
330
79FC
100
AcDbEntity
  8
0
 48
10.0
100
AcDbBlockBegin
  2
_OPEN
 70
     0
 10
0.0
 20
0.0
 30
0.0
  3
_OPEN
  1

  0
LINE
  5
79FD
330
79FC
100
AcDbEntity
  8
0
  6
ByBlock
 62
     0
 48
10.0
100
AcDbLine
 10
-1.0
 20
0.1666666666666666
 30
0.0
 11
0.0
 21
0.0
 31
0.0
  0
LINE
  5
79FE
330
79FC
100
AcDbEntity
  8
0
  6
ByBlock
 62
     0
 48
10.0
100
AcDbLine
 10
0.0
 20
0.0
 30
0.0
 11
-1.0
 21
-0.1666666666666666
 31
0.0
  0
LINE
  5
79FF
330
79FC
100
AcDbEntity
  8
0
  6
ByBlock
 62
     0
 48
10.0
100
AcDbLine
 10
0.0
 20
0.0
 30
0.0
 11
-1.0
 21
0.0
 31
0.0
  0
ENDBLK
  5
7A01
330
79FC
100
AcDbEntity
  8
0
 48
10.0
100
AcDbBlockEnd
  0
BLOCK
  5
7A0C
330
7A02
100
AcDbEntity
  8
0
 48
10.0
100
AcDbBlockBegin
  2
L-40-3
 70
     0
 10
0.0
 20
0.0
 30
0.0
  3
L-40-3
  1

  0
ARC
  5
7A03
330
7A02
100
AcDbEntity
  8
0
 48
7.5
100
AcDbCircle
 10
7.5
 20
7.5
 30
0.0
 40
4.5
100
AcDbArc
 50
180.0
 51
270.0
  0
LINE
  5
7A04
330
7A02
100
AcDbEntity
  8
0
 48
7.5
100
AcDbLine
 10
0.0
 20
0.0
 30
0.0
 11
0.0
 21
40.0
 31
0.0
  0
LINE
  5
7A05
330
7A02
100
AcDbEntity
  8
0
 48
7.5
100
AcDbLine
 10
7.5
 20
3.0
 30
0.0
 11
38.0
 21
3.0
 31
0.0
  0
LINE
  5
7A06
330
7A02
100
AcDbEntity
  8
0
 48
7.5
100
AcDbLine
 10
0.0
 20
0.0
 30
0.0
 11
40.0
 21
0.0
 31
0.0
  0
LINE
  5
7A07
330
7A02
100
AcDbEntity
  8
0
 48
7.5
100
AcDbLine
 10
40.0
 20
0.0
 30
0.0
 11
40.0
 21
1.0
 31
0.0
  0
ARC
  5
7A08
330
7A02
100
AcDbEntity
  8
0
 48
7.5
100
AcDbCircle
 10
38.0
 20
1.0
 30
0.0
 40
2.0
100
AcDbArc
 50
0.0
 51
90.0
  0
LINE
  5
7A09
330
7A02
100
AcDbEntity
  8
0
 48
7.5
100
AcDbLine
 10
3.0
 20
7.5
 30
0.0
 11
3.0
 21
38.0
 31
0.0
  0
LINE
  5
7A0A
330
7A02
100
AcDbEntity
  8
0
 48
7.5
100
AcDbLine
 10
0.0
 20
40.0
 30
0.0
 11
1.0
 21
40.0
 31
0.0
  0
ARC
  5
7A0B
330
7A02
100
AcDbEntity
  8
0
 48
7.5
100
AcDbCircle
 10
1.0
 20
38.0
 30
0.0
 40
2.0
100
AcDbArc
 50
0.0
 51
90.0
  0
ENDBLK
  5
7A0D
330
7A02
100
AcDbEntity
  8
0
 48
10.0
100
AcDbBlockEnd
  0
BLOCK
  5
A028
330
A027
100
AcDbEntity
  8
0
100
AcDbBlockBegin
  2
*D2
 70
     1
 10
0.0
 20
0.0
 30
0.0
  3
*D2
  1

  0
LINE
  5
A029
330
A027
100
AcDbEntity
  8
0
  6
ByBlock
 62
     0
100
AcDbLine
 10
6238.717310993191
 20
10882.3364688047
 30
0.0
 11
6675.740055975722
 21
10882.3364688047
 31
0.0
  0
LINE
  5
A02A
330
A027
100
AcDbEntity
  8
0
  6
ByBlock
 62
     0
100
AcDbLine
 10
6238.717310993191
 20
9502.336468804701
 30
0.0
 11
6675.740055975722
 21
9502.336468804701
 31
0.0
  0
LINE
  5
A02B
330
A027
100
AcDbEntity
  8
0
  6
ByBlock
 62
     0
100
AcDbLine
 10
6625.740055975723
 20
10782.3364688047
 30
0.0
 11
6625.740055975723
 21
9602.336468804701
 31
0.0
  0
INSERT
  5
A02C
330
A027
100
AcDbEntity
  8
0
  6
ByBlock
 62
     0
100
AcDbBlockReference
  2
_OPEN
 10
6625.740055975723
 20
10882.3364688047
 30
0.0
 41
100.0
 42
100.0
 43
100.0
 50
90.0
  0
INSERT
  5
A02D
330
A027
100
AcDbEntity
  8
0
  6
ByBlock
 62
     0
100
AcDbBlockReference
  2
_OPEN
 10
6625.740055975723
 20
9502.336468804701
 30
0.0
 41
100.0
 42
100.0
 43
100.0
 50
270.0
  0
MTEXT
  5
A02E
330
A027
100
AcDbEntity
  8
0
  6
ByBlock
 62
     0
100
AcDbMText
 10
6500.740055975723
 20
10192.3364688047
 30
0.0
 40
150.0
 41
0.0
 71
     5
 72
     5
  1
\A1;1380
 11
0.0
 21
1.0
 31
0.0
 73
     1
 44
1.0
  0
POINT
  5
A02F
330
A027
100
AcDbEntity
  8
DEFPOINTS
  6
ByBlock
 62
     0
100
AcDbPoint
 10
6213.717310993191
 20
10882.3364688047
 30
0.0
  0
POINT
  5
A030
330
A027
100
AcDbEntity
  8
DEFPOINTS
  6
ByBlock
 62
     0
100
AcDbPoint
 10
6213.717310993191
 20
9502.336468804701
 30
0.0
  0
POINT
  5
A031
330
A027
100
AcDbEntity
  8
DEFPOINTS
  6
ByBlock
 62
     0
100
AcDbPoint
 10
6625.740055975723
 20
9502.336468804701
 30
0.0
  0
ENDBLK
  5
A032
330
A027
100
AcDbEntity
  8
0
100
AcDbBlockEnd
  0
BLOCK
  5
A20C
330
A052
100
AcDbEntity
  8
0
100
AcDbBlockBegin
  2
*D3
 70
     1
 10
0.0
 20
0.0
 30
0.0
  3
*D3
  1

  0
LINE
  5
A20D
330
A052
100
AcDbEntity
  8
0
  6
ByBlock
 62
     0
100
AcDbLine
 10
2487.882279172867
 20
7062.886109912411
 30
0.0
 11
2487.882279172867
 21
7260.480712930875
 31
0.0
  0
LINE
  5
A20E
330
A052
100
AcDbEntity
  8
0
  6
ByBlock
 62
     0
100
AcDbLine
 10
1813.882279172869
 20
7062.886109912412
 30
0.0
 11
1813.882279172869
 21
7260.480712930875
 31
0.0
  0
LINE
  5
A20F
330
A052
100
AcDbEntity
  8
0
  6
ByBlock
 62
     0
100
AcDbLine
 10
2587.882279172867
 20
7210.480712930875
 30
0.0
 11
2687.882279172867
 21
7210.480712930875
 31
0.0
  0
LINE
  5
A210
330
A052
100
AcDbEntity
  8
0
  6
ByBlock
 62
     0
100
AcDbLine
 10
1713.882279172868
 20
7210.480712930875
 30
0.0
 11
1613.882279172869
 21
7210.480712930875
 31
0.0
  0
LINE
  5
A211
330
A052
100
AcDbEntity
  8
0
  6
ByBlock
 62
     0
100
AcDbLine
 10
2487.882279172867
 20
7210.480712930875
 30
0.0
 11
1813.882279172869
 21
7210.480712930875
 31
0.0
  0
INSERT
  5
A212
330
A052
100
AcDbEntity
  8
0
  6
ByBlock
 62
     0
100
AcDbBlockReference
  2
_OPEN
 10
2487.882279172867
 20
7210.480712930875
 30
0.0
 41
100.0
 42
100.0
 43
100.0
 50
180.0
  0
INSERT
  5
A213
330
A052
100
AcDbEntity
  8
0
  6
ByBlock
 62
     0
100
AcDbBlockReference
  2
_OPEN
 10
1813.882279172869
 20
7210.480712930875
 30
0.0
 41
100.0
 42
100.0
 43
100.0
  0
MTEXT
  5
A214
330
A052
100
AcDbEntity
  8
0
  6
ByBlock
 62
     0
100
AcDbMText
 10
2150.882279172868
 20
7335.480712930875
 30
0.0
 40
150.0
 41
0.0
 71
     5
 72
     5
  1
\A1;674
 73
     1
 44
1.0
  0
POINT
  5
A215
330
A052
100
AcDbEntity
  8
DEFPOINTS
  6
ByBlock
 62
     0
100
AcDbPoint
 10
2487.882279172867
 20
7037.886109912411
 30
0.0
  0
POINT
  5
A216
330
A052
100
AcDbEntity
  8
DEFPOINTS
  6
ByBlock
 62
     0
100
AcDbPoint
 10
1813.882279172869
 20
7037.886109912412
 30
0.0
  0
POINT
  5
A217
330
A052
100
AcDbEntity
  8
DEFPOINTS
  6
ByBlock
 62
     0
100
AcDbPoint
 10
1813.882279172869
 20
7210.480712930875
 30
0.0
  0
ENDBLK
  5
A218
330
A052
100
AcDbEntity
  8
0
100
AcDbBlockEnd
  0
BLOCK
  5
A231
330
A061
100
AcDbEntity
  8
0
100
AcDbBlockBegin
  2
*D4
 70
     1
 10
0.0
 20
0.0
 30
0.0
  3
*D4
  1

  0
LINE
  5
A232
330
A061
100
AcDbEntity
  8
0
  6
ByBlock
 62
     0
100
AcDbLine
 10
7929.552342813515
 20
7062.886109912412
 30
0.0
 11
7929.552342813515
 21
7260.480712930875
 31
0.0
  0
LINE
  5
A233
330
A061
100
AcDbEntity
  8
0
  6
ByBlock
 62
     0
100
AcDbLine
 10
8603.552342813513
 20
7062.886109912411
 30
0.0
 11
8603.552342813513
 21
7260.480712930875
 31
0.0
  0
LINE
  5
A234
330
A061
100
AcDbEntity
  8
0
  6
ByBlock
 62
     0
100
AcDbLine
 10
7829.552342813515
 20
7210.480712930875
 30
0.0
 11
7729.552342813516
 21
7210.480712930875
 31
0.0
  0
LINE
  5
A235
330
A061
100
AcDbEntity
  8
0
  6
ByBlock
 62
     0
100
AcDbLine
 10
8703.552342813514
 20
7210.480712930875
 30
0.0
 11
8803.552342813514
 21
7210.480712930875
 31
0.0
  0
LINE
  5
A236
330
A061
100
AcDbEntity
  8
0
  6
ByBlock
 62
     0
100
AcDbLine
 10
7929.552342813515
 20
7210.480712930875
 30
0.0
 11
8603.552342813513
 21
7210.480712930875
 31
0.0
  0
INSERT
  5
A237
330
A061
100
AcDbEntity
  8
0
  6
ByBlock
 62
     0
100
AcDbBlockReference
  2
_OPEN
 10
7929.552342813515
 20
7210.480712930875
 30
0.0
 41
100.0
 42
100.0
 43
100.0
  0
INSERT
  5
A238
330
A061
100
AcDbEntity
  8
0
  6
ByBlock
 62
     0
100
AcDbBlockReference
  2
_OPEN
 10
8603.552342813513
 20
7210.480712930875
 30
0.0
 41
100.0
 42
100.0
 43
100.0
 50
180.0
  0
MTEXT
  5
A239
330
A061
100
AcDbEntity
  8
0
  6
ByBlock
 62
     0
100
AcDbMText
 10
8266.552342813513
 20
7335.480712930875
 30
0.0
 40
150.0
 41
0.0
 71
     5
 72
     5
  1
\A1;674
 73
     1
 44
1.0
  0
POINT
  5
A23A
330
A061
100
AcDbEntity
  8
DEFPOINTS
  6
ByBlock
 62
     0
100
AcDbPoint
 10
7929.552342813515
 20
7037.886109912412
 30
0.0
  0
POINT
  5
A23B
330
A061
100
AcDbEntity
  8
DEFPOINTS
  6
ByBlock
 62
     0
100
AcDbPoint
 10
8603.552342813513
 20
7037.886109912411
 30
0.0
  0
POINT
  5
A23C
330
A061
100
AcDbEntity
  8
DEFPOINTS
  6
ByBlock
 62
     0
100
AcDbPoint
 10
8603.552342813513
 20
7210.480712930875
 30
0.0
  0
ENDBLK
  5
A23D
330
A061
100
AcDbEntity
  8
0
100
AcDbBlockEnd
  0
BLOCK
  5
A249
330
A070
100
AcDbEntity
  8
0
100
AcDbBlockBegin
  2
*D5
 70
     1
 10
0.0
 20
0.0
 30
0.0
  3
*D5
  1

  0
LINE
  5
A24A
330
A070
100
AcDbEntity
  8
0
  6
ByBlock
 62
     0
100
AcDbLine
 10
8628.552342813513
 20
7037.886109912411
 30
0.0
 11
9427.198535534277
 21
7037.886109912411
 31
0.0
  0
LINE
  5
A24B
330
A070
100
AcDbEntity
  8
0
  6
ByBlock
 62
     0
100
AcDbLine
 10
8628.552342813515
 20
6107.88610991241
 30
0.0
 11
9427.198535534277
 21
6107.88610991241
 31
0.0
  0
LINE
  5
A24C
330
A070
100
AcDbEntity
  8
0
  6
ByBlock
 62
     0
100
AcDbLine
 10
9377.198535534276
 20
6937.886109912411
 30
0.0
 11
9377.198535534276
 21
6207.88610991241
 31
0.0
  0
INSERT
  5
A24D
330
A070
100
AcDbEntity
  8
0
  6
ByBlock
 62
     0
100
AcDbBlockReference
  2
_OPEN
 10
9377.198535534276
 20
7037.886109912411
 30
0.0
 41
100.0
 42
100.0
 43
100.0
 50
90.0
  0
INSERT
  5
A24E
330
A070
100
AcDbEntity
  8
0
  6
ByBlock
 62
     0
100
AcDbBlockReference
  2
_OPEN
 10
9377.198535534276
 20
6107.88610991241
 30
0.0
 41
100.0
 42
100.0
 43
100.0
 50
270.0
  0
MTEXT
  5
A24F
330
A070
100
AcDbEntity
  8
0
  6
ByBlock
 62
     0
100
AcDbMText
 10
9252.198535534276
 20
6572.88610991241
 30
0.0
 40
150.0
 41
0.0
 71
     5
 72
     5
  1
\A1;930
 11
0.0
 21
1.0
 31
0.0
 73
     1
 44
1.0
  0
POINT
  5
A250
330
A070
100
AcDbEntity
  8
DEFPOINTS
  6
ByBlock
 62
     0
100
AcDbPoint
 10
8603.552342813513
 20
7037.886109912411
 30
0.0
  0
POINT
  5
A251
330
A070
100
AcDbEntity
  8
DEFPOINTS
  6
ByBlock
 62
     0
100
AcDbPoint
 10
8603.552342813514
 20
6107.88610991241
 30
0.0
  0
POINT
  5
A252
330
A070
100
AcDbEntity
  8
DEFPOINTS
  6
ByBlock
 62
     0
100
AcDbPoint
 10
9377.198535534276
 20
6107.88610991241
 30
0.0
  0
ENDBLK
  5
A253
330
A070
100
AcDbEntity
  8
0
100
AcDbBlockEnd
  0
BLOCK
  5
A201
330
A07D
100
AcDbEntity
  8
0
100
AcDbBlockBegin
  2
*D6
 70
     1
 10
0.0
 20
0.0
 30
0.0
  3
*D6
  1

  0
LINE
  5
A202
330
A07D
100
AcDbEntity
  8
0
  6
ByBlock
 62
     0
100
AcDbLine
 10
2512.882279172867
 20
7037.886109912411
 30
0.0
 11
3304.443087225701
 21
7037.886109912411
 31
0.0
  0
LINE
  5
A203
330
A07D
100
AcDbEntity
  8
0
  6
ByBlock
 62
     0
100
AcDbLine
 10
2512.882279172868
 20
6107.88610991241
 30
0.0
 11
3304.443087225701
 21
6107.88610991241
 31
0.0
  0
LINE
  5
A204
330
A07D
100
AcDbEntity
  8
0
  6
ByBlock
 62
     0
100
AcDbLine
 10
3254.443087225701
 20
6937.886109912411
 30
0.0
 11
3254.443087225701
 21
6207.88610991241
 31
0.0
  0
INSERT
  5
A205
330
A07D
100
AcDbEntity
  8
0
  6
ByBlock
 62
     0
100
AcDbBlockReference
  2
_OPEN
 10
3254.443087225701
 20
7037.886109912411
 30
0.0
 41
100.0
 42
100.0
 43
100.0
 50
90.0
  0
INSERT
  5
A206
330
A07D
100
AcDbEntity
  8
0
  6
ByBlock
 62
     0
100
AcDbBlockReference
  2
_OPEN
 10
3254.443087225701
 20
6107.88610991241
 30
0.0
 41
100.0
 42
100.0
 43
100.0
 50
270.0
  0
MTEXT
  5
A207
330
A07D
100
AcDbEntity
  8
0
  6
ByBlock
 62
     0
100
AcDbMText
 10
3129.443087225701
 20
6572.88610991241
 30
0.0
 40
150.0
 41
0.0
 71
     5
 72
     5
  1
\A1;930
 11
0.0
 21
1.0
 31
0.0
 73
     1
 44
1.0
  0
POINT
  5
A208
330
A07D
100
AcDbEntity
  8
DEFPOINTS
  6
ByBlock
 62
     0
100
AcDbPoint
 10
2487.882279172867
 20
7037.886109912411
 30
0.0
  0
POINT
  5
A209
330
A07D
100
AcDbEntity
  8
DEFPOINTS
  6
ByBlock
 62
     0
100
AcDbPoint
 10
2487.882279172868
 20
6107.88610991241
 30
0.0
  0
POINT
  5
A20A
330
A07D
100
AcDbEntity
  8
DEFPOINTS
  6
ByBlock
 62
     0
100
AcDbPoint
 10
3254.443087225701
 20
6107.88610991241
 30
0.0
  0
ENDBLK
  5
A20B
330
A07D
100
AcDbEntity
  8
0
100
AcDbBlockEnd
  0
BLOCK
  5
A1F6
330
A08A
100
AcDbEntity
  8
0
100
AcDbBlockBegin
  2
*D7
 70
     1
 10
0.0
 20
0.0
 30
0.0
  3
*D7
  1

  0
LINE
  5
A1F7
330
A08A
100
AcDbEntity
  8
0
  6
ByBlock
 62
     0
100
AcDbLine
 10
2965.882279172868
 20
5862.886109912412
 30
0.0
 11
2965.882279172868
 21
5526.294201063014
 31
0.0
  0
LINE
  5
A1F8
330
A08A
100
AcDbEntity
  8
0
  6
ByBlock
 62
     0
100
AcDbLine
 10
1585.882279172869
 20
5862.886109912412
 30
0.0
 11
1585.882279172869
 21
5526.294201063014
 31
0.0
  0
LINE
  5
A1F9
330
A08A
100
AcDbEntity
  8
0
  6
ByBlock
 62
     0
100
AcDbLine
 10
2865.882279172868
 20
5576.294201063014
 30
0.0
 11
1685.882279172869
 21
5576.294201063014
 31
0.0
  0
INSERT
  5
A1FA
330
A08A
100
AcDbEntity
  8
0
  6
ByBlock
 62
     0
100
AcDbBlockReference
  2
_OPEN
 10
2965.882279172868
 20
5576.294201063014
 30
0.0
 41
100.0
 42
100.0
 43
100.0
  0
INSERT
  5
A1FB
330
A08A
100
AcDbEntity
  8
0
  6
ByBlock
 62
     0
100
AcDbBlockReference
  2
_OPEN
 10
1585.882279172869
 20
5576.294201063014
 30
0.0
 41
100.0
 42
100.0
 43
100.0
 50
180.0
  0
MTEXT
  5
A1FC
330
A08A
100
AcDbEntity
  8
0
  6
ByBlock
 62
     0
100
AcDbMText
 10
2275.882279172869
 20
5701.294201063014
 30
0.0
 40
150.0
 41
0.0
 71
     5
 72
     5
  1
\A1;1380
 73
     1
 44
1.0
  0
POINT
  5
A1FD
330
A08A
100
AcDbEntity
  8
DEFPOINTS
  6
ByBlock
 62
     0
100
AcDbPoint
 10
2965.882279172868
 20
5887.886109912412
 30
0.0
  0
POINT
  5
A1FE
330
A08A
100
AcDbEntity
  8
DEFPOINTS
  6
ByBlock
 62
     0
100
AcDbPoint
 10
1585.882279172869
 20
5887.886109912411
 30
0.0
  0
POINT
  5
A1FF
330
A08A
100
AcDbEntity
  8
DEFPOINTS
  6
ByBlock
 62
     0
100
AcDbPoint
 10
1585.882279172869
 20
5576.294201063014
 30
0.0
  0
ENDBLK
  5
A200
330
A08A
100
AcDbEntity
  8
0
100
AcDbBlockEnd
  0
BLOCK
  5
A19D
330
A097
100
AcDbEntity
  8
0
100
AcDbBlockBegin
  2
*D8
 70
     1
 10
0.0
 20
0.0
 30
0.0
  3
*D8
  1

  0
LINE
  5
A19E
330
A097
100
AcDbEntity
  8
0
  6
ByBlock
 62
     0
100
AcDbLine
 10
6213.717310993192
 20
5862.886109912412
 30
0.0
 11
6213.717310993192
 21
5526.294201063014
 31
0.0
  0
LINE
  5
A19F
330
A097
100
AcDbEntity
  8
0
  6
ByBlock
 62
     0
100
AcDbLine
 10
4203.717310993191
 20
5862.886109912412
 30
0.0
 11
4203.717310993191
 21
5526.294201063014
 31
0.0
  0
LINE
  5
A1A0
330
A097
100
AcDbEntity
  8
0
  6
ByBlock
 62
     0
100
AcDbLine
 10
6113.717310993192
 20
5576.294201063014
 30
0.0
 11
4303.717310993191
 21
5576.294201063014
 31
0.0
  0
INSERT
  5
A1A1
330
A097
100
AcDbEntity
  8
0
  6
ByBlock
 62
     0
100
AcDbBlockReference
  2
_OPEN
 10
6213.717310993192
 20
5576.294201063014
 30
0.0
 41
100.0
 42
100.0
 43
100.0
  0
INSERT
  5
A1A2
330
A097
100
AcDbEntity
  8
0
  6
ByBlock
 62
     0
100
AcDbBlockReference
  2
_OPEN
 10
4203.717310993191
 20
5576.294201063014
 30
0.0
 41
100.0
 42
100.0
 43
100.0
 50
180.0
  0
MTEXT
  5
A1A3
330
A097
100
AcDbEntity
  8
0
  6
ByBlock
 62
     0
100
AcDbMText
 10
5208.717310993192
 20
5701.294201063014
 30
0.0
 40
150.0
 41
0.0
 71
     5
 72
     5
  1
\A1;2010
 73
     1
 44
1.0
  0
POINT
  5
A1A4
330
A097
100
AcDbEntity
  8
DEFPOINTS
  6
ByBlock
 62
     0
100
AcDbPoint
 10
6213.717310993192
 20
5887.886109912412
 30
0.0
  0
POINT
  5
A1A5
330
A097
100
AcDbEntity
  8
DEFPOINTS
  6
ByBlock
 62
     0
100
AcDbPoint
 10
4203.717310993191
 20
5887.886109912411
 30
0.0
  0
POINT
  5
A1A6
330
A097
100
AcDbEntity
  8
DEFPOINTS
  6
ByBlock
 62
     0
100
AcDbPoint
 10
4203.717310993191
 20
5576.294201063014
 30
0.0
  0
ENDBLK
  5
A1A7
330
A097
100
AcDbEntity
  8
0
100
AcDbBlockEnd
  0
BLOCK
  5
A1B5
330
A0A4
100
AcDbEntity
  8
0
100
AcDbBlockBegin
  2
*D9
 70
     1
 10
0.0
 20
0.0
 30
0.0
  3
*D9
  1

  0
LINE
  5
A1B6
330
A0A4
100
AcDbEntity
  8
0
  6
ByBlock
 62
     0
100
AcDbLine
 10
4258.717310993191
 20
7557.886109912413
 30
0.0
 11
3806.579452812732
 21
7557.886109912413
 31
0.0
  0
LINE
  5
A1B7
330
A0A4
100
AcDbEntity
  8
0
  6
ByBlock
 62
     0
100
AcDbLine
 10
4178.717310993191
 20
5887.886109912412
 30
0.0
 11
3806.579452812732
 21
5887.886109912412
 31
0.0
  0
LINE
  5
A1B8
330
A0A4
100
AcDbEntity
  8
0
  6
ByBlock
 62
     0
100
AcDbLine
 10
3856.579452812732
 20
7457.886109912412
 30
0.0
 11
3856.579452812732
 21
5987.886109912412
 31
0.0
  0
INSERT
  5
A1B9
330
A0A4
100
AcDbEntity
  8
0
  6
ByBlock
 62
     0
100
AcDbBlockReference
  2
_OPEN
 10
3856.579452812732
 20
7557.886109912413
 30
0.0
 41
100.0
 42
100.0
 43
100.0
 50
90.0
  0
INSERT
  5
A1BA
330
A0A4
100
AcDbEntity
  8
0
  6
ByBlock
 62
     0
100
AcDbBlockReference
  2
_OPEN
 10
3856.579452812732
 20
5887.886109912412
 30
0.0
 41
100.0
 42
100.0
 43
100.0
 50
270.0
  0
MTEXT
  5
A1BB
330
A0A4
100
AcDbEntity
  8
0
  6
ByBlock
 62
     0
100
AcDbMText
 10
3731.579452812732
 20
6722.886109912413
 30
0.0
 40
150.0
 41
0.0
 71
     5
 72
     5
  1
\A1;1670
 11
0.0
 21
1.0
 31
0.0
 73
     1
 44
1.0
  0
POINT
  5
A1BC
330
A0A4
100
AcDbEntity
  8
DEFPOINTS
  6
ByBlock
 62
     0
100
AcDbPoint
 10
4283.717310993191
 20
7557.886109912413
 30
0.0
  0
POINT
  5
A1BD
330
A0A4
100
AcDbEntity
  8
DEFPOINTS
  6
ByBlock
 62
     0
100
AcDbPoint
 10
4203.717310993192
 20
5887.886109912412
 30
0.0
  0
POINT
  5
A1BE
330
A0A4
100
AcDbEntity
  8
DEFPOINTS
  6
ByBlock
 62
     0
100
AcDbPoint
 10
3856.579452812732
 20
5887.886109912412
 30
0.0
  0
ENDBLK
  5
A1BF
330
A0A4
100
AcDbEntity
  8
0
100
AcDbBlockEnd
  0
BLOCK
  5
A23E
330
A0B1
100
AcDbEntity
  8
0
100
AcDbBlockBegin
  2
*D10
 70
     1
 10
0.0
 20
0.0
 30
0.0
  3
*D10
  1

  0
LINE
  5
A23F
330
A0B1
100
AcDbEntity
  8
0
  6
ByBlock
 62
     0
100
AcDbLine
 10
7701.552342813515
 20
5862.886109912412
 30
0.0
 11
7701.552342813515
 21
5526.294201063014
 31
0.0
  0
LINE
  5
A240
330
A0B1
100
AcDbEntity
  8
0
  6
ByBlock
 62
     0
100
AcDbLine
 10
9081.552342813514
 20
5862.886109912412
 30
0.0
 11
9081.552342813514
 21
5526.294201063014
 31
0.0
  0
LINE
  5
A241
330
A0B1
100
AcDbEntity
  8
0
  6
ByBlock
 62
     0
100
AcDbLine
 10
7801.552342813515
 20
5576.294201063014
 30
0.0
 11
8981.552342813515
 21
5576.294201063014
 31
0.0
  0
INSERT
  5
A242
330
A0B1
100
AcDbEntity
  8
0
  6
ByBlock
 62
     0
100
AcDbBlockReference
  2
_OPEN
 10
7701.552342813515
 20
5576.294201063014
 30
0.0
 41
100.0
 42
100.0
 43
100.0
 50
180.0
  0
INSERT
  5
A243
330
A0B1
100
AcDbEntity
  8
0
  6
ByBlock
 62
     0
100
AcDbBlockReference
  2
_OPEN
 10
9081.552342813514
 20
5576.294201063014
 30
0.0
 41
100.0
 42
100.0
 43
100.0
  0
MTEXT
  5
A244
330
A0B1
100
AcDbEntity
  8
0
  6
ByBlock
 62
     0
100
AcDbMText
 10
8391.552342813515
 20
5701.294201063014
 30
0.0
 40
150.0
 41
0.0
 71
     5
 72
     5
  1
\A1;1380
 73
     1
 44
1.0
  0
POINT
  5
A245
330
A0B1
100
AcDbEntity
  8
DEFPOINTS
  6
ByBlock
 62
     0
100
AcDbPoint
 10
7701.552342813515
 20
5887.886109912411
 30
0.0
  0
POINT
  5
A246
330
A0B1
100
AcDbEntity
  8
DEFPOINTS
  6
ByBlock
 62
     0
100
AcDbPoint
 10
9081.552342813514
 20
5887.886109912412
 30
0.0
  0
POINT
  5
A247
330
A0B1
100
AcDbEntity
  8
DEFPOINTS
  6
ByBlock
 62
     0
100
AcDbPoint
 10
9081.552342813514
 20
5576.294201063014
 30
0.0
  0
ENDBLK
  5
A248
330
A0B1
100
AcDbEntity
  8
0
100
AcDbBlockEnd
  0
BLOCK
  5
A192
330
A0CD
100
AcDbEntity
  8
0
100
AcDbBlockBegin
  2
*D11
 70
     1
 10
0.0
 20
0.0
 30
0.0
  3
*D11
  1

  0
LINE
  5
A193
330
A0CD
100
AcDbEntity
  8
0
  6
ByBlock
 62
     0
100
AcDbLine
 10
6133.717310993191
 20
7582.886109912412
 30
0.0
 11
6133.717310993191
 21
7888.181513475181
 31
0.0
  0
LINE
  5
A194
330
A0CD
100
AcDbEntity
  8
0
  6
ByBlock
 62
     0
100
AcDbLine
 10
4283.717310993192
 20
7582.886109912411
 30
0.0
 11
4283.717310993192
 21
7888.181513475181
 31
0.0
  0
LINE
  5
A195
330
A0CD
100
AcDbEntity
  8
0
  6
ByBlock
 62
     0
100
AcDbLine
 10
6033.717310993191
 20
7838.181513475181
 30
0.0
 11
4383.717310993191
 21
7838.181513475181
 31
0.0
  0
INSERT
  5
A196
330
A0CD
100
AcDbEntity
  8
0
  6
ByBlock
 62
     0
100
AcDbBlockReference
  2
_OPEN
 10
6133.717310993191
 20
7838.181513475181
 30
0.0
 41
100.0
 42
100.0
 43
100.0
  0
INSERT
  5
A197
330
A0CD
100
AcDbEntity
  8
0
  6
ByBlock
 62
     0
100
AcDbBlockReference
  2
_OPEN
 10
4283.717310993192
 20
7838.181513475181
 30
0.0
 41
100.0
 42
100.0
 43
100.0
 50
180.0
  0
MTEXT
  5
A198
330
A0CD
100
AcDbEntity
  8
0
  6
ByBlock
 62
     0
100
AcDbMText
 10
5208.717310993192
 20
7963.181513475181
 30
0.0
 40
150.0
 41
0.0
 71
     5
 72
     5
  1
\A1;1850
 73
     1
 44
1.0
  0
POINT
  5
A199
330
A0CD
100
AcDbEntity
  8
DEFPOINTS
  6
ByBlock
 62
     0
100
AcDbPoint
 10
6133.717310993191
 20
7557.886109912413
 30
0.0
  0
POINT
  5
A19A
330
A0CD
100
AcDbEntity
  8
DEFPOINTS
  6
ByBlock
 62
     0
100
AcDbPoint
 10
4283.717310993192
 20
7557.886109912411
 30
0.0
  0
POINT
  5
A19B
330
A0CD
100
AcDbEntity
  8
DEFPOINTS
  6
ByBlock
 62
     0
100
AcDbPoint
 10
4283.717310993192
 20
7838.181513475181
 30
0.0
  0
ENDBLK
  5
A19C
330
A0CD
100
AcDbEntity
  8
0
100
AcDbBlockEnd
  0
BLOCK
  5
A1E9
330
A0DA
100
AcDbEntity
  8
0
100
AcDbBlockBegin
  2
*D12
 70
     1
 10
0.0
 20
0.0
 30
0.0
  3
*D12
  1

  0
LINE
  5
A1EA
330
A0DA
100
AcDbEntity
  8
0
  6
ByBlock
 62
     0
100
AcDbLine
 10
2150.882279172868
 20
7632.886109912412
 30
0.0
 11
2150.882279172868
 21
7888.181513475181
 31
0.0
  0
LINE
  5
A1EB
330
A0DA
100
AcDbEntity
  8
0
  6
ByBlock
 62
     0
100
AcDbLine
 10
1585.882279172868
 20
7577.886109912411
 30
0.0
 11
1585.882279172868
 21
7888.181513475181
 31
0.0
  0
LINE
  5
A1EC
330
A0DA
100
AcDbEntity
  8
0
  6
ByBlock
 62
     0
100
AcDbLine
 10
2250.882279172868
 20
7838.181513475181
 30
0.0
 11
2350.882279172867
 21
7838.181513475181
 31
0.0
  0
LINE
  5
A1ED
330
A0DA
100
AcDbEntity
  8
0
  6
ByBlock
 62
     0
100
AcDbLine
 10
1485.882279172868
 20
7838.181513475181
 30
0.0
 11
1385.882279172868
 21
7838.181513475181
 31
0.0
  0
LINE
  5
A1EE
330
A0DA
100
AcDbEntity
  8
0
  6
ByBlock
 62
     0
100
AcDbLine
 10
2150.882279172868
 20
7838.181513475181
 30
0.0
 11
1585.882279172868
 21
7838.181513475181
 31
0.0
  0
INSERT
  5
A1EF
330
A0DA
100
AcDbEntity
  8
0
  6
ByBlock
 62
     0
100
AcDbBlockReference
  2
_OPEN
 10
2150.882279172868
 20
7838.181513475181
 30
0.0
 41
100.0
 42
100.0
 43
100.0
 50
180.0
  0
INSERT
  5
A1F0
330
A0DA
100
AcDbEntity
  8
0
  6
ByBlock
 62
     0
100
AcDbBlockReference
  2
_OPEN
 10
1585.882279172868
 20
7838.181513475181
 30
0.0
 41
100.0
 42
100.0
 43
100.0
  0
MTEXT
  5
A1F1
330
A0DA
100
AcDbEntity
  8
0
  6
ByBlock
 62
     0
100
AcDbMText
 10
1868.382279172868
 20
7963.181513475181
 30
0.0
 40
150.0
 41
0.0
 71
     5
 72
     5
  1
\A1;565
 73
     1
 44
1.0
  0
POINT
  5
A1F2
330
A0DA
100
AcDbEntity
  8
DEFPOINTS
  6
ByBlock
 62
     0
100
AcDbPoint
 10
2150.882279172868
 20
7607.886109912413
 30
0.0
  0
POINT
  5
A1F3
330
A0DA
100
AcDbEntity
  8
DEFPOINTS
  6
ByBlock
 62
     0
100
AcDbPoint
 10
1585.882279172868
 20
7552.886109912411
 30
0.0
  0
POINT
  5
A1F4
330
A0DA
100
AcDbEntity
  8
DEFPOINTS
  6
ByBlock
 62
     0
100
AcDbPoint
 10
1585.882279172868
 20
7838.181513475181
 30
0.0
  0
ENDBLK
  5
A1F5
330
A0DA
100
AcDbEntity
  8
0
100
AcDbBlockEnd
  0
BLOCK
  5
A1DE
330
A0E9
100
AcDbEntity
  8
0
100
AcDbBlockBegin
  2
*D13
 70
     1
 10
0.0
 20
0.0
 30
0.0
  3
*D13
  1

  0
LINE
  5
A1DF
330
A0E9
100
AcDbEntity
  8
0
  6
ByBlock
 62
     0
100
AcDbLine
 10
2150.882279172868
 20
7632.886109912412
 30
0.0
 11
2150.882279172868
 21
7888.181513475181
 31
0.0
  0
LINE
  5
A1E0
330
A0E9
100
AcDbEntity
  8
0
  6
ByBlock
 62
     0
100
AcDbLine
 10
2965.882279172868
 20
7577.886109912411
 30
0.0
 11
2965.882279172868
 21
7888.181513475181
 31
0.0
  0
LINE
  5
A1E1
330
A0E9
100
AcDbEntity
  8
0
  6
ByBlock
 62
     0
100
AcDbLine
 10
2250.882279172868
 20
7838.181513475181
 30
0.0
 11
2865.882279172868
 21
7838.181513475181
 31
0.0
  0
INSERT
  5
A1E2
330
A0E9
100
AcDbEntity
  8
0
  6
ByBlock
 62
     0
100
AcDbBlockReference
  2
_OPEN
 10
2150.882279172868
 20
7838.181513475181
 30
0.0
 41
100.0
 42
100.0
 43
100.0
 50
180.0
  0
INSERT
  5
A1E3
330
A0E9
100
AcDbEntity
  8
0
  6
ByBlock
 62
     0
100
AcDbBlockReference
  2
_OPEN
 10
2965.882279172868
 20
7838.181513475181
 30
0.0
 41
100.0
 42
100.0
 43
100.0
  0
MTEXT
  5
A1E4
330
A0E9
100
AcDbEntity
  8
0
  6
ByBlock
 62
     0
100
AcDbMText
 10
2558.382279172868
 20
7963.181513475181
 30
0.0
 40
150.0
 41
0.0
 71
     5
 72
     5
  1
\A1;815
 73
     1
 44
1.0
  0
POINT
  5
A1E5
330
A0E9
100
AcDbEntity
  8
DEFPOINTS
  6
ByBlock
 62
     0
100
AcDbPoint
 10
2150.882279172868
 20
7607.886109912413
 30
0.0
  0
POINT
  5
A1E6
330
A0E9
100
AcDbEntity
  8
DEFPOINTS
  6
ByBlock
 62
     0
100
AcDbPoint
 10
2965.882279172868
 20
7552.886109912411
 30
0.0
  0
POINT
  5
A1E7
330
A0E9
100
AcDbEntity
  8
DEFPOINTS
  6
ByBlock
 62
     0
100
AcDbPoint
 10
2965.882279172868
 20
7838.181513475181
 30
0.0
  0
ENDBLK
  5
A1E8
330
A0E9
100
AcDbEntity
  8
0
100
AcDbBlockEnd
  0
BLOCK
  5
A219
330
A0F6
100
AcDbEntity
  8
0
100
AcDbBlockBegin
  2
*D14
 70
     1
 10
0.0
 20
0.0
 30
0.0
  3
*D14
  1

  0
LINE
  5
A21A
330
A0F6
100
AcDbEntity
  8
0
  6
ByBlock
 62
     0
100
AcDbLine
 10
7701.552342813515
 20
7582.886109912411
 30
0.0
 11
7701.552342813515
 21
7888.181513475181
 31
0.0
  0
LINE
  5
A21B
330
A0F6
100
AcDbEntity
  8
0
  6
ByBlock
 62
     0
100
AcDbLine
 10
8266.552342813513
 20
7632.886109912412
 30
0.0
 11
8266.552342813513
 21
7888.181513475181
 31
0.0
  0
LINE
  5
A21C
330
A0F6
100
AcDbEntity
  8
0
  6
ByBlock
 62
     0
100
AcDbLine
 10
7601.552342813516
 20
7838.181513475181
 30
0.0
 11
7501.552342813515
 21
7838.181513475181
 31
0.0
  0
LINE
  5
A21D
330
A0F6
100
AcDbEntity
  8
0
  6
ByBlock
 62
     0
100
AcDbLine
 10
8366.552342813513
 20
7838.181513475181
 30
0.0
 11
8466.552342813512
 21
7838.181513475181
 31
0.0
  0
LINE
  5
A21E
330
A0F6
100
AcDbEntity
  8
0
  6
ByBlock
 62
     0
100
AcDbLine
 10
7701.552342813515
 20
7838.181513475181
 30
0.0
 11
8266.552342813513
 21
7838.181513475181
 31
0.0
  0
INSERT
  5
A21F
330
A0F6
100
AcDbEntity
  8
0
  6
ByBlock
 62
     0
100
AcDbBlockReference
  2
_OPEN
 10
7701.552342813515
 20
7838.181513475181
 30
0.0
 41
100.0
 42
100.0
 43
100.0
  0
INSERT
  5
A220
330
A0F6
100
AcDbEntity
  8
0
  6
ByBlock
 62
     0
100
AcDbBlockReference
  2
_OPEN
 10
8266.552342813513
 20
7838.181513475181
 30
0.0
 41
100.0
 42
100.0
 43
100.0
 50
180.0
  0
MTEXT
  5
A221
330
A0F6
100
AcDbEntity
  8
0
  6
ByBlock
 62
     0
100
AcDbMText
 10
7984.052342813514
 20
7963.181513475181
 30
0.0
 40
150.0
 41
0.0
 71
     5
 72
     5
  1
\A1;565
 73
     1
 44
1.0
  0
POINT
  5
A222
330
A0F6
100
AcDbEntity
  8
DEFPOINTS
  6
ByBlock
 62
     0
100
AcDbPoint
 10
7701.552342813515
 20
7557.886109912411
 30
0.0
  0
POINT
  5
A223
330
A0F6
100
AcDbEntity
  8
DEFPOINTS
  6
ByBlock
 62
     0
100
AcDbPoint
 10
8266.552342813513
 20
7607.886109912413
 30
0.0
  0
POINT
  5
A224
330
A0F6
100
AcDbEntity
  8
DEFPOINTS
  6
ByBlock
 62
     0
100
AcDbPoint
 10
8266.552342813513
 20
7838.181513475181
 30
0.0
  0
ENDBLK
  5
A225
330
A0F6
100
AcDbEntity
  8
0
100
AcDbBlockEnd
  0
BLOCK
  5
A226
330
A105
100
AcDbEntity
  8
0
100
AcDbBlockBegin
  2
*D15
 70
     1
 10
0.0
 20
0.0
 30
0.0
  3
*D15
  1

  0
LINE
  5
A227
330
A105
100
AcDbEntity
  8
0
  6
ByBlock
 62
     0
100
AcDbLine
 10
8266.552342813513
 20
7632.886109912412
 30
0.0
 11
8266.552342813513
 21
7888.181513475181
 31
0.0
  0
LINE
  5
A228
330
A105
100
AcDbEntity
  8
0
  6
ByBlock
 62
     0
100
AcDbLine
 10
9081.552342813514
 20
7582.886109912412
 30
0.0
 11
9081.552342813514
 21
7888.181513475181
 31
0.0
  0
LINE
  5
A229
330
A105
100
AcDbEntity
  8
0
  6
ByBlock
 62
     0
100
AcDbLine
 10
8366.552342813513
 20
7838.181513475181
 30
0.0
 11
8981.552342813513
 21
7838.181513475181
 31
0.0
  0
INSERT
  5
A22A
330
A105
100
AcDbEntity
  8
0
  6
ByBlock
 62
     0
100
AcDbBlockReference
  2
_OPEN
 10
8266.552342813513
 20
7838.181513475181
 30
0.0
 41
100.0
 42
100.0
 43
100.0
 50
180.0
  0
INSERT
  5
A22B
330
A105
100
AcDbEntity
  8
0
  6
ByBlock
 62
     0
100
AcDbBlockReference
  2
_OPEN
 10
9081.552342813514
 20
7838.181513475181
 30
0.0
 41
100.0
 42
100.0
 43
100.0
  0
MTEXT
  5
A22C
330
A105
100
AcDbEntity
  8
0
  6
ByBlock
 62
     0
100
AcDbMText
 10
8674.052342813514
 20
7963.181513475181
 30
0.0
 40
150.0
 41
0.0
 71
     5
 72
     5
  1
\A1;815
 73
     1
 44
1.0
  0
POINT
  5
A22D
330
A105
100
AcDbEntity
  8
DEFPOINTS
  6
ByBlock
 62
     0
100
AcDbPoint
 10
8266.552342813513
 20
7607.886109912413
 30
0.0
  0
POINT
  5
A22E
330
A105
100
AcDbEntity
  8
DEFPOINTS
  6
ByBlock
 62
     0
100
AcDbPoint
 10
9081.552342813514
 20
7557.886109912413
 30
0.0
  0
POINT
  5
A22F
330
A105
100
AcDbEntity
  8
DEFPOINTS
  6
ByBlock
 62
     0
100
AcDbPoint
 10
9081.552342813514
 20
7838.181513475181
 30
0.0
  0
ENDBLK
  5
A230
330
A105
100
AcDbEntity
  8
0
100
AcDbBlockEnd
  0
BLOCK
  5
A1D0
330
A1CF
100
AcDbEntity
  8
0
100
AcDbBlockBegin
  2
*D16
 70
     1
 10
0.0
 20
0.0
 30
0.0
  3
*D16
  1

  0
LINE
  5
A1D1
330
A1CF
100
AcDbEntity
  8
0
  6
ByBlock
 62
     0
100
AcDbLine
 10
6238.717310993192
 20
5887.886109912412
 30
0.0
 11
6602.510474212468
 21
5887.886109912412
 31
0.0
  0
LINE
  5
A1D2
330
A1CF
100
AcDbEntity
  8
0
  6
ByBlock
 62
     0
100
AcDbLine
 10
6232.073104958576
 20
6572.886109912413
 30
0.0
 11
6602.510474212468
 21
6572.886109912413
 31
0.0
  0
LINE
  5
A1D3
330
A1CF
100
AcDbEntity
  8
0
  6
ByBlock
 62
     0
100
AcDbLine
 10
6552.510474212468
 20
5787.886109912412
 30
0.0
 11
6552.510474212468
 21
5687.886109912412
 31
0.0
  0
LINE
  5
A1D4
330
A1CF
100
AcDbEntity
  8
0
  6
ByBlock
 62
     0
100
AcDbLine
 10
6552.510474212468
 20
6672.886109912413
 30
0.0
 11
6552.510474212468
 21
6772.886109912413
 31
0.0
  0
LINE
  5
A1D5
330
A1CF
100
AcDbEntity
  8
0
  6
ByBlock
 62
     0
100
AcDbLine
 10
6552.510474212468
 20
5887.886109912412
 30
0.0
 11
6552.510474212468
 21
6572.886109912413
 31
0.0
  0
INSERT
  5
A1D6
330
A1CF
100
AcDbEntity
  8
0
  6
ByBlock
 62
     0
100
AcDbBlockReference
  2
_OPEN
 10
6552.510474212468
 20
5887.886109912412
 30
0.0
 41
100.0
 42
100.0
 43
100.0
 50
90.0
  0
INSERT
  5
A1D7
330
A1CF
100
AcDbEntity
  8
0
  6
ByBlock
 62
     0
100
AcDbBlockReference
  2
_OPEN
 10
6552.510474212468
 20
6572.886109912413
 30
0.0
 41
100.0
 42
100.0
 43
100.0
 50
270.0
  0
MTEXT
  5
A1D8
330
A1CF
100
AcDbEntity
  8
0
  6
ByBlock
 62
     0
100
AcDbMText
 10
6427.510474212468
 20
6230.386109912412
 30
0.0
 40
150.0
 41
0.0
 71
     5
 72
     5
  1
\A1;685
 11
0.0
 21
1.0
 31
0.0
 73
     1
 44
1.0
  0
POINT
  5
A1D9
330
A1CF
100
AcDbEntity
  8
DEFPOINTS
  6
ByBlock
 62
     0
100
AcDbPoint
 10
6213.717310993192
 20
5887.886109912412
 30
0.0
  0
POINT
  5
A1DA
330
A1CF
100
AcDbEntity
  8
DEFPOINTS
  6
ByBlock
 62
     0
100
AcDbPoint
 10
6207.073104958576
 20
6572.886109912413
 30
0.0
  0
POINT
  5
A1DB
330
A1CF
100
AcDbEntity
  8
DEFPOINTS
  6
ByBlock
 62
     0
100
AcDbPoint
 10
6552.510474212468
 20
6572.886109912413
 30
0.0
  0
ENDBLK
  5
A1DC
330
A1CF
100
AcDbEntity
  8
0
100
AcDbBlockEnd
  0
ENDSEC
  0
SECTION
  2
ENTITIES
  0
LINE
  5
7B05
330
19
100
AcDbEntity
  8
4
100
AcDbLine
 10
8893.992497673734
 20
3669.483602061611
 30
0.0
 11
8893.992497673734
 21
2669.483602061611
 31
0.0
  0
LINE
  5
7B06
330
19
100
AcDbEntity
  8
4
100
AcDbLine
 10
5393.992497673735
 20
3669.483602061611
 30
0.0
 11
5393.992497673735
 21
2669.483602061611
 31
0.0
  0
LINE
  5
7B07
330
19
100
AcDbEntity
  8
4
100
AcDbLine
 10
2893.992497673735
 20
3669.483602061611
 30
0.0
 11
2893.992497673735
 21
2669.483602061611
 31
0.0
  0
LINE
  5
7B0A
330
19
100
AcDbEntity
  8
4
100
AcDbLine
 10
2893.992497673735
 20
2669.483602061611
 30
0.0
 11
8893.992497673734
 21
2669.483602061611
 31
0.0
  0
LINE
  5
7B0B
330
19
100
AcDbEntity
  8
4
100
AcDbLine
 10
2893.992497673735
 20
3169.483602061611
 30
0.0
 11
8893.992497673734
 21
3169.483602061611
 31
0.0
  0
TEXT
  5
7B0C
330
19
100
AcDbEntity
  8
4
100
AcDbText
 10
3086.502901908243
 20
3327.198731394676
 30
0.0
 40
250.0
  1
機器名称
100
AcDbText
  0
TEXT
  5
7B0D
330
19
100
AcDbEntity
  8
4
100
AcDbText
 10
3075.283027797723
 20
2777.709385721665
 30
0.0
 40
250.0
  1
機器型番
100
AcDbText
  0
TEXT
  5
7B0E
330
19
100
AcDbEntity
  8
4
100
AcDbText
 10
5532.386225112059
 20
3282.342446849454
 30
0.0
 40
250.0
  1
ミツヤファンユニット
100
AcDbText
  0
TEXT
  5
7B0F
330
19
100
AcDbEntity
  8
4
100
AcDbText
 10
5577.264975601138
 20
2755.281523461328
 30
0.0
 40
250.0
  1
MFU#4504-4
100
AcDbText
  0
TEXT
  5
7B11
330
19
100
AcDbEntity
  8
4
100
AcDbText
 10
3147.085522201243
 20
13086.62780872419
 30
0.0
 40
270.0
  1
床置ベット
100
AcDbText
  0
TEXT
  5
7B12
330
19
100
AcDbEntity
  8
4
100
AcDbText
 10
1086.879689854027
 20
13838.8884830581
 30
0.0
 40
360.0
  1
ベルト駆動式消音ボックス付多翼ファン
100
AcDbText
  0
LINE
  5
7B13
330
19
100
AcDbEntity
  8
4
100
AcDbLine
 10
893.9924976737348
 20
13516.52737338563
 30
0.0
 11
8893.992497673734
 21
13516.52737338563
 31
0.0
  0
LINE
  5
7B14
330
19
100
AcDbEntity
  8
4
100
AcDbLine
 10
893.9924976737348
 20
14516.52737338563
 30
0.0
 11
8893.992497673734
 21
14516.52737338563
 31
0.0
  0
LINE
  5
7B15
330
19
100
AcDbEntity
  8
4
100
AcDbLine
 10
2893.992497673735
 20
3669.483602061611
 30
0.0
 11
8893.992497673734
 21
3669.483602061611
 31
0.0
  0
LINE
  5
7B16
330
19
100
AcDbEntity
  8
4
100
AcDbLine
 10
893.9924976737348
 20
14516.52737338563
 30
0.0
 11
893.9924976737348
 21
13516.52737338563
 31
0.0
  0
TEXT
  5
7B17
330
19
100
AcDbEntity
  8
4
100
AcDbText
 10
967.7913609877323
 20
13081.08098979333
 30
0.0
 40
270.0
  1
左回転右吐出
100
AcDbText
  0
TEXT
  5
7B18
330
19
100
AcDbEntity
  8
4
100
AcDbText
 10
6988.840293920183
 20
14699.78900953815
 30
0.0
 40
280.0
  1
No.
100
AcDbText
  0
TEXT
  5
7B19
330
19
100
AcDbEntity
  8
4
100
AcDbText
 10
7110.947939302383
 20
13086.62780872419
 30
0.0
 40
270.0
  1
縮尺：1/50
100
AcDbText
  0
LINE
  5
7B1A
330
19
100
AcDbEntity
  8
4
100
AcDbLine
 10
8893.992497673734
 20
14516.52737338563
 30
0.0
 11
8893.992497673734
 21
13516.52737338563
 31
0.0
  0
LINE
  5
7B1B
330
19
100
AcDbEntity
  8
4
100
AcDbLine
 10
10143.99249767373
 20
15919.48360206161
 30
0.0
 11
10143.99249767373
 21
15919.48360206161
 31
0.0
  0
LINE
  5
7B1C
330
19
100
AcDbEntity
  8
4
100
AcDbLine
 10
6847.079609473057
 20
14575.80151768861
 30
0.0
 11
6847.079609473057
 21
15102.74490981037
 31
0.0
  0
LINE
  5
7B1D
330
19
100
AcDbEntity
  8
4
100
AcDbLine
 10
6847.079609473057
 20
15102.74490981037
 30
0.0
 11
8893.992497673734
 21
15102.74490981037
 31
0.0
  0
LINE
  5
7B1E
330
19
100
AcDbEntity
  8
4
100
AcDbLine
 10
8893.992497673734
 20
15102.74490981037
 30
0.0
 11
8893.992497673734
 21
14575.80151768861
 31
0.0
  0
LINE
  5
7B1F
330
19
100
AcDbEntity
  8
4
100
AcDbLine
 10
8893.992497673734
 20
14575.80151768861
 30
0.0
 11
6847.079609473057
 21
14575.80151768861
 31
0.0
  0
LINE
  5
7B20
330
19
100
AcDbEntity
  8
4
100
AcDbLine
 10
-356.0075023262652
 20
1169.483602061611
 30
0.0
 11
-356.0075023262652
 21
15919.48360206161
 31
0.0
  0
LINE
  5
7B21
330
19
100
AcDbEntity
  8
4
100
AcDbLine
 10
-356.0075023262652
 20
15919.48360206161
 30
0.0
 11
10143.99249767373
 21
15919.48360206161
 31
0.0
  0
LINE
  5
7B22
330
19
100
AcDbEntity
  8
4
100
AcDbLine
 10
10143.99249767373
 20
15919.48360206161
 30
0.0
 11
10143.99249767373
 21
1169.483602061611
 31
0.0
  0
LINE
  5
7B23
330
19
100
AcDbEntity
  8
4
100
AcDbLine
 10
10143.99249767373
 20
1169.483602061611
 30
0.0
 11
-356.0075023262652
 21
1169.483602061611
 31
0.0
  0
ARC
  5
9FB6
330
19
100
AcDbEntity
  8
DEFPOINTS
100
AcDbCircle
 10
5495.717310993192
 20
6856.886109912412
 30
0.0
 40
635.0
100
AcDbArc
 50
180.0
 51
270.0
  0
ARC
  5
9FB9
330
19
100
AcDbEntity
  8
DEFPOINTS
100
AcDbCircle
 10
5409.717310993192
 20
6864.886109912411
 30
0.0
 40
548.0
100
AcDbArc
 50
90.0
 51
180.0
  0
ARC
  5
9FBC
330
19
100
AcDbEntity
  8
DEFPOINTS
100
AcDbCircle
 10
5418.717310993192
 20
6933.886109912411
 30
0.0
 40
479.0
100
AcDbArc
 50
0.4784671853974995
 51
90.0
  0
LINE
  5
9FC0
330
19
100
AcDbEntity
  8
DEFPOINTS
100
AcDbLine
 10
5983.717310993191
 20
6167.886109912411
 30
0.0
 11
5983.717310993191
 21
6977.886109912413
 31
0.0
  0
LINE
  5
9FC2
330
19
100
AcDbEntity
  8
DEFPOINTS
100
AcDbLine
 10
5897.700609240636
 20
6937.886109912412
 30
0.0
 11
6133.717310993191
 21
6937.886109912412
 31
0.0
  0
LINE
  5
9FC3
330
19
100
AcDbEntity
  8
DEFPOINTS
100
AcDbLine
 10
5983.717310993192
 20
6207.886109912411
 30
0.0
 11
5495.717310993192
 21
6221.886109912412
 31
0.0
  0
LINE
  5
9FC4
330
19
100
AcDbEntity
  8
DEFPOINTS
100
AcDbLine
 10
5409.717310993192
 20
7412.886109912412
 30
0.0
 11
5418.717310993192
 21
7412.886109912412
 31
0.0
  0
LINE
  5
9FC5
330
19
100
AcDbEntity
  8
DEFPOINTS
100
AcDbLine
 10
4861.717310993192
 20
6864.886109912411
 30
0.0
 11
4860.717310993192
 21
6856.886109912412
 31
0.0
  0
LINE
  5
9FCA
330
19
100
AcDbEntity
  8
2
100
AcDbLine
 10
4199.927010403395
 20
6572.886109912413
 30
0.0
 11
6207.073104958576
 21
6572.886109912413
 31
0.0
  0
LINE
  5
9FCB
330
19
100
AcDbEntity
  8
DEFPOINTS
100
AcDbLine
 10
5943.717310993191
 20
6209.033650896018
 30
0.0
 11
5943.717310993191
 21
6937.886109912412
 31
0.0
  0
LINE
  5
9FCC
330
19
100
AcDbEntity
  8
1
100
AcDbLine
 10
6133.717310993191
 20
5987.886109912412
 30
0.0
 11
6133.717310993191
 21
7557.886109912413
 31
0.0
  0
LINE
  5
9FCD
330
19
100
AcDbEntity
  8
1
100
AcDbLine
 10
4203.717310993191
 20
5887.886109912411
 30
0.0
 11
6213.717310993192
 21
5887.886109912412
 31
0.0
  0
LINE
  5
9FCE
330
19
100
AcDbEntity
  8
1
100
AcDbLine
 10
4203.717310993191
 20
5987.886109912418
 30
0.0
 11
6213.717310993192
 21
5987.886109912412
 31
0.0
  0
LINE
  5
9FCF
330
19
100
AcDbEntity
  8
1
100
AcDbLine
 10
6213.717310993192
 20
5887.886109912412
 30
0.0
 11
6213.717310993192
 21
5987.886109912412
 31
0.0
  0
LINE
  5
9FD0
330
19
100
AcDbEntity
  8
1
100
AcDbLine
 10
4203.717310993192
 20
5887.886109912412
 30
0.0
 11
4203.717310993192
 21
5987.886109912412
 31
0.0
  0
LINE
  5
9FD1
330
19
100
AcDbEntity
  8
1
100
AcDbLine
 10
4283.717310993192
 20
7557.886109912411
 30
0.0
 11
6133.717310993191
 21
7557.886109912413
 31
0.0
  0
LINE
  5
9FD2
330
19
100
AcDbEntity
  8
1
100
AcDbLine
 10
4283.717310993191
 20
5987.886109912412
 30
0.0
 11
4283.717310993191
 21
7557.886109912413
 31
0.0
  0
LINE
  5
9FD4
330
19
100
AcDbEntity
  8
DEFPOINTS
100
AcDbLine
 10
5983.717310993192
 20
6207.886109912411
 30
0.0
 11
6133.717310993191
 21
6207.886109912411
 31
0.0
  0
LINE
  5
9FD5
330
19
100
AcDbEntity
  8
1
100
AcDbLine
 10
6173.717310993191
 20
6067.886109912411
 30
0.0
 11
6173.717310993191
 21
7077.886109912412
 31
0.0
  0
LINE
  5
9FD6
330
19
100
AcDbEntity
  8
1
100
AcDbLine
 10
6133.717310993191
 20
7077.886109912412
 30
0.0
 11
6173.717310993191
 21
7077.886109912412
 31
0.0
  0
LINE
  5
9FD7
330
19
100
AcDbEntity
  8
1
100
AcDbLine
 10
6133.717310993191
 20
6067.886109912411
 30
0.0
 11
6173.717310993191
 21
6067.886109912411
 31
0.0
  0
LINE
  5
9FD8
330
19
100
AcDbEntity
  8
1
100
AcDbLine
 10
4243.717310993192
 20
6067.886109912411
 30
0.0
 11
4243.717310993191
 21
7077.886109912412
 31
0.0
  0
LINE
  5
9FD9
330
19
100
AcDbEntity
  8
1
100
AcDbLine
 10
4283.717310993191
 20
7077.886109912412
 30
0.0
 11
4243.717310993191
 21
7077.886109912412
 31
0.0
  0
LINE
  5
9FDA
330
19
100
AcDbEntity
  8
1
100
AcDbLine
 10
4283.717310993191
 20
6067.886109912411
 30
0.0
 11
4243.717310993192
 21
6067.886109912411
 31
0.0
  0
LINE
  5
9FDC
330
19
100
AcDbEntity
  8
1
100
AcDbLine
 10
1585.882279172869
 20
5987.886109912418
 30
0.0
 11
2965.882279172868
 21
5987.886109912413
 31
0.0
  0
LINE
  5
9FDD
330
19
100
AcDbEntity
  8
1
100
AcDbLine
 10
1585.882279172869
 20
5887.886109912411
 30
0.0
 11
2965.882279172868
 21
5887.886109912411
 31
0.0
  0
LINE
  5
9FDE
330
19
100
AcDbEntity
  8
1
100
AcDbLine
 10
1585.882279172869
 20
7557.886109912411
 30
0.0
 11
2965.882279172868
 21
7557.886109912411
 31
0.0
  0
LINE
  5
9FDF
330
19
100
AcDbEntity
  8
1
100
AcDbLine
 10
1585.882279172869
 20
5887.886109912411
 30
0.0
 11
1585.882279172868
 21
7557.886109912413
 31
0.0
  0
LINE
  5
9FE0
330
19
100
AcDbEntity
  8
1
100
AcDbLine
 10
2965.882279172868
 20
5887.886109912412
 30
0.0
 11
2965.882279172868
 21
7557.886109912413
 31
0.0
  0
LINE
  5
9FE2
330
19
100
AcDbEntity
  8
1
100
AcDbLine
 10
1773.882279172869
 20
7077.886109912412
 30
0.0
 11
2527.882279172868
 21
7077.886109912414
 31
0.0
  0
LINE
  5
9FE3
330
19
100
AcDbEntity
  8
1
100
AcDbLine
 10
1773.882279172869
 20
6067.886109912411
 30
0.0
 11
2527.882279172869
 21
6067.886109912411
 31
0.0
  0
LINE
  5
9FE5
330
19
100
AcDbEntity
  8
1
100
AcDbLine
 10
2487.882279172869
 20
6107.88610991241
 30
0.0
 11
2487.882279172867
 21
7037.886109912411
 31
0.0
  0
LINE
  5
9FE6
330
19
100
AcDbEntity
  8
1
100
AcDbLine
 10
1813.882279172868
 20
6107.886109912412
 30
0.0
 11
1813.882279172867
 21
7037.886109912412
 31
0.0
  0
LINE
  5
9FE8
330
19
100
AcDbEntity
  8
1
100
AcDbLine
 10
1813.882279172869
 20
7037.886109912412
 30
0.0
 11
2487.88227917287
 21
7037.886109912411
 31
0.0
  0
LINE
  5
9FE9
330
19
100
AcDbEntity
  8
1
100
AcDbLine
 10
1813.882279172869
 20
6107.886109912412
 30
0.0
 11
2487.882279172868
 21
6107.88610991241
 31
0.0
  0
LINE
  5
9FEA
330
19
100
AcDbEntity
  8
1
100
AcDbLine
 10
2527.882279172869
 20
6067.886109912411
 30
0.0
 11
2527.882279172868
 21
7077.886109912414
 31
0.0
  0
LINE
  5
9FEB
330
19
100
AcDbEntity
  8
1
100
AcDbLine
 10
1773.882279172869
 20
6067.886109912411
 30
0.0
 11
1773.882279172869
 21
7077.886109912412
 31
0.0
  0
LINE
  5
9FED
330
19
100
AcDbEntity
  8
1
100
AcDbLine
 10
2487.882279172868
 20
6107.88610991241
 30
0.0
 11
1813.882279172869
 21
7037.886109912412
 31
0.0
  0
LINE
  5
9FEE
330
19
100
AcDbEntity
  8
1
100
AcDbLine
 10
2487.88227917287
 20
7037.886109912411
 30
0.0
 11
1813.882279172869
 21
6107.886109912412
 31
0.0
  0
LINE
  5
9FEF
330
19
100
AcDbEntity
  8
1
100
AcDbLine
 10
1570.882279172868
 20
5992.886109912419
 30
0.0
 11
1570.882279172868
 21
7552.886109912411
 31
0.0
  0
LINE
  5
9FF0
330
19
100
AcDbEntity
  8
1
100
AcDbLine
 10
2980.882279172869
 20
5992.886109912415
 30
0.0
 11
2980.882279172869
 21
7552.886109912411
 31
0.0
  0
LINE
  5
9FF1
330
19
100
AcDbEntity
  8
1
100
AcDbLine
 10
1570.882279172868
 20
7552.886109912411
 30
0.0
 11
1585.882279172868
 21
7552.886109912411
 31
0.0
  0
LINE
  5
9FF2
330
19
100
AcDbEntity
  8
1
100
AcDbLine
 10
1570.882279172868
 20
5992.886109912419
 30
0.0
 11
1585.882279172869
 21
5992.886109912419
 31
0.0
  0
LINE
  5
9FF3
330
19
100
AcDbEntity
  8
1
100
AcDbLine
 10
2965.882279172868
 20
5992.886109912414
 30
0.0
 11
2980.882279172869
 21
5992.886109912414
 31
0.0
  0
LINE
  5
9FF4
330
19
100
AcDbEntity
  8
1
100
AcDbLine
 10
2965.882279172868
 20
7552.886109912411
 30
0.0
 11
2980.882279172869
 21
7552.886109912411
 31
0.0
  0
LINE
  5
9FF6
330
19
100
AcDbEntity
  8
1
100
AcDbLine
 10
7701.552342813515
 20
5987.886109912418
 30
0.0
 11
9081.552342813514
 21
5987.886109912413
 31
0.0
  0
LINE
  5
9FF7
330
19
100
AcDbEntity
  8
1
100
AcDbLine
 10
7701.552342813515
 20
5887.886109912411
 30
0.0
 11
9081.552342813514
 21
5887.886109912411
 31
0.0
  0
LINE
  5
9FF8
330
19
100
AcDbEntity
  8
1
100
AcDbLine
 10
7701.552342813515
 20
7557.886109912411
 30
0.0
 11
9081.552342813514
 21
7557.886109912411
 31
0.0
  0
LINE
  5
9FF9
330
19
100
AcDbEntity
  8
1
100
AcDbLine
 10
9096.552342813515
 20
5992.886109912415
 30
0.0
 11
9096.552342813515
 21
7552.886109912411
 31
0.0
  0
LINE
  5
9FFA
330
19
100
AcDbEntity
  8
1
100
AcDbLine
 10
9081.552342813514
 20
5887.886109912412
 30
0.0
 11
9081.552342813514
 21
7557.886109912413
 31
0.0
  0
LINE
  5
9FFB
330
19
100
AcDbEntity
  8
1
100
AcDbLine
 10
9081.552342813514
 20
5992.886109912414
 30
0.0
 11
9096.552342813515
 21
5992.886109912414
 31
0.0
  0
LINE
  5
9FFC
330
19
100
AcDbEntity
  8
1
100
AcDbLine
 10
9081.552342813514
 20
7552.886109912411
 30
0.0
 11
9096.552342813515
 21
7552.886109912411
 31
0.0
  0
LINE
  5
9FFD
330
19
100
AcDbEntity
  8
1
100
AcDbLine
 10
7686.552342813515
 20
5992.886109912419
 30
0.0
 11
7686.552342813513
 21
7552.886109912411
 31
0.0
  0
LINE
  5
9FFE
330
19
100
AcDbEntity
  8
1
100
AcDbLine
 10
7701.552342813515
 20
5887.886109912411
 30
0.0
 11
7701.552342813513
 21
7557.886109912413
 31
0.0
  0
LINE
  5
9FFF
330
19
100
AcDbEntity
  8
1
100
AcDbLine
 10
8603.552342813514
 20
7037.886109912411
 30
0.0
 11
7929.552342813515
 21
6107.886109912412
 31
0.0
  0
LINE
  5
A000
330
19
100
AcDbEntity
  8
1
100
AcDbLine
 10
8603.552342813514
 20
6107.88610991241
 30
0.0
 11
7929.552342813515
 21
7037.886109912412
 31
0.0
  0
LINE
  5
A001
330
19
100
AcDbEntity
  8
1
100
AcDbLine
 10
7889.552342813515
 20
6067.886109912411
 30
0.0
 11
8643.552342813515
 21
6067.886109912411
 31
0.0
  0
LINE
  5
A002
330
19
100
AcDbEntity
  8
1
100
AcDbLine
 10
7889.552342813515
 20
7077.886109912412
 30
0.0
 11
8643.552342813512
 21
7077.886109912414
 31
0.0
  0
LINE
  5
A003
330
19
100
AcDbEntity
  8
1
100
AcDbLine
 10
7929.552342813515
 20
6107.886109912412
 30
0.0
 11
8603.552342813514
 21
6107.88610991241
 31
0.0
  0
LINE
  5
A004
330
19
100
AcDbEntity
  8
1
100
AcDbLine
 10
7929.552342813515
 20
7037.886109912412
 30
0.0
 11
8603.552342813514
 21
7037.886109912411
 31
0.0
  0
LINE
  5
A005
330
19
100
AcDbEntity
  8
1
100
AcDbLine
 10
8603.552342813514
 20
6107.88610991241
 30
0.0
 11
8603.552342813513
 21
7037.886109912411
 31
0.0
  0
LINE
  5
A006
330
19
100
AcDbEntity
  8
1
100
AcDbLine
 10
8643.552342813515
 20
6067.886109912411
 30
0.0
 11
8643.552342813512
 21
7077.886109912414
 31
0.0
  0
LINE
  5
A007
330
19
100
AcDbEntity
  8
1
100
AcDbLine
 10
7929.552342813512
 20
6107.886109912412
 30
0.0
 11
7929.552342813512
 21
7037.886109912412
 31
0.0
  0
LINE
  5
A008
330
19
100
AcDbEntity
  8
1
100
AcDbLine
 10
7889.552342813515
 20
6067.886109912411
 30
0.0
 11
7889.552342813515
 21
7077.886109912412
 31
0.0
  0
LINE
  5
A009
330
19
100
AcDbEntity
  8
1
100
AcDbLine
 10
7686.552342813515
 20
5992.886109912419
 30
0.0
 11
7701.552342813515
 21
5992.886109912419
 31
0.0
  0
LINE
  5
A00A
330
19
100
AcDbEntity
  8
1
100
AcDbLine
 10
7686.552342813513
 20
7552.886109912411
 30
0.0
 11
7701.552342813513
 21
7552.886109912411
 31
0.0
  0
LINE
  5
A00B
330
19
100
AcDbEntity
  8
2
100
AcDbLine
 10
2150.882279172869
 20
5887.886109912412
 30
0.0
 11
2150.882279172868
 21
7185.346487182269
 31
0.0
  0
LINE
  5
A00D
330
19
100
AcDbEntity
  8
2
100
AcDbLine
 10
8266.552342813515
 20
5887.886109912412
 30
0.0
 11
8266.552342813515
 21
7185.346487182269
 31
0.0
  0
LINE
  5
A010
330
19
100
AcDbEntity
  8
2
100
AcDbLine
 10
8266.552342813513
 20
7441.34920032237
 30
0.0
 11
8266.552342813513
 21
7607.886109912413
 31
0.0
  0
LINE
  5
A011
330
19
100
AcDbEntity
  8
2
100
AcDbLine
 10
2150.882279172869
 20
7441.34920032237
 30
0.0
 11
2150.882279172868
 21
7607.886109912413
 31
0.0
  0
LINE
  5
A012
330
19
100
AcDbEntity
  8
1
100
AcDbLine
 10
6213.717310993191
 20
9502.336468804701
 30
0.0
 11
4203.71731099319
 21
9502.336468804701
 31
0.0
  0
LINE
  5
A013
330
19
100
AcDbEntity
  8
1
100
AcDbLine
 10
6213.717310993191
 20
9502.336468804701
 30
0.0
 11
6213.717310993191
 21
9552.336468804702
 31
0.0
  0
LINE
  5
A014
330
19
100
AcDbEntity
  8
1
100
AcDbLine
 10
6213.717310993191
 20
10882.3364688047
 30
0.0
 11
4203.717310993191
 21
10882.3364688047
 31
0.0
  0
LINE
  5
A015
330
19
100
AcDbEntity
  8
1
100
AcDbLine
 10
4203.717310993191
 20
10882.3364688047
 30
0.0
 11
4203.717310993191
 21
10832.33646880469
 31
0.0
  0
LINE
  5
A016
330
19
100
AcDbEntity
  8
1
100
AcDbLine
 10
6213.717310993191
 20
10832.3364688047
 30
0.0
 11
6133.717310993191
 21
10832.33646880469
 31
0.0
  0
LINE
  5
A017
330
19
100
AcDbEntity
  8
1
100
AcDbLine
 10
6213.717310993191
 20
9552.336468804702
 30
0.0
 11
6133.717310993191
 21
9552.336468804702
 31
0.0
  0
LINE
  5
A018
330
19
100
AcDbEntity
  8
1
100
AcDbLine
 10
6133.717310993191
 20
9487.3364688047
 30
0.0
 11
6133.717310993191
 21
10897.3364688047
 31
0.0
  0
LINE
  5
A019
330
19
100
AcDbEntity
  8
1
100
AcDbLine
 10
4283.717310993191
 20
9487.336468804702
 30
0.0
 11
4283.717310993191
 21
10897.3364688047
 31
0.0
  0
LINE
  5
A01A
330
19
100
AcDbEntity
  8
1
100
AcDbLine
 10
6213.717310993191
 20
10832.33646880469
 30
0.0
 11
6213.717310993191
 21
10882.3364688047
 31
0.0
  0
LINE
  5
A01B
330
19
100
AcDbEntity
  8
1
100
AcDbLine
 10
4203.717310993191
 20
9552.336468804702
 30
0.0
 11
4203.717310993191
 21
9502.336468804701
 31
0.0
  0
LINE
  5
A01C
330
19
100
AcDbEntity
  8
1
100
AcDbLine
 10
6133.717310993191
 20
10897.3364688047
 30
0.0
 11
4283.717310993191
 21
10897.33646880469
 31
0.0
  0
LINE
  5
A01D
330
19
100
AcDbEntity
  8
1
100
AcDbLine
 10
6133.717310993191
 20
9487.3364688047
 30
0.0
 11
4283.717310993191
 21
9487.336468804702
 31
0.0
  0
LINE
  5
A01E
330
19
100
AcDbEntity
  8
1
100
AcDbLine
 10
4283.717310993191
 20
10832.33646880469
 30
0.0
 11
4203.717310993191
 21
10832.3364688047
 31
0.0
  0
LINE
  5
A01F
330
19
100
AcDbEntity
  8
1
100
AcDbLine
 10
4283.71731099319
 20
9552.336468804702
 30
0.0
 11
4203.71731099319
 21
9552.336468804702
 31
0.0
  0
LINE
  5
A020
330
19
100
AcDbEntity
  8
2
100
AcDbLine
 10
4357.769268364878
 20
10317.3364688047
 30
0.0
 11
4203.717310993191
 21
10317.3364688047
 31
0.0
  0
LINE
  5
A021
330
19
100
AcDbEntity
  8
1
100
AcDbLine
 10
4243.717310993191
 20
10694.3364688047
 30
0.0
 11
4243.717310993191
 21
9940.336468804702
 31
0.0
  0
LINE
  5
A022
330
19
100
AcDbEntity
  8
1
100
AcDbLine
 10
6173.717310993192
 20
10444.3364688047
 30
0.0
 11
6173.717310993192
 21
9690.336468804702
 31
0.0
  0
LINE
  5
A023
330
19
100
AcDbEntity
  8
1
100
AcDbLine
 10
6173.717310993191
 20
9690.336468804702
 30
0.0
 11
6133.717310993191
 21
9690.336468804702
 31
0.0
  0
LINE
  5
A024
330
19
100
AcDbEntity
  8
1
100
AcDbLine
 10
6173.717310993192
 20
10444.3364688047
 30
0.0
 11
6133.717310993191
 21
10444.3364688047
 31
0.0
  0
LINE
  5
A025
330
19
100
AcDbEntity
  8
1
100
AcDbLine
 10
4283.717310993191
 20
9940.336468804702
 30
0.0
 11
4243.717310993191
 21
9940.336468804702
 31
0.0
  0
LINE
  5
A026
330
19
100
AcDbEntity
  8
1
100
AcDbLine
 10
4283.71731099319
 20
10694.3364688047
 30
0.0
 11
4243.717310993189
 21
10694.3364688047
 31
0.0
  0
DIMENSION
  5
A033
330
19
100
AcDbEntity
  8
3
100
AcDbDimension
  2
*D2
 10
6625.740055975723
 20
9502.336468804701
 30
0.0
 11
6500.740055975723
 21
10192.3364688047
 31
0.0
 70
    32
 71
     5
 42
-1.0
  3
IGA
100
AcDbAlignedDimension
 13
6213.717310993191
 23
10882.3364688047
 33
0.0
 14
6213.717310993191
 24
9502.336468804701
 34
0.0
 50
90.0
100
AcDbRotatedDimension
1001
ACAD
1000
DSTYLE
1002
{
1070
    40
1040
50.0
1070
   143
1040
0.039
1070
   172
1070
     1
1070
   271
1070
     0
1070
   279
1070
     0
1070
   289
1070
     0
1002
}
  0
DIMENSION
  5
A060
330
19
100
AcDbEntity
  8
3
100
AcDbDimension
  2
*D3
 10
1813.882279172869
 20
7210.480712930875
 30
0.0
 11
2150.882279172868
 21
7335.480712930875
 31
0.0
 70
    32
 71
     5
 42
-1.0
  3
IGA
100
AcDbAlignedDimension
 13
2487.882279172867
 23
7037.886109912411
 33
0.0
 14
1813.882279172869
 24
7037.886109912412
 34
0.0
100
AcDbRotatedDimension
1001
ACAD
1000
DSTYLE
1002
{
1070
    40
1040
50.0
1070
   143
1040
0.039
1070
   172
1070
     1
1070
   271
1070
     0
1070
   279
1070
     0
1002
}
  0
DIMENSION
  5
A06F
330
19
100
AcDbEntity
  8
3
100
AcDbDimension
  2
*D4
 10
8603.552342813513
 20
7210.480712930875
 30
0.0
 11
8266.552342813513
 21
7335.480712930875
 31
0.0
 70
    32
 71
     5
 42
-1.0
  3
IGA
100
AcDbAlignedDimension
 13
7929.552342813515
 23
7037.886109912412
 33
0.0
 14
8603.552342813513
 24
7037.886109912411
 34
0.0
100
AcDbRotatedDimension
1001
ACAD
1000
DSTYLE
1002
{
1070
    40
1040
50.0
1070
   143
1040
0.039
1070
   172
1070
     1
1070
   271
1070
     0
1070
   279
1070
     0
1002
}
  0
DIMENSION
  5
A07C
330
19
100
AcDbEntity
  8
3
100
AcDbDimension
  2
*D5
 10
9377.198535534276
 20
6107.88610991241
 30
0.0
 11
9252.198535534276
 21
6572.88610991241
 31
0.0
 70
    32
 71
     5
 42
-1.0
  3
IGA
100
AcDbAlignedDimension
 13
8603.552342813513
 23
7037.886109912411
 33
0.0
 14
8603.552342813514
 24
6107.88610991241
 34
0.0
 50
90.0
100
AcDbRotatedDimension
1001
ACAD
1000
DSTYLE
1002
{
1070
    40
1040
50.0
1070
   143
1040
0.039
1070
   172
1070
     1
1070
   271
1070
     0
1070
   279
1070
     0
1002
}
  0
DIMENSION
  5
A089
330
19
100
AcDbEntity
  8
3
100
AcDbDimension
  2
*D6
 10
3254.443087225701
 20
6107.88610991241
 30
0.0
 11
3129.443087225701
 21
6572.88610991241
 31
0.0
 70
    32
 71
     5
 42
-1.0
  3
IGA
100
AcDbAlignedDimension
 13
2487.882279172867
 23
7037.886109912411
 33
0.0
 14
2487.882279172868
 24
6107.88610991241
 34
0.0
 50
270.0
100
AcDbRotatedDimension
1001
ACAD
1000
DSTYLE
1002
{
1070
    40
1040
50.0
1070
   143
1040
0.039
1070
   172
1070
     1
1070
   271
1070
     0
1070
   279
1070
     0
1002
}
  0
DIMENSION
  5
A096
330
19
100
AcDbEntity
  8
3
100
AcDbDimension
  2
*D7
 10
1585.882279172869
 20
5576.294201063014
 30
0.0
 11
2275.882279172869
 21
5701.294201063014
 31
0.0
 70
    32
 71
     5
 42
-1.0
  3
IGA
100
AcDbAlignedDimension
 13
2965.882279172868
 23
5887.886109912412
 33
0.0
 14
1585.882279172869
 24
5887.886109912411
 34
0.0
100
AcDbRotatedDimension
1001
ACAD
1000
DSTYLE
1002
{
1070
    40
1040
50.0
1070
   143
1040
0.039
1070
   172
1070
     1
1070
   271
1070
     0
1070
   279
1070
     0
1002
}
  0
DIMENSION
  5
A0A3
330
19
100
AcDbEntity
  8
3
100
AcDbDimension
  2
*D8
 10
4203.717310993191
 20
5576.294201063014
 30
0.0
 11
5208.717310993192
 21
5701.294201063014
 31
0.0
 70
    32
 71
     5
 42
-1.0
  3
IGA
100
AcDbAlignedDimension
 13
6213.717310993192
 23
5887.886109912412
 33
0.0
 14
4203.717310993191
 24
5887.886109912411
 34
0.0
100
AcDbRotatedDimension
1001
ACAD
1000
DSTYLE
1002
{
1070
    40
1040
50.0
1070
   143
1040
0.039
1070
   172
1070
     1
1070
   271
1070
     0
1070
   279
1070
     0
1002
}
  0
DIMENSION
  5
A0B0
330
19
100
AcDbEntity
  8
3
100
AcDbDimension
  2
*D9
 10
3856.579452812732
 20
5887.886109912412
 30
0.0
 11
3731.579452812732
 21
6722.886109912413
 31
0.0
 70
    32
 71
     5
 42
-1.0
  3
IGA
100
AcDbAlignedDimension
 13
4283.717310993191
 23
7557.886109912413
 33
0.0
 14
4203.717310993192
 24
5887.886109912412
 34
0.0
 50
270.0
100
AcDbRotatedDimension
1001
ACAD
1000
DSTYLE
1002
{
1070
    40
1040
50.0
1070
   143
1040
0.039
1070
   172
1070
     1
1070
   271
1070
     0
1070
   279
1070
     0
1002
}
  0
DIMENSION
  5
A0BD
330
19
100
AcDbEntity
  8
3
100
AcDbDimension
  2
*D10
 10
9081.552342813514
 20
5576.294201063014
 30
0.0
 11
8391.552342813515
 21
5701.294201063014
 31
0.0
 70
    32
 71
     5
 42
-1.0
  3
IGA
100
AcDbAlignedDimension
 13
7701.552342813515
 23
5887.886109912411
 33
0.0
 14
9081.552342813514
 24
5887.886109912412
 34
0.0
100
AcDbRotatedDimension
1001
ACAD
1000
DSTYLE
1002
{
1070
    40
1040
50.0
1070
   143
1040
0.039
1070
   172
1070
     1
1070
   271
1070
     0
1070
   279
1070
     0
1002
}
  0
DIMENSION
  5
A0D9
330
19
100
AcDbEntity
  8
3
100
AcDbDimension
  2
*D11
 10
4283.717310993192
 20
7838.181513475181
 30
0.0
 11
5208.717310993192
 21
7963.181513475181
 31
0.0
 70
    32
 71
     5
 42
-1.0
  3
IGA
100
AcDbAlignedDimension
 13
6133.717310993191
 23
7557.886109912413
 33
0.0
 14
4283.717310993192
 24
7557.886109912411
 34
0.0
100
AcDbRotatedDimension
1001
ACAD
1000
DSTYLE
1002
{
1070
    40
1040
50.0
1070
   143
1040
0.039
1070
   172
1070
     1
1070
   271
1070
     0
1070
   279
1070
     0
1002
}
  0
DIMENSION
  5
A0E8
330
19
100
AcDbEntity
  8
3
100
AcDbDimension
  2
*D12
 10
1585.882279172868
 20
7838.181513475181
 30
0.0
 11
1868.382279172868
 21
7963.181513475181
 31
0.0
 70
    32
 71
     5
 42
-1.0
  3
IGA
100
AcDbAlignedDimension
 13
2150.882279172868
 23
7607.886109912413
 33
0.0
 14
1585.882279172868
 24
7552.886109912411
 34
0.0
100
AcDbRotatedDimension
1001
ACAD
1000
DSTYLE
1002
{
1070
    40
1040
50.0
1070
   143
1040
0.039
1070
   172
1070
     1
1070
   271
1070
     0
1070
   279
1070
     0
1002
}
  0
DIMENSION
  5
A0F5
330
19
100
AcDbEntity
  8
3
100
AcDbDimension
  2
*D13
 10
2965.882279172868
 20
7838.181513475181
 30
0.0
 11
2558.382279172868
 21
7963.181513475181
 31
0.0
 70
    32
 71
     5
 42
-1.0
  3
IGA
100
AcDbAlignedDimension
 13
2150.882279172868
 23
7607.886109912413
 33
0.0
 14
2965.882279172868
 24
7552.886109912411
 34
0.0
100
AcDbRotatedDimension
1001
ACAD
1000
DSTYLE
1002
{
1070
    40
1040
50.0
1070
   143
1040
0.039
1070
   172
1070
     1
1070
   271
1070
     0
1070
   279
1070
     0
1002
}
  0
DIMENSION
  5
A104
330
19
100
AcDbEntity
  8
3
100
AcDbDimension
  2
*D14
 10
8266.552342813513
 20
7838.181513475181
 30
0.0
 11
7984.052342813514
 21
7963.181513475181
 31
0.0
 70
    32
 71
     5
 42
-1.0
  3
IGA
100
AcDbAlignedDimension
 13
7701.552342813515
 23
7557.886109912411
 33
0.0
 14
8266.552342813513
 24
7607.886109912413
 34
0.0
100
AcDbRotatedDimension
1001
ACAD
1000
DSTYLE
1002
{
1070
    40
1040
50.0
1070
   143
1040
0.039
1070
   172
1070
     1
1070
   271
1070
     0
1070
   279
1070
     0
1002
}
  0
DIMENSION
  5
A111
330
19
100
AcDbEntity
  8
3
100
AcDbDimension
  2
*D15
 10
9081.552342813514
 20
7838.181513475181
 30
0.0
 11
8674.052342813514
 21
7963.181513475181
 31
0.0
 70
    32
 71
     5
 42
-1.0
  3
IGA
100
AcDbAlignedDimension
 13
8266.552342813513
 23
7607.886109912413
 33
0.0
 14
9081.552342813514
 24
7557.886109912413
 34
0.0
100
AcDbRotatedDimension
1001
ACAD
1000
DSTYLE
1002
{
1070
    40
1040
50.0
1070
   143
1040
0.039
1070
   172
1070
     1
1070
   271
1070
     0
1070
   279
1070
     0
1002
}
  0
LINE
  5
A18C
330
19
100
AcDbEntity
  8
2
100
AcDbLine
 10
6213.717310993191
 20
10067.3364688047
 30
0.0
 11
6059.45637935488
 21
10067.3364688047
 31
0.0
  0
DIMENSION
  5
A1DD
330
19
100
AcDbEntity
  8
3
100
AcDbDimension
  2
*D16
 10
6552.510474212468
 20
6572.886109912413
 30
0.0
 11
6427.510474212468
 21
6230.386109912412
 31
0.0
 70
    32
 71
     5
 42
-1.0
  3
IGA
100
AcDbAlignedDimension
 13
6213.717310993192
 23
5887.886109912412
 33
0.0
 14
6207.073104958576
 24
6572.886109912413
 34
0.0
 50
90.0
100
AcDbRotatedDimension
1001
ACAD
1000
DSTYLE
1002
{
1070
    40
1040
50.0
1070
   143
1040
0.039
1070
   172
1070
     1
1070
   271
1070
     0
1070
   279
1070
     0
1002
}
  0
ENDSEC
  0
SECTION
  2
OBJECTS
  0
DICTIONARY
  5
C
330
0
100
AcDbDictionary
281
     1
  3
ACAD_GROUP
350
D
  3
ACAD_LAYOUT
350
A25E
  3
ACAD_MLINESTYLE
350
E
  3
ACAD_PLOTSETTINGS
350
A25F
  3
ACAD_PLOTSTYLENAME
350
A25C
  0
DICTIONARY
  5
D
102
{ACAD_REACTORS
330
C
102
}
330
C
100
AcDbDictionary
281
     1
  0
DICTIONARY
  5
A25E
102
{ACAD_REACTORS
330
C
102
}
330
C
100
AcDbDictionary
281
     1
  3
Model
350
A260
  3
ﾚｲｱｳﾄ1
350
A261
  0
DICTIONARY
  5
E
102
{ACAD_REACTORS
330
C
102
}
330
C
100
AcDbDictionary
281
     1
  3
STANDARD
350
1C
  0
DICTIONARY
  5
A25F
102
{ACAD_REACTORS
330
C
102
}
330
C
100
AcDbDictionary
281
     1
  0
ACDBDICTIONARYWDFLT
  5
A25C
102
{ACAD_REACTORS
330
C
102
}
330
C
100
AcDbDictionary
281
     1
  3
Normal
350
A25D
100
AcDbDictionaryWithDefault
340
A25D
  0
LAYOUT
  5
A260
102
{ACAD_REACTORS
330
A25E
102
}
330
A25E
100
AcDbPlotSettings
  1

  2
EPSON LP-9300
  4

  6

 40
0.0
 41
0.0
 42
0.0
 43
0.0
 44
0.0
 45
0.0
 46
0.0
 47
0.0
 48
0.0
 49
0.0
140
0.0
141
0.0
142
1.0
143
1.0
 70
  1712
 72
     0
 73
     0
 74
     0
  7

 75
     0
147
1.0
148
0.0
149
0.0
100
AcDbLayout
  1
Model
 70
     1
 71
     0
 10
0.0
 20
0.0
 11
12.0
 21
9.0
 12
0.0
 22
0.0
 32
0.0
 14
0.0
 24
0.0
 34
0.0
 15
0.0
 25
0.0
 35
0.0
146
0.0
 13
0.0
 23
0.0
 33
0.0
 16
1.0
 26
0.0
 36
0.0
 17
0.0
 27
1.0
 37
0.0
 76
     0
330
19
  0
LAYOUT
  5
A261
102
{ACAD_REACTORS
330
A25E
102
}
330
A25E
100
AcDbPlotSettings
  1

  2
EPSON LP-9300
  4

  6

 40
0.0
 41
0.0
 42
0.0
 43
0.0
 44
0.0
 45
0.0
 46
0.0
 47
0.0
 48
0.0
 49
0.0
140
0.0
141
0.0
142
1.0
143
1.0
 70
   688
 72
     0
 73
     0
 74
     5
  7

 75
    16
147
1.0
148
0.0
149
0.0
100
AcDbLayout
  1
ﾚｲｱｳﾄ1
 70
     1
 71
     1
 10
0.0
 20
0.0
 11
12.0
 21
9.0
 12
0.0
 22
0.0
 32
0.0
 14
1.000000000000000E+20
 24
1.000000000000000E+20
 34
1.000000000000000E+20
 15
-1.000000000000000E+20
 25
-1.000000000000000E+20
 35
-1.000000000000000E+20
146
0.0
 13
0.0
 23
0.0
 33
0.0
 16
1.0
 26
0.0
 36
0.0
 17
0.0
 27
1.0
 37
0.0
 76
     0
330
16
  0
MLINESTYLE
  5
1C
102
{ACAD_REACTORS
330
E
102
}
330
E
100
AcDbMlineStyle
  2
STANDARD
 70
     0
  3

 62
     0
 51
90.0
 52
90.0
 71
     2
 49
0.5
 62
   256
  6
BYLAYER
 49
-0.5
 62
   256
  6
BYLAYER
  0
ACDBPLACEHOLDER
  5
A25D
102
{ACAD_REACTORS
330
A25C
102
}
330
A25C
  0
ENDSEC
  0
EOF
