  0
SECTION
  2
HEADER
  9
$ACADVER
  1
AC1009
  9
$INSBASE
 10
0.0
 20
0.0
 30
0.0
  9
$EXTMIN
 10
-356.00750232626518
 20
1169.483602061611
 30
0.0
  9
$EXTMAX
 10
10143.992497673729
 20
15919.483602061609
 30
0.0
  9
$LIMMIN
 10
0.0
 20
0.0
  9
$LIMMAX
 10
297.0
 20
210.0
  9
$ORTHOMODE
 70
     0
  9
$REGENMODE
 70
     1
  9
$FILLMODE
 70
     0
  9
$QTEXTMODE
 70
     0
  9
$MIRRTEXT
 70
     1
  9
$DRAGMODE
 70
     2
  9
$LTSCALE
 40
100.0
  9
$OSMODE
 70
    37
  9
$ATTMODE
 70
     1
  9
$TEXTSIZE
 40
180.0
  9
$TRACEWID
 40
0.05
  9
$TEXTSTYLE
  7
STANDARD
  9
$CLAYER
  8
3
  9
$CELTYPE
  6
BYLAYER
  9
$CECOLOR
 62
   256
  9
$DIMSCALE
 40
50.0
  9
$DIMASZ
 40
2.0
  9
$DIMEXO
 40
0.5
  9
$DIMDLI
 40
10.0
  9
$DIMRND
 40
0.0
  9
$DIMDLE
 40
0.0
  9
$DIMEXE
 40
1.0
  9
$DIMTP
 40
1.0
  9
$DIMTM
 40
1.0
  9
$DIMTXT
 40
3.0
  9
$DIMCEN
 40
0.0
  9
$DIMTSZ
 40
0.0
  9
$DIMTOL
 70
     0
  9
$DIMLIM
 70
     0
  9
$DIMTIH
 70
     0
  9
$DIMTOH
 70
     0
  9
$DIMSE1
 70
     0
  9
$DIMSE2
 70
     0
  9
$DIMTAD
 70
     1
  9
$DIMZIN
 70
     8
  9
$DIMBLK
  1

  9
$DIMASO
 70
     1
  9
$DIMSHO
 70
     1
  9
$DIMPOST
  1

  9
$DIMAPOST
  1

  9
$DIMALT
 70
     0
  9
$DIMALTD
 70
     2
  9
$DIMALTF
 40
0.039
  9
$DIMLFAC
 40
1.0
  9
$DIMTOFL
 70
     1
  9
$DIMTVP
 40
0.0
  9
$DIMTIX
 70
     0
  9
$DIMSOXD
 70
     0
  9
$DIMSAH
 70
     1
  9
$DIMBLK1
  1
OPEN
  9
$DIMBLK2
  1
OPEN
  9
$DIMSTYLE
  2
IGA
  9
$DIMCLRD
 70
     0
  9
$DIMCLRE
 70
     0
  9
$DIMCLRT
 70
     0
  9
$DIMTFAC
 40
10.0
  9
$DIMGAP
 40
1.0
  9
$LUNITS
 70
     2
  9
$LUPREC
 70
     3
  9
$SKETCHINC
 40
0.1
  9
$FILLETRAD
 40
50.0
  9
$AUNITS
 70
     0
  9
$AUPREC
 70
     0
  9
$MENU
  1
acad
  9
$ELEVATION
 40
0.0
  9
$PELEVATION
 40
0.0
  9
$THICKNESS
 40
0.0
  9
$LIMCHECK
 70
     0
  9
$BLIPMODE
 70
     0
  9
$CHAMFERA
 40
0.5
  9
$CHAMFERB
 40
0.5
  9
$SKPOLY
 70
     0
  9
$TDCREATE
 40
2452810.5958900461
  9
$TDUPDATE
 40
2454953.856274236
  9
$TDINDWG
 40
0.0844665972
  9
$TDUSRTIMER
 40
0.0844665972
  9
$USRTIMER
 70
     1
  9
$ANGBASE
 50
0.0
  9
$ANGDIR
 70
     0
  9
$PDMODE
 70
     0
  9
$PDSIZE
 40
0.0
  9
$PLINEWID
 40
0.0
  9
$COORDS
 70
     1
  9
$SPLFRAME
 70
     0
  9
$SPLINETYPE
 70
     6
  9
$SPLINESEGS
 70
     8
  9
$ATTDIA
 70
     0
  9
$ATTREQ
 70
     1
  9
$HANDLING
 70
 10241
  9
$HANDSEED
  5
A23B
  9
$SURFTAB1
 70
     6
  9
$SURFTAB2
 70
     6
  9
$SURFTYPE
 70
     6
  9
$SURFU
 70
     6
  9
$SURFV
 70
     6
  9
$UCSNAME
  2

  9
$UCSORG
 10
0.0
 20
0.0
 30
0.0
  9
$UCSXDIR
 10
1.0
 20
0.0
 30
0.0
  9
$UCSYDIR
 10
0.0
 20
1.0
 30
0.0
  9
$PUCSNAME
  2

  9
$PUCSORG
 10
0.0
 20
0.0
 30
0.0
  9
$PUCSXDIR
 10
1.0
 20
0.0
 30
0.0
  9
$PUCSYDIR
 10
0.0
 20
1.0
 30
0.0
  9
$USERI1
 70
     0
  9
$USERI2
 70
     0
  9
$USERI3
 70
     0
  9
$USERI4
 70
     0
  9
$USERI5
 70
     0
  9
$USERR1
 40
0.0
  9
$USERR2
 40
0.0
  9
$USERR3
 40
0.0
  9
$USERR4
 40
0.0
  9
$USERR5
 40
0.0
  9
$WORLDVIEW
 70
     1
  9
$SHADEDGE
 70
     3
  9
$SHADEDIF
 70
    70
  9
$TILEMODE
 70
     1
  9
$MAXACTVP
 70
    16
  9
$PLIMCHECK
 70
     0
  9
$PEXTMIN
 10
1.0000000000000000E+020
 20
1.0000000000000000E+020
 30
1.0000000000000000E+020
  9
$PEXTMAX
 10
-1.0000000000000000E+020
 20
-1.0000000000000000E+020
 30
-1.0000000000000000E+020
  9
$PLIMMIN
 10
0.0
 20
0.0
  9
$PLIMMAX
 10
12.0
 20
9.0
  9
$UNITMODE
 70
     0
  9
$VISRETAIN
 70
     0
  9
$PLINEGEN
 70
     0
  9
$PSLTSCALE
 70
     1
  0
ENDSEC
  0
SECTION
  2
TABLES
  0
TABLE
  2
VPORT
 70
     2
  0
VPORT
  2
*ACTIVE
 70
     0
 10
0.0
 20
0.0
 11
1.0
 21
1.0
 12
12977.992497673729
 22
10028.60679662405
 13
0.0
 23
0.0
 14
10.0
 24
10.0
 15
10.0
 25
10.0
 16
0.0
 26
0.0
 36
1.0
 17
0.0
 27
0.0
 37
0.0
 40
17718.246389124892
 41
1.5051150895140659
 42
50.0
 43
0.0
 44
0.0
 50
0.0
 51
0.0
 71
     0
 72
   100
 73
     1
 74
     0
 75
     0
 76
     0
 77
     0
 78
     0
  0
ENDTAB
  0
TABLE
  2
LTYPE
 70
     2
  0
LTYPE
  2
CONTINUOUS
 70
     0
  3
Solid line
 72
    65
 73
     0
 40
0.0
  0
LTYPE
  2
CENTER
 70
     0
  3
____ _ ____ _ ____ _ ____ _ ____ _ ____ _ ____ 
 72
    65
 73
     4
 40
2.0
 49
1.25
 49
-0.25
 49
0.25
 49
-0.25
  0
ENDTAB
  0
TABLE
  2
LAYER
 70
     6
  0
LAYER
  2
0
 70
     0
 62
     7
  6
CONTINUOUS
  0
LAYER
  2
3
 70
     0
 62
     2
  6
CONTINUOUS
  0
LAYER
  2
2
 70
     0
 62
     3
  6
CENTER
  0
LAYER
  2
1
 70
     0
 62
     4
  6
CONTINUOUS
  0
LAYER
  2
4
 70
     0
 62
     7
  6
CONTINUOUS
  0
LAYER
  2
DEFPOINTS
 70
     0
 62
     7
  6
CONTINUOUS
  0
ENDTAB
  0
TABLE
  2
STYLE
 70
     1
  0
STYLE
  2
STANDARD
 70
     0
 40
0.0
 41
1.0
 50
0.0
 71
     0
 42
180.0
  3
simplex.shx
  4
extfont.shx
  0
ENDTAB
  0
TABLE
  2
VIEW
 70
     0
  0
ENDTAB
  0
TABLE
  2
UCS
 70
     0
  0
ENDTAB
  0
TABLE
  2
APPID
 70
     2
  0
APPID
  2
ACAD
 70
     0
  0
APPID
  2
CONTENTBLOCKICON
 70
     0
  0
ENDTAB
  0
TABLE
  2
DIMSTYLE
 70
     1
  0
DIMSTYLE
  2
IGA
 70
     0
  3

  4

  5

  6
OPEN
  7
OPEN
 40
2.0
 41
2.0
 42
0.5
 43
10.0
 44
1.0
 45
0.0
 46
0.0
 47
1.0
 48
1.0
140
3.0
141
0.0
142
0.0
143
0.03937
144
1.0
145
0.0
146
10.0
147
1.0
 71
     0
 72
     0
 73
     0
 74
     0
 75
     0
 76
     0
 77
     1
 78
     8
170
     0
171
     2
172
     0
173
     1
174
     0
175
     0
176
     0
177
     0
178
     0
  0
ENDTAB
  0
ENDSEC
  0
SECTION
  2
BLOCKS
  0
BLOCK
  8
0
  2
$MODEL_SPACE
 70
     0
 10
0.0
 20
0.0
 30
0.0
  3
$MODEL_SPACE
  1

  0
ENDBLK
  5
1B
  8
0
  0
BLOCK
 67
     1
  8
0
  2
$PAPER_SPACE
 70
     0
 10
0.0
 20
0.0
 30
0.0
  3
$PAPER_SPACE
  1

  0
ENDBLK
  5
18
 67
     1
  8
0
  0
BLOCK
  8
0
  2
_OPEN
 70
     0
 10
0.0
 20
0.0
 30
0.0
  3
_OPEN
  1

  0
LINE
  5
79FD
  8
0
  6
BYBLOCK
 62
     0
 10
-1.0
 20
0.1666666666666666
 30
0.0
 11
0.0
 21
0.0
 31
0.0
  0
LINE
  5
79FE
  8
0
  6
BYBLOCK
 62
     0
 10
0.0
 20
0.0
 30
0.0
 11
-1.0
 21
-0.1666666666666666
 31
0.0
  0
LINE
  5
79FF
  8
0
  6
BYBLOCK
 62
     0
 10
0.0
 20
0.0
 30
0.0
 11
-1.0
 21
0.0
 31
0.0
  0
ENDBLK
  5
7A01
  8
0
  0
BLOCK
  8
0
  2
L-40-3
 70
     0
 10
0.0
 20
0.0
 30
0.0
  3
L-40-3
  1

  0
ARC
  5
7A03
  8
0
 10
7.5
 20
7.5
 30
0.0
 40
4.5
 50
180.0
 51
270.0
  0
LINE
  5
7A04
  8
0
 10
0.0
 20
0.0
 30
0.0
 11
0.0
 21
40.0
 31
0.0
  0
LINE
  5
7A05
  8
0
 10
7.5
 20
3.0
 30
0.0
 11
38.0
 21
3.0
 31
0.0
  0
LINE
  5
7A06
  8
0
 10
0.0
 20
0.0
 30
0.0
 11
40.0
 21
0.0
 31
0.0
  0
LINE
  5
7A07
  8
0
 10
40.0
 20
0.0
 30
0.0
 11
40.0
 21
1.0
 31
0.0
  0
ARC
  5
7A08
  8
0
 10
38.0
 20
1.0
 30
0.0
 40
2.0
 50
0.0
 51
90.0
  0
LINE
  5
7A09
  8
0
 10
3.0
 20
7.5
 30
0.0
 11
3.0
 21
38.0
 31
0.0
  0
LINE
  5
7A0A
  8
0
 10
0.0
 20
40.0
 30
0.0
 11
1.0
 21
40.0
 31
0.0
  0
ARC
  5
7A0B
  8
0
 10
1.0
 20
38.0
 30
0.0
 40
2.0
 50
0.0
 51
90.0
  0
ENDBLK
  5
7A0D
  8
0
  0
BLOCK
  8
0
  2
*D2
 70
     1
 10
0.0
 20
0.0
 30
0.0
  3
*D2
  1

  0
LINE
  5
A1A5
  8
3
 62
     0
 10
6238.7173109931909
 20
10882.3364688047
 30
0.0
 11
6675.7400559757216
 21
10882.3364688047
 31
0.0
  0
LINE
  5
A1A6
  8
3
 62
     0
 10
6238.7173109931909
 20
9502.3364688047004
 30
0.0
 11
6675.7400559757216
 21
9502.3364688047004
 31
0.0
  0
LINE
  5
A1A7
  8
3
 62
     0
 10
6625.7400559757234
 20
10782.3364688047
 30
0.0
 11
6625.7400559757234
 21
9602.3364688047004
 31
0.0
  0
INSERT
  5
A1A8
  8
3
 62
     0
  2
_OPEN
 10
6625.7400559757234
 20
10882.3364688047
 30
0.0
 41
100.0
 42
100.0
 43
100.0
 50
90.0
  0
INSERT
  5
A1A9
  8
3
 62
     0
  2
_OPEN
 10
6625.7400559757234
 20
9502.3364688047004
 30
0.0
 41
100.0
 42
100.0
 43
100.0
 50
270.0
  0
TEXT
  8
3
  40
150
  5
A22C
  62
0
  72
0
  71
0
 10
6200.74
 20
9926.84
 30
0.000000
  1
1380
  0
POINT
  5
A1AB
  8
DEFPOINTS
 62
     0
 10
6213.7173109931909
 20
10882.3364688047
 30
0.0
  0
POINT
  5
A1AC
  8
DEFPOINTS
 62
     0
 10
6213.7173109931909
 20
9502.3364688047004
 30
0.0
  0
POINT
  5
A1AD
  8
DEFPOINTS
 62
     0
 10
6625.7400559757234
 20
9502.3364688047004
 30
0.0
  0
ENDBLK
  5
A032
  8
0
  0
BLOCK
  8
0
  2
*D3
 70
     1
 10
0.0
 20
0.0
 30
0.0
  3
*D3
  1

  0
LINE
  5
A1AE
  8
3
 62
     0
 10
1813.8822791728689
 20
7062.8861099124106
 30
0.0
 11
1813.8822791728689
 21
7260.4807129308747
 31
0.0
  0
LINE
  5
A1AF
  8
3
 62
     0
 10
2487.8822791728671
 20
7062.8861099124124
 30
0.0
 11
2487.8822791728671
 21
7260.4807129308747
 31
0.0
  0
LINE
  5
A1B0
  8
3
 62
     0
 10
1913.882279172868
 20
7210.4807129308747
 30
0.0
 11
2387.8822791728671
 21
7210.4807129308747
 31
0.0
  0
INSERT
  5
A1B1
  8
3
 62
     0
  2
_OPEN
 10
1813.8822791728689
 20
7210.4807129308747
 30
0.0
 41
100.0
 42
100.0
 43
100.0
 50
180.0
  0
INSERT
  5
A1B2
  8
3
 62
     0
  2
_OPEN
 10
2487.8822791728671
 20
7210.4807129308747
 30
0.0
 41
100.0
 42
100.0
 43
100.0
  0
TEXT
  8
3
  40
150
  5
A22D
  62
0
  72
0
  71
0
 10
1850.88
 20
7069.98
 30
0.000000
  1
674
  0
POINT
  5
A1B4
  8
DEFPOINTS
 62
     0
 10
1813.8822791728689
 20
7037.8861099124106
 30
0.0
  0
POINT
  5
A1B5
  8
DEFPOINTS
 62
     0
 10
2487.8822791728671
 20
7037.8861099124124
 30
0.0
  0
POINT
  5
A1B6
  8
DEFPOINTS
 62
     0
 10
2487.8822791728671
 20
7210.4807129308747
 30
0.0
  0
ENDBLK
  5
A05F
  8
0
  0
BLOCK
  8
0
  2
*D4
 70
     1
 10
0.0
 20
0.0
 30
0.0
  3
*D4
  1

  0
LINE
  5
A1B7
  8
3
 62
     0
 10
8603.5523428135111
 20
7062.8861099124124
 30
0.0
 11
8603.5523428135111
 21
7260.4807129308747
 31
0.0
  0
LINE
  5
A1B8
  8
3
 62
     0
 10
7929.552342813512
 20
7062.8861099124106
 30
0.0
 11
7929.552342813512
 21
7260.4807129308747
 31
0.0
  0
LINE
  5
A1B9
  8
3
 62
     0
 10
8503.5523428135111
 20
7210.4807129308747
 30
0.0
 11
8029.552342813513
 21
7210.4807129308747
 31
0.0
  0
INSERT
  5
A1BA
  8
3
 62
     0
  2
_OPEN
 10
8603.5523428135111
 20
7210.4807129308747
 30
0.0
 41
100.0
 42
100.0
 43
100.0
  0
INSERT
  5
A1BB
  8
3
 62
     0
  2
_OPEN
 10
7929.552342813512
 20
7210.4807129308747
 30
0.0
 41
100.0
 42
100.0
 43
100.0
 50
180.0
  0
TEXT
  8
3
  40
150
  5
A22E
  62
0
  72
0
  71
0
 10
7966.55
 20
7069.98
 30
0.000000
  1
674
  0
POINT
  5
A1BD
  8
DEFPOINTS
 62
     0
 10
8603.5523428135111
 20
7037.8861099124124
 30
0.0
  0
POINT
  5
A1BE
  8
DEFPOINTS
 62
     0
 10
7929.552342813512
 20
7037.8861099124106
 30
0.0
  0
POINT
  5
A1BF
  8
DEFPOINTS
 62
     0
 10
7929.552342813512
 20
7210.4807129308747
 30
0.0
  0
ENDBLK
  5
A180
  8
0
  0
BLOCK
  8
0
  2
*D5
 70
     1
 10
0.0
 20
0.0
 30
0.0
  3
*D5
  1

  0
LINE
  5
A1C0
  8
3
 62
     0
 10
7904.552342813513
 20
7037.8861099124106
 30
0.0
 11
7105.9061500927492
 21
7037.8861099124106
 31
0.0
  0
LINE
  5
A1C1
  8
3
 62
     0
 10
7904.5523428135111
 20
6107.8861099124097
 30
0.0
 11
7105.9061500927492
 21
6107.8861099124097
 31
0.0
  0
LINE
  5
A1C2
  8
3
 62
     0
 10
7155.9061500927501
 20
6937.8861099124106
 30
0.0
 11
7155.9061500927501
 21
6207.8861099124097
 31
0.0
  0
INSERT
  5
A1C3
  8
3
 62
     0
  2
_OPEN
 10
7155.9061500927501
 20
7037.8861099124106
 30
0.0
 41
100.0
 42
100.0
 43
100.0
 50
90.0
  0
INSERT
  5
A1C4
  8
3
 62
     0
  2
_OPEN
 10
7155.9061500927501
 20
6107.8861099124097
 30
0.0
 41
100.0
 42
100.0
 43
100.0
 50
270.0
  0
TEXT
  8
3
  40
150
  5
A22F
  62
0
  72
0
  71
0
 10
6730.91
 20
6307.39
 30
0.000000
  1
930
  0
POINT
  5
A1C6
  8
DEFPOINTS
 62
     0
 10
7929.552342813512
 20
7037.8861099124106
 30
0.0
  0
POINT
  5
A1C7
  8
DEFPOINTS
 62
     0
 10
7929.5523428135111
 20
6107.8861099124097
 30
0.0
  0
POINT
  5
A1C8
  8
DEFPOINTS
 62
     0
 10
7155.9061500927501
 20
6107.8861099124097
 30
0.0
  0
ENDBLK
  5
A18B
  8
0
  0
BLOCK
  8
0
  2
*D6
 70
     1
 10
0.0
 20
0.0
 30
0.0
  3
*D6
  1

  0
LINE
  5
A1C9
  8
3
 62
     0
 10
1788.882279172868
 20
7037.8861099124106
 30
0.0
 11
997.32147112003474
 21
7037.8861099124106
 31
0.0
  0
LINE
  5
A1CA
  8
3
 62
     0
 10
1788.882279172868
 20
6107.8861099124097
 30
0.0
 11
997.32147112003429
 21
6107.8861099124097
 31
0.0
  0
LINE
  5
A1CB
  8
3
 62
     0
 10
1047.3214711200339
 20
6937.8861099124106
 30
0.0
 11
1047.3214711200339
 21
6207.8861099124097
 31
0.0
  0
INSERT
  5
A1CC
  8
3
 62
     0
  2
_OPEN
 10
1047.3214711200339
 20
7037.8861099124106
 30
0.0
 41
100.0
 42
100.0
 43
100.0
 50
90.0
  0
INSERT
  5
A1CD
  8
3
 62
     0
  2
_OPEN
 10
1047.3214711200339
 20
6107.8861099124097
 30
0.0
 41
100.0
 42
100.0
 43
100.0
 50
270.0
  0
TEXT
  8
3
  40
150
  5
A230
  62
0
  72
0
  71
0
 10
622.321
 20
6307.39
 30
0.000000
  1
930
  0
POINT
  5
A1CF
  8
DEFPOINTS
 62
     0
 10
1813.8822791728689
 20
7037.8861099124106
 30
0.0
  0
POINT
  5
A1D0
  8
DEFPOINTS
 62
     0
 10
1813.882279172868
 20
6107.8861099124097
 30
0.0
  0
POINT
  5
A1D1
  8
DEFPOINTS
 62
     0
 10
1047.3214711200339
 20
6107.8861099124097
 30
0.0
  0
ENDBLK
  5
A088
  8
0
  0
BLOCK
  8
0
  2
*D7
 70
     1
 10
0.0
 20
0.0
 30
0.0
  3
*D7
  1

  0
LINE
  5
A1D2
  8
3
 62
     0
 10
1335.8822791728669
 20
5862.8861099124124
 30
0.0
 11
1335.8822791728669
 21
5526.294201063014
 31
0.0
  0
LINE
  5
A1D3
  8
3
 62
     0
 10
2715.8822791728671
 20
5862.8861099124124
 30
0.0
 11
2715.8822791728671
 21
5526.294201063014
 31
0.0
  0
LINE
  5
A1D4
  8
3
 62
     0
 10
1435.8822791728669
 20
5576.294201063014
 30
0.0
 11
2615.8822791728671
 21
5576.294201063014
 31
0.0
  0
INSERT
  5
A1D5
  8
3
 62
     0
  2
_OPEN
 10
1335.8822791728669
 20
5576.294201063014
 30
0.0
 41
100.0
 42
100.0
 43
100.0
 50
180.0
  0
INSERT
  5
A1D6
  8
3
 62
     0
  2
_OPEN
 10
2715.8822791728671
 20
5576.294201063014
 30
0.0
 41
100.0
 42
100.0
 43
100.0
  0
TEXT
  8
3
  40
150
  5
A231
  62
0
  72
0
  71
0
 10
1725.88
 20
5435.79
 30
0.000000
  1
1380
  0
POINT
  5
A1D8
  8
DEFPOINTS
 62
     0
 10
1335.8822791728669
 20
5887.8861099124124
 30
0.0
  0
POINT
  5
A1D9
  8
DEFPOINTS
 62
     0
 10
2715.8822791728671
 20
5887.8861099124106
 30
0.0
  0
POINT
  5
A1DA
  8
DEFPOINTS
 62
     0
 10
2715.8822791728671
 20
5576.294201063014
 30
0.0
  0
ENDBLK
  5
A095
  8
0
  0
BLOCK
  8
0
  2
*D8
 70
     1
 10
0.0
 20
0.0
 30
0.0
  3
*D8
  1

  0
LINE
  5
A1DB
  8
3
 62
     0
 10
4203.71731099319
 20
5862.8861099124124
 30
0.0
 11
4203.71731099319
 21
5526.294201063014
 31
0.0
  0
LINE
  5
A1DC
  8
3
 62
     0
 10
6213.7173109931909
 20
5862.8861099124124
 30
0.0
 11
6213.7173109931909
 21
5526.294201063014
 31
0.0
  0
LINE
  5
A1DD
  8
3
 62
     0
 10
4303.71731099319
 20
5576.294201063014
 30
0.0
 11
6113.7173109931909
 21
5576.294201063014
 31
0.0
  0
INSERT
  5
A1DE
  8
3
 62
     0
  2
_OPEN
 10
4203.71731099319
 20
5576.294201063014
 30
0.0
 41
100.0
 42
100.0
 43
100.0
 50
180.0
  0
INSERT
  5
A1DF
  8
3
 62
     0
  2
_OPEN
 10
6213.7173109931909
 20
5576.294201063014
 30
0.0
 41
100.0
 42
100.0
 43
100.0
  0
TEXT
  8
3
  40
150
  5
A232
  62
0
  72
0
  71
0
 10
4908.72
 20
5435.79
 30
0.000000
  1
2010
  0
POINT
  5
A1E1
  8
DEFPOINTS
 62
     0
 10
4203.71731099319
 20
5887.8861099124124
 30
0.0
  0
POINT
  5
A1E2
  8
DEFPOINTS
 62
     0
 10
6213.7173109931909
 20
5887.8861099124106
 30
0.0
  0
POINT
  5
A1E3
  8
DEFPOINTS
 62
     0
 10
6213.7173109931909
 20
5576.294201063014
 30
0.0
  0
ENDBLK
  5
A0A2
  8
0
  0
BLOCK
  8
0
  2
*D9
 70
     1
 10
0.0
 20
0.0
 30
0.0
  3
*D9
  1

  0
LINE
  5
A1E4
  8
3
 62
     0
 10
6158.7173109931909
 20
7557.8861099124106
 30
0.0
 11
6610.8551691736511
 21
7557.8861099124106
 31
0.0
  0
LINE
  5
A1E5
  8
3
 62
     0
 10
6238.71731099319
 20
5887.8861099124124
 30
0.0
 11
6610.8551691736511
 21
5887.8861099124124
 31
0.0
  0
LINE
  5
A1E6
  8
3
 62
     0
 10
6560.8551691736511
 20
7457.8861099124106
 30
0.0
 11
6560.8551691736511
 21
5987.8861099124124
 31
0.0
  0
INSERT
  5
A1E7
  8
3
 62
     0
  2
_OPEN
 10
6560.8551691736511
 20
7557.8861099124106
 30
0.0
 41
100.0
 42
100.0
 43
100.0
 50
90.0
  0
INSERT
  5
A1E8
  8
3
 62
     0
  2
_OPEN
 10
6560.8551691736511
 20
5887.8861099124124
 30
0.0
 41
100.0
 42
100.0
 43
100.0
 50
270.0
  0
TEXT
  8
3
  40
150
  5
A233
  62
0
  72
0
  71
0
 10
6135.86
 20
6457.39
 30
0.000000
  1
1670
  0
POINT
  5
A1EA
  8
DEFPOINTS
 62
     0
 10
6133.7173109931909
 20
7557.8861099124133
 30
0.0
  0
POINT
  5
A1EB
  8
DEFPOINTS
 62
     0
 10
6213.71731099319
 20
5887.8861099124124
 30
0.0
  0
POINT
  5
A1EC
  8
DEFPOINTS
 62
     0
 10
6560.8551691736511
 20
5887.8861099124124
 30
0.0
  0
ENDBLK
  5
A0AF
  8
0
  0
BLOCK
  8
0
  2
*D10
 70
     1
 10
0.0
 20
0.0
 30
0.0
  3
*D10
  1

  0
LINE
  5
A1ED
  8
3
 62
     0
 10
8831.5523428135111
 20
5862.8861099124124
 30
0.0
 11
8831.5523428135111
 21
5526.294201063014
 31
0.0
  0
LINE
  5
A1EE
  8
3
 62
     0
 10
7451.5523428135111
 20
5862.8861099124124
 30
0.0
 11
7451.5523428135111
 21
5526.294201063014
 31
0.0
  0
LINE
  5
A1EF
  8
3
 62
     0
 10
8731.5523428135111
 20
5576.294201063014
 30
0.0
 11
7551.5523428135111
 21
5576.294201063014
 31
0.0
  0
INSERT
  5
A1F0
  8
3
 62
     0
  2
_OPEN
 10
8831.5523428135111
 20
5576.294201063014
 30
0.0
 41
100.0
 42
100.0
 43
100.0
  0
INSERT
  5
A1F1
  8
3
 62
     0
  2
_OPEN
 10
7451.5523428135111
 20
5576.294201063014
 30
0.0
 41
100.0
 42
100.0
 43
100.0
 50
180.0
  0
TEXT
  8
3
  40
150
  5
A234
  62
0
  72
0
  71
0
 10
7841.55
 20
5435.79
 30
0.000000
  1
1380
  0
POINT
  5
A1F3
  8
DEFPOINTS
 62
     0
 10
8831.5523428135111
 20
5887.8861099124106
 30
0.0
  0
POINT
  5
A1F4
  8
DEFPOINTS
 62
     0
 10
7451.5523428135111
 20
5887.8861099124124
 30
0.0
  0
POINT
  5
A1F5
  8
DEFPOINTS
 62
     0
 10
7451.5523428135111
 20
5576.294201063014
 30
0.0
  0
ENDBLK
  5
A173
  8
0
  0
BLOCK
  8
0
  2
*D11
 70
     1
 10
0.0
 20
0.0
 30
0.0
  3
*D11
  1

  0
LINE
  5
A1F6
  8
3
 62
     0
 10
4185.3615170278063
 20
6572.8861099124133
 30
0.0
 11
3889.4894620375412
 21
6572.8861099124133
 31
0.0
  0
LINE
  5
A1F7
  8
3
 62
     0
 10
4178.71731099319
 20
5887.8861099124124
 30
0.0
 11
3889.4894620375412
 21
5887.8861099124124
 31
0.0
  0
LINE
  5
A1F8
  8
3
 62
     0
 10
3939.4894620375421
 20
6472.8861099124133
 30
0.0
 11
3939.4894620375421
 21
5987.8861099124124
 31
0.0
  0
INSERT
  5
A1F9
  8
3
 62
     0
  2
_OPEN
 10
3939.4894620375421
 20
6572.8861099124133
 30
0.0
 41
100.0
 42
100.0
 43
100.0
 50
90.0
  0
INSERT
  5
A1FA
  8
3
 62
     0
  2
_OPEN
 10
3939.4894620375421
 20
5887.8861099124124
 30
0.0
 41
100.0
 42
100.0
 43
100.0
 50
270.0
  0
TEXT
  8
3
  40
150
  5
A235
  62
0
  72
0
  71
0
 10
3514.49
 20
5964.89
 30
0.000000
  1
685
  0
POINT
  5
A1FC
  8
DEFPOINTS
 62
     0
 10
4210.3615170278063
 20
6572.8861099124133
 30
0.0
  0
POINT
  5
A1FD
  8
DEFPOINTS
 62
     0
 10
4203.71731099319
 20
5887.8861099124124
 30
0.0
  0
POINT
  5
A1FE
  8
DEFPOINTS
 62
     0
 10
3939.4894620375421
 20
5887.8861099124124
 30
0.0
  0
ENDBLK
  5
A0CB
  8
0
  0
BLOCK
  8
0
  2
*D12
 70
     1
 10
0.0
 20
0.0
 30
0.0
  3
*D12
  1

  0
LINE
  5
A1FF
  8
3
 62
     0
 10
4283.7173109931909
 20
7582.8861099124124
 30
0.0
 11
4283.7173109931909
 21
7888.1815134751814
 31
0.0
  0
LINE
  5
A200
  8
3
 62
     0
 10
6133.7173109931909
 20
7582.8861099124106
 30
0.0
 11
6133.7173109931909
 21
7888.1815134751814
 31
0.0
  0
LINE
  5
A201
  8
3
 62
     0
 10
4383.7173109931909
 20
7838.1815134751814
 30
0.0
 11
6033.71731099319
 21
7838.1815134751814
 31
0.0
  0
INSERT
  5
A202
  8
3
 62
     0
  2
_OPEN
 10
4283.7173109931909
 20
7838.1815134751814
 30
0.0
 41
100.0
 42
100.0
 43
100.0
 50
180.0
  0
INSERT
  5
A203
  8
3
 62
     0
  2
_OPEN
 10
6133.7173109931909
 20
7838.1815134751814
 30
0.0
 41
100.0
 42
100.0
 43
100.0
  0
TEXT
  8
3
  40
150
  5
A236
  62
0
  72
0
  71
0
 10
4908.72
 20
7697.68
 30
0.000000
  1
1850
  0
POINT
  5
A205
  8
DEFPOINTS
 62
     0
 10
4283.7173109931909
 20
7557.8861099124133
 30
0.0
  0
POINT
  5
A206
  8
DEFPOINTS
 62
     0
 10
6133.7173109931909
 20
7557.8861099124106
 30
0.0
  0
POINT
  5
A207
  8
DEFPOINTS
 62
     0
 10
6133.7173109931909
 20
7838.1815134751814
 30
0.0
  0
ENDBLK
  5
A0D8
  8
0
  0
BLOCK
  8
0
  2
*D13
 70
     1
 10
0.0
 20
0.0
 30
0.0
  3
*D13
  1

  0
LINE
  5
A208
  8
3
 62
     0
 10
2150.882279172868
 20
7632.8861099124124
 30
0.0
 11
2150.882279172868
 21
7888.1815134751814
 31
0.0
  0
LINE
  5
A209
  8
3
 62
     0
 10
2715.882279172868
 20
7577.8861099124106
 30
0.0
 11
2715.882279172868
 21
7888.1815134751814
 31
0.0
  0
LINE
  5
A20A
  8
3
 62
     0
 10
2250.882279172868
 20
7838.1815134751814
 30
0.0
 11
2615.882279172868
 21
7838.1815134751814
 31
0.0
  0
INSERT
  5
A20B
  8
3
 62
     0
  2
_OPEN
 10
2150.882279172868
 20
7838.1815134751814
 30
0.0
 41
100.0
 42
100.0
 43
100.0
 50
180.0
  0
INSERT
  5
A20C
  8
3
 62
     0
  2
_OPEN
 10
2715.882279172868
 20
7838.1815134751814
 30
0.0
 41
100.0
 42
100.0
 43
100.0
  0
TEXT
  8
3
  40
150
  5
A237
  62
0
  72
0
  71
0
 10
2133.38
 20
7697.68
 30
0.000000
  1
565
  0
POINT
  5
A20E
  8
DEFPOINTS
 62
     0
 10
2150.882279172868
 20
7607.8861099124133
 30
0.0
  0
POINT
  5
A20F
  8
DEFPOINTS
 62
     0
 10
2715.882279172868
 20
7552.8861099124106
 30
0.0
  0
POINT
  5
A210
  8
DEFPOINTS
 62
     0
 10
2715.882279172868
 20
7838.1815134751814
 30
0.0
  0
ENDBLK
  5
A0E7
  8
0
  0
BLOCK
  8
0
  2
*D14
 70
     1
 10
0.0
 20
0.0
 30
0.0
  3
*D14
  1

  0
LINE
  5
A211
  8
3
 62
     0
 10
2150.882279172868
 20
7632.8861099124124
 30
0.0
 11
2150.882279172868
 21
7888.1815134751814
 31
0.0
  0
LINE
  5
A212
  8
3
 62
     0
 10
1335.8822791728669
 20
7577.8861099124106
 30
0.0
 11
1335.8822791728669
 21
7888.1815134751814
 31
0.0
  0
LINE
  5
A213
  8
3
 62
     0
 10
2050.882279172868
 20
7838.1815134751814
 30
0.0
 11
1435.8822791728669
 21
7838.1815134751814
 31
0.0
  0
INSERT
  5
A214
  8
3
 62
     0
  2
_OPEN
 10
2150.882279172868
 20
7838.1815134751814
 30
0.0
 41
100.0
 42
100.0
 43
100.0
  0
INSERT
  5
A215
  8
3
 62
     0
  2
_OPEN
 10
1335.8822791728669
 20
7838.1815134751814
 30
0.0
 41
100.0
 42
100.0
 43
100.0
 50
180.0
  0
TEXT
  8
3
  40
150
  5
A238
  62
0
  72
0
  71
0
 10
1443.38
 20
7697.68
 30
0.000000
  1
815
  0
POINT
  5
A217
  8
DEFPOINTS
 62
     0
 10
2150.882279172868
 20
7607.8861099124133
 30
0.0
  0
POINT
  5
A218
  8
DEFPOINTS
 62
     0
 10
1335.8822791728669
 20
7552.8861099124106
 30
0.0
  0
POINT
  5
A219
  8
DEFPOINTS
 62
     0
 10
1335.8822791728669
 20
7838.1815134751814
 30
0.0
  0
ENDBLK
  5
A0F4
  8
0
  0
BLOCK
  8
0
  2
*D15
 70
     1
 10
0.0
 20
0.0
 30
0.0
  3
*D15
  1

  0
LINE
  5
A21A
  8
3
 62
     0
 10
8831.5523428135111
 20
7582.8861099124106
 30
0.0
 11
8831.5523428135111
 21
7888.1815134751814
 31
0.0
  0
LINE
  5
A21B
  8
3
 62
     0
 10
8266.552342813513
 20
7632.8861099124124
 30
0.0
 11
8266.552342813513
 21
7888.1815134751814
 31
0.0
  0
LINE
  5
A21C
  8
3
 62
     0
 10
8731.5523428135111
 20
7838.1815134751814
 30
0.0
 11
8366.552342813513
 21
7838.1815134751814
 31
0.0
  0
INSERT
  5
A21D
  8
3
 62
     0
  2
_OPEN
 10
8831.5523428135111
 20
7838.1815134751814
 30
0.0
 41
100.0
 42
100.0
 43
100.0
  0
INSERT
  5
A21E
  8
3
 62
     0
  2
_OPEN
 10
8266.552342813513
 20
7838.1815134751814
 30
0.0
 41
100.0
 42
100.0
 43
100.0
 50
180.0
  0
TEXT
  8
3
  40
150
  5
A239
  62
0
  72
0
  71
0
 10
8249.05
 20
7697.68
 30
0.000000
  1
565
  0
POINT
  5
A220
  8
DEFPOINTS
 62
     0
 10
8831.5523428135111
 20
7557.8861099124106
 30
0.0
  0
POINT
  5
A221
  8
DEFPOINTS
 62
     0
 10
8266.552342813513
 20
7607.8861099124133
 30
0.0
  0
POINT
  5
A222
  8
DEFPOINTS
 62
     0
 10
8266.552342813513
 20
7838.1815134751814
 30
0.0
  0
ENDBLK
  5
A168
  8
0
  0
BLOCK
  8
0
  2
*D16
 70
     1
 10
0.0
 20
0.0
 30
0.0
  3
*D16
  1

  0
LINE
  5
A223
  8
3
 62
     0
 10
8266.552342813513
 20
7632.8861099124124
 30
0.0
 11
8266.552342813513
 21
7888.1815134751814
 31
0.0
  0
LINE
  5
A224
  8
3
 62
     0
 10
7451.552342813513
 20
7582.8861099124124
 30
0.0
 11
7451.552342813513
 21
7888.1815134751814
 31
0.0
  0
LINE
  5
A225
  8
3
 62
     0
 10
8166.552342813513
 20
7838.1815134751814
 30
0.0
 11
7551.552342813512
 21
7838.1815134751814
 31
0.0
  0
INSERT
  5
A226
  8
3
 62
     0
  2
_OPEN
 10
8266.552342813513
 20
7838.1815134751814
 30
0.0
 41
100.0
 42
100.0
 43
100.0
  0
INSERT
  5
A227
  8
3
 62
     0
  2
_OPEN
 10
7451.552342813513
 20
7838.1815134751814
 30
0.0
 41
100.0
 42
100.0
 43
100.0
 50
180.0
  0
TEXT
  8
3
  40
150
  5
A23A
  62
0
  72
0
  71
0
 10
7559.05
 20
7697.68
 30
0.000000
  1
815
  0
POINT
  5
A229
  8
DEFPOINTS
 62
     0
 10
8266.552342813513
 20
7607.8861099124133
 30
0.0
  0
POINT
  5
A22A
  8
DEFPOINTS
 62
     0
 10
7451.552342813513
 20
7557.8861099124133
 30
0.0
  0
POINT
  5
A22B
  8
DEFPOINTS
 62
     0
 10
7451.552342813513
 20
7838.1815134751814
 30
0.0
  0
ENDBLK
  5
A15B
  8
0
  0
ENDSEC
  0
SECTION
  2
ENTITIES
  0
LINE
  5
7B05
  8
4
 10
8893.9924976737348
 20
3669.4836020616108
 30
0.0
 11
8893.9924976737348
 21
2669.4836020616108
 31
0.0
  0
LINE
  5
7B06
  8
4
 10
5393.9924976737348
 20
3669.4836020616108
 30
0.0
 11
5393.9924976737348
 21
2669.4836020616108
 31
0.0
  0
LINE
  5
7B07
  8
4
 10
2893.9924976737352
 20
3669.4836020616108
 30
0.0
 11
2893.9924976737352
 21
2669.4836020616108
 31
0.0
  0
LINE
  5
7B0A
  8
4
 10
2893.9924976737352
 20
2669.4836020616108
 30
0.0
 11
8893.9924976737348
 21
2669.4836020616108
 31
0.0
  0
LINE
  5
7B0B
  8
4
 10
2893.9924976737352
 20
3169.4836020616108
 30
0.0
 11
8893.9924976737348
 21
3169.4836020616108
 31
0.0
  0
TEXT
  5
7B0C
  8
4
 10
3086.5029019082431
 20
3327.1987313946761
 30
0.0
 40
250.0
  1
機器名称
  0
TEXT
  5
7B0D
  8
4
 10
3075.2830277977232
 20
2777.7093857216651
 30
0.0
 40
250.0
  1
機器型番
  0
TEXT
  5
7B0E
  8
4
 10
5532.386225112059
 20
3282.3424468494541
 30
0.0
 40
250.0
  1
ミツヤファンユニット
  0
TEXT
  5
7B0F
  8
4
 10
5577.2649756011378
 20
2755.2815234613281
 30
0.0
 40
250.0
  1
MFU#4504-4
  0
TEXT
  5
7B11
  8
4
 10
3147.0855222012428
 20
13086.62780872419
 30
0.0
 40
270.0
  1
天井吊ベット・床置ベット
  0
TEXT
  5
7B12
  8
4
 10
1086.879689854027
 20
13838.888483058099
 30
0.0
 40
360.0
  1
ベルト駆動式消音ボックス付多翼ファン
  0
LINE
  5
7B13
  8
4
 10
893.99249767373476
 20
13516.52737338563
 30
0.0
 11
8893.9924976737348
 21
13516.52737338563
 31
0.0
  0
LINE
  5
7B14
  8
4
 10
893.99249767373476
 20
14516.52737338563
 30
0.0
 11
8893.9924976737348
 21
14516.52737338563
 31
0.0
  0
LINE
  5
7B15
  8
4
 10
2893.9924976737352
 20
3669.4836020616108
 30
0.0
 11
8893.9924976737348
 21
3669.4836020616108
 31
0.0
  0
LINE
  5
7B16
  8
4
 10
893.99249767373476
 20
14516.52737338563
 30
0.0
 11
893.99249767373476
 21
13516.52737338563
 31
0.0
  0
TEXT
  5
7B17
  8
4
 10
967.79136098773233
 20
13081.08098979333
 30
0.0
 40
270.0
  1
右回転左吐出
  0
TEXT
  5
7B18
  8
4
 10
6988.8402939201833
 20
14699.78900953815
 30
0.0
 40
280.0
  1
No.
  0
TEXT
  5
7B19
  8
4
 10
7110.947939302383
 20
13086.62780872419
 30
0.0
 40
270.0
  1
縮尺：1/50
  0
LINE
  5
7B1A
  8
4
 10
8893.9924976737348
 20
14516.52737338563
 30
0.0
 11
8893.9924976737348
 21
13516.52737338563
 31
0.0
  0
LINE
  5
7B1B
  8
4
 10
10143.992497673729
 20
15919.483602061609
 30
0.0
 11
10143.992497673729
 21
15919.483602061609
 31
0.0
  0
LINE
  5
7B1C
  8
4
 10
6847.0796094730567
 20
14575.801517688609
 30
0.0
 11
6847.0796094730567
 21
15102.74490981037
 31
0.0
  0
LINE
  5
7B1D
  8
4
 10
6847.0796094730567
 20
15102.74490981037
 30
0.0
 11
8893.9924976737348
 21
15102.74490981037
 31
0.0
  0
LINE
  5
7B1E
  8
4
 10
8893.9924976737348
 20
15102.74490981037
 30
0.0
 11
8893.9924976737348
 21
14575.801517688609
 31
0.0
  0
LINE
  5
7B1F
  8
4
 10
8893.9924976737348
 20
14575.801517688609
 30
0.0
 11
6847.0796094730567
 21
14575.801517688609
 31
0.0
  0
LINE
  5
7B20
  8
4
 10
-356.00750232626518
 20
1169.483602061611
 30
0.0
 11
-356.00750232626518
 21
15919.483602061609
 31
0.0
  0
LINE
  5
7B21
  8
4
 10
-356.00750232626518
 20
15919.483602061609
 30
0.0
 11
10143.992497673729
 21
15919.483602061609
 31
0.0
  0
LINE
  5
7B22
  8
4
 10
10143.992497673729
 20
15919.483602061609
 30
0.0
 11
10143.992497673729
 21
1169.483602061611
 31
0.0
  0
LINE
  5
7B23
  8
4
 10
10143.992497673729
 20
1169.483602061611
 30
0.0
 11
-356.00750232626518
 21
1169.483602061611
 31
0.0
  0
ARC
  5
9FB6
  8
DEFPOINTS
 10
4921.71731099319
 20
6856.8861099124124
 30
0.0
 40
635.0
 50
270.0
 51
0.0
  0
ARC
  5
9FB9
  8
DEFPOINTS
 10
5007.7173109931891
 20
6864.8861099124106
 30
0.0
 40
548.0
 50
0.0
 51
90.0
  0
ARC
  5
9FBC
  8
DEFPOINTS
 10
4998.71731099319
 20
6933.8861099124106
 30
0.0
 40
479.0
 50
90.0
 51
179.52153281460241
  0
LINE
  5
9FC0
  8
DEFPOINTS
 10
4433.71731099319
 20
6167.8861099124106
 30
0.0
 11
4433.71731099319
 21
6977.8861099124133
 31
0.0
  0
LINE
  5
9FC2
  8
DEFPOINTS
 10
4519.7340127457464
 20
6937.8861099124124
 30
0.0
 11
4283.7173109931909
 21
6937.8861099124124
 31
0.0
  0
LINE
  5
9FC3
  8
DEFPOINTS
 10
4433.71731099319
 20
6207.8861099124106
 30
0.0
 11
4921.71731099319
 21
6221.8861099124124
 31
0.0
  0
LINE
  5
9FC4
  8
DEFPOINTS
 10
5007.7173109931891
 20
7412.8861099124124
 30
0.0
 11
4998.71731099319
 21
7412.8861099124124
 31
0.0
  0
LINE
  5
9FC5
  8
DEFPOINTS
 10
5555.71731099319
 20
6864.8861099124106
 30
0.0
 11
5556.71731099319
 21
6856.8861099124124
 31
0.0
  0
LINE
  5
9FCA
  8
2
 10
6217.5076115829879
 20
6572.8861099124133
 30
0.0
 11
4210.3615170278063
 21
6572.8861099124133
 31
0.0
  0
LINE
  5
9FCB
  8
DEFPOINTS
 10
4473.71731099319
 20
6209.0336508960181
 30
0.0
 11
4473.71731099319
 21
6937.8861099124124
 31
0.0
  0
LINE
  5
9FCC
  8
1
 10
4283.7173109931909
 20
5987.8861099124124
 30
0.0
 11
4283.7173109931909
 21
7557.8861099124133
 31
0.0
  0
LINE
  5
9FCD
  8
1
 10
6213.7173109931909
 20
5887.8861099124106
 30
0.0
 11
4203.71731099319
 21
5887.8861099124124
 31
0.0
  0
LINE
  5
9FCE
  8
1
 10
6213.7173109931909
 20
5987.8861099124179
 30
0.0
 11
4203.71731099319
 21
5987.8861099124124
 31
0.0
  0
LINE
  5
9FCF
  8
1
 10
4203.71731099319
 20
5887.8861099124124
 30
0.0
 11
4203.71731099319
 21
5987.8861099124124
 31
0.0
  0
LINE
  5
9FD0
  8
1
 10
6213.71731099319
 20
5887.8861099124124
 30
0.0
 11
6213.71731099319
 21
5987.8861099124124
 31
0.0
  0
LINE
  5
9FD1
  8
1
 10
6133.7173109931909
 20
7557.8861099124106
 30
0.0
 11
4283.7173109931909
 21
7557.8861099124133
 31
0.0
  0
LINE
  5
9FD2
  8
1
 10
6133.7173109931909
 20
5987.8861099124124
 30
0.0
 11
6133.7173109931909
 21
7557.8861099124133
 31
0.0
  0
LINE
  5
9FD4
  8
DEFPOINTS
 10
4433.71731099319
 20
6207.8861099124106
 30
0.0
 11
4283.71731099319
 21
6207.8861099124106
 31
0.0
  0
LINE
  5
9FD5
  8
1
 10
4243.7173109931909
 20
6067.8861099124106
 30
0.0
 11
4243.7173109931909
 21
7077.8861099124124
 31
0.0
  0
LINE
  5
9FD6
  8
1
 10
4283.7173109931909
 20
7077.8861099124124
 30
0.0
 11
4243.7173109931909
 21
7077.8861099124124
 31
0.0
  0
LINE
  5
9FD7
  8
1
 10
4283.7173109931909
 20
6067.8861099124106
 30
0.0
 11
4243.7173109931909
 21
6067.8861099124106
 31
0.0
  0
LINE
  5
9FD8
  8
1
 10
6173.71731099319
 20
6067.8861099124106
 30
0.0
 11
6173.7173109931909
 21
7077.8861099124124
 31
0.0
  0
LINE
  5
9FD9
  8
1
 10
6133.7173109931909
 20
7077.8861099124124
 30
0.0
 11
6173.7173109931909
 21
7077.8861099124124
 31
0.0
  0
LINE
  5
9FDA
  8
1
 10
6133.7173109931909
 20
6067.8861099124106
 30
0.0
 11
6173.71731099319
 21
6067.8861099124106
 31
0.0
  0
LINE
  5
9FDC
  8
1
 10
2715.8822791728671
 20
5987.8861099124179
 30
0.0
 11
1335.8822791728669
 21
5987.8861099124133
 31
0.0
  0
LINE
  5
9FDD
  8
1
 10
2715.8822791728671
 20
5887.8861099124106
 30
0.0
 11
1335.8822791728669
 21
5887.8861099124106
 31
0.0
  0
LINE
  5
9FDE
  8
1
 10
2715.8822791728671
 20
7557.8861099124106
 30
0.0
 11
1335.8822791728669
 21
7557.8861099124106
 31
0.0
  0
LINE
  5
9FDF
  8
1
 10
2715.8822791728671
 20
5887.8861099124106
 30
0.0
 11
2715.882279172868
 21
7557.8861099124133
 31
0.0
  0
LINE
  5
9FE0
  8
1
 10
1335.8822791728669
 20
5887.8861099124124
 30
0.0
 11
1335.8822791728669
 21
7557.8861099124133
 31
0.0
  0
LINE
  5
9FE2
  8
1
 10
2527.8822791728671
 20
7077.8861099124124
 30
0.0
 11
1773.882279172868
 21
7077.8861099124142
 31
0.0
  0
LINE
  5
9FE3
  8
1
 10
2527.8822791728671
 20
6067.8861099124106
 30
0.0
 11
1773.8822791728669
 21
6067.8861099124106
 31
0.0
  0
LINE
  5
9FE5
  8
1
 10
1813.8822791728669
 20
6107.8861099124097
 30
0.0
 11
1813.8822791728689
 21
7037.8861099124106
 31
0.0
  0
LINE
  5
9FE6
  8
1
 10
2487.882279172868
 20
6107.8861099124124
 30
0.0
 11
2487.8822791728689
 21
7037.8861099124124
 31
0.0
  0
LINE
  5
9FE8
  8
1
 10
2487.8822791728671
 20
7037.8861099124124
 30
0.0
 11
1813.882279172866
 21
7037.8861099124106
 31
0.0
  0
LINE
  5
9FE9
  8
1
 10
2487.8822791728671
 20
6107.8861099124124
 30
0.0
 11
1813.882279172868
 21
6107.8861099124097
 31
0.0
  0
LINE
  5
9FEA
  8
1
 10
1773.8822791728669
 20
6067.8861099124106
 30
0.0
 11
1773.882279172868
 21
7077.8861099124142
 31
0.0
  0
LINE
  5
9FEB
  8
1
 10
2527.8822791728671
 20
6067.8861099124106
 30
0.0
 11
2527.8822791728671
 21
7077.8861099124124
 31
0.0
  0
LINE
  5
9FED
  8
1
 10
1813.882279172868
 20
6107.8861099124097
 30
0.0
 11
2487.8822791728671
 21
7037.8861099124124
 31
0.0
  0
LINE
  5
9FEE
  8
1
 10
1813.882279172866
 20
7037.8861099124106
 30
0.0
 11
2487.8822791728671
 21
6107.8861099124124
 31
0.0
  0
LINE
  5
9FEF
  8
1
 10
2730.8822791728671
 20
5992.8861099124188
 30
0.0
 11
2730.882279172868
 21
7552.8861099124106
 31
0.0
  0
LINE
  5
9FF0
  8
1
 10
1320.8822791728669
 20
5992.8861099124151
 30
0.0
 11
1320.8822791728669
 21
7552.8861099124106
 31
0.0
  0
LINE
  5
9FF1
  8
1
 10
2730.882279172868
 20
7552.8861099124106
 30
0.0
 11
2715.882279172868
 21
7552.8861099124106
 31
0.0
  0
LINE
  5
9FF2
  8
1
 10
2730.8822791728671
 20
5992.8861099124188
 30
0.0
 11
2715.8822791728671
 21
5992.8861099124188
 31
0.0
  0
LINE
  5
9FF3
  8
1
 10
1335.8822791728669
 20
5992.8861099124142
 30
0.0
 11
1320.8822791728669
 21
5992.8861099124142
 31
0.0
  0
LINE
  5
9FF4
  8
1
 10
1335.8822791728669
 20
7552.8861099124106
 30
0.0
 11
1320.8822791728669
 21
7552.8861099124106
 31
0.0
  0
LINE
  5
9FF6
  8
1
 10
8831.5523428135111
 20
5987.8861099124179
 30
0.0
 11
7451.5523428135111
 21
5987.8861099124133
 31
0.0
  0
LINE
  5
9FF7
  8
1
 10
8831.5523428135111
 20
5887.8861099124106
 30
0.0
 11
7451.5523428135111
 21
5887.8861099124106
 31
0.0
  0
LINE
  5
9FF8
  8
1
 10
8831.5523428135111
 20
7557.8861099124106
 30
0.0
 11
7451.552342813513
 21
7557.8861099124106
 31
0.0
  0
LINE
  5
9FF9
  8
1
 10
7436.552342813512
 20
5992.8861099124151
 30
0.0
 11
7436.552342813512
 21
7552.8861099124106
 31
0.0
  0
LINE
  5
9FFA
  8
1
 10
7451.5523428135111
 20
5887.8861099124124
 30
0.0
 11
7451.552342813513
 21
7557.8861099124133
 31
0.0
  0
LINE
  5
9FFB
  8
1
 10
7451.5523428135111
 20
5992.8861099124142
 30
0.0
 11
7436.552342813512
 21
5992.8861099124142
 31
0.0
  0
LINE
  5
9FFC
  8
1
 10
7451.5523428135111
 20
7552.8861099124106
 30
0.0
 11
7436.552342813512
 21
7552.8861099124106
 31
0.0
  0
LINE
  5
9FFD
  8
1
 10
8846.5523428135111
 20
5992.8861099124188
 30
0.0
 11
8846.552342813513
 21
7552.8861099124106
 31
0.0
  0
LINE
  5
9FFE
  8
1
 10
8831.5523428135111
 20
5887.8861099124106
 30
0.0
 11
8831.5523428135148
 21
7557.8861099124133
 31
0.0
  0
LINE
  5
9FFF
  8
1
 10
7929.5523428135111
 20
7037.8861099124106
 30
0.0
 11
8603.5523428135111
 21
6107.8861099124124
 31
0.0
  0
LINE
  5
A000
  8
1
 10
7929.5523428135111
 20
6107.8861099124097
 30
0.0
 11
8603.5523428135111
 21
7037.8861099124124
 31
0.0
  0
LINE
  5
A001
  8
1
 10
8643.5523428135111
 20
6067.8861099124106
 30
0.0
 11
7889.5523428135111
 21
6067.8861099124106
 31
0.0
  0
LINE
  5
A002
  8
1
 10
8643.5523428135111
 20
7077.8861099124124
 30
0.0
 11
7889.552342813513
 21
7077.8861099124142
 31
0.0
  0
LINE
  5
A003
  8
1
 10
8603.5523428135111
 20
6107.8861099124124
 30
0.0
 11
7929.5523428135111
 21
6107.8861099124097
 31
0.0
  0
LINE
  5
A004
  8
1
 10
8603.5523428135111
 20
7037.8861099124124
 30
0.0
 11
7929.5523428135111
 21
7037.8861099124106
 31
0.0
  0
LINE
  5
A005
  8
1
 10
7929.5523428135111
 20
6107.8861099124097
 30
0.0
 11
7929.552342813512
 21
7037.8861099124106
 31
0.0
  0
LINE
  5
A006
  8
1
 10
7889.5523428135111
 20
6067.8861099124106
 30
0.0
 11
7889.552342813513
 21
7077.8861099124142
 31
0.0
  0
LINE
  5
A007
  8
1
 10
8603.552342813513
 20
6107.8861099124124
 30
0.0
 11
8603.552342813513
 21
7037.8861099124124
 31
0.0
  0
LINE
  5
A008
  8
1
 10
8643.5523428135111
 20
6067.8861099124106
 30
0.0
 11
8643.5523428135111
 21
7077.8861099124124
 31
0.0
  0
LINE
  5
A009
  8
1
 10
8846.5523428135111
 20
5992.8861099124188
 30
0.0
 11
8831.5523428135111
 21
5992.8861099124188
 31
0.0
  0
LINE
  5
A00A
  8
1
 10
8846.552342813513
 20
7552.8861099124106
 30
0.0
 11
8831.5523428135148
 21
7552.8861099124106
 31
0.0
  0
LINE
  5
A00B
  8
2
 10
2150.8822791728671
 20
5887.8861099124124
 30
0.0
 11
2150.882279172868
 21
7185.3464871822689
 31
0.0
  0
LINE
  5
A00D
  8
2
 10
8266.5523428135111
 20
5887.8861099124124
 30
0.0
 11
8266.5523428135111
 21
7185.3464871822689
 31
0.0
  0
LINE
  5
A010
  8
2
 10
8266.552342813513
 20
7441.3492003223701
 30
0.0
 11
8266.552342813513
 21
7607.8861099124133
 31
0.0
  0
LINE
  5
A011
  8
2
 10
2150.8822791728671
 20
7441.3492003223701
 30
0.0
 11
2150.882279172868
 21
7607.8861099124133
 31
0.0
  0
LINE
  5
A012
  8
1
 10
6213.7173109931909
 20
9502.3364688047004
 30
0.0
 11
4203.71731099319
 21
9502.3364688047004
 31
0.0
  0
LINE
  5
A013
  8
1
 10
6213.7173109931909
 20
9502.3364688047004
 30
0.0
 11
6213.7173109931909
 21
9552.3364688047022
 31
0.0
  0
LINE
  5
A014
  8
1
 10
6213.7173109931909
 20
10882.3364688047
 30
0.0
 11
4203.7173109931909
 21
10882.3364688047
 31
0.0
  0
LINE
  5
A015
  8
1
 10
4203.7173109931909
 20
10882.3364688047
 30
0.0
 11
4203.7173109931909
 21
10832.33646880469
 31
0.0
  0
LINE
  5
A016
  8
1
 10
6213.7173109931909
 20
10832.3364688047
 30
0.0
 11
6133.7173109931909
 21
10832.33646880469
 31
0.0
  0
LINE
  5
A017
  8
1
 10
6213.7173109931909
 20
9552.3364688047022
 30
0.0
 11
6133.7173109931909
 21
9552.3364688047022
 31
0.0
  0
LINE
  5
A018
  8
1
 10
6133.7173109931909
 20
9487.3364688047004
 30
0.0
 11
6133.7173109931909
 21
10897.3364688047
 31
0.0
  0
LINE
  5
A019
  8
1
 10
4283.7173109931909
 20
9487.3364688047022
 30
0.0
 11
4283.7173109931909
 21
10897.3364688047
 31
0.0
  0
LINE
  5
A01A
  8
1
 10
6213.7173109931909
 20
10832.33646880469
 30
0.0
 11
6213.7173109931909
 21
10882.3364688047
 31
0.0
  0
LINE
  5
A01B
  8
1
 10
4203.7173109931909
 20
9552.3364688047022
 30
0.0
 11
4203.7173109931909
 21
9502.3364688047004
 31
0.0
  0
LINE
  5
A01C
  8
1
 10
6133.7173109931909
 20
10897.3364688047
 30
0.0
 11
4283.7173109931909
 21
10897.33646880469
 31
0.0
  0
LINE
  5
A01D
  8
1
 10
6133.7173109931909
 20
9487.3364688047004
 30
0.0
 11
4283.7173109931909
 21
9487.3364688047022
 31
0.0
  0
LINE
  5
A01E
  8
1
 10
4283.7173109931909
 20
10832.33646880469
 30
0.0
 11
4203.7173109931909
 21
10832.3364688047
 31
0.0
  0
LINE
  5
A01F
  8
1
 10
4283.71731099319
 20
9552.3364688047022
 30
0.0
 11
4203.71731099319
 21
9552.3364688047022
 31
0.0
  0
LINE
  5
A020
  8
2
 10
4357.7692683648784
 20
10067.3364688047
 30
0.0
 11
4203.7173109931909
 21
10067.3364688047
 31
0.0
  0
LINE
  5
A021
  8
1
 10
4243.7173109931909
 20
9690.3364688047022
 30
0.0
 11
4243.7173109931909
 21
10444.3364688047
 31
0.0
  0
LINE
  5
A022
  8
1
 10
6173.7173109931919
 20
9940.3364688047022
 30
0.0
 11
6173.7173109931919
 21
10694.33646880469
 31
0.0
  0
LINE
  5
A023
  8
1
 10
6173.7173109931909
 20
10694.3364688047
 30
0.0
 11
6133.7173109931909
 21
10694.3364688047
 31
0.0
  0
LINE
  5
A024
  8
1
 10
6173.7173109931919
 20
9940.3364688047022
 30
0.0
 11
6133.7173109931909
 21
9940.3364688047022
 31
0.0
  0
LINE
  5
A025
  8
1
 10
4283.7173109931909
 20
10444.3364688047
 30
0.0
 11
4243.7173109931909
 21
10444.3364688047
 31
0.0
  0
LINE
  5
A026
  8
1
 10
4283.71731099319
 20
9690.3364688047022
 30
0.0
 11
4243.7173109931891
 21
9690.3364688047022
 31
0.0
  0
DIMENSION
  5
A033
  8
3
  2
*D2
 10
6625.7400559757234
 20
9502.3364688047004
 30
0.0
 11
6500.7400559757216
 21
10192.3364688047
 31
0.0
 70
     0
 13
6213.7173109931909
 23
10882.3364688047
 33
0.0
 14
6213.7173109931909
 24
9502.3364688047004
 34
0.0
 50
90.0
1001
ACAD
1000
DSTYLE
1002
{
1070
   287
1070
     0
1070
    40
1040
50.0
1070
   143
1040
0.039
1070
   172
1070
     1
1070
   271
1070
     0
1070
   279
1070
     0
1070
   289
1070
     0
1002
}
  0
DIMENSION
  5
A060
  8
3
  2
*D3
 10
2487.8822791728671
 20
7210.4807129308747
 30
0.0
 11
2150.882279172868
 21
7335.4807129308747
 31
0.0
 70
     0
 13
1813.8822791728689
 23
7037.8861099124106
 33
0.0
 14
2487.8822791728671
 24
7037.8861099124124
 34
0.0
1001
ACAD
1000
DSTYLE
1002
{
1070
   287
1070
     3
1070
    40
1040
50.0
1070
   143
1040
0.039
1070
   172
1070
     1
1070
   271
1070
     0
1070
   279
1070
     0
1002
}
  0
DIMENSION
  5
A06F
  8
3
  2
*D4
 10
7929.552342813512
 20
7210.4807129308747
 30
0.0
 11
8266.552342813513
 21
7335.4807129308747
 31
0.0
 70
     0
 13
8603.5523428135111
 23
7037.8861099124124
 33
0.0
 14
7929.552342813512
 24
7037.8861099124106
 34
0.0
1001
ACAD
1000
DSTYLE
1002
{
1070
   287
1070
     3
1070
    40
1040
50.0
1070
   143
1040
0.039
1070
   172
1070
     1
1070
   271
1070
     0
1070
   279
1070
     0
1002
}
  0
DIMENSION
  5
A07C
  8
3
  2
*D5
 10
7155.9061500927501
 20
6107.8861099124097
 30
0.0
 11
7030.9061500927482
 21
6572.8861099124133
 31
0.0
 70
     0
 13
7929.552342813512
 23
7037.8861099124106
 33
0.0
 14
7929.5523428135111
 24
6107.8861099124097
 34
0.0
 50
270.0
1001
ACAD
1000
DSTYLE
1002
{
1070
   287
1070
     3
1070
    40
1040
50.0
1070
   143
1040
0.039
1070
   172
1070
     1
1070
   271
1070
     0
1070
   279
1070
     0
1002
}
  0
DIMENSION
  5
A089
  8
3
  2
*D6
 10
1047.3214711200339
 20
6107.8861099124097
 30
0.0
 11
922.32147112003338
 21
6572.8861099124097
 31
0.0
 70
     0
 13
1813.8822791728689
 23
7037.8861099124106
 33
0.0
 14
1813.882279172868
 24
6107.8861099124097
 34
0.0
 50
90.0
1001
ACAD
1000
DSTYLE
1002
{
1070
   287
1070
     3
1070
    40
1040
50.0
1070
   143
1040
0.039
1070
   172
1070
     1
1070
   271
1070
     0
1070
   279
1070
     0
1002
}
  0
DIMENSION
  5
A096
  8
3
  2
*D7
 10
2715.8822791728671
 20
5576.294201063014
 30
0.0
 11
2025.8822791728669
 21
5701.294201063014
 31
0.0
 70
     0
 13
1335.8822791728669
 23
5887.8861099124124
 33
0.0
 14
2715.8822791728671
 24
5887.8861099124106
 34
0.0
1001
ACAD
1000
DSTYLE
1002
{
1070
   287
1070
     3
1070
    40
1040
50.0
1070
   143
1040
0.039
1070
   172
1070
     1
1070
   271
1070
     0
1070
   279
1070
     0
1002
}
  0
DIMENSION
  5
A0A3
  8
3
  2
*D8
 10
6213.7173109931909
 20
5576.294201063014
 30
0.0
 11
5208.71731099319
 21
5701.294201063014
 31
0.0
 70
     0
 13
4203.71731099319
 23
5887.8861099124124
 33
0.0
 14
6213.7173109931909
 24
5887.8861099124106
 34
0.0
1001
ACAD
1000
DSTYLE
1002
{
1070
   287
1070
     3
1070
    40
1040
50.0
1070
   143
1040
0.039
1070
   172
1070
     1
1070
   271
1070
     0
1070
   279
1070
     0
1002
}
  0
DIMENSION
  5
A0B0
  8
3
  2
*D9
 10
6560.8551691736511
 20
5887.8861099124124
 30
0.0
 11
6435.8551691736493
 21
6722.8861099124133
 31
0.0
 70
     0
 13
6133.7173109931909
 23
7557.8861099124133
 33
0.0
 14
6213.71731099319
 24
5887.8861099124124
 34
0.0
 50
90.0
1001
ACAD
1000
DSTYLE
1002
{
1070
   287
1070
     3
1070
    40
1040
50.0
1070
   143
1040
0.039
1070
   172
1070
     1
1070
   271
1070
     0
1070
   279
1070
     0
1002
}
  0
DIMENSION
  5
A0BD
  8
3
  2
*D10
 10
7451.5523428135111
 20
5576.294201063014
 30
0.0
 11
8141.5523428135111
 21
5701.294201063014
 31
0.0
 70
     0
 13
8831.5523428135111
 23
5887.8861099124106
 33
0.0
 14
7451.5523428135111
 24
5887.8861099124124
 34
0.0
1001
ACAD
1000
DSTYLE
1002
{
1070
   287
1070
     3
1070
    40
1040
50.0
1070
   143
1040
0.039
1070
   172
1070
     1
1070
   271
1070
     0
1070
   279
1070
     0
1002
}
  0
DIMENSION
  5
A0CC
  8
3
  2
*D11
 10
3939.4894620375421
 20
5887.8861099124124
 30
0.0
 11
3814.4894620375412
 21
6230.3861099124133
 31
0.0
 70
     0
 13
4210.3615170278063
 23
6572.8861099124133
 33
0.0
 14
4203.71731099319
 24
5887.8861099124124
 34
0.0
 50
90.0
1001
ACAD
1000
DSTYLE
1002
{
1070
   287
1070
     3
1070
    40
1040
50.0
1070
   143
1040
0.039
1070
   172
1070
     1
1070
   271
1070
     0
1070
   279
1070
     0
1002
}
  0
DIMENSION
  5
A0D9
  8
3
  2
*D12
 10
6133.7173109931909
 20
7838.1815134751814
 30
0.0
 11
5208.71731099319
 21
7963.1815134751814
 31
0.0
 70
     0
 13
4283.7173109931909
 23
7557.8861099124133
 33
0.0
 14
6133.7173109931909
 24
7557.8861099124106
 34
0.0
1001
ACAD
1000
DSTYLE
1002
{
1070
   287
1070
     3
1070
    40
1040
50.0
1070
   143
1040
0.039
1070
   172
1070
     1
1070
   271
1070
     0
1070
   279
1070
     0
1002
}
  0
DIMENSION
  5
A0E8
  8
3
  2
*D13
 10
2715.882279172868
 20
7838.1815134751814
 30
0.0
 11
2433.382279172868
 21
7963.1815134751814
 31
0.0
 70
     0
 13
2150.882279172868
 23
7607.8861099124133
 33
0.0
 14
2715.882279172868
 24
7552.8861099124106
 34
0.0
1001
ACAD
1000
DSTYLE
1002
{
1070
   287
1070
     3
1070
    40
1040
50.0
1070
   143
1040
0.039
1070
   172
1070
     1
1070
   271
1070
     0
1070
   279
1070
     0
1002
}
  0
DIMENSION
  5
A0F5
  8
3
  2
*D14
 10
1335.8822791728669
 20
7838.1815134751814
 30
0.0
 11
1743.3822791728669
 21
7963.1815134751814
 31
0.0
 70
     0
 13
2150.882279172868
 23
7607.8861099124133
 33
0.0
 14
1335.8822791728669
 24
7552.8861099124106
 34
0.0
1001
ACAD
1000
DSTYLE
1002
{
1070
   287
1070
     3
1070
    40
1040
50.0
1070
   143
1040
0.039
1070
   172
1070
     1
1070
   271
1070
     0
1070
   279
1070
     0
1002
}
  0
DIMENSION
  5
A104
  8
3
  2
*D15
 10
8266.552342813513
 20
7838.1815134751814
 30
0.0
 11
8549.0523428135148
 21
7963.1815134751814
 31
0.0
 70
     0
 13
8831.5523428135111
 23
7557.8861099124106
 33
0.0
 14
8266.552342813513
 24
7607.8861099124133
 34
0.0
1001
ACAD
1000
DSTYLE
1002
{
1070
   287
1070
     3
1070
    40
1040
50.0
1070
   143
1040
0.039
1070
   172
1070
     1
1070
   271
1070
     0
1070
   279
1070
     0
1002
}
  0
DIMENSION
  5
A111
  8
3
  2
*D16
 10
7451.552342813513
 20
7838.1815134751814
 30
0.0
 11
7859.052342813512
 21
7963.1815134751814
 31
0.0
 70
     0
 13
8266.552342813513
 23
7607.8861099124133
 33
0.0
 14
7451.552342813513
 24
7557.8861099124133
 34
0.0
1001
ACAD
1000
DSTYLE
1002
{
1070
   287
1070
     3
1070
    40
1040
50.0
1070
   143
1040
0.039
1070
   172
1070
     1
1070
   271
1070
     0
1070
   279
1070
     0
1002
}
  0
LINE
  5
A18C
  8
2
 10
6213.7173109931909
 20
10317.3364688047
 30
0.0
 11
6059.4563793548796
 21
10317.3364688047
 31
0.0
  0
ENDSEC
  0
EOF
