  0
SECTION
  2
HEADER
  9
$ACADVER
  1
AC1009
  9
$INSBASE
 10
0.0
 20
0.0
 30
0.0
  9
$EXTMIN
 10
-356.00750232626518
 20
1169.483602061611
 30
0.0
  9
$EXTMAX
 10
10143.992497673729
 20
15919.483602061609
 30
0.0
  9
$LIMMIN
 10
0.0
 20
0.0
  9
$LIMMAX
 10
297.0
 20
210.0
  9
$ORTHOMODE
 70
     0
  9
$REGENMODE
 70
     1
  9
$FILLMODE
 70
     0
  9
$QTEXTMODE
 70
     0
  9
$MIRRTEXT
 70
     1
  9
$DRAGMODE
 70
     2
  9
$LTSCALE
 40
100.0
  9
$OSMODE
 70
    37
  9
$ATTMODE
 70
     1
  9
$TEXTSIZE
 40
180.0
  9
$TRACEWID
 40
0.05
  9
$TEXTSTYLE
  7
STANDARD
  9
$CLAYER
  8
1
  9
$CELTYPE
  6
BYLAYER
  9
$CECOLOR
 62
   256
  9
$DIMSCALE
 40
50.0
  9
$DIMASZ
 40
2.0
  9
$DIMEXO
 40
0.5
  9
$DIMDLI
 40
10.0
  9
$DIMRND
 40
0.0
  9
$DIMDLE
 40
0.0
  9
$DIMEXE
 40
1.0
  9
$DIMTP
 40
1.0
  9
$DIMTM
 40
1.0
  9
$DIMTXT
 40
3.0
  9
$DIMCEN
 40
0.0
  9
$DIMTSZ
 40
0.0
  9
$DIMTOL
 70
     0
  9
$DIMLIM
 70
     0
  9
$DIMTIH
 70
     0
  9
$DIMTOH
 70
     0
  9
$DIMSE1
 70
     0
  9
$DIMSE2
 70
     0
  9
$DIMTAD
 70
     1
  9
$DIMZIN
 70
     8
  9
$DIMBLK
  1

  9
$DIMASO
 70
     1
  9
$DIMSHO
 70
     1
  9
$DIMPOST
  1

  9
$DIMAPOST
  1

  9
$DIMALT
 70
     0
  9
$DIMALTD
 70
     2
  9
$DIMALTF
 40
0.039
  9
$DIMLFAC
 40
1.0
  9
$DIMTOFL
 70
     1
  9
$DIMTVP
 40
0.0
  9
$DIMTIX
 70
     0
  9
$DIMSOXD
 70
     0
  9
$DIMSAH
 70
     1
  9
$DIMBLK1
  1
OPEN
  9
$DIMBLK2
  1
OPEN
  9
$DIMSTYLE
  2
IGA
  9
$DIMCLRD
 70
     0
  9
$DIMCLRE
 70
     0
  9
$DIMCLRT
 70
     0
  9
$DIMTFAC
 40
10.0
  9
$DIMGAP
 40
1.0
  9
$LUNITS
 70
     2
  9
$LUPREC
 70
     3
  9
$SKETCHINC
 40
0.1
  9
$FILLETRAD
 40
50.0
  9
$AUNITS
 70
     0
  9
$AUPREC
 70
     0
  9
$MENU
  1
acad
  9
$ELEVATION
 40
0.0
  9
$PELEVATION
 40
0.0
  9
$THICKNESS
 40
0.0
  9
$LIMCHECK
 70
     0
  9
$BLIPMODE
 70
     0
  9
$CHAMFERA
 40
0.5
  9
$CHAMFERB
 40
0.5
  9
$SKPOLY
 70
     0
  9
$TDCREATE
 40
2452810.5958900461
  9
$TDUPDATE
 40
2454953.8561591431
  9
$TDINDWG
 40
0.0566088657
  9
$TDUSRTIMER
 40
0.0566088657
  9
$USRTIMER
 70
     1
  9
$ANGBASE
 50
0.0
  9
$ANGDIR
 70
     0
  9
$PDMODE
 70
     0
  9
$PDSIZE
 40
0.0
  9
$PLINEWID
 40
0.0
  9
$COORDS
 70
     1
  9
$SPLFRAME
 70
     0
  9
$SPLINETYPE
 70
     6
  9
$SPLINESEGS
 70
     8
  9
$ATTDIA
 70
     0
  9
$ATTREQ
 70
     1
  9
$HANDLING
 70
 10241
  9
$HANDSEED
  5
A085
  9
$SURFTAB1
 70
     6
  9
$SURFTAB2
 70
     6
  9
$SURFTYPE
 70
     6
  9
$SURFU
 70
     6
  9
$SURFV
 70
     6
  9
$UCSNAME
  2

  9
$UCSORG
 10
0.0
 20
0.0
 30
0.0
  9
$UCSXDIR
 10
1.0
 20
0.0
 30
0.0
  9
$UCSYDIR
 10
0.0
 20
1.0
 30
0.0
  9
$PUCSNAME
  2

  9
$PUCSORG
 10
0.0
 20
0.0
 30
0.0
  9
$PUCSXDIR
 10
1.0
 20
0.0
 30
0.0
  9
$PUCSYDIR
 10
0.0
 20
1.0
 30
0.0
  9
$USERI1
 70
     0
  9
$USERI2
 70
     0
  9
$USERI3
 70
     0
  9
$USERI4
 70
     0
  9
$USERI5
 70
     0
  9
$USERR1
 40
0.0
  9
$USERR2
 40
0.0
  9
$USERR3
 40
0.0
  9
$USERR4
 40
0.0
  9
$USERR5
 40
0.0
  9
$WORLDVIEW
 70
     1
  9
$SHADEDGE
 70
     3
  9
$SHADEDIF
 70
    70
  9
$TILEMODE
 70
     1
  9
$MAXACTVP
 70
    16
  9
$PLIMCHECK
 70
     0
  9
$PEXTMIN
 10
1.0000000000000000E+020
 20
1.0000000000000000E+020
 30
1.0000000000000000E+020
  9
$PEXTMAX
 10
-1.0000000000000000E+020
 20
-1.0000000000000000E+020
 30
-1.0000000000000000E+020
  9
$PLIMMIN
 10
0.0
 20
0.0
  9
$PLIMMAX
 10
12.0
 20
9.0
  9
$UNITMODE
 70
     0
  9
$VISRETAIN
 70
     0
  9
$PLINEGEN
 70
     0
  9
$PSLTSCALE
 70
     1
  0
ENDSEC
  0
SECTION
  2
TABLES
  0
TABLE
  2
VPORT
 70
     2
  0
VPORT
  2
*ACTIVE
 70
     0
 10
0.0
 20
0.0
 11
1.0
 21
1.0
 12
12977.992497673729
 22
10028.60679662405
 13
0.0
 23
0.0
 14
10.0
 24
10.0
 15
10.0
 25
10.0
 16
0.0
 26
0.0
 36
1.0
 17
0.0
 27
0.0
 37
0.0
 40
17718.246389124892
 41
1.5051150895140659
 42
50.0
 43
0.0
 44
0.0
 50
0.0
 51
0.0
 71
     0
 72
   100
 73
     1
 74
     0
 75
     0
 76
     0
 77
     0
 78
     0
  0
ENDTAB
  0
TABLE
  2
LTYPE
 70
     2
  0
LTYPE
  2
CONTINUOUS
 70
     0
  3
Solid line
 72
    65
 73
     0
 40
0.0
  0
LTYPE
  2
CENTER
 70
     0
  3
____ _ ____ _ ____ _ ____ _ ____ _ ____ _ ____ 
 72
    65
 73
     4
 40
2.0
 49
1.25
 49
-0.25
 49
0.25
 49
-0.25
  0
ENDTAB
  0
TABLE
  2
LAYER
 70
     6
  0
LAYER
  2
0
 70
     0
 62
     7
  6
CONTINUOUS
  0
LAYER
  2
3
 70
     0
 62
     2
  6
CONTINUOUS
  0
LAYER
  2
2
 70
     0
 62
     3
  6
CENTER
  0
LAYER
  2
1
 70
     0
 62
     4
  6
CONTINUOUS
  0
LAYER
  2
4
 70
     0
 62
     7
  6
CONTINUOUS
  0
LAYER
  2
DEFPOINTS
 70
     0
 62
     7
  6
CONTINUOUS
  0
ENDTAB
  0
TABLE
  2
STYLE
 70
     1
  0
STYLE
  2
STANDARD
 70
     0
 40
0.0
 41
1.0
 50
0.0
 71
     0
 42
180.0
  3
simplex.shx
  4
extfont.shx
  0
ENDTAB
  0
TABLE
  2
VIEW
 70
     0
  0
ENDTAB
  0
TABLE
  2
UCS
 70
     0
  0
ENDTAB
  0
TABLE
  2
APPID
 70
     2
  0
APPID
  2
ACAD
 70
     0
  0
APPID
  2
CONTENTBLOCKICON
 70
     0
  0
ENDTAB
  0
TABLE
  2
DIMSTYLE
 70
     1
  0
DIMSTYLE
  2
IGA
 70
     0
  3

  4

  5

  6
OPEN
  7
OPEN
 40
2.0
 41
2.0
 42
0.5
 43
10.0
 44
1.0
 45
0.0
 46
0.0
 47
1.0
 48
1.0
140
3.0
141
0.0
142
0.0
143
0.03937
144
1.0
145
0.0
146
10.0
147
1.0
 71
     0
 72
     0
 73
     0
 74
     0
 75
     0
 76
     0
 77
     1
 78
     8
170
     0
171
     2
172
     0
173
     1
174
     0
175
     0
176
     0
177
     0
178
     0
  0
ENDTAB
  0
ENDSEC
  0
SECTION
  2
BLOCKS
  0
BLOCK
  8
0
  2
$MODEL_SPACE
 70
     0
 10
0.0
 20
0.0
 30
0.0
  3
$MODEL_SPACE
  1

  0
ENDBLK
  5
1B
  8
0
  0
BLOCK
 67
     1
  8
0
  2
$PAPER_SPACE
 70
     0
 10
0.0
 20
0.0
 30
0.0
  3
$PAPER_SPACE
  1

  0
ENDBLK
  5
18
 67
     1
  8
0
  0
BLOCK
  8
0
  2
_OPEN
 70
     0
 10
0.0
 20
0.0
 30
0.0
  3
_OPEN
  1

  0
LINE
  5
79FD
  8
0
  6
BYBLOCK
 62
     0
 10
-1.0
 20
0.1666666666666666
 30
0.0
 11
0.0
 21
0.0
 31
0.0
  0
LINE
  5
79FE
  8
0
  6
BYBLOCK
 62
     0
 10
0.0
 20
0.0
 30
0.0
 11
-1.0
 21
-0.1666666666666666
 31
0.0
  0
LINE
  5
79FF
  8
0
  6
BYBLOCK
 62
     0
 10
0.0
 20
0.0
 30
0.0
 11
-1.0
 21
0.0
 31
0.0
  0
ENDBLK
  5
7A01
  8
0
  0
BLOCK
  8
0
  2
L-40-3
 70
     0
 10
0.0
 20
0.0
 30
0.0
  3
L-40-3
  1

  0
ARC
  5
7A03
  8
0
 10
7.5
 20
7.5
 30
0.0
 40
4.5
 50
180.0
 51
270.0
  0
LINE
  5
7A04
  8
0
 10
0.0
 20
0.0
 30
0.0
 11
0.0
 21
40.0
 31
0.0
  0
LINE
  5
7A05
  8
0
 10
7.5
 20
3.0
 30
0.0
 11
38.0
 21
3.0
 31
0.0
  0
LINE
  5
7A06
  8
0
 10
0.0
 20
0.0
 30
0.0
 11
40.0
 21
0.0
 31
0.0
  0
LINE
  5
7A07
  8
0
 10
40.0
 20
0.0
 30
0.0
 11
40.0
 21
1.0
 31
0.0
  0
ARC
  5
7A08
  8
0
 10
38.0
 20
1.0
 30
0.0
 40
2.0
 50
0.0
 51
90.0
  0
LINE
  5
7A09
  8
0
 10
3.0
 20
7.5
 30
0.0
 11
3.0
 21
38.0
 31
0.0
  0
LINE
  5
7A0A
  8
0
 10
0.0
 20
40.0
 30
0.0
 11
1.0
 21
40.0
 31
0.0
  0
ARC
  5
7A0B
  8
0
 10
1.0
 20
38.0
 30
0.0
 40
2.0
 50
0.0
 51
90.0
  0
ENDBLK
  5
7A0D
  8
0
  0
BLOCK
  8
0
  2
*D2
 70
     1
 10
0.0
 20
0.0
 30
0.0
  3
*D2
  1

  0
LINE
  5
9FFD
  8
3
 62
     0
 10
5898.1900820427927
 20
11180.311814576809
 30
0.0
 11
6329.5794137744033
 21
11180.311814576809
 31
0.0
  0
LINE
  5
9FFE
  8
3
 62
     0
 10
5898.1900820427927
 20
9920.3118145768112
 30
0.0
 11
6329.5794137744033
 21
9920.3118145768112
 31
0.0
  0
LINE
  5
9FFF
  8
3
 62
     0
 10
6279.5794137744033
 20
11080.311814576809
 30
0.0
 11
6279.5794137744033
 21
10020.311814576809
 31
0.0
  0
INSERT
  5
A000
  8
3
 62
     0
  2
_OPEN
 10
6279.5794137744033
 20
11180.311814576809
 30
0.0
 41
100.0
 42
100.0
 43
100.0
 50
90.0
  0
INSERT
  5
A001
  8
3
 62
     0
  2
_OPEN
 10
6279.5794137744033
 20
9920.3118145768112
 30
0.0
 41
100.0
 42
100.0
 43
100.0
 50
270.0
  0
TEXT
  8
3
  40
150
  5
A078
  62
0
  72
0
  71
0
 10
5854.58
 20
10357.8
 30
0.000000
  1
1260
  0
POINT
  5
A003
  8
DEFPOINTS
 62
     0
 10
5873.1900820427927
 20
11180.311814576809
 30
0.0
  0
POINT
  5
A004
  8
DEFPOINTS
 62
     0
 10
5873.1900820427927
 20
9920.3118145768112
 30
0.0
  0
POINT
  5
A005
  8
DEFPOINTS
 62
     0
 10
6279.5794137744033
 20
9920.3118145768112
 30
0.0
  0
ENDBLK
  5
7B30
  8
0
  0
BLOCK
  8
0
  2
*D3
 70
     1
 10
0.0
 20
0.0
 30
0.0
  3
*D3
  1

  0
LINE
  5
A006
  8
3
 62
     0
 10
1149.3730016487841
 20
6160.9577178278423
 30
0.0
 11
1149.3730016487841
 21
5691.0946480619086
 31
0.0
  0
LINE
  5
A007
  8
3
 62
     0
 10
2409.3730016487839
 20
6160.9577178278423
 30
0.0
 11
2409.3730016487839
 21
5691.0946480619086
 31
0.0
  0
LINE
  5
A008
  8
3
 62
     0
 10
1249.3730016487841
 20
5741.0946480619104
 30
0.0
 11
2309.3730016487839
 21
5741.0946480619104
 31
0.0
  0
INSERT
  5
A009
  8
3
 62
     0
  2
_OPEN
 10
1149.3730016487841
 20
5741.0946480619104
 30
0.0
 41
100.0
 42
100.0
 43
100.0
 50
180.0
  0
INSERT
  5
A00A
  8
3
 62
     0
  2
_OPEN
 10
2409.3730016487839
 20
5741.0946480619104
 30
0.0
 41
100.0
 42
100.0
 43
100.0
  0
TEXT
  8
3
  40
150
  5
A079
  62
0
  72
0
  71
0
 10
1503.12
 20
5600.59
 30
0.000000
  1
1260
  0
POINT
  5
A00C
  8
DEFPOINTS
 62
     0
 10
1149.3730016487841
 20
6185.9577178278423
 30
0.0
  0
POINT
  5
A00D
  8
DEFPOINTS
 62
     0
 10
2409.3730016487839
 20
6185.9577178278423
 30
0.0
  0
POINT
  5
A00E
  8
DEFPOINTS
 62
     0
 10
2409.3730016487839
 20
5741.0946480619104
 30
0.0
  0
ENDBLK
  5
7B3D
  8
0
  0
BLOCK
  8
0
  2
*D4
 70
     1
 10
0.0
 20
0.0
 30
0.0
  3
*D4
  1

  0
LINE
  5
A00F
  8
3
 62
     0
 10
1149.3730016487821
 20
7730.9577178278432
 30
0.0
 11
1149.3730016487821
 21
8040.5051034588032
 31
0.0
  0
LINE
  5
A010
  8
3
 62
     0
 10
1894.3730016487841
 20
7760.435208953968
 30
0.0
 11
1894.3730016487841
 21
8040.5051034588032
 31
0.0
  0
LINE
  5
A011
  8
3
 62
     0
 10
1249.3730016487821
 20
7990.5051034588032
 30
0.0
 11
1794.3730016487841
 21
7990.5051034588032
 31
0.0
  0
INSERT
  5
A012
  8
3
 62
     0
  2
_OPEN
 10
1149.3730016487821
 20
7990.5051034588032
 30
0.0
 41
100.0
 42
100.0
 43
100.0
 50
180.0
  0
INSERT
  5
A013
  8
3
 62
     0
  2
_OPEN
 10
1894.3730016487841
 20
7990.5051034588032
 30
0.0
 41
100.0
 42
100.0
 43
100.0
  0
TEXT
  8
3
  40
150
  5
A07A
  62
0
  72
0
  71
0
 10
1192.23
 20
7850.01
 30
0.000000
  1
745
  0
POINT
  5
A015
  8
DEFPOINTS
 62
     0
 10
1149.3730016487821
 20
7705.9577178278432
 30
0.0
  0
POINT
  5
A016
  8
DEFPOINTS
 62
     0
 10
1894.3730016487841
 20
7735.4352089539689
 30
0.0
  0
POINT
  5
A017
  8
DEFPOINTS
 62
     0
 10
1894.3730016487841
 20
7990.5051034588032
 30
0.0
  0
ENDBLK
  5
7B4A
  8
0
  0
BLOCK
  8
0
  2
*D5
 70
     1
 10
0.0
 20
0.0
 30
0.0
  3
*D5
  1

  0
LINE
  5
7B65
  8
0
  6
BYBLOCK
 62
     0
 10
2409.3730016487821
 20
7730.9577178278432
 30
0.0
 11
2409.3730016487821
 21
8040.5051034588032
 31
0.0
  0
LINE
  5
7B66
  8
0
  6
BYBLOCK
 62
     0
 10
1994.3730016487841
 20
7990.5051034588032
 30
0.0
 11
2309.3730016487821
 21
7990.5051034588032
 31
0.0
  0
TEXT
  5
7B67
  8
1
 62
     0
 10
1973.301573077355
 20
8046.9139432128941
 30
0.0
 40
150.0
  1
515
  0
INSERT
  5
7B68
  8
0
  6
BYBLOCK
 62
     0
  2
_OPEN
 10
1894.3730016487841
 20
7990.5051034588032
 30
0.0
 41
100.0
 42
100.0
 43
100.0
 50
180.0
  0
INSERT
  5
7B69
  8
0
  6
BYBLOCK
 62
     0
  2
_OPEN
 10
2409.3730016487821
 20
7990.5051034588032
 30
0.0
 41
100.0
 42
100.0
 43
100.0
  0
POINT
  5
7B6A
  8
DEFPOINTS
  6
BYBLOCK
 62
     0
 10
1894.3730016487841
 20
7735.4352089539689
 30
0.0
  0
POINT
  5
7B6B
  8
DEFPOINTS
  6
BYBLOCK
 62
     0
 10
2409.3730016487821
 20
7705.9577178278432
 30
0.0
  0
POINT
  5
7B6C
  8
DEFPOINTS
  6
BYBLOCK
 62
     0
 10
2409.3730016487821
 20
7990.5051034588032
 30
0.0
  0
ENDBLK
  5
7B6D
  8
0
  0
BLOCK
  8
0
  2
*D6
 70
     1
 10
0.0
 20
0.0
 30
0.0
  3
*D6
  1

  0
LINE
  5
A018
  8
3
 62
     0
 10
1567.3730016487821
 20
7230.9577178278432
 30
0.0
 11
909.93971081207667
 21
7230.9577178278432
 31
0.0
  0
LINE
  5
A019
  8
3
 62
     0
 10
1567.3730016487841
 20
6400.9577178278423
 30
0.0
 11
909.93971081207667
 21
6400.9577178278423
 31
0.0
  0
LINE
  5
A01A
  8
3
 62
     0
 10
959.93971081207667
 20
7130.9577178278432
 30
0.0
 11
959.93971081207667
 21
6500.9577178278423
 31
0.0
  0
INSERT
  5
A01B
  8
3
 62
     0
  2
_OPEN
 10
959.93971081207667
 20
7230.9577178278432
 30
0.0
 41
100.0
 42
100.0
 43
100.0
 50
90.0
  0
INSERT
  5
A01C
  8
3
 62
     0
  2
_OPEN
 10
959.93971081207667
 20
6400.9577178278423
 30
0.0
 41
100.0
 42
100.0
 43
100.0
 50
270.0
  0
TEXT
  8
3
  40
150
  5
A07B
  62
0
  72
0
  71
0
 10
534.940
 20
6622.60
 30
0.000000
  1
830
  0
POINT
  5
A01E
  8
DEFPOINTS
 62
     0
 10
1592.3730016487821
 20
7230.9577178278432
 30
0.0
  0
POINT
  5
A01F
  8
DEFPOINTS
 62
     0
 10
1592.3730016487841
 20
6400.9577178278423
 30
0.0
  0
POINT
  5
A020
  8
DEFPOINTS
 62
     0
 10
959.93971081207667
 20
6400.9577178278423
 30
0.0
  0
ENDBLK
  5
7B79
  8
0
  0
BLOCK
  8
0
  2
*D7
 70
     1
 10
0.0
 20
0.0
 30
0.0
  3
*D7
  1

  0
LINE
  5
A021
  8
3
 62
     0
 10
1592.3730016487821
 20
7255.9577178278432
 30
0.0
 11
1592.3730016487821
 21
7451.0719266916431
 31
0.0
  0
LINE
  5
A022
  8
3
 62
     0
 10
2196.3730016487839
 20
7255.9577178278432
 30
0.0
 11
2196.3730016487839
 21
7451.0719266916431
 31
0.0
  0
LINE
  5
A023
  8
3
 62
     0
 10
1492.3730016487821
 20
7401.0719266916421
 30
0.0
 11
1392.3730016487821
 21
7401.0719266916421
 31
0.0
  0
LINE
  5
A024
  8
3
 62
     0
 10
2296.3730016487839
 20
7401.0719266916421
 30
0.0
 11
2396.3730016487839
 21
7401.0719266916421
 31
0.0
  0
LINE
  5
A025
  8
3
 62
     0
 10
1592.3730016487821
 20
7401.0719266916421
 30
0.0
 11
2196.3730016487839
 21
7401.0719266916421
 31
0.0
  0
INSERT
  5
A026
  8
3
 62
     0
  2
_OPEN
 10
1592.3730016487821
 20
7401.0719266916421
 30
0.0
 41
100.0
 42
100.0
 43
100.0
  0
INSERT
  5
A027
  8
3
 62
     0
  2
_OPEN
 10
2196.3730016487839
 20
7401.0719266916421
 30
0.0
 41
100.0
 42
100.0
 43
100.0
 50
180.0
  0
TEXT
  8
3
  40
150
  5
A07C
  62
0
  72
0
  71
0
 10
1594.37
 20
7260.57
 30
0.000000
  1
604
  0
POINT
  5
A029
  8
DEFPOINTS
 62
     0
 10
1592.3730016487821
 20
7230.9577178278432
 30
0.0
  0
POINT
  5
A02A
  8
DEFPOINTS
 62
     0
 10
2196.3730016487839
 20
7230.9577178278432
 30
0.0
  0
POINT
  5
A02B
  8
DEFPOINTS
 62
     0
 10
2196.3730016487839
 20
7401.0719266916421
 30
0.0
  0
ENDBLK
  5
7BC0
  8
0
  0
BLOCK
  8
0
  2
*D8
 70
     1
 10
0.0
 20
0.0
 30
0.0
  3
*D8
  1

  0
LINE
  5
A02C
  8
3
 62
     0
 10
3963.1900820427918
 20
6160.9577178278423
 30
0.0
 11
3963.1900820427918
 21
5782.6891689078248
 31
0.0
  0
LINE
  5
A02D
  8
3
 62
     0
 10
5873.1900820427936
 20
6160.9577178278423
 30
0.0
 11
5873.1900820427936
 21
5782.6891689078248
 31
0.0
  0
LINE
  5
A02E
  8
3
 62
     0
 10
4063.1900820427932
 20
5832.6891689078257
 30
0.0
 11
5773.1900820427954
 21
5832.6891689078257
 31
0.0
  0
INSERT
  5
A02F
  8
3
 62
     0
  2
_OPEN
 10
3963.1900820427918
 20
5832.6891689078257
 30
0.0
 41
100.0
 42
100.0
 43
100.0
 50
180.0
  0
INSERT
  5
A030
  8
3
 62
     0
  2
_OPEN
 10
5873.1900820427936
 20
5832.6891689078257
 30
0.0
 41
100.0
 42
100.0
 43
100.0
  0
TEXT
  8
3
  40
150
  5
A07D
  62
0
  72
0
  71
0
 10
4619.78
 20
5692.19
 30
0.000000
  1
1910
  0
POINT
  5
A032
  8
DEFPOINTS
 62
     0
 10
3963.1900820427918
 20
6185.9577178278423
 30
0.0
  0
POINT
  5
A033
  8
DEFPOINTS
 62
     0
 10
5873.1900820427936
 20
6185.9577178278423
 30
0.0
  0
POINT
  5
A034
  8
DEFPOINTS
 62
     0
 10
5873.1900820427936
 20
5832.6891689078257
 30
0.0
  0
ENDBLK
  5
7B96
  8
0
  0
BLOCK
  8
0
  2
*D9
 70
     1
 10
0.0
 20
0.0
 30
0.0
  3
*D9
  1

  0
LINE
  5
A035
  8
3
 62
     0
 10
4043.1900820427932
 20
7730.9577178278432
 30
0.0
 11
4043.1900820427932
 21
8048.4153951229318
 31
0.0
  0
LINE
  5
A036
  8
3
 62
     0
 10
5793.1900820427936
 20
7730.9577178278432
 30
0.0
 11
5793.1900820427936
 21
8048.4153951229318
 31
0.0
  0
LINE
  5
A037
  8
3
 62
     0
 10
4143.1900820427918
 20
7998.4153951229318
 30
0.0
 11
5693.1900820427954
 21
7998.4153951229318
 31
0.0
  0
INSERT
  5
A038
  8
3
 62
     0
  2
_OPEN
 10
4043.1900820427932
 20
7998.4153951229318
 30
0.0
 41
100.0
 42
100.0
 43
100.0
 50
180.0
  0
INSERT
  5
A039
  8
3
 62
     0
  2
_OPEN
 10
5793.1900820427936
 20
7998.4153951229318
 30
0.0
 41
100.0
 42
100.0
 43
100.0
  0
TEXT
  8
3
  40
150
  5
A07E
  62
0
  72
0
  71
0
 10
4607.27
 20
7857.92
 30
0.000000
  1
1750
  0
POINT
  5
A03B
  8
DEFPOINTS
 62
     0
 10
4043.1900820427932
 20
7705.9577178278432
 30
0.0
  0
POINT
  5
A03C
  8
DEFPOINTS
 62
     0
 10
5793.1900820427936
 20
7705.9577178278432
 30
0.0
  0
POINT
  5
A03D
  8
DEFPOINTS
 62
     0
 10
5793.1900820427936
 20
7998.4153951229318
 30
0.0
  0
ENDBLK
  5
7BA3
  8
0
  0
BLOCK
  8
0
  2
*D10
 70
     1
 10
0.0
 20
0.0
 30
0.0
  3
*D10
  1

  0
LINE
  5
A049
  8
3
 62
     0
 10
7703.9758806533919
 20
6160.9577178278423
 30
0.0
 11
7703.9758806533919
 21
5691.0946480619086
 31
0.0
  0
LINE
  5
A04A
  8
3
 62
     0
 10
8963.9758806533919
 20
6160.9577178278423
 30
0.0
 11
8963.9758806533919
 21
5691.0946480619086
 31
0.0
  0
LINE
  5
A04B
  8
3
 62
     0
 10
7803.9758806533928
 20
5741.0946480619104
 30
0.0
 11
8863.9758806533919
 21
5741.0946480619104
 31
0.0
  0
INSERT
  5
A04C
  8
3
 62
     0
  2
_OPEN
 10
7703.9758806533919
 20
5741.0946480619104
 30
0.0
 41
100.0
 42
100.0
 43
100.0
 50
180.0
  0
INSERT
  5
A04D
  8
3
 62
     0
  2
_OPEN
 10
8963.9758806533919
 20
5741.0946480619104
 30
0.0
 41
100.0
 42
100.0
 43
100.0
  0
TEXT
  8
3
  40
150
  5
A07F
  62
0
  72
0
  71
0
 10
8057.72
 20
5600.59
 30
0.000000
  1
1260
  0
POINT
  5
A04F
  8
DEFPOINTS
 62
     0
 10
7703.9758806533919
 20
6185.9577178278423
 30
0.0
  0
POINT
  5
A050
  8
DEFPOINTS
 62
     0
 10
8963.9758806533919
 20
6185.9577178278423
 30
0.0
  0
POINT
  5
A051
  8
DEFPOINTS
 62
     0
 10
8963.9758806533919
 20
5741.0946480619104
 30
0.0
  0
ENDBLK
  5
9FCE
  8
0
  0
BLOCK
  8
0
  2
*D11
 70
     1
 10
0.0
 20
0.0
 30
0.0
  3
*D11
  1

  0
LINE
  5
A05B
  8
3
 62
     0
 10
7703.97588065339
 20
7730.9577178278432
 30
0.0
 11
7703.97588065339
 21
8040.5051034588032
 31
0.0
  0
LINE
  5
A05C
  8
3
 62
     0
 10
8448.9758806533919
 20
7760.435208953968
 30
0.0
 11
8448.9758806533919
 21
8040.5051034588032
 31
0.0
  0
LINE
  5
A05D
  8
3
 62
     0
 10
7803.9758806533891
 20
7990.5051034588032
 30
0.0
 11
8348.9758806533919
 21
7990.5051034588032
 31
0.0
  0
INSERT
  5
A05E
  8
3
 62
     0
  2
_OPEN
 10
7703.97588065339
 20
7990.5051034588032
 30
0.0
 41
100.0
 42
100.0
 43
100.0
 50
180.0
  0
INSERT
  5
A05F
  8
3
 62
     0
  2
_OPEN
 10
8448.9758806533919
 20
7990.5051034588032
 30
0.0
 41
100.0
 42
100.0
 43
100.0
  0
TEXT
  8
3
  40
150
  5
A080
  62
0
  72
0
  71
0
 10
7746.83
 20
7850.01
 30
0.000000
  1
745
  0
POINT
  5
A061
  8
DEFPOINTS
 62
     0
 10
7703.97588065339
 20
7705.9577178278432
 30
0.0
  0
POINT
  5
A062
  8
DEFPOINTS
 62
     0
 10
8448.9758806533919
 20
7735.4352089539689
 30
0.0
  0
POINT
  5
A063
  8
DEFPOINTS
 62
     0
 10
8448.9758806533919
 20
7990.5051034588032
 30
0.0
  0
ENDBLK
  5
9FAE
  8
0
  0
BLOCK
  8
0
  2
*D12
 70
     1
 10
0.0
 20
0.0
 30
0.0
  3
*D12
  1

  0
LINE
  5
9FB0
  8
0
  6
BYBLOCK
 62
     0
 10
8337.6906098225118
 20
7730.9577178278432
 30
0.0
 11
8337.6906098225118
 21
8040.5051034588032
 31
0.0
  0
LINE
  5
9FB1
  8
0
  6
BYBLOCK
 62
     0
 10
7922.6906098225136
 20
7990.5051034588032
 30
0.0
 11
8237.6906098225136
 21
7990.5051034588032
 31
0.0
  0
TEXT
  5
9FB2
  8
1
 62
     0
 10
7901.6191812510842
 20
8046.9139432128941
 30
0.0
 40
150.0
  1
515
  0
INSERT
  5
9FB3
  8
0
  6
BYBLOCK
 62
     0
  2
_OPEN
 10
7822.6906098225136
 20
7990.5051034588032
 30
0.0
 41
100.0
 42
100.0
 43
100.0
 50
180.0
  0
INSERT
  5
9FB4
  8
0
  6
BYBLOCK
 62
     0
  2
_OPEN
 10
8337.6906098225118
 20
7990.5051034588032
 30
0.0
 41
100.0
 42
100.0
 43
100.0
  0
POINT
  5
9FB5
  8
DEFPOINTS
  6
BYBLOCK
 62
     0
 10
7822.6906098225136
 20
7735.4352089539689
 30
0.0
  0
POINT
  5
9FB6
  8
DEFPOINTS
  6
BYBLOCK
 62
     0
 10
8337.6906098225118
 20
7705.9577178278432
 30
0.0
  0
POINT
  5
9FB7
  8
DEFPOINTS
  6
BYBLOCK
 62
     0
 10
8337.6906098225118
 20
7990.5051034588032
 30
0.0
  0
ENDBLK
  5
9FB8
  8
0
  0
BLOCK
  8
0
  2
*D13
 70
     1
 10
0.0
 20
0.0
 30
0.0
  3
*D13
  1

  0
LINE
  5
A052
  8
3
 62
     0
 10
8121.975880653391
 20
7230.9577178278432
 30
0.0
 11
7323.8328010789319
 21
7230.9577178278432
 31
0.0
  0
LINE
  5
A053
  8
3
 62
     0
 10
8121.9758806533919
 20
6400.9577178278423
 30
0.0
 11
7323.8328010789319
 21
6400.9577178278423
 31
0.0
  0
LINE
  5
A054
  8
3
 62
     0
 10
7373.8328010789319
 20
7130.9577178278432
 30
0.0
 11
7373.8328010789319
 21
6500.9577178278423
 31
0.0
  0
INSERT
  5
A055
  8
3
 62
     0
  2
_OPEN
 10
7373.8328010789319
 20
7230.9577178278432
 30
0.0
 41
100.0
 42
100.0
 43
100.0
 50
90.0
  0
INSERT
  5
A056
  8
3
 62
     0
  2
_OPEN
 10
7373.8328010789319
 20
6400.9577178278423
 30
0.0
 41
100.0
 42
100.0
 43
100.0
 50
270.0
  0
TEXT
  8
3
  40
150
  5
A081
  62
0
  72
0
  71
0
 10
6948.83
 20
6622.60
 30
0.000000
  1
830
  0
POINT
  5
A058
  8
DEFPOINTS
 62
     0
 10
8146.975880653391
 20
7230.9577178278432
 30
0.0
  0
POINT
  5
A059
  8
DEFPOINTS
 62
     0
 10
8146.975880653391
 20
6400.9577178278423
 30
0.0
  0
POINT
  5
A05A
  8
DEFPOINTS
 62
     0
 10
7373.8328010789319
 20
6400.9577178278423
 30
0.0
  0
ENDBLK
  5
9FC3
  8
0
  0
BLOCK
  8
0
  2
*D14
 70
     1
 10
0.0
 20
0.0
 30
0.0
  3
*D14
  1

  0
LINE
  5
A03E
  8
3
 62
     0
 10
8146.975880653391
 20
7255.9577178278432
 30
0.0
 11
8146.975880653391
 21
7451.0719266916431
 31
0.0
  0
LINE
  5
A03F
  8
3
 62
     0
 10
8750.9758806533919
 20
7255.9577178278432
 30
0.0
 11
8750.9758806533919
 21
7451.0719266916431
 31
0.0
  0
LINE
  5
A040
  8
3
 62
     0
 10
8046.9758806533891
 20
7401.0719266916421
 30
0.0
 11
7946.97588065339
 21
7401.0719266916421
 31
0.0
  0
LINE
  5
A041
  8
3
 62
     0
 10
8850.9758806533919
 20
7401.0719266916421
 30
0.0
 11
8950.9758806533937
 21
7401.0719266916421
 31
0.0
  0
LINE
  5
A042
  8
3
 62
     0
 10
8146.975880653391
 20
7401.0719266916421
 30
0.0
 11
8750.9758806533919
 21
7401.0719266916421
 31
0.0
  0
INSERT
  5
A043
  8
3
 62
     0
  2
_OPEN
 10
8146.975880653391
 20
7401.0719266916421
 30
0.0
 41
100.0
 42
100.0
 43
100.0
  0
INSERT
  5
A044
  8
3
 62
     0
  2
_OPEN
 10
8750.9758806533919
 20
7401.0719266916421
 30
0.0
 41
100.0
 42
100.0
 43
100.0
 50
180.0
  0
TEXT
  8
3
  40
150
  5
A082
  62
0
  72
0
  71
0
 10
8148.98
 20
7260.57
 30
0.000000
  1
604
  0
POINT
  5
A046
  8
DEFPOINTS
 62
     0
 10
8146.975880653391
 20
7230.9577178278432
 30
0.0
  0
POINT
  5
A047
  8
DEFPOINTS
 62
     0
 10
8750.9758806533919
 20
7230.9577178278432
 30
0.0
  0
POINT
  5
A048
  8
DEFPOINTS
 62
     0
 10
8750.9758806533919
 20
7401.0719266916421
 30
0.0
  0
ENDBLK
  5
9FDB
  8
0
  0
BLOCK
  8
0
  2
*D15
 70
     1
 10
0.0
 20
0.0
 30
0.0
  3
*D15
  1

  0
LINE
  5
A064
  8
3
 62
     0
 10
3899.9470599148658
 20
6815.9577178278423
 30
0.0
 11
3483.5854999031881
 21
6815.9577178278423
 31
0.0
  0
LINE
  5
A065
  8
3
 62
     0
 10
3938.1900820427918
 20
6185.9577178278423
 30
0.0
 11
3483.5854999031881
 21
6185.9577178278423
 31
0.0
  0
LINE
  5
A066
  8
3
 62
     0
 10
3533.5854999031881
 20
6915.9577178278432
 30
0.0
 11
3533.5854999031881
 21
7015.9577178278423
 31
0.0
  0
LINE
  5
A067
  8
3
 62
     0
 10
3533.5854999031881
 20
6085.9577178278423
 30
0.0
 11
3533.5854999031881
 21
5985.9577178278423
 31
0.0
  0
LINE
  5
A068
  8
3
 62
     0
 10
3533.5854999031881
 20
6815.9577178278423
 30
0.0
 11
3533.5854999031881
 21
6185.9577178278423
 31
0.0
  0
INSERT
  5
A069
  8
3
 62
     0
  2
_OPEN
 10
3533.5854999031881
 20
6815.9577178278423
 30
0.0
 41
100.0
 42
100.0
 43
100.0
 50
270.0
  0
INSERT
  5
A06A
  8
3
 62
     0
  2
_OPEN
 10
3533.5854999031881
 20
6185.9577178278423
 30
0.0
 41
100.0
 42
100.0
 43
100.0
 50
90.0
  0
TEXT
  8
3
  40
150
  5
A083
  62
0
  72
0
  71
0
 10
3108.59
 20
6235.46
 30
0.000000
  1
630
  0
POINT
  5
A06C
  8
DEFPOINTS
 62
     0
 10
3924.9470599148658
 20
6815.9577178278423
 30
0.0
  0
POINT
  5
A06D
  8
DEFPOINTS
 62
     0
 10
3963.1900820427918
 20
6185.9577178278423
 30
0.0
  0
POINT
  5
A06E
  8
DEFPOINTS
 62
     0
 10
3533.5854999031881
 20
6185.9577178278423
 30
0.0
  0
ENDBLK
  5
7C66
  8
0
  0
BLOCK
  8
0
  2
*D16
 70
     1
 10
0.0
 20
0.0
 30
0.0
  3
*D16
  1

  0
LINE
  5
A06F
  8
3
 62
     0
 10
5818.1900820427954
 20
7705.9577178278432
 30
0.0
 11
6381.1757341920038
 21
7705.9577178278423
 31
0.0
  0
LINE
  5
A070
  8
3
 62
     0
 10
5898.1900820427954
 20
6185.9577178278423
 30
0.0
 11
6381.1757341920038
 21
6185.9577178278414
 31
0.0
  0
LINE
  5
A071
  8
3
 62
     0
 10
6331.1757341920038
 20
7605.9577178278414
 30
0.0
 11
6331.1757341920038
 21
6285.9577178278414
 31
0.0
  0
INSERT
  5
A072
  8
3
 62
     0
  2
_OPEN
 10
6331.1757341920038
 20
7705.9577178278423
 30
0.0
 41
100.0
 42
100.0
 43
100.0
 50
90.0
  0
INSERT
  5
A073
  8
3
 62
     0
  2
_OPEN
 10
6331.1757341920038
 20
6185.9577178278414
 30
0.0
 41
100.0
 42
100.0
 43
100.0
 50
270.0
  0
TEXT
  8
3
  40
150
  5
A084
  62
0
  72
0
  71
0
 10
5906.18
 20
6654.13
 30
0.000000
  1
1520
  0
POINT
  5
A075
  8
DEFPOINTS
 62
     0
 10
5793.1900820427936
 20
7705.9577178278432
 30
0.0
  0
POINT
  5
A076
  8
DEFPOINTS
 62
     0
 10
5873.1900820427936
 20
6185.9577178278423
 30
0.0
  0
POINT
  5
A077
  8
DEFPOINTS
 62
     0
 10
6331.1757341920038
 20
6185.9577178278414
 30
0.0
  0
ENDBLK
  5
8C0B
  8
0
  0
ENDSEC
  0
SECTION
  2
ENTITIES
  0
LINE
  5
7A96
  8
1
 10
4043.1900820427932
 20
7705.9577178278432
 30
0.0
 11
5793.1900820427936
 21
7705.9577178278432
 31
0.0
  0
LINE
  5
7A97
  8
1
 10
4043.1900820427932
 20
7705.9577178278432
 30
0.0
 11
4043.1900820427932
 21
6285.9577178278423
 31
0.0
  0
LINE
  5
7A98
  8
1
 10
5793.1900820427936
 20
7705.9577178278432
 30
0.0
 11
5793.1900820427936
 21
6285.9577178278423
 31
0.0
  0
LINE
  5
7A99
  8
1
 10
3963.1900820427918
 20
6285.9577178278423
 30
0.0
 11
5873.1900820427936
 21
6285.9577178278423
 31
0.0
  0
LINE
  5
7A9A
  8
1
 10
3963.1900820427918
 20
6185.9577178278423
 30
0.0
 11
5873.1900820427936
 21
6185.9577178278423
 31
0.0
  0
LINE
  5
7A9B
  8
1
 10
3963.1900820427918
 20
6285.9577178278423
 30
0.0
 11
3963.1900820427918
 21
6185.9577178278423
 31
0.0
  0
LINE
  5
7A9C
  8
1
 10
5873.1900820427936
 20
6285.9577178278423
 30
0.0
 11
5873.1900820427936
 21
6185.9577178278423
 31
0.0
  0
LINE
  5
7AA0
  8
1
 10
2196.3730016487839
 20
7230.9577178278432
 30
0.0
 11
2196.3730016487839
 21
6400.9577178278423
 31
0.0
  0
LINE
  5
7AA1
  8
1
 10
1592.3730016487821
 20
7230.9577178278432
 30
0.0
 11
1592.3730016487841
 21
6400.9577178278423
 31
0.0
  0
LINE
  5
7AA2
  8
1
 10
1552.3730016487841
 20
7270.9577178278423
 30
0.0
 11
1552.3730016487841
 21
6360.9577178278423
 31
0.0
  0
LINE
  5
7AA3
  8
1
 10
2236.3730016487821
 20
7270.9577178278423
 30
0.0
 11
2236.3730016487839
 21
6360.9577178278423
 31
0.0
  0
LINE
  5
7AA4
  8
2
 10
1894.3730016487841
 20
7735.4352089539689
 30
0.0
 11
1894.3730016487841
 21
7648.429779613426
 31
0.0
  0
LINE
  5
7AA5
  8
1
 10
1149.3730016487821
 20
7705.9577178278432
 30
0.0
 11
1149.3730016487841
 21
6285.9577178278423
 31
0.0
  0
LINE
  5
7AA6
  8
1
 10
2409.3730016487821
 20
7705.9577178278432
 30
0.0
 11
2409.3730016487821
 21
6285.9577178278423
 31
0.0
  0
LINE
  5
7AA7
  8
1
 10
1592.3730016487841
 20
6400.9577178278423
 30
0.0
 11
2196.3730016487839
 21
6400.9577178278423
 31
0.0
  0
LINE
  5
7AA8
  8
1
 10
1552.3730016487841
 20
6360.9577178278423
 30
0.0
 11
2236.3730016487839
 21
6360.9577178278423
 31
0.0
  0
LINE
  5
7AAA
  8
1
 10
2409.3730016487839
 20
6285.9577178278423
 30
0.0
 11
1149.3730016487841
 21
6285.9577178278423
 31
0.0
  0
LINE
  5
7AAB
  8
1
 10
2409.3730016487839
 20
6185.9577178278423
 30
0.0
 11
1149.3730016487841
 21
6185.9577178278423
 31
0.0
  0
LINE
  5
7AAC
  8
1
 10
1592.3730016487821
 20
7230.9577178278432
 30
0.0
 11
2196.3730016487839
 21
7230.9577178278432
 31
0.0
  0
LINE
  5
7AAD
  8
1
 10
1552.3730016487841
 20
7270.9577178278423
 30
0.0
 11
2236.3730016487821
 21
7270.9577178278423
 31
0.0
  0
LINE
  5
7AAE
  8
1
 10
2409.3730016487821
 20
7705.9577178278432
 30
0.0
 11
1149.3730016487821
 21
7705.9577178278432
 31
0.0
  0
LINE
  5
7AAF
  8
1
 10
2424.3730016487821
 20
6290.9577178278423
 30
0.0
 11
2424.3730016487821
 21
7700.9577178278423
 31
0.0
  0
LINE
  5
7AB0
  8
1
 10
2409.3730016487821
 20
6290.9577178278423
 30
0.0
 11
2409.3730016487821
 21
7700.9577178278423
 31
0.0
  0
LINE
  5
7AB1
  8
1
 10
2424.3730016487821
 20
6290.9577178278423
 30
0.0
 11
2409.3730016487821
 21
6290.9577178278423
 31
0.0
  0
LINE
  5
7AB2
  8
1
 10
2424.3730016487821
 20
7700.9577178278423
 30
0.0
 11
2409.3730016487821
 21
7700.9577178278423
 31
0.0
  0
LINE
  5
7AB3
  8
1
 10
1134.3730016487821
 20
6290.9577178278432
 30
0.0
 11
1134.3730016487821
 21
7700.9577178278441
 31
0.0
  0
LINE
  5
7AB4
  8
1
 10
1149.3730016487821
 20
6290.9577178278432
 30
0.0
 11
1149.3730016487821
 21
7700.9577178278441
 31
0.0
  0
LINE
  5
7AB5
  8
1
 10
1134.3730016487821
 20
6290.9577178278432
 30
0.0
 11
1149.3730016487821
 21
6290.9577178278423
 31
0.0
  0
LINE
  5
7AB6
  8
1
 10
1134.3730016487821
 20
7700.9577178278441
 30
0.0
 11
1149.3730016487821
 21
7700.9577178278441
 31
0.0
  0
LINE
  5
7AB7
  8
1
 10
2426.6730016487832
 20
6610.9577178278432
 30
0.0
 11
2424.3730016487839
 21
6610.9577178278432
 31
0.0
  0
LINE
  5
7AB8
  8
1
 10
2426.673001648785
 20
6610.9577178278432
 30
0.0
 11
2426.6730016487832
 21
7380.9577178278432
 31
0.0
  0
LINE
  5
7AB9
  8
1
 10
2424.3730016487839
 20
6610.9577178278432
 30
0.0
 11
2424.3730016487821
 21
7380.9577178278432
 31
0.0
  0
LINE
  5
7ABA
  8
1
 10
1149.3730016487841
 20
6285.9577178278423
 30
0.0
 11
1149.3730016487841
 21
6185.9577178278423
 31
0.0
  0
LINE
  5
7ABB
  8
1
 10
2409.3730016487839
 20
6285.9577178278423
 30
0.0
 11
2409.3730016487839
 21
6185.9577178278423
 31
0.0
  0
LINE
  5
7AD9
  8
1
 10
5788.1900820427936
 20
9905.3118145768112
 30
0.0
 11
4048.1900820427909
 21
9905.3118145768112
 31
0.0
  0
LINE
  5
7ADA
  8
1
 10
5788.1900820427936
 20
9920.3118145768112
 30
0.0
 11
4048.1900820427909
 21
9920.3118145768112
 31
0.0
  0
LINE
  5
7ADB
  8
1
 10
5123.1900820427927
 20
11195.311814576809
 30
0.0
 11
4353.1900820427918
 21
11195.311814576809
 31
0.0
  0
LINE
  5
7ADC
  8
1
 10
5788.1900820427936
 20
11195.311814576809
 30
0.0
 11
4048.1900820427918
 21
11195.311814576809
 31
0.0
  0
LINE
  5
7ADD
  8
1
 10
5788.1900820427936
 20
11180.311814576809
 30
0.0
 11
4048.1900820427918
 21
11180.311814576809
 31
0.0
  0
LINE
  5
7ADE
  8
1
 10
4043.1900820427932
 20
11180.311814576809
 30
0.0
 11
5793.1900820427936
 21
11180.311814576809
 31
0.0
  0
LINE
  5
7ADF
  8
1
 10
4043.1900820427932
 20
9920.3118145768112
 30
0.0
 11
5793.1900820427936
 21
9920.3118145768112
 31
0.0
  0
LINE
  5
7AE0
  8
1
 10
5793.1900820427936
 20
11180.311814576809
 30
0.0
 11
5793.1900820427936
 21
9920.3118145768112
 31
0.0
  0
LINE
  5
7AE1
  8
1
 10
5788.1900820427936
 20
9905.3118145768112
 30
0.0
 11
5788.1900820427936
 21
9920.3118145768112
 31
0.0
  0
LINE
  5
7AE2
  8
1
 10
5788.1900820427936
 20
11195.311814576809
 30
0.0
 11
5788.1900820427936
 21
11180.311814576809
 31
0.0
  0
LINE
  5
7AE4
  8
1
 10
4043.1900820427932
 20
11180.311814576809
 30
0.0
 11
4043.1900820427932
 21
9920.3118145768112
 31
0.0
  0
LINE
  5
7AE5
  8
1
 10
4048.1900820427909
 20
9905.3118145768112
 30
0.0
 11
4048.1900820427918
 21
9920.3118145768112
 31
0.0
  0
LINE
  5
7AE6
  8
1
 10
4048.1900820427918
 20
11195.311814576809
 30
0.0
 11
4048.1900820427918
 21
11180.311814576809
 31
0.0
  0
LINE
  5
7AE7
  8
1
 10
5793.1900820427936
 20
9920.3118145768112
 30
0.0
 11
5873.1900820427927
 21
9920.3118145768112
 31
0.0
  0
LINE
  5
7AE8
  8
1
 10
5793.1900820427936
 20
11180.311814576809
 30
0.0
 11
5873.1900820427927
 21
11180.311814576809
 31
0.0
  0
LINE
  5
7AEA
  8
1
 10
5873.1900820427927
 20
9920.3118145768112
 30
0.0
 11
5873.1900820427927
 21
9970.311814576813
 31
0.0
  0
LINE
  5
7AEB
  8
1
 10
5793.1900820427936
 20
11130.311814576809
 30
0.0
 11
5873.1900820427927
 21
11130.311814576809
 31
0.0
  0
LINE
  5
7AEC
  8
1
 10
5793.1900820427936
 20
9970.311814576813
 30
0.0
 11
5873.1900820427927
 21
9970.311814576813
 31
0.0
  0
LINE
  5
7AED
  8
1
 10
4043.1900820427932
 20
9970.311814576813
 30
0.0
 11
3963.1900820427918
 21
9970.311814576813
 31
0.0
  0
LINE
  5
7AEE
  8
1
 10
4043.1900820427932
 20
9920.3118145768112
 30
0.0
 11
3963.1900820427918
 21
9920.3118145768112
 31
0.0
  0
LINE
  5
7AEF
  8
1
 10
3963.1900820427918
 20
9920.3118145768112
 30
0.0
 11
3963.1900820427918
 21
9970.311814576813
 31
0.0
  0
LINE
  5
7AF0
  8
1
 10
5873.1900820427927
 20
11180.311814576809
 30
0.0
 11
5873.1900820427927
 21
11130.311814576809
 31
0.0
  0
LINE
  5
7AF1
  8
1
 10
3963.1900820427941
 20
11180.311814576809
 30
0.0
 11
3963.1900820427941
 21
11130.311814576809
 31
0.0
  0
LINE
  5
7AF2
  8
1
 10
4043.1900820427932
 20
11130.311814576809
 30
0.0
 11
3963.1900820427941
 21
11130.311814576809
 31
0.0
  0
LINE
  5
7AF3
  8
1
 10
4043.1900820427932
 20
11180.311814576809
 30
0.0
 11
3963.1900820427941
 21
11180.311814576809
 31
0.0
  0
LINE
  5
7B00
  8
1
 10
2196.3730016487839
 20
7230.9577178278432
 30
0.0
 11
1592.3730016487841
 21
6400.9577178278423
 31
0.0
  0
LINE
  5
7B01
  8
1
 10
1592.3730016487821
 20
7230.9577178278432
 30
0.0
 11
2196.3730016487839
 21
6400.9577178278423
 31
0.0
  0
LINE
  5
7B04
  8
2
 10
3924.9470599148658
 20
6815.9577178278423
 30
0.0
 11
5977.4434427764791
 21
6815.9577178278423
 31
0.0
  0
LINE
  5
7B05
  8
4
 10
8893.9924976737348
 20
3669.4836020616108
 30
0.0
 11
8893.9924976737348
 21
2669.4836020616108
 31
0.0
  0
LINE
  5
7B06
  8
4
 10
5393.9924976737348
 20
3669.4836020616108
 30
0.0
 11
5393.9924976737348
 21
2669.4836020616108
 31
0.0
  0
LINE
  5
7B07
  8
4
 10
2893.9924976737352
 20
3669.4836020616108
 30
0.0
 11
2893.9924976737352
 21
2669.4836020616108
 31
0.0
  0
LINE
  5
7B0A
  8
4
 10
2893.9924976737352
 20
2669.4836020616108
 30
0.0
 11
8893.9924976737348
 21
2669.4836020616108
 31
0.0
  0
LINE
  5
7B0B
  8
4
 10
2893.9924976737352
 20
3169.4836020616108
 30
0.0
 11
8893.9924976737348
 21
3169.4836020616108
 31
0.0
  0
TEXT
  5
7B0C
  8
4
 10
3086.5029019082431
 20
3327.1987313946761
 30
0.0
 40
250.0
  1
機器名称
  0
TEXT
  5
7B0D
  8
4
 10
3075.2830277977232
 20
2777.7093857216651
 30
0.0
 40
250.0
  1
機器型番
  0
TEXT
  5
7B0E
  8
4
 10
5532.386225112059
 20
3282.3424468494541
 30
0.0
 40
250.0
  1
ミツヤファンユニット
  0
TEXT
  5
7B0F
  8
4
 10
5577.2649756011378
 20
2755.2815234613281
 30
0.0
 40
250.0
  1
MFU#4004-4
  0
TEXT
  5
7B11
  8
4
 10
3147.0855222012428
 20
13086.62780872419
 30
0.0
 40
270.0
  1
天井吊ベット・床置ベット
  0
TEXT
  5
7B12
  8
4
 10
1086.879689854027
 20
13838.888483058099
 30
0.0
 40
360.0
  1
ベルト駆動式消音ボックス付多翼ファン
  0
LINE
  5
7B13
  8
4
 10
893.99249767373476
 20
13516.52737338563
 30
0.0
 11
8893.9924976737348
 21
13516.52737338563
 31
0.0
  0
LINE
  5
7B14
  8
4
 10
893.99249767373476
 20
14516.52737338563
 30
0.0
 11
8893.9924976737348
 21
14516.52737338563
 31
0.0
  0
LINE
  5
7B15
  8
4
 10
2893.9924976737352
 20
3669.4836020616108
 30
0.0
 11
8893.9924976737348
 21
3669.4836020616108
 31
0.0
  0
LINE
  5
7B16
  8
4
 10
893.99249767373476
 20
14516.52737338563
 30
0.0
 11
893.99249767373476
 21
13516.52737338563
 31
0.0
  0
TEXT
  5
7B17
  8
4
 10
967.79136098773233
 20
13081.08098979333
 30
0.0
 40
270.0
  1
右回転左吐出
  0
TEXT
  5
7B18
  8
4
 10
6988.8402939201833
 20
14699.78900953815
 30
0.0
 40
280.0
  1
No.
  0
TEXT
  5
7B19
  8
4
 10
7110.947939302383
 20
13086.62780872419
 30
0.0
 40
270.0
  1
縮尺：1/50
  0
LINE
  5
7B1A
  8
4
 10
8893.9924976737348
 20
14516.52737338563
 30
0.0
 11
8893.9924976737348
 21
13516.52737338563
 31
0.0
  0
LINE
  5
7B1B
  8
4
 10
10143.992497673729
 20
15919.483602061609
 30
0.0
 11
10143.992497673729
 21
15919.483602061609
 31
0.0
  0
LINE
  5
7B1C
  8
4
 10
6847.0796094730567
 20
14575.801517688609
 30
0.0
 11
6847.0796094730567
 21
15102.74490981037
 31
0.0
  0
LINE
  5
7B1D
  8
4
 10
6847.0796094730567
 20
15102.74490981037
 30
0.0
 11
8893.9924976737348
 21
15102.74490981037
 31
0.0
  0
LINE
  5
7B1E
  8
4
 10
8893.9924976737348
 20
15102.74490981037
 30
0.0
 11
8893.9924976737348
 21
14575.801517688609
 31
0.0
  0
LINE
  5
7B1F
  8
4
 10
8893.9924976737348
 20
14575.801517688609
 30
0.0
 11
6847.0796094730567
 21
14575.801517688609
 31
0.0
  0
LINE
  5
7B20
  8
4
 10
-356.00750232626518
 20
1169.483602061611
 30
0.0
 11
-356.00750232626518
 21
15919.483602061609
 31
0.0
  0
LINE
  5
7B21
  8
4
 10
-356.00750232626518
 20
15919.483602061609
 30
0.0
 11
10143.992497673729
 21
15919.483602061609
 31
0.0
  0
LINE
  5
7B22
  8
4
 10
10143.992497673729
 20
15919.483602061609
 30
0.0
 11
10143.992497673729
 21
1169.483602061611
 31
0.0
  0
LINE
  5
7B23
  8
4
 10
10143.992497673729
 20
1169.483602061611
 30
0.0
 11
-356.00750232626518
 21
1169.483602061611
 31
0.0
  0
DIMENSION
  5
7B31
  8
3
  2
*D2
 10
6279.5794137744033
 20
9920.3118145768112
 30
0.0
 11
6279.5794137744024
 21
10623.320199507491
 31
0.0
 70
   128
 13
5873.1900820427927
 23
11180.311814576809
 33
0.0
 14
5873.1900820427927
 24
9920.3118145768112
 34
0.0
 50
90.0
1001
ACAD
1000
DSTYLE
1002
{
1070
   287
1070
     3
1070
    40
1040
50.0
1070
   143
1040
0.039
1070
   172
1070
     1
1070
   271
1070
     0
1070
   279
1070
     0
1070
   288
1070
     1
1002
}
  0
DIMENSION
  5
7B3E
  8
3
  2
*D3
 10
2409.3730016487839
 20
5741.0946480619104
 30
0.0
 11
1803.115438809727
 21
5741.0946480619104
 31
0.0
 70
   128
 13
1149.3730016487841
 23
6185.9577178278423
 33
0.0
 14
2409.3730016487839
 24
6185.9577178278423
 34
0.0
1001
ACAD
1000
DSTYLE
1002
{
1070
   287
1070
     3
1070
    40
1040
50.0
1070
   143
1040
0.039
1070
   172
1070
     1
1070
   271
1070
     0
1070
   279
1070
     0
1070
   288
1070
     1
1002
}
  0
DIMENSION
  5
7B4B
  8
3
  2
*D4
 10
1894.3730016487841
 20
7990.5051034588032
 30
0.0
 11
1492.230144505925
 21
7990.5051034588032
 31
0.0
 70
   128
 13
1149.3730016487821
 23
7705.9577178278432
 33
0.0
 14
1894.3730016487841
 24
7735.4352089539689
 34
0.0
1001
ACAD
1000
DSTYLE
1002
{
1070
   287
1070
     3
1070
    40
1040
50.0
1070
   143
1040
0.039
1070
   172
1070
     1
1070
   271
1070
     0
1070
   279
1070
     0
1070
   288
1070
     1
1002
}
  0
DIMENSION
  5
7B59
  8
3
  2
*D5
 10
2409.3730016487821
 20
7990.5051034588032
 30
0.0
 11
2151.873001648783
 21
8121.9139432128932
 31
0.0
 70
   128
 13
1894.3730016487841
 23
7735.4352089539689
 33
0.0
 14
2409.3730016487821
 24
7705.9577178278432
 34
0.0
1001
ACAD
1000
DSTYLE
1002
{
1070
   288
1070
     1
1070
   172
1070
     1
1070
    75
1070
     1
1070
    40
1040
50.0
1070
   271
1070
     0
1070
   143
1040
0.039
1002
}
  0
DIMENSION
  5
7B7A
  8
3
  2
*D6
 10
959.93971081207667
 20
6400.9577178278423
 30
0.0
 11
959.93971081207565
 21
6888.1005749707001
 31
0.0
 70
   128
 13
1592.3730016487821
 23
7230.9577178278432
 33
0.0
 14
1592.3730016487841
 24
6400.9577178278423
 34
0.0
 50
90.0
1001
ACAD
1000
DSTYLE
1002
{
1070
   287
1070
     3
1070
    40
1040
50.0
1070
   143
1040
0.039
1070
   172
1070
     1
1070
   271
1070
     0
1070
   279
1070
     0
1070
   288
1070
     1
1002
}
  0
DIMENSION
  5
7B89
  8
3
  2
*D7
 10
2196.3730016487839
 20
7401.0719266916421
 30
0.0
 11
1894.373001648783
 21
7401.0719266916421
 31
0.0
 70
   128
 13
1592.3730016487821
 23
7230.9577178278432
 33
0.0
 14
2196.3730016487839
 24
7230.9577178278432
 34
0.0
1001
ACAD
1000
DSTYLE
1002
{
1070
   287
1070
     3
1070
    40
1040
50.0
1070
   143
1040
0.039
1070
   172
1070
     1
1070
   271
1070
     0
1070
   279
1070
     0
1070
   288
1070
     1
1002
}
  0
LINE
  5
7B8A
  8
2
 10
1894.3730016487841
 20
7416.5317924992487
 30
0.0
 11
1894.3730016487841
 21
6138.2178143465999
 31
0.0
  0
DIMENSION
  5
7B97
  8
3
  2
*D8
 10
5873.1900820427936
 20
5832.6891689078257
 30
0.0
 11
4919.7818974135007
 21
5832.6891689078257
 31
0.0
 70
   128
 13
3963.1900820427918
 23
6185.9577178278423
 33
0.0
 14
5873.1900820427936
 24
6185.9577178278423
 34
0.0
1001
ACAD
1000
DSTYLE
1002
{
1070
   287
1070
     3
1070
    40
1040
50.0
1070
   143
1040
0.039
1070
   172
1070
     1
1070
   271
1070
     0
1070
   279
1070
     0
1070
   288
1070
     1
1002
}
  0
DIMENSION
  5
7BA4
  8
3
  2
*D9
 10
5793.1900820427936
 20
7998.4153951229318
 30
0.0
 11
4907.2657648188169
 21
7998.4153951229318
 31
0.0
 70
   128
 13
4043.1900820427932
 23
7705.9577178278432
 33
0.0
 14
5793.1900820427936
 24
7705.9577178278432
 34
0.0
1001
ACAD
1000
DSTYLE
1002
{
1070
   287
1070
     3
1070
    40
1040
50.0
1070
   143
1040
0.039
1070
   172
1070
     1
1070
   271
1070
     0
1070
   279
1070
     0
1070
   288
1070
     1
1002
}
  0
DIMENSION
  5
7BC1
  8
3
  2
*D14
 10
8750.9758806533919
 20
7401.0719266916421
 30
0.0
 11
8448.9758806533919
 21
7401.0719266916421
 31
0.0
 70
   128
 13
8146.975880653391
 23
7230.9577178278432
 33
0.0
 14
8750.9758806533919
 24
7230.9577178278432
 34
0.0
1001
ACAD
1000
DSTYLE
1002
{
1070
   287
1070
     3
1070
    40
1040
50.0
1070
   143
1040
0.039
1070
   172
1070
     1
1070
   271
1070
     0
1070
   279
1070
     0
1070
   288
1070
     1
1002
}
  0
LINE
  5
7BC2
  8
1
 10
7703.97588065339
 20
7705.9577178278432
 30
0.0
 11
7703.9758806533919
 21
6285.9577178278423
 31
0.0
  0
LINE
  5
7BC3
  8
1
 10
8963.9758806533919
 20
7705.9577178278432
 30
0.0
 11
8963.9758806533919
 21
6285.9577178278423
 31
0.0
  0
LINE
  5
7BC4
  8
1
 10
8978.97588065339
 20
6290.9577178278423
 30
0.0
 11
8978.97588065339
 21
7700.9577178278423
 31
0.0
  0
LINE
  5
7BC5
  8
1
 10
8963.9758806533919
 20
6290.9577178278423
 30
0.0
 11
8963.9758806533919
 21
7700.9577178278423
 31
0.0
  0
LINE
  5
7BC6
  8
1
 10
7688.975880653391
 20
6290.9577178278432
 30
0.0
 11
7688.975880653391
 21
7700.9577178278441
 31
0.0
  0
LINE
  5
7BC7
  8
1
 10
7703.97588065339
 20
6290.9577178278432
 30
0.0
 11
7703.97588065339
 21
7700.9577178278441
 31
0.0
  0
DIMENSION
  5
7BC8
  8
3
  2
*D10
 10
8963.9758806533919
 20
5741.0946480619104
 30
0.0
 11
8357.7183178143368
 21
5741.0946480619104
 31
0.0
 70
   128
 13
7703.9758806533919
 23
6185.9577178278423
 33
0.0
 14
8963.9758806533919
 24
6185.9577178278423
 34
0.0
1001
ACAD
1000
DSTYLE
1002
{
1070
   287
1070
     3
1070
    40
1040
50.0
1070
   143
1040
0.039
1070
   172
1070
     1
1070
   271
1070
     0
1070
   279
1070
     0
1070
   288
1070
     1
1002
}
  0
LINE
  5
7BC9
  8
1
 10
8146.975880653391
 20
7230.9577178278432
 30
0.0
 11
8750.9758806533919
 21
7230.9577178278432
 31
0.0
  0
LINE
  5
7BCA
  8
1
 10
8106.9758806533919
 20
7270.9577178278423
 30
0.0
 11
8790.9758806533882
 21
7270.9577178278423
 31
0.0
  0
LINE
  5
7BCB
  8
1
 10
8146.975880653391
 20
6400.9577178278423
 30
0.0
 11
8750.9758806533919
 21
6400.9577178278423
 31
0.0
  0
LINE
  5
7BCC
  8
1
 10
8106.9758806533919
 20
6360.9577178278423
 30
0.0
 11
8790.9758806533919
 21
6360.9577178278423
 31
0.0
  0
LINE
  5
7BCD
  8
1
 10
8963.9758806533919
 20
6285.9577178278423
 30
0.0
 11
7703.9758806533919
 21
6285.9577178278423
 31
0.0
  0
LINE
  5
7BCE
  8
1
 10
8963.9758806533919
 20
6185.9577178278423
 30
0.0
 11
7703.9758806533919
 21
6185.9577178278423
 31
0.0
  0
LINE
  5
7BCF
  8
1
 10
8750.9758806533919
 20
7230.9577178278432
 30
0.0
 11
8146.975880653391
 21
6400.9577178278423
 31
0.0
  0
LINE
  5
7BD0
  8
1
 10
8146.975880653391
 20
7230.9577178278432
 30
0.0
 11
8750.9758806533919
 21
6400.9577178278423
 31
0.0
  0
DIMENSION
  5
7BD1
  8
3
  2
*D13
 10
7373.8328010789319
 20
6400.9577178278423
 30
0.0
 11
7373.8328010789301
 21
6888.1005749707001
 31
0.0
 70
   128
 13
8146.975880653391
 23
7230.9577178278432
 33
0.0
 14
8146.975880653391
 24
6400.9577178278423
 34
0.0
 50
90.0
1001
ACAD
1000
DSTYLE
1002
{
1070
   287
1070
     3
1070
    40
1040
50.0
1070
   143
1040
0.039
1070
   172
1070
     1
1070
   271
1070
     0
1070
   279
1070
     0
1070
   288
1070
     1
1002
}
  0
LINE
  5
7BD2
  8
2
 10
8448.9758806533919
 20
7416.5317924992487
 30
0.0
 11
8448.9758806533919
 21
6138.2178143465999
 31
0.0
  0
LINE
  5
7BD3
  8
1
 10
7703.9758806533919
 20
6285.9577178278423
 30
0.0
 11
7703.9758806533919
 21
6185.9577178278423
 31
0.0
  0
LINE
  5
7BD4
  8
1
 10
7688.975880653391
 20
6290.9577178278432
 30
0.0
 11
7703.97588065339
 21
6290.9577178278423
 31
0.0
  0
LINE
  5
7BD5
  8
1
 10
8146.975880653391
 20
7230.9577178278432
 30
0.0
 11
8146.975880653391
 21
6400.9577178278423
 31
0.0
  0
LINE
  5
7BD6
  8
1
 10
8106.9758806533919
 20
7270.9577178278423
 30
0.0
 11
8106.9758806533919
 21
6360.9577178278423
 31
0.0
  0
LINE
  5
7BD7
  8
1
 10
8750.9758806533919
 20
7230.9577178278432
 30
0.0
 11
8750.9758806533919
 21
6400.9577178278423
 31
0.0
  0
LINE
  5
7BD8
  8
1
 10
8790.9758806533882
 20
7270.9577178278423
 30
0.0
 11
8790.9758806533919
 21
6360.9577178278423
 31
0.0
  0
LINE
  5
7BD9
  8
1
 10
8981.275880653393
 20
6610.9577178278432
 30
0.0
 11
8981.2758806533893
 21
7380.9577178278432
 31
0.0
  0
LINE
  5
7BDA
  8
1
 10
8978.9758806533919
 20
6610.9577178278432
 30
0.0
 11
8978.97588065339
 21
7380.9577178278432
 31
0.0
  0
LINE
  5
7BDB
  8
1
 10
8963.9758806533919
 20
6285.9577178278423
 30
0.0
 11
8963.9758806533919
 21
6185.9577178278423
 31
0.0
  0
LINE
  5
7BDC
  8
1
 10
8978.97588065339
 20
6290.9577178278423
 30
0.0
 11
8963.9758806533919
 21
6290.9577178278423
 31
0.0
  0
LINE
  5
7BDD
  8
1
 10
8981.2758806533893
 20
6610.9577178278432
 30
0.0
 11
8978.9758806533919
 21
6610.9577178278432
 31
0.0
  0
DIMENSION
  5
7BDE
  8
3
  2
*D12
 10
8963.9758806533919
 20
7990.5051034588032
 30
0.0
 11
8706.4758806533919
 21
8121.9139432128932
 31
0.0
 12
626.28527083087818
 22
0.0
 32
0.0
 70
   128
 13
8448.9758806533919
 23
7735.4352089539689
 33
0.0
 14
8963.9758806533919
 24
7705.9577178278432
 34
0.0
1001
ACAD
1000
DSTYLE
1002
{
1070
   288
1070
     1
1070
   172
1070
     1
1070
    75
1070
     1
1070
    40
1040
50.0
1070
   271
1070
     0
1070
   143
1040
0.039
1002
}
  0
LINE
  5
7BDF
  8
1
 10
8963.9758806533919
 20
7705.9577178278432
 30
0.0
 11
7703.97588065339
 21
7705.9577178278432
 31
0.0
  0
DIMENSION
  5
7BE0
  8
3
  2
*D11
 10
8448.9758806533919
 20
7990.5051034588032
 30
0.0
 11
8046.8330235105332
 21
7990.5051034588032
 31
0.0
 70
   128
 13
7703.97588065339
 23
7705.9577178278432
 33
0.0
 14
8448.9758806533919
 24
7735.4352089539689
 34
0.0
1001
ACAD
1000
DSTYLE
1002
{
1070
   287
1070
     3
1070
    40
1040
50.0
1070
   143
1040
0.039
1070
   172
1070
     1
1070
   271
1070
     0
1070
   279
1070
     0
1070
   288
1070
     1
1002
}
  0
LINE
  5
7BE1
  8
1
 10
7688.975880653391
 20
7700.9577178278441
 30
0.0
 11
7703.97588065339
 21
7700.9577178278441
 31
0.0
  0
LINE
  5
7BE2
  8
2
 10
8448.9758806533919
 20
7735.4352089539689
 30
0.0
 11
8448.9758806533919
 21
7648.429779613426
 31
0.0
  0
LINE
  5
7BE3
  8
1
 10
8978.97588065339
 20
7700.9577178278423
 30
0.0
 11
8963.9758806533919
 21
7700.9577178278423
 31
0.0
  0
DIMENSION
  5
7C67
  8
3
  2
*D15
 10
3533.5854999031881
 20
6185.9577178278423
 30
0.0
 11
3533.5854999031872
 21
6500.9577178278423
 31
0.0
 70
   128
 13
3924.9470599148658
 23
6815.9577178278423
 33
0.0
 14
3963.1900820427918
 24
6185.9577178278423
 34
0.0
 50
90.0
1001
ACAD
1000
DSTYLE
1002
{
1070
   287
1070
     3
1070
    40
1040
50.0
1070
   143
1040
0.039
1070
   172
1070
     1
1070
   271
1070
     0
1070
   279
1070
     0
1070
   288
1070
     1
1002
}
  0
LINE
  5
7C75
  8
1
 10
4043.1900820427932
 20
7230.9577178278432
 30
0.0
 11
4043.1900820427932
 21
6400.9577178278423
 31
0.0
  0
LINE
  5
7C76
  8
1
 10
4003.1900820427932
 20
7230.9577178278432
 30
0.0
 11
4003.1900820427932
 21
6400.9577178278423
 31
0.0
  0
LINE
  5
7C77
  8
1
 10
4040.1900820427918
 20
7230.9577178278432
 30
0.0
 11
4040.1900820427918
 21
6400.9577178278423
 31
0.0
  0
INSERT
  5
7C78
  8
1
  2
L-40-3
 10
4043.1900820427932
 20
6400.9577178278423
 30
0.0
 50
180.0
  0
INSERT
  5
7C7A
  8
1
  2
L-40-3
 10
4043.1900820427932
 20
7230.9577178278432
 30
0.0
 50
90.0
  0
LINE
  5
7C7B
  8
1
 10
5793.1900820427936
 20
7230.9577178278432
 30
0.0
 11
5793.1900820427936
 21
6400.9577178278423
 31
0.0
  0
LINE
  5
7C7C
  8
1
 10
5833.1900820427936
 20
7230.9577178278432
 30
0.0
 11
5833.1900820427936
 21
6400.9577178278423
 31
0.0
  0
LINE
  5
7C7D
  8
1
 10
5796.1900820427936
 20
7230.9577178278432
 30
0.0
 11
5796.1900820427936
 21
6400.9577178278423
 31
0.0
  0
INSERT
  5
7C7E
  8
1
  2
L-40-3
 10
-5793.1900820427936
 20
6400.9577178278423
 30
0.0
 43
-1.0
 50
180.0
210
0.0
220
0.0
230
-1.0
  0
INSERT
  5
7C80
  8
1
  2
L-40-3
 10
-5793.1900820427936
 20
7230.9577178278432
 30
0.0
 43
-1.0
 50
90.0
210
0.0
220
0.0
230
-1.0
  0
DIMENSION
  5
8C00
  8
3
  2
*D16
 10
6331.1757341920038
 20
6185.9577178278414
 30
0.0
 11
6331.175734192002
 21
6919.625968766969
 31
0.0
 70
   128
 13
5793.1900820427936
 23
7705.9577178278432
 33
0.0
 14
5873.1900820427936
 24
6185.9577178278423
 34
0.0
 50
90.0
1001
ACAD
1000
DSTYLE
1002
{
1070
   287
1070
     3
1070
    40
1040
50.0
1070
   143
1040
0.039
1070
   172
1070
     1
1070
   271
1070
     0
1070
   279
1070
     0
1070
   288
1070
     1
1002
}
  0
ARC
  5
98AD
  8
1
 10
4705.1900820427918
 20
7137.9577178278423
 30
0.0
 40
426.0
 50
93.633858324530948
 51
179.59650525982309
  0
ARC
  5
98AE
  8
1
 10
4713.1900820427918
 20
7075.9577178278423
 30
0.0
 40
488.0
 50
4.1128596563898778
 51
104.219168071879
  0
ARC
  5
98E7
  8
1
 10
4637.1900820427918
 20
7069.9577178278432
 30
0.0
 40
565.0
 50
274.16140453750279
 51
4.1614045375028521
  0
LINE
  5
9912
  8
1
 10
4233.1900820427918
 20
6488.9577178278432
 30
0.0
 11
4233.1900820427954
 21
7142.9577178278423
 31
0.0
  0
LINE
  5
9913
  8
1
 10
4196.1900820427918
 20
6488.9577178278432
 30
0.0
 11
4196.1900820427918
 21
7142.9577178278423
 31
0.0
  0
LINE
  5
9914
  8
1
 10
4193.1900820427918
 20
7182.9577178278432
 30
0.0
 11
4193.1900820427918
 21
6448.9577178278423
 31
0.0
  0
LINE
  5
993D
  8
1
 10
4196.1900820427918
 20
7150.4577178278423
 30
0.0
 11
4196.1900820427918
 21
7180.9577178278432
 31
0.0
  0
LINE
  5
993E
  8
1
 10
4193.1900820427918
 20
7182.9577178278432
 30
0.0
 11
4194.1900820427918
 21
7182.9577178278432
 31
0.0
  0
ARC
  5
993F
  8
1
 10
4194.1900820427918
 20
7180.9577178278432
 30
0.0
 40
2.0
 50
0.0
 51
90.0
  0
LINE
  5
9940
  8
1
 10
4279.2006455540468
 20
7140.9577178278423
 30
0.0
 11
4043.1900820427932
 21
7140.9577178278441
 31
0.0
  0
ARC
  5
9942
  8
1
 10
4200.6900820427918
 20
7150.4577178278423
 30
0.0
 40
4.5
 50
180.0
 51
270.0
  0
LINE
  5
9943
  8
1
 10
4200.6900820427918
 20
7145.9577178278423
 30
0.0
 11
4231.1900820427918
 21
7145.9577178278423
 31
0.0
  0
LINE
  5
9944
  8
1
 10
4193.1900820427918
 20
7142.9577178278423
 30
0.0
 11
4233.1900820427918
 21
7142.9577178278423
 31
0.0
  0
LINE
  5
9945
  8
1
 10
4233.1900820427918
 20
7142.9577178278423
 30
0.0
 11
4233.1900820427918
 21
7143.9577178278423
 31
0.0
  0
ARC
  5
9946
  8
1
 10
4231.1900820427918
 20
7143.9577178278423
 30
0.0
 40
2.0
 50
0.0
 51
90.0
  0
LINE
  5
9949
  8
1
 10
4678.1900820427918
 20
6506.4472920147964
 30
0.0
 11
4193.1900820427918
 21
6490.9577178278432
 31
0.0
  0
POINT
  5
994B
  8
1
 10
4156.4468232296886
 20
7110.9577178278432
 30
0.0
  0
ARC
  5
9962
  8
1
 10
4200.6900820427918
 20
6481.4577178278432
 30
0.0
 40
4.5
 50
90.0
 51
180.0
  0
LINE
  5
9963
  8
1
 10
4200.6900820427918
 20
6485.9577178278432
 30
0.0
 11
4231.1900820427918
 21
6485.9577178278432
 31
0.0
  0
LINE
  5
9964
  8
1
 10
4193.1900820427918
 20
6488.9577178278432
 30
0.0
 11
4233.1900820427918
 21
6488.9577178278432
 31
0.0
  0
LINE
  5
9965
  8
1
 10
4233.1900820427918
 20
6488.9577178278432
 30
0.0
 11
4233.1900820427918
 21
6487.9577178278432
 31
0.0
  0
ARC
  5
9966
  8
1
 10
4231.1900820427918
 20
6487.9577178278432
 30
0.0
 40
2.0
 50
270.0
 51
0.0
  0
LINE
  5
9967
  8
1
 10
4196.1900820427918
 20
6481.4577178278432
 30
0.0
 11
4196.1900820427918
 21
6450.9577178278423
 31
0.0
  0
LINE
  5
9968
  8
1
 10
4193.1900820427918
 20
6448.9577178278423
 30
0.0
 11
4194.1900820427918
 21
6448.9577178278423
 31
0.0
  0
ARC
  5
9969
  8
1
 10
4194.1900820427918
 20
6450.9577178278423
 30
0.0
 40
2.0
 50
270.0
 51
0.0
  0
LINE
  5
9F99
  8
1
 10
4193.1900820427918
 20
6490.9577178278432
 30
0.0
 11
4043.1900820427918
 21
6490.9577178278441
 31
0.0
  0
LINE
  5
9FDC
  8
2
 10
4104.4062508474017
 20
10435.311814576809
 30
0.0
 11
3949.8938561771438
 21
10435.311814576809
 31
0.0
  0
LINE
  5
9FDD
  8
1
 10
4003.1900820427918
 20
10777.311814576809
 30
0.0
 11
4003.1900820427932
 21
10093.311814576809
 31
0.0
  0
LINE
  5
9FDE
  8
1
 10
4043.1900820427932
 20
10777.311814576809
 30
0.0
 11
4003.1900820427932
 21
10777.311814576809
 31
0.0
  0
LINE
  5
9FDF
  8
1
 10
4043.1900820427932
 20
10093.311814576809
 30
0.0
 11
4003.1900820427932
 21
10093.311814576809
 31
0.0
  0
LINE
  5
9FE3
  8
1
 10
5833.1900820427973
 20
10323.311814576809
 30
0.0
 11
5833.1900820427963
 21
11007.311814576809
 31
0.0
  0
LINE
  5
9FE4
  8
2
 10
5731.9739132381883
 20
10665.311814576809
 30
0.0
 11
5886.4863079084453
 21
10665.311814576809
 31
0.0
  0
LINE
  5
9FE5
  8
1
 10
5793.1900820427963
 20
11007.311814576809
 30
0.0
 11
5833.1900820427963
 21
11007.311814576809
 31
0.0
  0
LINE
  5
9FE6
  8
1
 10
5793.1900820427963
 20
10323.311814576809
 30
0.0
 11
5833.1900820427963
 21
10323.311814576809
 31
0.0
  0
ENDSEC
  0
EOF
