  0
SECTION
  2
HEADER
  9
$ACADVER
  1
AC1015
  9
$ACADMAINTVER
 70
     6
  9
$DWGCODEPAGE
  3
ANSI_932
  9
$INSBASE
 10
0.0
 20
0.0
 30
0.0
  9
$EXTMIN
 10
6403.060457437611
 20
5426.581588328389
 30
0.0
  9
$EXTMAX
 10
12819.74395831865
 20
15373.19063432838
 30
0.0
  9
$LIMMIN
 10
0.0
 20
0.0
  9
$LIMMAX
 10
297.0
 20
210.0
  9
$ORTHOMODE
 70
     1
  9
$REGENMODE
 70
     1
  9
$FILLMODE
 70
     1
  9
$QTEXTMODE
 70
     0
  9
$MIRRTEXT
 70
     0
  9
$LTSCALE
 40
20.0
  9
$ATTMODE
 70
     1
  9
$TEXTSIZE
 40
52.5
  9
$TRACEWID
 40
0.05
  9
$TEXTSTYLE
  7
STANDARD
  9
$CLAYER
  8
3
  9
$CELTYPE
  6
BYLAYER
  9
$CECOLOR
 62
   256
  9
$CELTSCALE
 40
10.0
  9
$DISPSILH
 70
     0
  9
$DIMSCALE
 40
40.0
  9
$DIMASZ
 40
2.0
  9
$DIMEXO
 40
1.0
  9
$DIMDLI
 40
10.0
  9
$DIMRND
 40
0.0
  9
$DIMDLE
 40
0.0
  9
$DIMEXE
 40
1.0
  9
$DIMTP
 40
0.0
  9
$DIMTM
 40
0.0
  9
$DIMTXT
 40
2.5
  9
$DIMCEN
 40
0.0
  9
$DIMTSZ
 40
0.0
  9
$DIMTOL
 70
     0
  9
$DIMLIM
 70
     0
  9
$DIMTIH
 70
     0
  9
$DIMTOH
 70
     0
  9
$DIMSE1
 70
     0
  9
$DIMSE2
 70
     0
  9
$DIMTAD
 70
     1
  9
$DIMZIN
 70
     8
  9
$DIMBLK
  1

  9
$DIMASO
 70
     1
  9
$DIMSHO
 70
     1
  9
$DIMPOST
  1

  9
$DIMAPOST
  1

  9
$DIMALT
 70
     0
  9
$DIMALTD
 70
     2
  9
$DIMALTF
 40
0.03937
  9
$DIMLFAC
 40
1.0
  9
$DIMTOFL
 70
     1
  9
$DIMTVP
 40
0.0
  9
$DIMTIX
 70
     0
  9
$DIMSOXD
 70
     0
  9
$DIMSAH
 70
     1
  9
$DIMBLK1
  1
OPEN
  9
$DIMBLK2
  1
OPEN
  9
$DIMSTYLE
  2
MATSU
  9
$DIMCLRD
 70
   256
  9
$DIMCLRE
 70
   256
  9
$DIMCLRT
 70
   256
  9
$DIMTFAC
 40
1.0
  9
$DIMGAP
 40
0.5
  9
$DIMJUST
 70
     0
  9
$DIMSD1
 70
     0
  9
$DIMSD2
 70
     0
  9
$DIMTOLJ
 70
     1
  9
$DIMTZIN
 70
     8
  9
$DIMALTZ
 70
     0
  9
$DIMALTTZ
 70
     0
  9
$DIMUPT
 70
     0
  9
$DIMDEC
 70
     4
  9
$DIMTDEC
 70
     4
  9
$DIMALTU
 70
     2
  9
$DIMALTTD
 70
     2
  9
$DIMTXSTY
  7
SUNPOU
  9
$DIMAUNIT
 70
     0
  9
$DIMADEC
 70
     0
  9
$DIMALTRND
 40
0.0
  9
$DIMAZIN
 70
     0
  9
$DIMDSEP
 70
    46
  9
$DIMATFIT
 70
     3
  9
$DIMFRAC
 70
     0
  9
$DIMLDRBLK
  1
OPEN
  9
$DIMLUNIT
 70
     2
  9
$DIMLWD
 70
    -2
  9
$DIMLWE
 70
    -2
  9
$DIMTMOVE
 70
     0
  9
$LUNITS
 70
     2
  9
$LUPREC
 70
     3
  9
$SKETCHINC
 40
0.1
  9
$FILLETRAD
 40
5.0
  9
$AUNITS
 70
     0
  9
$AUPREC
 70
     2
  9
$MENU
  1
acad
  9
$ELEVATION
 40
0.0
  9
$PELEVATION
 40
0.0
  9
$THICKNESS
 40
0.0
  9
$LIMCHECK
 70
     0
  9
$CHAMFERA
 40
0.0
  9
$CHAMFERB
 40
0.0
  9
$CHAMFERC
 40
20.0
  9
$CHAMFERD
 40
0.0
  9
$SKPOLY
 70
     0
  9
$TDCREATE
 40
2451997.453800232
  9
$TDUCREATE
 40
2451997.078800231
  9
$TDUPDATE
 40
2456463.587521065
  9
$TDUUPDATE
 40
2456463.212521065
  9
$TDINDWG
 40
0.0739408681
  9
$TDUSRTIMER
 40
0.0739408681
  9
$USRTIMER
 70
     1
  9
$ANGBASE
 50
0.0
  9
$ANGDIR
 70
     0
  9
$PDMODE
 70
     0
  9
$PDSIZE
 40
1.0
  9
$PLINEWID
 40
0.0
  9
$SPLFRAME
 70
     0
  9
$SPLINETYPE
 70
     6
  9
$SPLINESEGS
 70
     8
  9
$HANDSEED
  5
134F
  9
$SURFTAB1
 70
     6
  9
$SURFTAB2
 70
     6
  9
$SURFTYPE
 70
     6
  9
$SURFU
 70
     6
  9
$SURFV
 70
     6
  9
$UCSBASE
  2

  9
$UCSNAME
  2

  9
$UCSORG
 10
0.0
 20
0.0
 30
0.0
  9
$UCSXDIR
 10
1.0
 20
0.0
 30
0.0
  9
$UCSYDIR
 10
0.0
 20
1.0
 30
0.0
  9
$UCSORTHOREF
  2

  9
$UCSORTHOVIEW
 70
     0
  9
$UCSORGTOP
 10
0.0
 20
0.0
 30
0.0
  9
$UCSORGBOTTOM
 10
0.0
 20
0.0
 30
0.0
  9
$UCSORGLEFT
 10
0.0
 20
0.0
 30
0.0
  9
$UCSORGRIGHT
 10
0.0
 20
0.0
 30
0.0
  9
$UCSORGFRONT
 10
0.0
 20
0.0
 30
0.0
  9
$UCSORGBACK
 10
0.0
 20
0.0
 30
0.0
  9
$PUCSBASE
  2

  9
$PUCSNAME
  2

  9
$PUCSORG
 10
0.0
 20
0.0
 30
0.0
  9
$PUCSXDIR
 10
1.0
 20
0.0
 30
0.0
  9
$PUCSYDIR
 10
0.0
 20
1.0
 30
0.0
  9
$PUCSORTHOREF
  2

  9
$PUCSORTHOVIEW
 70
     0
  9
$PUCSORGTOP
 10
0.0
 20
0.0
 30
0.0
  9
$PUCSORGBOTTOM
 10
0.0
 20
0.0
 30
0.0
  9
$PUCSORGLEFT
 10
0.0
 20
0.0
 30
0.0
  9
$PUCSORGRIGHT
 10
0.0
 20
0.0
 30
0.0
  9
$PUCSORGFRONT
 10
0.0
 20
0.0
 30
0.0
  9
$PUCSORGBACK
 10
0.0
 20
0.0
 30
0.0
  9
$USERI1
 70
     0
  9
$USERI2
 70
     0
  9
$USERI3
 70
     0
  9
$USERI4
 70
     0
  9
$USERI5
 70
     0
  9
$USERR1
 40
0.0
  9
$USERR2
 40
0.0
  9
$USERR3
 40
0.0
  9
$USERR4
 40
0.0
  9
$USERR5
 40
0.0
  9
$WORLDVIEW
 70
     1
  9
$SHADEDGE
 70
     3
  9
$SHADEDIF
 70
    70
  9
$TILEMODE
 70
     1
  9
$MAXACTVP
 70
    16
  9
$PINSBASE
 10
0.0
 20
0.0
 30
0.0
  9
$PLIMCHECK
 70
     0
  9
$PEXTMIN
 10
1.000000000000000E+20
 20
1.000000000000000E+20
 30
1.000000000000000E+20
  9
$PEXTMAX
 10
-1.000000000000000E+20
 20
-1.000000000000000E+20
 30
-1.000000000000000E+20
  9
$PLIMMIN
 10
0.0
 20
0.0
  9
$PLIMMAX
 10
12.0
 20
9.0
  9
$UNITMODE
 70
     0
  9
$VISRETAIN
 70
     0
  9
$PLINEGEN
 70
     0
  9
$PSLTSCALE
 70
     0
  9
$TREEDEPTH
 70
  3020
  9
$CMLSTYLE
  2
STANDARD
  9
$CMLJUST
 70
     0
  9
$CMLSCALE
 40
20.0
  9
$PROXYGRAPHICS
 70
     1
  9
$MEASUREMENT
 70
     1
  9
$CELWEIGHT
370
    -1
  9
$ENDCAPS
280
     0
  9
$JOINSTYLE
280
     0
  9
$LWDISPLAY
290
     0
  9
$INSUNITS
 70
     0
  9
$HYPERLINKBASE
  1

  9
$STYLESHEET
  1

  9
$XEDIT
290
     1
  9
$CEPSNTYPE
380
     0
  9
$PSTYLEMODE
290
     1
  9
$FINGERPRINTGUID
  2
{A276ECD2-75B9-11D5-A85E-0080AD788799}
  9
$VERSIONGUID
  2
{12353BAC-6D5E-4AA9-8037-2A6A778D0740}
  9
$EXTNAMES
290
     1
  9
$PSVPSCALE
 40
0.0
  9
$OLESTARTUP
290
     0
  0
ENDSEC
  0
SECTION
  2
CLASSES
  0
CLASS
  1
XRECORD
  2
AcDbXrecord
  3
AutoCAD 2000
 90
    32768
280
     0
281
     0
  0
CLASS
  1
ACDBDICTIONARYWDFLT
  2
AcDbDictionaryWithDefault
  3
AutoCAD 2000
 90
        0
280
     0
281
     0
  0
CLASS
  1
ACDBPLACEHOLDER
  2
AcDbPlaceHolder
  3
AutoCAD 2000
 90
        0
280
     0
281
     0
  0
CLASS
  1
LAYOUT
  2
AcDbLayout
  3
AutoCAD 2000
 90
        0
280
     0
281
     0
  0
CLASS
  1
LONG_TRANSACTION
  2
AcDbLongTransaction
  3
AutoCAD 2000
 90
    32768
280
     0
281
     0
  0
CLASS
  1
LWPOLYLINE
  2
AcDbPolyline
  3
AutoCAD 2000
 90
    32768
280
     0
281
     1
  0
CLASS
  1
HATCH
  2
AcDbHatch
  3
AutoCAD 2000
 90
    32768
280
     0
281
     1
  0
CLASS
  1
XRECORD
  2
AcDbXrecord
  3
AutoCAD 2000
 90
    32768
280
     0
281
     0
  0
CLASS
  1
LONG_TRANSACTION
  2
AcDbLongTransaction
  3
AutoCAD 2000
 90
    32768
280
     0
281
     0
  0
CLASS
  1
LWPOLYLINE
  2
AcDbPolyline
  3
AutoCAD 2000
 90
    32768
280
     0
281
     1
  0
CLASS
  1
HATCH
  2
AcDbHatch
  3
AutoCAD 2000
 90
    32768
280
     0
281
     1
  0
CLASS
  1
XRECORD
  2
AcDbXrecord
  3
AutoCAD 2000
 90
    32768
280
     0
281
     0
  0
CLASS
  1
OLE2FRAME
  2
AcDbOle2Frame
  3
AutoCAD 2000
 90
    32768
280
     0
281
     1
  0
ENDSEC
  0
SECTION
  2
TABLES
  0
TABLE
  2
VPORT
  5
12
330
0
100
AcDbSymbolTable
 70
     4
  0
VPORT
  5
134E
330
12
100
AcDbSymbolTableRecord
100
AcDbViewportTableRecord
  2
*Active
 70
     0
 10
0.0
 20
0.0
 11
1.0
 21
1.0
 12
14507.53931405832
 22
9418.086234494365
 13
0.0
 23
0.0
 14
5.0
 24
5.0
 15
0.0
 25
0.0
 16
0.0
 26
0.0
 36
1.0
 17
0.0
 27
0.0
 37
0.0
 40
12237.55098344014
 41
1.73997233748271
 42
50.0
 43
0.0
 44
0.0
 50
0.0
 51
0.0
 71
     0
 72
   100
 73
     1
 74
     0
 75
     0
 76
     0
 77
     0
 78
     2
281
     0
 65
     1
110
0.0
120
0.0
130
0.0
111
1.0
121
0.0
131
0.0
112
0.0
122
1.0
132
0.0
 79
     0
146
0.0
  0
ENDTAB
  0
TABLE
  2
LTYPE
  5
E
330
0
100
AcDbSymbolTable
 70
     2
  0
LTYPE
  5
F
330
E
100
AcDbSymbolTableRecord
100
AcDbLinetypeTableRecord
  2
BYBLOCK
 70
     0
  3

 72
    65
 73
     0
 40
0.0
  0
LTYPE
  5
6
330
E
100
AcDbSymbolTableRecord
100
AcDbLinetypeTableRecord
  2
BYLAYER
 70
     0
  3

 72
    65
 73
     0
 40
0.0
  0
LTYPE
  5
5
330
E
100
AcDbSymbolTableRecord
100
AcDbLinetypeTableRecord
  2
CONTINUOUS
 70
     0
  3
Solid line
 72
    65
 73
     0
 40
0.0
  0
LTYPE
  5
41
330
E
100
AcDbSymbolTableRecord
100
AcDbLinetypeTableRecord
  2
CENTER
 70
     0
  3
____ _ ____ _ ____ _ ____ _ ____ _ ____ _ ____ 
 72
    65
 73
     4
 40
2.0
 49
1.25
 74
     0
 49
-0.25
 74
     0
 49
0.25
 74
     0
 49
-0.25
 74
     0
  0
ENDTAB
  0
TABLE
  2
LAYER
  5
B
330
0
100
AcDbSymbolTable
 70
     6
  0
LAYER
  5
4
330
B
100
AcDbSymbolTableRecord
100
AcDbLayerTableRecord
  2
0
 70
     0
 62
     7
  6
CONTINUOUS
370
    -3
390
8AB
  0
LAYER
  5
3E
330
B
100
AcDbSymbolTableRecord
100
AcDbLayerTableRecord
  2
DEFPOINTS
 70
     0
 62
     7
  6
CONTINUOUS
290
     0
370
    -3
390
8AB
  0
LAYER
  5
442
330
B
100
AcDbSymbolTableRecord
100
AcDbLayerTableRecord
  2
3
 70
     0
 62
     2
  6
CONTINUOUS
370
    -3
390
8AB
  0
LAYER
  5
443
330
B
100
AcDbSymbolTableRecord
100
AcDbLayerTableRecord
  2
2
 70
     0
 62
     3
  6
CENTER
370
    -3
390
8AB
  0
LAYER
  5
444
330
B
100
AcDbSymbolTableRecord
100
AcDbLayerTableRecord
  2
1
 70
     0
 62
     4
  6
CONTINUOUS
370
    -3
390
8AB
  0
LAYER
  5
445
330
B
100
AcDbSymbolTableRecord
100
AcDbLayerTableRecord
  2
4
 70
     0
 62
     7
  6
CONTINUOUS
370
    -3
390
8AB
  0
ENDTAB
  0
TABLE
  2
STYLE
  5
C
330
0
100
AcDbSymbolTable
 70
     2
  0
STYLE
  5
D
330
C
100
AcDbSymbolTableRecord
100
AcDbTextStyleTableRecord
  2
STANDARD
 70
     0
 40
0.0
 41
1.0
 50
0.0
 71
     0
 42
52.5
  3
C:\Program Files\AutoCAD LT\simplex.shx
  4
C:\Program Files\AutoCAD LT\extfont.shx
  0
STYLE
  5
1C
330
C
100
AcDbSymbolTableRecord
100
AcDbTextStyleTableRecord
  2
SUNPOU
 70
     0
 40
0.0
 41
1.0
 50
15.0
 71
     0
 42
5.0
  3
simplex.shx
  4
extfont.shx
  0
ENDTAB
  0
TABLE
  2
VIEW
  5
10
330
0
100
AcDbSymbolTable
 70
     0
  0
ENDTAB
  0
TABLE
  2
UCS
  5
11
330
0
100
AcDbSymbolTable
 70
     0
  0
ENDTAB
  0
TABLE
  2
APPID
  5
14
330
0
100
AcDbSymbolTable
 70
     1
  0
APPID
  5
15
330
14
100
AcDbSymbolTableRecord
100
AcDbRegAppTableRecord
  2
ACAD
 70
     0
  0
ENDTAB
  0
TABLE
  2
DIMSTYLE
  5
16
330
0
100
AcDbSymbolTable
 70
     2
100
AcDbDimStyleTable
 71
     0
  0
DIMSTYLE
105
1F
102
{ACAD_REACTORS
330
1271
330
127E
330
128B
330
1298
330
12A5
330
12B2
330
12BF
330
12CC
330
12D9
330
12E6
330
12F3
330
1300
330
130D
330
131A
102
}
330
16
100
AcDbSymbolTableRecord
100
AcDbDimStyleTableRecord
  2
MATSU
 70
     0
 40
10.0
 41
2.0
 42
1.0
 43
10.0
 44
1.0
 73
     0
 74
     0
 77
     1
 78
     8
140
3.0
141
0.0
143
0.03937
147
0.5
172
     1
173
     1
176
   256
177
   256
178
   256
284
     8
340
1C
341
192
343
192
344
192
  0
DIMSTYLE
105
446
330
16
100
AcDbSymbolTableRecord
100
AcDbDimStyleTableRecord
  2
IGA
 70
     0
 40
2.0
 41
2.0
 42
0.5
 43
10.0
 44
1.0
 47
1.0
 48
1.0
 73
     0
 74
     0
 77
     1
 78
     8
140
3.0
141
0.0
143
0.03937
146
10.0
147
1.0
173
     1
271
     1
272
     0
279
     2
284
     8
340
D
341
192
343
192
344
192
  0
ENDTAB
  0
TABLE
  2
BLOCK_RECORD
  5
1
330
0
100
AcDbSymbolTable
 70
    15
  0
BLOCK_RECORD
  5
2
102
{ACAD_XDICTIONARY
360
8D9
102
}
330
1
100
AcDbSymbolTableRecord
100
AcDbBlockTableRecord
  2
*MODEL_SPACE
340
8AE
  0
BLOCK_RECORD
  5
8
102
{ACAD_XDICTIONARY
360
8DB
102
}
330
1
100
AcDbSymbolTableRecord
100
AcDbBlockTableRecord
  2
*PAPER_SPACE
340
8AF
  0
BLOCK_RECORD
  5
192
330
1
100
AcDbSymbolTableRecord
100
AcDbBlockTableRecord
  2
_OPEN
340
0
102
{BLKREFS
331
126A
331
126B
331
1277
331
1278
331
1321
331
1322
331
1291
331
1292
331
129E
331
129F
331
12AB
331
12AC
331
132C
331
132D
331
12C5
331
12C6
331
12D2
331
12D3
331
1337
331
1338
331
12EC
331
12ED
331
12F9
331
12FA
331
1306
331
1307
331
1313
331
1314
102
}
  0
BLOCK_RECORD
  5
1265
330
1
100
AcDbSymbolTableRecord
100
AcDbBlockTableRecord
  2
*D1
340
0
  0
BLOCK_RECORD
  5
1272
330
1
100
AcDbSymbolTableRecord
100
AcDbBlockTableRecord
  2
*D2
340
0
  0
BLOCK_RECORD
  5
127F
330
1
100
AcDbSymbolTableRecord
100
AcDbBlockTableRecord
  2
*D3
340
0
  0
BLOCK_RECORD
  5
128C
330
1
100
AcDbSymbolTableRecord
100
AcDbBlockTableRecord
  2
*D4
340
0
  0
BLOCK_RECORD
  5
1299
330
1
100
AcDbSymbolTableRecord
100
AcDbBlockTableRecord
  2
*D5
340
0
  0
BLOCK_RECORD
  5
12A6
330
1
100
AcDbSymbolTableRecord
100
AcDbBlockTableRecord
  2
*D6
340
0
  0
BLOCK_RECORD
  5
12B3
330
1
100
AcDbSymbolTableRecord
100
AcDbBlockTableRecord
  2
*D7
340
0
  0
BLOCK_RECORD
  5
12C0
330
1
100
AcDbSymbolTableRecord
100
AcDbBlockTableRecord
  2
*D8
340
0
  0
BLOCK_RECORD
  5
12CD
330
1
100
AcDbSymbolTableRecord
100
AcDbBlockTableRecord
  2
*D9
340
0
  0
BLOCK_RECORD
  5
12DA
330
1
100
AcDbSymbolTableRecord
100
AcDbBlockTableRecord
  2
*D10
340
0
  0
BLOCK_RECORD
  5
12E7
330
1
100
AcDbSymbolTableRecord
100
AcDbBlockTableRecord
  2
*D11
340
0
  0
BLOCK_RECORD
  5
12F4
330
1
100
AcDbSymbolTableRecord
100
AcDbBlockTableRecord
  2
*D12
340
0
  0
BLOCK_RECORD
  5
1301
330
1
100
AcDbSymbolTableRecord
100
AcDbBlockTableRecord
  2
*D13
340
0
  0
BLOCK_RECORD
  5
130E
330
1
100
AcDbSymbolTableRecord
100
AcDbBlockTableRecord
  2
*D14
340
0
  0
ENDTAB
  0
ENDSEC
  0
SECTION
  2
BLOCKS
  0
BLOCK
  5
3
330
2
100
AcDbEntity
  8
0
100
AcDbBlockBegin
  2
*MODEL_SPACE
 70
     0
 10
0.0
 20
0.0
 30
0.0
  3
*MODEL_SPACE
  1

  0
ENDBLK
  5
7
330
2
100
AcDbEntity
  8
0
100
AcDbBlockEnd
  0
BLOCK
  5
9
330
8
100
AcDbEntity
 67
     1
  8
0
100
AcDbBlockBegin
  2
*PAPER_SPACE
 70
     0
 10
0.0
 20
0.0
 30
0.0
  3
*PAPER_SPACE
  1

  0
ENDBLK
  5
A
330
8
100
AcDbEntity
 67
     1
  8
0
100
AcDbBlockEnd
  0
BLOCK
  5
193
330
192
100
AcDbEntity
  8
0
 48
20.0
100
AcDbBlockBegin
  2
_OPEN
 70
     0
 10
0.0
 20
0.0
 30
0.0
  3
_OPEN
  1

  0
LINE
  5
194
330
192
100
AcDbEntity
  8
0
  6
ByBlock
 62
     0
 48
20.0
100
AcDbLine
 10
-1.0
 20
0.1666666666666666
 30
0.0
 11
0.0
 21
0.0
 31
0.0
  0
LINE
  5
195
330
192
100
AcDbEntity
  8
0
  6
ByBlock
 62
     0
 48
20.0
100
AcDbLine
 10
0.0
 20
0.0
 30
0.0
 11
-1.0
 21
-0.1666666666666666
 31
0.0
  0
LINE
  5
196
330
192
100
AcDbEntity
  8
0
  6
ByBlock
 62
     0
 48
20.0
100
AcDbLine
 10
0.0
 20
0.0
 30
0.0
 11
-1.0
 21
0.0
 31
0.0
  0
ENDBLK
  5
197
330
192
100
AcDbEntity
  8
0
 48
20.0
100
AcDbBlockEnd
  0
BLOCK
  5
1266
330
1265
100
AcDbEntity
  8
0
 48
10.0
100
AcDbBlockBegin
  2
*D1
 70
     1
 10
0.0
 20
0.0
 30
0.0
  3
*D1
  1

  0
LINE
  5
1267
330
1265
100
AcDbEntity
  8
0
  6
ByBlock
 48
10.0
100
AcDbLine
 10
10353.29430419713
 20
11798.97371961822
 30
0.0
 11
10645.09902690321
 21
11798.97371961822
 31
0.0
  0
LINE
  5
1268
330
1265
100
AcDbEntity
  8
0
  6
ByBlock
 48
10.0
100
AcDbLine
 10
10353.29430419713
 20
10368.97371961822
 30
0.0
 11
10645.09902690321
 21
10368.97371961822
 31
0.0
  0
LINE
  5
1269
330
1265
100
AcDbEntity
  8
0
  6
ByBlock
 48
10.0
100
AcDbLine
 10
10605.09902690321
 20
11718.97371961822
 30
0.0
 11
10605.09902690321
 21
10448.97371961822
 31
0.0
  0
INSERT
  5
126A
330
1265
100
AcDbEntity
  8
0
  6
ByBlock
 48
10.0
100
AcDbBlockReference
  2
_OPEN
 10
10605.09902690321
 20
11798.97371961822
 30
0.0
 41
80.0
 42
80.0
 43
80.0
 50
90.0
  0
INSERT
  5
126B
330
1265
100
AcDbEntity
  8
0
  6
ByBlock
 48
10.0
100
AcDbBlockReference
  2
_OPEN
 10
10605.09902690321
 20
10368.97371961822
 30
0.0
 41
80.0
 42
80.0
 43
80.0
 50
270.0
  0
MTEXT
  5
126C
330
1265
100
AcDbEntity
  8
0
  6
ByBlock
 48
10.0
100
AcDbMText
 10
10535.09902690321
 20
11083.97371961822
 30
0.0
 40
100.0
 41
0.0
 71
     5
 72
     5
  1
\A1;1430
  7
SUNPOU
 11
0.0
 21
1.0
 31
0.0
 73
     1
 44
1.0
  0
POINT
  5
126D
330
1265
100
AcDbEntity
  8
DEFPOINTS
  6
ByBlock
 62
     0
 48
10.0
100
AcDbPoint
 10
10313.29430419713
 20
11798.97371961822
 30
0.0
  0
POINT
  5
126E
330
1265
100
AcDbEntity
  8
DEFPOINTS
  6
ByBlock
 62
     0
 48
10.0
100
AcDbPoint
 10
10313.29430419713
 20
10368.97371961822
 30
0.0
  0
POINT
  5
126F
330
1265
100
AcDbEntity
  8
DEFPOINTS
  6
ByBlock
 62
     0
 48
10.0
100
AcDbPoint
 10
10605.09902690321
 20
10368.97371961822
 30
0.0
  0
ENDBLK
  5
1270
330
1265
100
AcDbEntity
  8
0
 48
10.0
100
AcDbBlockEnd
  0
BLOCK
  5
1273
330
1272
100
AcDbEntity
  8
0
 48
10.0
100
AcDbBlockBegin
  2
*D2
 70
     1
 10
0.0
 20
0.0
 30
0.0
  3
*D2
  1

  0
LINE
  5
1274
330
1272
100
AcDbEntity
  8
0
  6
ByBlock
 48
10.0
100
AcDbLine
 10
10968.52815095664
 20
7726.95869360464
 30
0.0
 11
10968.52815095664
 21
7487.464428112921
 31
0.0
  0
LINE
  5
1275
330
1272
100
AcDbEntity
  8
0
  6
ByBlock
 48
10.0
100
AcDbLine
 10
12398.52815095664
 20
7726.958693604638
 30
0.0
 11
12398.52815095664
 21
7487.464428112921
 31
0.0
  0
LINE
  5
1276
330
1272
100
AcDbEntity
  8
0
  6
ByBlock
 48
10.0
100
AcDbLine
 10
11048.52815095664
 20
7527.46442811292
 30
0.0
 11
12318.52815095664
 21
7527.46442811292
 31
0.0
  0
INSERT
  5
1277
330
1272
100
AcDbEntity
  8
0
  6
ByBlock
 48
10.0
100
AcDbBlockReference
  2
_OPEN
 10
10968.52815095664
 20
7527.46442811292
 30
0.0
 41
80.0
 42
80.0
 43
80.0
 50
180.0
  0
INSERT
  5
1278
330
1272
100
AcDbEntity
  8
0
  6
ByBlock
 48
10.0
100
AcDbBlockReference
  2
_OPEN
 10
12398.52815095664
 20
7527.46442811292
 30
0.0
 41
80.0
 42
80.0
 43
80.0
  0
MTEXT
  5
1279
330
1272
100
AcDbEntity
  8
0
  6
ByBlock
 48
10.0
100
AcDbMText
 10
11683.52815095664
 20
7597.46442811292
 30
0.0
 40
100.0
 41
0.0
 71
     5
 72
     5
  1
\A1;1430
  7
SUNPOU
 73
     1
 44
1.0
  0
POINT
  5
127A
330
1272
100
AcDbEntity
  8
DEFPOINTS
  6
ByBlock
 62
     0
 48
10.0
100
AcDbPoint
 10
10968.52815095664
 20
7766.958693604639
 30
0.0
  0
POINT
  5
127B
330
1272
100
AcDbEntity
  8
DEFPOINTS
  6
ByBlock
 62
     0
 48
10.0
100
AcDbPoint
 10
12398.52815095664
 20
7766.958693604639
 30
0.0
  0
POINT
  5
127C
330
1272
100
AcDbEntity
  8
DEFPOINTS
  6
ByBlock
 62
     0
 48
10.0
100
AcDbPoint
 10
12398.52815095664
 20
7527.46442811292
 30
0.0
  0
ENDBLK
  5
127D
330
1272
100
AcDbEntity
  8
0
 48
10.0
100
AcDbBlockEnd
  0
BLOCK
  5
131D
330
127F
100
AcDbEntity
  8
0
 48
10.0
100
AcDbBlockBegin
  2
*D3
 70
     1
 10
0.0
 20
0.0
 30
0.0
  3
*D3
  1

  0
LINE
  5
131E
330
127F
100
AcDbEntity
  8
0
  6
ByBlock
 48
10.0
100
AcDbLine
 10
10313.29430419713
 20
7726.958693604638
 30
0.0
 11
10313.29430419713
 21
7487.464428112921
 31
0.0
  0
LINE
  5
131F
330
127F
100
AcDbEntity
  8
0
  6
ByBlock
 48
10.0
100
AcDbLine
 10
8503.294304197131
 20
7726.958693604638
 30
0.0
 11
8503.294304197131
 21
7487.464428112921
 31
0.0
  0
LINE
  5
1320
330
127F
100
AcDbEntity
  8
0
  6
ByBlock
 48
10.0
100
AcDbLine
 10
10233.29430419713
 20
7527.46442811292
 30
0.0
 11
8583.29430419713
 21
7527.46442811292
 31
0.0
  0
INSERT
  5
1321
330
127F
100
AcDbEntity
  8
0
  6
ByBlock
 48
10.0
100
AcDbBlockReference
  2
_OPEN
 10
10313.29430419713
 20
7527.46442811292
 30
0.0
 41
80.0
 42
80.0
 43
80.0
  0
INSERT
  5
1322
330
127F
100
AcDbEntity
  8
0
  6
ByBlock
 48
10.0
100
AcDbBlockReference
  2
_OPEN
 10
8503.294304197131
 20
7527.46442811292
 30
0.0
 41
80.0
 42
80.0
 43
80.0
 50
180.0
  0
MTEXT
  5
1323
330
127F
100
AcDbEntity
  8
0
  6
ByBlock
 48
10.0
100
AcDbMText
 10
9408.294304197131
 20
7597.46442811292
 30
0.0
 40
100.0
 41
0.0
 71
     5
 72
     5
  1
\A1;1810
  7
SUNPOU
 73
     1
 44
1.0
  0
POINT
  5
1324
330
127F
100
AcDbEntity
  8
DEFPOINTS
  6
ByBlock
 62
     0
 48
10.0
100
AcDbPoint
 10
10313.29430419713
 20
7766.958693604639
 30
0.0
  0
POINT
  5
1325
330
127F
100
AcDbEntity
  8
DEFPOINTS
  6
ByBlock
 62
     0
 48
10.0
100
AcDbPoint
 10
8503.294304197131
 20
7766.958693604639
 30
0.0
  0
POINT
  5
1326
330
127F
100
AcDbEntity
  8
DEFPOINTS
  6
ByBlock
 62
     0
 48
10.0
100
AcDbPoint
 10
8503.294304197131
 20
7527.46442811292
 30
0.0
  0
ENDBLK
  5
1327
330
127F
100
AcDbEntity
  8
0
 48
10.0
100
AcDbBlockEnd
  0
BLOCK
  5
128D
330
128C
100
AcDbEntity
  8
0
 48
10.0
100
AcDbBlockBegin
  2
*D4
 70
     1
 10
0.0
 20
0.0
 30
0.0
  3
*D4
  1

  0
LINE
  5
128E
330
128C
100
AcDbEntity
  8
0
  6
ByBlock
 48
10.0
100
AcDbLine
 10
6418.060457437611
 20
7726.958693604638
 30
0.0
 11
6418.060457437611
 21
7487.464428112921
 31
0.0
  0
LINE
  5
128F
330
128C
100
AcDbEntity
  8
0
  6
ByBlock
 48
10.0
100
AcDbLine
 10
7848.060457437611
 20
7726.95869360464
 30
0.0
 11
7848.060457437611
 21
7487.464428112921
 31
0.0
  0
LINE
  5
1290
330
128C
100
AcDbEntity
  8
0
  6
ByBlock
 48
10.0
100
AcDbLine
 10
6498.060457437611
 20
7527.46442811292
 30
0.0
 11
7768.060457437612
 21
7527.46442811292
 31
0.0
  0
INSERT
  5
1291
330
128C
100
AcDbEntity
  8
0
  6
ByBlock
 48
10.0
100
AcDbBlockReference
  2
_OPEN
 10
6418.060457437611
 20
7527.46442811292
 30
0.0
 41
80.0
 42
80.0
 43
80.0
 50
180.0
  0
INSERT
  5
1292
330
128C
100
AcDbEntity
  8
0
  6
ByBlock
 48
10.0
100
AcDbBlockReference
  2
_OPEN
 10
7848.060457437611
 20
7527.46442811292
 30
0.0
 41
80.0
 42
80.0
 43
80.0
  0
MTEXT
  5
1293
330
128C
100
AcDbEntity
  8
0
  6
ByBlock
 48
10.0
100
AcDbMText
 10
7133.060457437612
 20
7597.46442811292
 30
0.0
 40
100.0
 41
0.0
 71
     5
 72
     5
  1
\A1;1430
  7
SUNPOU
 73
     1
 44
1.0
  0
POINT
  5
1294
330
128C
100
AcDbEntity
  8
DEFPOINTS
  6
ByBlock
 62
     0
 48
10.0
100
AcDbPoint
 10
6418.060457437611
 20
7766.958693604639
 30
0.0
  0
POINT
  5
1295
330
128C
100
AcDbEntity
  8
DEFPOINTS
  6
ByBlock
 62
     0
 48
10.0
100
AcDbPoint
 10
7848.060457437611
 20
7766.95869360464
 30
0.0
  0
POINT
  5
1296
330
128C
100
AcDbEntity
  8
DEFPOINTS
  6
ByBlock
 62
     0
 48
10.0
100
AcDbPoint
 10
7848.060457437611
 20
7527.46442811292
 30
0.0
  0
ENDBLK
  5
1297
330
128C
100
AcDbEntity
  8
0
 48
10.0
100
AcDbBlockEnd
  0
BLOCK
  5
129A
330
1299
100
AcDbEntity
  8
0
 48
10.0
100
AcDbBlockBegin
  2
*D5
 70
     1
 10
0.0
 20
0.0
 30
0.0
  3
*D5
  1

  0
LINE
  5
129B
330
1299
100
AcDbEntity
  8
0
  6
ByBlock
 48
10.0
100
AcDbLine
 10
6680.060457437614
 20
8713.958693604638
 30
0.0
 11
6680.060457437614
 21
8914.075034021438
 31
0.0
  0
LINE
  5
129C
330
1299
100
AcDbEntity
  8
0
  6
ByBlock
 48
10.0
100
AcDbLine
 10
7586.060457437612
 20
8713.95869360464
 30
0.0
 11
7586.060457437612
 21
8914.075034021438
 31
0.0
  0
LINE
  5
129D
330
1299
100
AcDbEntity
  8
0
  6
ByBlock
 48
10.0
100
AcDbLine
 10
6760.060457437614
 20
8874.075034021437
 30
0.0
 11
7506.060457437612
 21
8874.075034021437
 31
0.0
  0
INSERT
  5
129E
330
1299
100
AcDbEntity
  8
0
  6
ByBlock
 48
10.0
100
AcDbBlockReference
  2
_OPEN
 10
6680.060457437614
 20
8874.075034021437
 30
0.0
 41
80.0
 42
80.0
 43
80.0
 50
180.0
  0
INSERT
  5
129F
330
1299
100
AcDbEntity
  8
0
  6
ByBlock
 48
10.0
100
AcDbBlockReference
  2
_OPEN
 10
7586.060457437612
 20
8874.075034021437
 30
0.0
 41
80.0
 42
80.0
 43
80.0
  0
MTEXT
  5
12A0
330
1299
100
AcDbEntity
  8
0
  6
ByBlock
 48
10.0
100
AcDbMText
 10
7133.060457437612
 20
8944.075034021437
 30
0.0
 40
100.0
 41
0.0
 71
     5
 72
     5
  1
\A1;906
  7
SUNPOU
 73
     1
 44
1.0
  0
POINT
  5
12A1
330
1299
100
AcDbEntity
  8
DEFPOINTS
  6
ByBlock
 62
     0
 48
10.0
100
AcDbPoint
 10
6680.060457437614
 20
8673.958693604637
 30
0.0
  0
POINT
  5
12A2
330
1299
100
AcDbEntity
  8
DEFPOINTS
  6
ByBlock
 62
     0
 48
10.0
100
AcDbPoint
 10
7586.060457437612
 20
8673.958693604639
 30
0.0
  0
POINT
  5
12A3
330
1299
100
AcDbEntity
  8
DEFPOINTS
  6
ByBlock
 62
     0
 48
10.0
100
AcDbPoint
 10
7586.060457437612
 20
8874.075034021437
 30
0.0
  0
ENDBLK
  5
12A4
330
1299
100
AcDbEntity
  8
0
 48
10.0
100
AcDbBlockEnd
  0
BLOCK
  5
12A7
330
12A6
100
AcDbEntity
  8
0
 48
10.0
100
AcDbBlockBegin
  2
*D6
 70
     1
 10
0.0
 20
0.0
 30
0.0
  3
*D6
  1

  0
LINE
  5
12A8
330
12A6
100
AcDbEntity
  8
0
  6
ByBlock
 48
10.0
100
AcDbLine
 10
7626.060457437613
 20
8673.958693604639
 30
0.0
 11
8127.991555215812
 21
8673.958693604639
 31
0.0
  0
LINE
  5
12A9
330
12A6
100
AcDbEntity
  8
0
  6
ByBlock
 48
10.0
100
AcDbLine
 10
7626.060457437613
 20
7939.958693604639
 30
0.0
 11
8127.991555215812
 21
7939.958693604639
 31
0.0
  0
LINE
  5
12AA
330
12A6
100
AcDbEntity
  8
0
  6
ByBlock
 48
10.0
100
AcDbLine
 10
8087.991555215813
 20
8593.958693604639
 30
0.0
 11
8087.991555215813
 21
8019.958693604639
 31
0.0
  0
INSERT
  5
12AB
330
12A6
100
AcDbEntity
  8
0
  6
ByBlock
 48
10.0
100
AcDbBlockReference
  2
_OPEN
 10
8087.991555215813
 20
8673.958693604639
 30
0.0
 41
80.0
 42
80.0
 43
80.0
 50
90.0
  0
INSERT
  5
12AC
330
12A6
100
AcDbEntity
  8
0
  6
ByBlock
 48
10.0
100
AcDbBlockReference
  2
_OPEN
 10
8087.991555215813
 20
7939.958693604639
 30
0.0
 41
80.0
 42
80.0
 43
80.0
 50
270.0
  0
MTEXT
  5
12AD
330
12A6
100
AcDbEntity
  8
0
  6
ByBlock
 48
10.0
100
AcDbMText
 10
8017.991555215813
 20
8306.95869360464
 30
0.0
 40
100.0
 41
0.0
 71
     5
 72
     5
  1
\A1;734
  7
SUNPOU
 11
0.0
 21
1.0
 31
0.0
 73
     1
 44
1.0
  0
POINT
  5
12AE
330
12A6
100
AcDbEntity
  8
DEFPOINTS
  6
ByBlock
 62
     0
 48
10.0
100
AcDbPoint
 10
7586.060457437612
 20
8673.958693604639
 30
0.0
  0
POINT
  5
12AF
330
12A6
100
AcDbEntity
  8
DEFPOINTS
  6
ByBlock
 62
     0
 48
10.0
100
AcDbPoint
 10
7586.060457437612
 20
7939.958693604639
 30
0.0
  0
POINT
  5
12B0
330
12A6
100
AcDbEntity
  8
DEFPOINTS
  6
ByBlock
 62
     0
 48
10.0
100
AcDbPoint
 10
8087.991555215813
 20
7939.958693604639
 30
0.0
  0
ENDBLK
  5
12B1
330
12A6
100
AcDbEntity
  8
0
 48
10.0
100
AcDbBlockEnd
  0
BLOCK
  5
1328
330
12B3
100
AcDbEntity
  8
0
 48
10.0
100
AcDbBlockBegin
  2
*D7
 70
     1
 10
0.0
 20
0.0
 30
0.0
  3
*D7
  1

  0
LINE
  5
1329
330
12B3
100
AcDbEntity
  8
0
  6
ByBlock
 48
10.0
100
AcDbLine
 10
10353.29430419713
 20
8306.958693604638
 30
0.0
 11
10527.59739514701
 21
8306.958693604638
 31
0.0
  0
LINE
  5
132A
330
12B3
100
AcDbEntity
  8
0
  6
ByBlock
 48
10.0
100
AcDbLine
 10
10353.29430419713
 20
7766.958693604639
 30
0.0
 11
10527.59739514701
 21
7766.958693604639
 31
0.0
  0
LINE
  5
132B
330
12B3
100
AcDbEntity
  8
0
  6
ByBlock
 48
10.0
100
AcDbLine
 10
10487.59739514701
 20
8226.958693604638
 30
0.0
 11
10487.59739514701
 21
7846.958693604638
 31
0.0
  0
INSERT
  5
132C
330
12B3
100
AcDbEntity
  8
0
  6
ByBlock
 48
10.0
100
AcDbBlockReference
  2
_OPEN
 10
10487.59739514701
 20
8306.958693604638
 30
0.0
 41
80.0
 42
80.0
 43
80.0
 50
90.0
  0
INSERT
  5
132D
330
12B3
100
AcDbEntity
  8
0
  6
ByBlock
 48
10.0
100
AcDbBlockReference
  2
_OPEN
 10
10487.59739514701
 20
7766.958693604639
 30
0.0
 41
80.0
 42
80.0
 43
80.0
 50
270.0
  0
MTEXT
  5
132E
330
12B3
100
AcDbEntity
  8
0
  6
ByBlock
 48
10.0
100
AcDbMText
 10
10417.59739514701
 20
8036.958693604638
 30
0.0
 40
100.0
 41
0.0
 71
     5
 72
     5
  1
\A1;540
  7
SUNPOU
 11
0.0
 21
1.0
 31
0.0
 73
     1
 44
1.0
  0
POINT
  5
132F
330
12B3
100
AcDbEntity
  8
DEFPOINTS
  6
ByBlock
 62
     0
 48
10.0
100
AcDbPoint
 10
10313.29430419713
 20
8306.958693604638
 30
0.0
  0
POINT
  5
1330
330
12B3
100
AcDbEntity
  8
DEFPOINTS
  6
ByBlock
 62
     0
 48
10.0
100
AcDbPoint
 10
10313.29430419713
 20
7766.958693604639
 30
0.0
  0
POINT
  5
1331
330
12B3
100
AcDbEntity
  8
DEFPOINTS
  6
ByBlock
 62
     0
 48
10.0
100
AcDbPoint
 10
10487.59739514701
 20
7766.958693604639
 30
0.0
  0
ENDBLK
  5
1332
330
12B3
100
AcDbEntity
  8
0
 48
10.0
100
AcDbBlockEnd
  0
BLOCK
  5
12C1
330
12C0
100
AcDbEntity
  8
0
 48
10.0
100
AcDbBlockBegin
  2
*D8
 70
     1
 10
0.0
 20
0.0
 30
0.0
  3
*D8
  1

  0
LINE
  5
12C2
330
12C0
100
AcDbEntity
  8
0
  6
ByBlock
 48
10.0
100
AcDbLine
 10
6418.060457437611
 20
9206.958693604638
 30
0.0
 11
6418.060457437611
 21
9431.316197416641
 31
0.0
  0
LINE
  5
12C3
330
12C0
100
AcDbEntity
  8
0
  6
ByBlock
 48
10.0
100
AcDbLine
 10
7133.060457437612
 20
9313.925306040825
 30
0.0
 11
7133.060457437612
 21
9431.316197416641
 31
0.0
  0
LINE
  5
12C4
330
12C0
100
AcDbEntity
  8
0
  6
ByBlock
 48
10.0
100
AcDbLine
 10
6498.060457437611
 20
9391.316197416641
 30
0.0
 11
7053.060457437613
 21
9391.316197416641
 31
0.0
  0
INSERT
  5
12C5
330
12C0
100
AcDbEntity
  8
0
  6
ByBlock
 48
10.0
100
AcDbBlockReference
  2
_OPEN
 10
6418.060457437611
 20
9391.316197416641
 30
0.0
 41
80.0
 42
80.0
 43
80.0
 50
180.0
  0
INSERT
  5
12C6
330
12C0
100
AcDbEntity
  8
0
  6
ByBlock
 48
10.0
100
AcDbBlockReference
  2
_OPEN
 10
7133.060457437612
 20
9391.316197416641
 30
0.0
 41
80.0
 42
80.0
 43
80.0
  0
MTEXT
  5
12C7
330
12C0
100
AcDbEntity
  8
0
  6
ByBlock
 48
10.0
100
AcDbMText
 10
6775.560457437612
 20
9461.316197416641
 30
0.0
 40
100.0
 41
0.0
 71
     5
 72
     5
  1
\A1;715
  7
SUNPOU
 73
     1
 44
1.0
  0
POINT
  5
12C8
330
12C0
100
AcDbEntity
  8
DEFPOINTS
  6
ByBlock
 62
     0
 48
10.0
100
AcDbPoint
 10
6418.060457437611
 20
9166.958693604639
 30
0.0
  0
POINT
  5
12C9
330
12C0
100
AcDbEntity
  8
DEFPOINTS
  6
ByBlock
 62
     0
 48
10.0
100
AcDbPoint
 10
7133.060457437612
 20
9273.925306040824
 30
0.0
  0
POINT
  5
12CA
330
12C0
100
AcDbEntity
  8
DEFPOINTS
  6
ByBlock
 62
     0
 48
10.0
100
AcDbPoint
 10
7133.060457437612
 20
9391.316197416641
 30
0.0
  0
ENDBLK
  5
12CB
330
12C0
100
AcDbEntity
  8
0
 48
10.0
100
AcDbBlockEnd
  0
BLOCK
  5
12CE
330
12CD
100
AcDbEntity
  8
0
 48
10.0
100
AcDbBlockBegin
  2
*D9
 70
     1
 10
0.0
 20
0.0
 30
0.0
  3
*D9
  1

  0
LINE
  5
12CF
330
12CD
100
AcDbEntity
  8
0
  6
ByBlock
 48
10.0
100
AcDbLine
 10
7133.060457437612
 20
9313.925306040825
 30
0.0
 11
7133.060457437612
 21
9431.316197416641
 31
0.0
  0
LINE
  5
12D0
330
12CD
100
AcDbEntity
  8
0
  6
ByBlock
 48
10.0
100
AcDbLine
 10
7848.060457437611
 20
9206.958693604638
 30
0.0
 11
7848.060457437611
 21
9431.316197416641
 31
0.0
  0
LINE
  5
12D1
330
12CD
100
AcDbEntity
  8
0
  6
ByBlock
 48
10.0
100
AcDbLine
 10
7213.060457437612
 20
9391.316197416641
 30
0.0
 11
7768.060457437612
 21
9391.316197416641
 31
0.0
  0
INSERT
  5
12D2
330
12CD
100
AcDbEntity
  8
0
  6
ByBlock
 48
10.0
100
AcDbBlockReference
  2
_OPEN
 10
7133.060457437612
 20
9391.316197416641
 30
0.0
 41
80.0
 42
80.0
 43
80.0
 50
180.0
  0
INSERT
  5
12D3
330
12CD
100
AcDbEntity
  8
0
  6
ByBlock
 48
10.0
100
AcDbBlockReference
  2
_OPEN
 10
7848.060457437611
 20
9391.316197416641
 30
0.0
 41
80.0
 42
80.0
 43
80.0
  0
MTEXT
  5
12D4
330
12CD
100
AcDbEntity
  8
0
  6
ByBlock
 48
10.0
100
AcDbMText
 10
7490.560457437613
 20
9461.316197416641
 30
0.0
 40
100.0
 41
0.0
 71
     5
 72
     5
  1
\A1;715
  7
SUNPOU
 73
     1
 44
1.0
  0
POINT
  5
12D5
330
12CD
100
AcDbEntity
  8
DEFPOINTS
  6
ByBlock
 62
     0
 48
10.0
100
AcDbPoint
 10
7133.060457437612
 20
9273.925306040824
 30
0.0
  0
POINT
  5
12D6
330
12CD
100
AcDbEntity
  8
DEFPOINTS
  6
ByBlock
 62
     0
 48
10.0
100
AcDbPoint
 10
7848.060457437611
 20
9166.958693604639
 30
0.0
  0
POINT
  5
12D7
330
12CD
100
AcDbEntity
  8
DEFPOINTS
  6
ByBlock
 62
     0
 48
10.0
100
AcDbPoint
 10
7848.060457437611
 20
9391.316197416641
 30
0.0
  0
ENDBLK
  5
12D8
330
12CD
100
AcDbEntity
  8
0
 48
10.0
100
AcDbBlockEnd
  0
BLOCK
  5
1333
330
12DA
100
AcDbEntity
  8
0
 48
10.0
100
AcDbBlockBegin
  2
*D10
 70
     1
 10
0.0
 20
0.0
 30
0.0
  3
*D10
  1

  0
LINE
  5
1334
330
12DA
100
AcDbEntity
  8
0
  6
ByBlock
 48
10.0
100
AcDbLine
 10
10233.29430419713
 20
9206.958693604638
 30
0.0
 11
10233.29430419713
 21
9431.316197416641
 31
0.0
  0
LINE
  5
1335
330
12DA
100
AcDbEntity
  8
0
  6
ByBlock
 48
10.0
100
AcDbLine
 10
8583.29430419713
 20
9206.958693604638
 30
0.0
 11
8583.29430419713
 21
9431.316197416641
 31
0.0
  0
LINE
  5
1336
330
12DA
100
AcDbEntity
  8
0
  6
ByBlock
 48
10.0
100
AcDbLine
 10
10153.29430419713
 20
9391.316197416641
 30
0.0
 11
8663.29430419713
 21
9391.316197416641
 31
0.0
  0
INSERT
  5
1337
330
12DA
100
AcDbEntity
  8
0
  6
ByBlock
 48
10.0
100
AcDbBlockReference
  2
_OPEN
 10
10233.29430419713
 20
9391.316197416641
 30
0.0
 41
80.0
 42
80.0
 43
80.0
  0
INSERT
  5
1338
330
12DA
100
AcDbEntity
  8
0
  6
ByBlock
 48
10.0
100
AcDbBlockReference
  2
_OPEN
 10
8583.29430419713
 20
9391.316197416641
 30
0.0
 41
80.0
 42
80.0
 43
80.0
 50
180.0
  0
MTEXT
  5
1339
330
12DA
100
AcDbEntity
  8
0
  6
ByBlock
 48
10.0
100
AcDbMText
 10
9408.294304197131
 20
9461.316197416641
 30
0.0
 40
100.0
 41
0.0
 71
     5
 72
     5
  1
\A1;1650
  7
SUNPOU
 73
     1
 44
1.0
  0
POINT
  5
133A
330
12DA
100
AcDbEntity
  8
DEFPOINTS
  6
ByBlock
 62
     0
 48
10.0
100
AcDbPoint
 10
10233.29430419713
 20
9166.958693604639
 30
0.0
  0
POINT
  5
133B
330
12DA
100
AcDbEntity
  8
DEFPOINTS
  6
ByBlock
 62
     0
 48
10.0
100
AcDbPoint
 10
8583.29430419713
 20
9166.958693604639
 30
0.0
  0
POINT
  5
133C
330
12DA
100
AcDbEntity
  8
DEFPOINTS
  6
ByBlock
 62
     0
 48
10.0
100
AcDbPoint
 10
8583.29430419713
 20
9391.316197416641
 30
0.0
  0
ENDBLK
  5
133D
330
12DA
100
AcDbEntity
  8
0
 48
10.0
100
AcDbBlockEnd
  0
BLOCK
  5
12E8
330
12E7
100
AcDbEntity
  8
0
 48
10.0
100
AcDbBlockBegin
  2
*D11
 70
     1
 10
0.0
 20
0.0
 30
0.0
  3
*D11
  1

  0
LINE
  5
12E9
330
12E7
100
AcDbEntity
  8
0
  6
ByBlock
 48
10.0
100
AcDbLine
 10
10968.52815095664
 20
9206.958693604638
 30
0.0
 11
10968.52815095664
 21
9431.316197416641
 31
0.0
  0
LINE
  5
12EA
330
12E7
100
AcDbEntity
  8
0
  6
ByBlock
 48
10.0
100
AcDbLine
 10
11683.52815095664
 20
9313.925306040825
 30
0.0
 11
11683.52815095664
 21
9431.316197416641
 31
0.0
  0
LINE
  5
12EB
330
12E7
100
AcDbEntity
  8
0
  6
ByBlock
 48
10.0
100
AcDbLine
 10
11048.52815095664
 20
9391.316197416641
 30
0.0
 11
11603.52815095664
 21
9391.316197416641
 31
0.0
  0
INSERT
  5
12EC
330
12E7
100
AcDbEntity
  8
0
  6
ByBlock
 48
10.0
100
AcDbBlockReference
  2
_OPEN
 10
10968.52815095664
 20
9391.316197416641
 30
0.0
 41
80.0
 42
80.0
 43
80.0
 50
180.0
  0
INSERT
  5
12ED
330
12E7
100
AcDbEntity
  8
0
  6
ByBlock
 48
10.0
100
AcDbBlockReference
  2
_OPEN
 10
11683.52815095664
 20
9391.316197416641
 30
0.0
 41
80.0
 42
80.0
 43
80.0
  0
MTEXT
  5
12EE
330
12E7
100
AcDbEntity
  8
0
  6
ByBlock
 48
10.0
100
AcDbMText
 10
11326.02815095664
 20
9461.316197416641
 30
0.0
 40
100.0
 41
0.0
 71
     5
 72
     5
  1
\A1;715
  7
SUNPOU
 73
     1
 44
1.0
  0
POINT
  5
12EF
330
12E7
100
AcDbEntity
  8
DEFPOINTS
  6
ByBlock
 62
     0
 48
10.0
100
AcDbPoint
 10
10968.52815095664
 20
9166.958693604639
 30
0.0
  0
POINT
  5
12F0
330
12E7
100
AcDbEntity
  8
DEFPOINTS
  6
ByBlock
 62
     0
 48
10.0
100
AcDbPoint
 10
11683.52815095664
 20
9273.925306040824
 30
0.0
  0
POINT
  5
12F1
330
12E7
100
AcDbEntity
  8
DEFPOINTS
  6
ByBlock
 62
     0
 48
10.0
100
AcDbPoint
 10
11683.52815095664
 20
9391.316197416641
 30
0.0
  0
ENDBLK
  5
12F2
330
12E7
100
AcDbEntity
  8
0
 48
10.0
100
AcDbBlockEnd
  0
BLOCK
  5
12F5
330
12F4
100
AcDbEntity
  8
0
 48
10.0
100
AcDbBlockBegin
  2
*D12
 70
     1
 10
0.0
 20
0.0
 30
0.0
  3
*D12
  1

  0
LINE
  5
12F6
330
12F4
100
AcDbEntity
  8
0
  6
ByBlock
 48
10.0
100
AcDbLine
 10
11683.52815095664
 20
9313.925306040825
 30
0.0
 11
11683.52815095664
 21
9431.316197416641
 31
0.0
  0
LINE
  5
12F7
330
12F4
100
AcDbEntity
  8
0
  6
ByBlock
 48
10.0
100
AcDbLine
 10
12398.52815095664
 20
9206.958693604638
 30
0.0
 11
12398.52815095664
 21
9431.316197416641
 31
0.0
  0
LINE
  5
12F8
330
12F4
100
AcDbEntity
  8
0
  6
ByBlock
 48
10.0
100
AcDbLine
 10
11763.52815095664
 20
9391.316197416641
 30
0.0
 11
12318.52815095664
 21
9391.316197416641
 31
0.0
  0
INSERT
  5
12F9
330
12F4
100
AcDbEntity
  8
0
  6
ByBlock
 48
10.0
100
AcDbBlockReference
  2
_OPEN
 10
11683.52815095664
 20
9391.316197416641
 30
0.0
 41
80.0
 42
80.0
 43
80.0
 50
180.0
  0
INSERT
  5
12FA
330
12F4
100
AcDbEntity
  8
0
  6
ByBlock
 48
10.0
100
AcDbBlockReference
  2
_OPEN
 10
12398.52815095664
 20
9391.316197416641
 30
0.0
 41
80.0
 42
80.0
 43
80.0
  0
MTEXT
  5
12FB
330
12F4
100
AcDbEntity
  8
0
  6
ByBlock
 48
10.0
100
AcDbMText
 10
12041.02815095664
 20
9461.316197416641
 30
0.0
 40
100.0
 41
0.0
 71
     5
 72
     5
  1
\A1;715
  7
SUNPOU
 73
     1
 44
1.0
  0
POINT
  5
12FC
330
12F4
100
AcDbEntity
  8
DEFPOINTS
  6
ByBlock
 62
     0
 48
10.0
100
AcDbPoint
 10
11683.52815095664
 20
9273.925306040824
 30
0.0
  0
POINT
  5
12FD
330
12F4
100
AcDbEntity
  8
DEFPOINTS
  6
ByBlock
 62
     0
 48
10.0
100
AcDbPoint
 10
12398.52815095664
 20
9166.958693604639
 30
0.0
  0
POINT
  5
12FE
330
12F4
100
AcDbEntity
  8
DEFPOINTS
  6
ByBlock
 62
     0
 48
10.0
100
AcDbPoint
 10
12398.52815095664
 20
9391.316197416641
 30
0.0
  0
ENDBLK
  5
12FF
330
12F4
100
AcDbEntity
  8
0
 48
10.0
100
AcDbBlockEnd
  0
BLOCK
  5
1302
330
1301
100
AcDbEntity
  8
0
 48
10.0
100
AcDbBlockBegin
  2
*D13
 70
     1
 10
0.0
 20
0.0
 30
0.0
  3
*D13
  1

  0
LINE
  5
1303
330
1301
100
AcDbEntity
  8
0
  6
ByBlock
 48
10.0
100
AcDbLine
 10
11230.52815095664
 20
8713.95869360464
 30
0.0
 11
11230.52815095664
 21
8914.075034021438
 31
0.0
  0
LINE
  5
1304
330
1301
100
AcDbEntity
  8
0
  6
ByBlock
 48
10.0
100
AcDbLine
 10
12136.52815095664
 20
8713.958693604638
 30
0.0
 11
12136.52815095664
 21
8914.075034021438
 31
0.0
  0
LINE
  5
1305
330
1301
100
AcDbEntity
  8
0
  6
ByBlock
 48
10.0
100
AcDbLine
 10
11310.52815095664
 20
8874.075034021437
 30
0.0
 11
12056.52815095664
 21
8874.075034021437
 31
0.0
  0
INSERT
  5
1306
330
1301
100
AcDbEntity
  8
0
  6
ByBlock
 48
10.0
100
AcDbBlockReference
  2
_OPEN
 10
11230.52815095664
 20
8874.075034021437
 30
0.0
 41
80.0
 42
80.0
 43
80.0
 50
180.0
  0
INSERT
  5
1307
330
1301
100
AcDbEntity
  8
0
  6
ByBlock
 48
10.0
100
AcDbBlockReference
  2
_OPEN
 10
12136.52815095664
 20
8874.075034021437
 30
0.0
 41
80.0
 42
80.0
 43
80.0
  0
MTEXT
  5
1308
330
1301
100
AcDbEntity
  8
0
  6
ByBlock
 48
10.0
100
AcDbMText
 10
11683.52815095664
 20
8944.075034021437
 30
0.0
 40
100.0
 41
0.0
 71
     5
 72
     5
  1
\A1;906
  7
SUNPOU
 73
     1
 44
1.0
  0
POINT
  5
1309
330
1301
100
AcDbEntity
  8
DEFPOINTS
  6
ByBlock
 62
     0
 48
10.0
100
AcDbPoint
 10
11230.52815095664
 20
8673.958693604639
 30
0.0
  0
POINT
  5
130A
330
1301
100
AcDbEntity
  8
DEFPOINTS
  6
ByBlock
 62
     0
 48
10.0
100
AcDbPoint
 10
12136.52815095664
 20
8673.958693604637
 30
0.0
  0
POINT
  5
130B
330
1301
100
AcDbEntity
  8
DEFPOINTS
  6
ByBlock
 62
     0
 48
10.0
100
AcDbPoint
 10
12136.52815095664
 20
8874.075034021437
 30
0.0
  0
ENDBLK
  5
130C
330
1301
100
AcDbEntity
  8
0
 48
10.0
100
AcDbBlockEnd
  0
BLOCK
  5
130F
330
130E
100
AcDbEntity
  8
0
 48
10.0
100
AcDbBlockBegin
  2
*D14
 70
     1
 10
0.0
 20
0.0
 30
0.0
  3
*D14
  1

  0
LINE
  5
1310
330
130E
100
AcDbEntity
  8
0
  6
ByBlock
 48
10.0
100
AcDbLine
 10
12176.52815095664
 20
8673.958693604637
 30
0.0
 11
12689.13314095618
 21
8673.958693604637
 31
0.0
  0
LINE
  5
1311
330
130E
100
AcDbEntity
  8
0
  6
ByBlock
 48
10.0
100
AcDbLine
 10
12176.52815095664
 20
7939.958693604637
 30
0.0
 11
12689.13314095618
 21
7939.958693604637
 31
0.0
  0
LINE
  5
1312
330
130E
100
AcDbEntity
  8
0
  6
ByBlock
 48
10.0
100
AcDbLine
 10
12649.13314095618
 20
8593.958693604639
 30
0.0
 11
12649.13314095618
 21
8019.958693604639
 31
0.0
  0
INSERT
  5
1313
330
130E
100
AcDbEntity
  8
0
  6
ByBlock
 48
10.0
100
AcDbBlockReference
  2
_OPEN
 10
12649.13314095618
 20
8673.958693604637
 30
0.0
 41
80.0
 42
80.0
 43
80.0
 50
90.0
  0
INSERT
  5
1314
330
130E
100
AcDbEntity
  8
0
  6
ByBlock
 48
10.0
100
AcDbBlockReference
  2
_OPEN
 10
12649.13314095618
 20
7939.958693604637
 30
0.0
 41
80.0
 42
80.0
 43
80.0
 50
270.0
  0
MTEXT
  5
1315
330
130E
100
AcDbEntity
  8
0
  6
ByBlock
 48
10.0
100
AcDbMText
 10
12579.13314095618
 20
8306.958693604638
 30
0.0
 40
100.0
 41
0.0
 71
     5
 72
     5
  1
\A1;734
  7
SUNPOU
 11
0.0
 21
1.0
 31
0.0
 73
     1
 44
1.0
  0
POINT
  5
1316
330
130E
100
AcDbEntity
  8
DEFPOINTS
  6
ByBlock
 62
     0
 48
10.0
100
AcDbPoint
 10
12136.52815095664
 20
8673.958693604637
 30
0.0
  0
POINT
  5
1317
330
130E
100
AcDbEntity
  8
DEFPOINTS
  6
ByBlock
 62
     0
 48
10.0
100
AcDbPoint
 10
12136.52815095664
 20
7939.958693604637
 30
0.0
  0
POINT
  5
1318
330
130E
100
AcDbEntity
  8
DEFPOINTS
  6
ByBlock
 62
     0
 48
10.0
100
AcDbPoint
 10
12649.13314095618
 20
7939.958693604637
 30
0.0
  0
ENDBLK
  5
1319
330
130E
100
AcDbEntity
  8
0
 48
10.0
100
AcDbBlockEnd
  0
ENDSEC
  0
SECTION
  2
ENTITIES
  0
LINE
  5
570
330
2
100
AcDbEntity
  8
4
  6
Continuous
 48
10.0
100
AcDbLine
 10
12819.74395831865
 20
6226.581588328389
 30
0.0
 11
12819.74395831865
 21
5426.581588328389
 31
0.0
  0
LINE
  5
571
330
2
100
AcDbEntity
  8
4
  6
Continuous
 48
10.0
100
AcDbLine
 10
10019.74395831864
 20
6226.581588328389
 30
0.0
 11
10019.74395831864
 21
5426.581588328389
 31
0.0
  0
LINE
  5
572
330
2
100
AcDbEntity
  8
4
  6
Continuous
 48
10.0
100
AcDbLine
 10
8019.743958318649
 20
6226.581588328389
 30
0.0
 11
8019.743958318649
 21
5426.581588328389
 31
0.0
  0
LINE
  5
575
330
2
100
AcDbEntity
  8
4
  6
Continuous
 48
10.0
100
AcDbLine
 10
8019.743958318649
 20
5426.581588328389
 30
0.0
 11
12819.74395831865
 21
5426.581588328389
 31
0.0
  0
LINE
  5
576
330
2
100
AcDbEntity
  8
4
  6
Continuous
 48
10.0
100
AcDbLine
 10
8019.743958318649
 20
5826.581588328389
 30
0.0
 11
12819.74395831865
 21
5826.581588328389
 31
0.0
  0
TEXT
  5
577
330
2
100
AcDbEntity
  8
4
  6
Continuous
 48
10.0
100
AcDbText
 10
8173.752281318648
 20
5952.753691328389
 30
0.0
 40
200.0
  1
機器名称
100
AcDbText
  0
TEXT
  5
578
330
2
100
AcDbEntity
  8
4
  6
Continuous
 48
10.0
100
AcDbText
 10
8164.776382318649
 20
5513.16221532839
 30
0.0
 40
200.0
  1
機器型番
100
AcDbText
  0
TEXT
  5
579
330
2
100
AcDbEntity
  8
4
  6
Continuous
 48
10.0
100
AcDbText
 10
10130.45894031864
 20
5916.868664328389
 30
0.0
 40
200.0
  1
ミツヤファンユニット
100
AcDbText
  0
TEXT
  5
57A
330
2
100
AcDbEntity
  8
4
  6
Continuous
 48
10.0
100
AcDbText
 10
10166.36194031864
 20
5495.219925328388
 30
0.0
 40
200.0
  1
MFU#3505-5
100
AcDbText
  0
TEXT
  5
57C
330
2
100
AcDbEntity
  8
4
  6
Continuous
 48
10.0
100
AcDbText
 10
8208.057998318649
 20
13760.29695332839
 30
0.0
 40
200.0
  1
床置ベット
100
AcDbText
  0
TEXT
  5
57D
330
2
100
AcDbEntity
  8
4
  6
Continuous
 48
10.0
100
AcDbText
 10
6684.414331318649
 20
14362.10549332838
 30
0.0
 40
250.0
  1
ベルト駆動式消音ボックス付き多翼ファン
100
AcDbText
  0
LINE
  5
57E
330
2
100
AcDbEntity
  8
4
  6
Continuous
 48
10.0
100
AcDbLine
 10
6419.743958318649
 20
14104.21660532839
 30
0.0
 11
12819.74395831865
 21
14104.21660532839
 31
0.0
  0
LINE
  5
57F
330
2
100
AcDbEntity
  8
4
  6
Continuous
 48
10.0
100
AcDbLine
 10
6419.743958318649
 20
14904.21660532839
 30
0.0
 11
12819.74395831865
 21
14904.21660532839
 31
0.0
  0
LINE
  5
580
330
2
100
AcDbEntity
  8
4
  6
Continuous
 48
10.0
100
AcDbLine
 10
8019.743958318649
 20
6226.581588328389
 30
0.0
 11
12819.74395831865
 21
6226.581588328389
 31
0.0
  0
LINE
  5
581
330
2
100
AcDbEntity
  8
4
  6
Continuous
 48
10.0
100
AcDbLine
 10
6419.743958318649
 20
14904.21660532839
 30
0.0
 11
6419.743958318649
 21
14104.21660532839
 31
0.0
  0
TEXT
  5
582
330
2
100
AcDbEntity
  8
4
  6
Continuous
 48
10.0
100
AcDbText
 10
6545.679155318649
 20
13755.85949832838
 30
0.0
 40
200.0
  1
左回転右吐出
100
AcDbText
  0
TEXT
  5
583
330
2
100
AcDbEntity
  8
4
  6
Continuous
 48
10.0
100
AcDbText
 10
11295.62219531864
 20
15050.82591432839
 30
0.0
 40
224.0
  1
No.
100
AcDbText
  0
TEXT
  5
584
330
2
100
AcDbEntity
  8
4
  6
Continuous
 48
10.0
100
AcDbText
 10
11151.26717431864
 20
13760.29695332839
 30
0.0
 40
200.0
  1
縮尺：1/40
100
AcDbText
  0
LINE
  5
585
330
2
100
AcDbEntity
  8
4
  6
Continuous
 48
10.0
100
AcDbLine
 10
12819.74395831865
 20
14904.21660532839
 30
0.0
 11
12819.74395831865
 21
14104.21660532839
 31
0.0
  0
LINE
  5
586
330
2
100
AcDbEntity
  8
4
  6
Continuous
 48
10.0
100
AcDbLine
 10
11182.21364731865
 20
14951.63592132839
 30
0.0
 11
11182.21364731865
 21
15373.19063432838
 31
0.0
  0
LINE
  5
587
330
2
100
AcDbEntity
  8
4
  6
Continuous
 48
10.0
100
AcDbLine
 10
11182.21364731865
 20
15373.19063432838
 30
0.0
 11
12819.74395831865
 21
15373.19063432838
 31
0.0
  0
LINE
  5
588
330
2
100
AcDbEntity
  8
4
  6
Continuous
 48
10.0
100
AcDbLine
 10
12819.74395831865
 20
15373.19063432838
 30
0.0
 11
12819.74395831865
 21
14951.63592132839
 31
0.0
  0
LINE
  5
589
330
2
100
AcDbEntity
  8
4
  6
Continuous
 48
10.0
100
AcDbLine
 10
12819.74395831865
 20
14951.63592132839
 30
0.0
 11
11182.21364731865
 21
14951.63592132839
 31
0.0
  0
LINE
  5
11F7
330
2
100
AcDbEntity
  8
1
 48
10.0
100
AcDbLine
 10
10313.29430419713
 20
7766.958693604639
 30
0.0
 11
8503.294304197131
 21
7766.958693604639
 31
0.0
  0
LINE
  5
11F8
330
2
100
AcDbEntity
  8
1
 48
10.0
100
AcDbLine
 10
8503.294304197131
 20
7766.958693604639
 30
0.0
 11
8503.294304197131
 21
7866.958693604638
 31
0.0
  0
LINE
  5
11F9
330
2
100
AcDbEntity
  8
1
 48
10.0
100
AcDbLine
 10
8503.294304197131
 20
7866.958693604638
 30
0.0
 11
10313.29430419713
 21
7866.958693604638
 31
0.0
  0
LINE
  5
11FA
330
2
100
AcDbEntity
  8
1
 48
10.0
100
AcDbLine
 10
10313.29430419713
 20
7866.958693604638
 30
0.0
 11
10313.29430419713
 21
7766.958693604639
 31
0.0
  0
LINE
  5
11FB
330
2
100
AcDbEntity
  8
1
 48
10.0
100
AcDbLine
 10
8583.29430419713
 20
7866.958693604638
 30
0.0
 11
8583.29430419713
 21
9166.958693604639
 31
0.0
  0
LINE
  5
11FC
330
2
100
AcDbEntity
  8
1
 48
10.0
100
AcDbLine
 10
8583.29430419713
 20
9166.958693604639
 30
0.0
 11
10233.29430419713
 21
9166.958693604639
 31
0.0
  0
LINE
  5
11FD
330
2
100
AcDbEntity
  8
1
 48
10.0
100
AcDbLine
 10
10233.29430419713
 20
9166.958693604639
 30
0.0
 11
10233.29430419713
 21
7866.958693604638
 31
0.0
  0
LINE
  5
11FE
330
2
100
AcDbEntity
  8
2
 48
10.0
100
AcDbLine
 10
10313.29430419713
 20
8306.958693604638
 30
0.0
 11
8503.294304197131
 21
8306.958693604638
 31
0.0
  0
LINE
  5
11FF
330
2
100
AcDbEntity
  8
1
 48
10.0
100
AcDbLine
 10
10273.29430419713
 20
8713.95869360464
 30
0.0
 11
10273.29430419713
 21
7899.958693604638
 31
0.0
  0
LINE
  5
1200
330
2
100
AcDbEntity
  8
1
 48
10.0
100
AcDbLine
 10
8543.29430419713
 20
7899.958693604638
 30
0.0
 11
8543.29430419713
 21
8713.95869360464
 31
0.0
  0
LINE
  5
1201
330
2
100
AcDbEntity
  8
1
 48
10.0
100
AcDbLine
 10
10273.29430419713
 20
8713.95869360464
 30
0.0
 11
10233.29430419713
 21
8713.95869360464
 31
0.0
  0
LINE
  5
1202
330
2
100
AcDbEntity
  8
1
 48
10.0
100
AcDbLine
 10
10273.29430419713
 20
7899.958693604638
 30
0.0
 11
10233.29430419713
 21
7899.95869360464
 31
0.0
  0
LINE
  5
1203
330
2
100
AcDbEntity
  8
1
 48
10.0
100
AcDbLine
 10
8583.29430419713
 20
8713.958693604638
 30
0.0
 11
8543.29430419713
 21
8713.95869360464
 31
0.0
  0
LINE
  5
1204
330
2
100
AcDbEntity
  8
1
 48
10.0
100
AcDbLine
 10
8583.29430419713
 20
7899.95869360464
 30
0.0
 11
8543.29430419713
 21
7899.958693604638
 31
0.0
  0
LINE
  5
1205
330
2
100
AcDbEntity
  8
1
 48
10.0
100
AcDbLine
 10
7848.060457437611
 20
7866.958693604638
 30
0.0
 11
6418.060457437611
 21
7866.958693604638
 31
0.0
  0
LINE
  5
1206
330
2
100
AcDbEntity
  8
1
 48
10.0
100
AcDbLine
 10
6418.060457437611
 20
7766.958693604639
 30
0.0
 11
7848.060457437611
 21
7766.95869360464
 31
0.0
  0
LINE
  5
1207
330
2
100
AcDbEntity
  8
1
 48
10.0
100
AcDbLine
 10
7848.060457437611
 20
9166.958693604639
 30
0.0
 11
6418.060457437611
 21
9166.958693604639
 31
0.0
  0
LINE
  5
1208
330
2
100
AcDbEntity
  8
1
 48
10.0
100
AcDbLine
 10
7848.060457437611
 20
7766.958693604639
 30
0.0
 11
7848.060457437611
 21
9166.958693604639
 31
0.0
  0
LINE
  5
1209
330
2
100
AcDbEntity
  8
1
 48
10.0
100
AcDbLine
 10
6418.060457437611
 20
7766.958693604639
 30
0.0
 11
6418.060457437611
 21
9166.958693604639
 31
0.0
  0
LINE
  5
120A
330
2
100
AcDbEntity
  8
1
 48
10.0
100
AcDbLine
 10
6403.060457437611
 20
7871.958693604637
 30
0.0
 11
6403.060457437613
 21
9161.958693604638
 31
0.0
  0
LINE
  5
120B
330
2
100
AcDbEntity
  8
1
 48
10.0
100
AcDbLine
 10
7863.060457437612
 20
7871.958693604639
 30
0.0
 11
7863.060457437612
 21
9161.958693604638
 31
0.0
  0
LINE
  5
120C
330
2
100
AcDbEntity
  8
1
 48
10.0
100
AcDbLine
 10
7863.060457437612
 20
9161.958693604638
 30
0.0
 11
7848.060457437611
 21
9161.958693604638
 31
0.0
  0
LINE
  5
120D
330
2
100
AcDbEntity
  8
1
 48
10.0
100
AcDbLine
 10
7863.060457437611
 20
7871.958693604638
 30
0.0
 11
7848.060457437611
 21
7871.958693604638
 31
0.0
  0
LINE
  5
120E
330
2
100
AcDbEntity
  8
1
 48
10.0
100
AcDbLine
 10
6418.060457437611
 20
7871.958693604637
 30
0.0
 11
6403.060457437613
 21
7871.958693604637
 31
0.0
  0
LINE
  5
120F
330
2
100
AcDbEntity
  8
1
 48
10.0
100
AcDbLine
 10
6418.060457437611
 20
9161.958693604638
 30
0.0
 11
6403.060457437613
 21
9161.958693604638
 31
0.0
  0
LINE
  5
1210
330
2
100
AcDbEntity
  8
2
 48
10.0
100
AcDbLine
 10
7133.060457437612
 20
7766.958693604639
 30
0.0
 11
7133.060457437612
 21
8816.187013908022
 31
0.0
  0
LINE
  5
1212
330
2
100
AcDbEntity
  8
1
 48
10.0
100
AcDbLine
 10
6680.060457437614
 20
7939.958693604637
 30
0.0
 11
6680.060457437614
 21
8673.958693604637
 31
0.0
  0
LINE
  5
1213
330
2
100
AcDbEntity
  8
1
 48
10.0
100
AcDbLine
 10
7586.060457437612
 20
7939.958693604639
 30
0.0
 11
7586.060457437612
 21
8673.958693604639
 31
0.0
  0
LINE
  5
1214
330
2
100
AcDbEntity
  8
1
 48
10.0
100
AcDbLine
 10
6680.060457437614
 20
8673.958693604637
 30
0.0
 11
7586.060457437612
 21
8673.958693604639
 31
0.0
  0
LINE
  5
1215
330
2
100
AcDbEntity
  8
1
 48
10.0
100
AcDbLine
 10
6680.060457437614
 20
7939.958693604637
 30
0.0
 11
7586.060457437612
 21
7939.958693604639
 31
0.0
  0
LINE
  5
1216
330
2
100
AcDbEntity
  8
1
 48
10.0
100
AcDbLine
 10
6640.060457437613
 20
7899.958693604638
 30
0.0
 11
6640.060457437613
 21
8713.958693604636
 31
0.0
  0
LINE
  5
1217
330
2
100
AcDbEntity
  8
1
 48
10.0
100
AcDbLine
 10
7626.060457437613
 20
7899.958693604637
 30
0.0
 11
7626.060457437612
 21
8713.95869360464
 31
0.0
  0
LINE
  5
1218
330
2
100
AcDbEntity
  8
1
 48
10.0
100
AcDbLine
 10
6640.060457437613
 20
8713.958693604638
 30
0.0
 11
7626.060457437612
 21
8713.958693604638
 31
0.0
  0
LINE
  5
1219
330
2
100
AcDbEntity
  8
1
 48
10.0
100
AcDbLine
 10
6640.060457437613
 20
7899.958693604638
 30
0.0
 11
7626.060457437612
 21
7899.958693604638
 31
0.0
  0
LINE
  5
121A
330
2
100
AcDbEntity
  8
1
 48
10.0
100
AcDbLine
 10
6680.060457437614
 20
7939.958693604637
 30
0.0
 11
7586.060457437612
 21
8673.958693604639
 31
0.0
  0
LINE
  5
121B
330
2
100
AcDbEntity
  8
1
 48
10.0
100
AcDbLine
 10
6680.060457437614
 20
8673.958693604637
 30
0.0
 11
7586.060457437612
 21
7939.958693604639
 31
0.0
  0
LINE
  5
121E
330
2
100
AcDbEntity
  8
2
 48
10.0
100
AcDbLine
 10
7133.060457437612
 20
9081.982824879412
 30
0.0
 11
7133.060457437612
 21
9273.925306040824
 31
0.0
  0
LINE
  5
121F
330
2
100
AcDbEntity
  8
1
 48
10.0
100
AcDbLine
 10
8583.29430419713
 20
9166.958693604639
 30
0.0
 11
8583.29430419713
 21
7866.958693604638
 31
0.0
  0
LINE
  5
1222
330
2
100
AcDbEntity
  8
1
 48
10.0
100
AcDbLine
 10
12136.52815095664
 20
8673.958693604637
 30
0.0
 11
11230.52815095664
 21
7939.958693604639
 31
0.0
  0
LINE
  5
1223
330
2
100
AcDbEntity
  8
1
 48
10.0
100
AcDbLine
 10
12136.52815095664
 20
7939.958693604637
 30
0.0
 11
11230.52815095664
 21
8673.958693604639
 31
0.0
  0
LINE
  5
1224
330
2
100
AcDbEntity
  8
1
 48
10.0
100
AcDbLine
 10
12176.52815095664
 20
7899.958693604638
 30
0.0
 11
11190.52815095664
 21
7899.958693604638
 31
0.0
  0
LINE
  5
1225
330
2
100
AcDbEntity
  8
1
 48
10.0
100
AcDbLine
 10
12176.52815095664
 20
8713.958693604638
 30
0.0
 11
11190.52815095664
 21
8713.958693604638
 31
0.0
  0
LINE
  5
1226
330
2
100
AcDbEntity
  8
1
 48
10.0
100
AcDbLine
 10
12136.52815095664
 20
8673.958693604637
 30
0.0
 11
11230.52815095664
 21
8673.958693604639
 31
0.0
  0
LINE
  5
1227
330
2
100
AcDbEntity
  8
1
 48
10.0
100
AcDbLine
 10
12136.52815095664
 20
7939.958693604637
 30
0.0
 11
11230.52815095664
 21
7939.958693604639
 31
0.0
  0
LINE
  5
1228
330
2
100
AcDbEntity
  8
1
 48
10.0
100
AcDbLine
 10
12398.52815095664
 20
7766.958693604639
 30
0.0
 11
10968.52815095664
 21
7766.95869360464
 31
0.0
  0
LINE
  5
1229
330
2
100
AcDbEntity
  8
1
 48
10.0
100
AcDbLine
 10
10968.52815095664
 20
7866.958693604638
 30
0.0
 11
12398.52815095664
 21
7866.958693604638
 31
0.0
  0
LINE
  5
122A
330
2
100
AcDbEntity
  8
1
 48
10.0
100
AcDbLine
 10
10968.52815095664
 20
9166.958693604639
 30
0.0
 11
12398.52815095664
 21
9166.958693604639
 31
0.0
  0
LINE
  5
122B
330
2
100
AcDbEntity
  8
1
 48
10.0
100
AcDbLine
 10
12413.52815095664
 20
7871.958693604637
 30
0.0
 11
12413.52815095664
 21
9161.958693604638
 31
0.0
  0
LINE
  5
122C
330
2
100
AcDbEntity
  8
1
 48
10.0
100
AcDbLine
 10
12398.52815095664
 20
7766.958693604639
 30
0.0
 11
12398.52815095664
 21
9166.958693604639
 31
0.0
  0
LINE
  5
122D
330
2
100
AcDbEntity
  8
1
 48
10.0
100
AcDbLine
 10
12398.52815095664
 20
7871.958693604637
 30
0.0
 11
12413.52815095664
 21
7871.958693604637
 31
0.0
  0
LINE
  5
122E
330
2
100
AcDbEntity
  8
1
 48
10.0
100
AcDbLine
 10
12176.52815095664
 20
7899.958693604638
 30
0.0
 11
12176.52815095664
 21
8713.958693604636
 31
0.0
  0
LINE
  5
122F
330
2
100
AcDbEntity
  8
1
 48
10.0
100
AcDbLine
 10
12136.52815095664
 20
7939.958693604637
 30
0.0
 11
12136.52815095664
 21
8673.958693604637
 31
0.0
  0
LINE
  5
1230
330
2
100
AcDbEntity
  8
1
 48
10.0
100
AcDbLine
 10
12398.52815095664
 20
9161.958693604638
 30
0.0
 11
12413.52815095664
 21
9161.958693604638
 31
0.0
  0
LINE
  5
1231
330
2
100
AcDbEntity
  8
1
 48
10.0
100
AcDbLine
 10
10953.52815095664
 20
7871.958693604639
 30
0.0
 11
10953.52815095664
 21
9161.958693604638
 31
0.0
  0
LINE
  5
1232
330
2
100
AcDbEntity
  8
1
 48
10.0
100
AcDbLine
 10
10968.52815095664
 20
7766.958693604639
 30
0.0
 11
10968.52815095664
 21
9166.958693604639
 31
0.0
  0
LINE
  5
1233
330
2
100
AcDbEntity
  8
2
 48
10.0
100
AcDbLine
 10
11683.52815095664
 20
7766.958693604639
 30
0.0
 11
11683.52815095664
 21
8816.187013908022
 31
0.0
  0
LINE
  5
1234
330
2
100
AcDbEntity
  8
1
 48
10.0
100
AcDbLine
 10
11190.52815095664
 20
7899.958693604637
 30
0.0
 11
11190.52815095664
 21
8713.95869360464
 31
0.0
  0
LINE
  5
1235
330
2
100
AcDbEntity
  8
1
 48
10.0
100
AcDbLine
 10
11230.52815095664
 20
7939.958693604639
 30
0.0
 11
11230.52815095664
 21
8673.958693604639
 31
0.0
  0
LINE
  5
1236
330
2
100
AcDbEntity
  8
1
 48
10.0
100
AcDbLine
 10
10953.52815095664
 20
7871.958693604638
 30
0.0
 11
10968.52815095664
 21
7871.958693604638
 31
0.0
  0
LINE
  5
1237
330
2
100
AcDbEntity
  8
2
 48
10.0
100
AcDbLine
 10
11683.52815095664
 20
9081.982824879412
 30
0.0
 11
11683.52815095664
 21
9273.925306040824
 31
0.0
  0
LINE
  5
1238
330
2
100
AcDbEntity
  8
1
 48
10.0
100
AcDbLine
 10
10953.52815095664
 20
9161.958693604638
 30
0.0
 11
10968.52815095664
 21
9161.958693604638
 31
0.0
  0
LINE
  5
1239
330
2
100
AcDbEntity
  8
1
 48
10.0
100
AcDbLine
 10
8503.294304197131
 20
10368.97371961822
 30
0.0
 11
10313.29430419713
 21
10368.97371961822
 31
0.0
  0
LINE
  5
123A
330
2
100
AcDbEntity
  8
1
 48
10.0
100
AcDbLine
 10
10313.29430419713
 20
10368.97371961822
 30
0.0
 11
10313.29430419713
 21
10418.97371961822
 31
0.0
  0
LINE
  5
123B
330
2
100
AcDbEntity
  8
1
 48
10.0
100
AcDbLine
 10
10313.29430419713
 20
11798.97371961822
 30
0.0
 11
8503.294304197131
 21
11798.97371961822
 31
0.0
  0
LINE
  5
123C
330
2
100
AcDbEntity
  8
1
 48
10.0
100
AcDbLine
 10
8503.294304197131
 20
11798.97371961822
 30
0.0
 11
8503.294304197131
 21
11748.97371961822
 31
0.0
  0
LINE
  5
123D
330
2
100
AcDbEntity
  8
1
 48
10.0
100
AcDbLine
 10
8503.294304197131
 20
10418.97371961822
 30
0.0
 11
8583.29430419713
 21
10418.97371961822
 31
0.0
  0
LINE
  5
123E
330
2
100
AcDbEntity
  8
1
 48
10.0
100
AcDbLine
 10
10313.29430419713
 20
11748.97371961822
 30
0.0
 11
10233.29430419713
 21
11748.97371961822
 31
0.0
  0
LINE
  5
123F
330
2
100
AcDbEntity
  8
1
 48
10.0
100
AcDbLine
 10
10233.29430419713
 20
11688.73538427613
 30
0.0
 11
10233.29430419713
 21
10388.73538427613
 31
0.0
  0
LINE
  5
1240
330
2
100
AcDbEntity
  8
1
 48
10.0
100
AcDbLine
 10
10233.29430419713
 20
10353.97371961822
 30
0.0
 11
10233.29430419713
 21
11813.97371961822
 31
0.0
  0
LINE
  5
1241
330
2
100
AcDbEntity
  8
1
 48
10.0
100
AcDbLine
 10
8583.29430419713
 20
11813.97371961822
 30
0.0
 11
8583.29430419713
 21
10353.97371961822
 31
0.0
  0
LINE
  5
1242
330
2
100
AcDbEntity
  8
1
 48
10.0
100
AcDbLine
 10
10313.29430419713
 20
11748.97371961822
 30
0.0
 11
10313.29430419713
 21
11798.97371961822
 31
0.0
  0
LINE
  5
1243
330
2
100
AcDbEntity
  8
1
 48
10.0
100
AcDbLine
 10
8503.294304197131
 20
10418.97371961822
 30
0.0
 11
8503.294304197131
 21
10368.97371961822
 31
0.0
  0
LINE
  5
1244
330
2
100
AcDbEntity
  8
1
 48
10.0
100
AcDbLine
 10
10233.29430419713
 20
11813.97371961822
 30
0.0
 11
8583.29430419713
 21
11813.97371961822
 31
0.0
  0
LINE
  5
1245
330
2
100
AcDbEntity
  8
1
 48
10.0
100
AcDbLine
 10
8583.29430419713
 20
10353.97371961822
 30
0.0
 11
10233.29430419713
 21
10353.97371961822
 31
0.0
  0
LINE
  5
1246
330
2
100
AcDbEntity
  8
1
 48
10.0
100
AcDbLine
 10
8583.29430419713
 20
11748.97371961822
 30
0.0
 11
8503.294304197131
 21
11748.97371961822
 31
0.0
  0
LINE
  5
1247
330
2
100
AcDbEntity
  8
1
 48
10.0
100
AcDbLine
 10
10233.29430419713
 20
10418.97371961822
 30
0.0
 11
10313.29430419713
 21
10418.97371961822
 31
0.0
  0
LINE
  5
1249
330
2
100
AcDbEntity
  8
2
 48
10.0
100
AcDbLine
 10
8503.294304197131
 20
11083.97371961822
 30
0.0
 11
10313.29430419713
 21
11083.97371961822
 31
0.0
  0
LINE
  5
124A
330
2
100
AcDbEntity
  8
1
 48
10.0
100
AcDbLine
 10
10273.29430419713
 20
10590.97371961822
 30
0.0
 11
10273.29430419713
 21
11576.97371961822
 31
0.0
  0
LINE
  5
124B
330
2
100
AcDbEntity
  8
1
 48
10.0
100
AcDbLine
 10
8543.294304197129
 20
11576.97371961822
 30
0.0
 11
8543.294304197129
 21
10590.97371961822
 31
0.0
  0
LINE
  5
124C
330
2
100
AcDbEntity
  8
1
 48
10.0
100
AcDbLine
 10
8543.294304197129
 20
11576.97371961822
 30
0.0
 11
8583.29430419713
 21
11576.97371961822
 31
0.0
  0
LINE
  5
124D
330
2
100
AcDbEntity
  8
1
 48
10.0
100
AcDbLine
 10
8543.294304197127
 20
10590.97371961822
 30
0.0
 11
8583.29430419713
 21
10590.97371961822
 31
0.0
  0
LINE
  5
124E
330
2
100
AcDbEntity
  8
1
 48
10.0
100
AcDbLine
 10
10233.29430419713
 20
11576.97371961822
 30
0.0
 11
10273.29430419713
 21
11576.97371961822
 31
0.0
  0
LINE
  5
124F
330
2
100
AcDbEntity
  8
1
 48
10.0
100
AcDbLine
 10
10233.29430419713
 20
10590.97371961822
 30
0.0
 11
10273.29430419713
 21
10590.97371961822
 31
0.0
  0
ARC
  5
1253
330
2
100
AcDbEntity
  8
4
 48
10.0
100
AcDbCircle
 10
9785.29430419713
 20
8574.958693604639
 30
0.0
 40
526.0
100
AcDbArc
 50
180.0
 51
265.420176417686
  0
ARC
  5
1254
330
2
100
AcDbEntity
  8
4
 48
10.0
100
AcDbCircle
 10
9701.294304197132
 20
8574.958693604639
 30
0.0
 40
442.0
100
AcDbArc
 50
90.0
 51
180.0
  0
ARC
  5
1258
330
2
100
AcDbEntity
  8
4
 48
10.0
100
AcDbCircle
 10
9710.29430419713
 20
8649.958693604638
 30
0.0
 40
367.0
100
AcDbArc
 50
0.0
 51
90.0
  0
ARC
  5
1259
330
2
100
AcDbEntity
  8
4
 48
10.0
100
AcDbCircle
 10
9776.294304197131
 20
8649.958693604638
 30
0.0
 40
301.0
100
AcDbArc
 50
349.8585019162155
 51
0.0
  0
LINE
  5
125A
330
2
100
AcDbEntity
  8
4
 48
10.0
100
AcDbLine
 10
10133.29430419713
 20
7986.958693604636
 30
0.0
 11
10133.29430419713
 21
8626.958693604638
 31
0.0
  0
LINE
  5
125C
330
2
100
AcDbEntity
  8
4
 48
10.0
100
AcDbLine
 10
9743.29430419713
 20
8050.638180940866
 30
0.0
 11
10133.29430419713
 21
8016.958693604639
 31
0.0
  0
LINE
  5
125D
330
2
100
AcDbEntity
  8
4
 48
10.0
100
AcDbLine
 10
10072.59145234405
 20
8596.958693604639
 30
0.0
 11
10133.29430419713
 21
8596.958693604639
 31
0.0
  0
LINE
  5
1263
330
2
100
AcDbEntity
  8
4
 48
10.0
100
AcDbLine
 10
10133.29430419713
 20
8596.958693604639
 30
0.0
 11
10233.29430419713
 21
8596.958693604639
 31
0.0
  0
LINE
  5
1264
330
2
100
AcDbEntity
  8
4
 48
10.0
100
AcDbLine
 10
10133.29430419713
 20
8016.958693604639
 30
0.0
 11
10233.29430419713
 21
8016.958693604639
 31
0.0
  0
DIMENSION
  5
1271
330
2
100
AcDbEntity
  8
3
 48
10.0
100
AcDbDimension
  2
*D1
 10
10605.09902690321
 20
10368.97371961822
 30
0.0
 11
10535.09902690321
 21
11083.97371961822
 31
0.0
 70
    32
 71
     5
 42
-1.0
  3
MATSU
100
AcDbAlignedDimension
 13
10313.29430419713
 23
11798.97371961822
 33
0.0
 14
10313.29430419713
 24
10368.97371961822
 34
0.0
 50
90.0
100
AcDbRotatedDimension
1001
ACAD
1000
DSTYLE
1002
{
1070
   140
1040
2.5
1070
    40
1040
40.0
1070
     7
1000
_OPEN
1070
     6
1000
_OPEN
1002
}
  0
DIMENSION
  5
127E
330
2
100
AcDbEntity
  8
3
 48
10.0
100
AcDbDimension
  2
*D2
 10
12398.52815095664
 20
7527.46442811292
 30
0.0
 11
11683.52815095664
 21
7597.46442811292
 31
0.0
 70
    32
 71
     5
 42
-1.0
  3
MATSU
100
AcDbAlignedDimension
 13
10968.52815095664
 23
7766.958693604639
 33
0.0
 14
12398.52815095664
 24
7766.958693604639
 34
0.0
100
AcDbRotatedDimension
1001
ACAD
1000
DSTYLE
1002
{
1070
   140
1040
2.5
1070
    40
1040
40.0
1070
     7
1000
_OPEN
1070
     6
1000
_OPEN
1002
}
  0
DIMENSION
  5
128B
330
2
100
AcDbEntity
  8
3
 48
10.0
100
AcDbDimension
  2
*D3
 10
8503.294304197131
 20
7527.46442811292
 30
0.0
 11
9408.294304197131
 21
7597.46442811292
 31
0.0
 70
    32
 71
     5
 42
-1.0
  3
MATSU
100
AcDbAlignedDimension
 13
10313.29430419713
 23
7766.958693604639
 33
0.0
 14
8503.294304197131
 24
7766.958693604639
 34
0.0
100
AcDbRotatedDimension
1001
ACAD
1000
DSTYLE
1002
{
1070
   140
1040
2.5
1070
    40
1040
40.0
1070
     7
1000
_OPEN
1070
     6
1000
_OPEN
1002
}
  0
DIMENSION
  5
1298
330
2
100
AcDbEntity
  8
3
 48
10.0
100
AcDbDimension
  2
*D4
 10
7848.060457437611
 20
7527.46442811292
 30
0.0
 11
7133.060457437612
 21
7597.46442811292
 31
0.0
 70
    32
 71
     5
 42
-1.0
  3
MATSU
100
AcDbAlignedDimension
 13
6418.060457437611
 23
7766.958693604639
 33
0.0
 14
7848.060457437611
 24
7766.95869360464
 34
0.0
100
AcDbRotatedDimension
1001
ACAD
1000
DSTYLE
1002
{
1070
   140
1040
2.5
1070
    40
1040
40.0
1070
     7
1000
_OPEN
1070
     6
1000
_OPEN
1002
}
  0
DIMENSION
  5
12A5
330
2
100
AcDbEntity
  8
3
 48
10.0
100
AcDbDimension
  2
*D5
 10
7586.060457437612
 20
8874.075034021437
 30
0.0
 11
7133.060457437612
 21
8944.075034021437
 31
0.0
 70
    32
 71
     5
 42
-1.0
  3
MATSU
100
AcDbAlignedDimension
 13
6680.060457437614
 23
8673.958693604637
 33
0.0
 14
7586.060457437612
 24
8673.958693604639
 34
0.0
100
AcDbRotatedDimension
1001
ACAD
1000
DSTYLE
1002
{
1070
   140
1040
2.5
1070
    40
1040
40.0
1070
     7
1000
_OPEN
1070
     6
1000
_OPEN
1002
}
  0
DIMENSION
  5
12B2
330
2
100
AcDbEntity
  8
3
 48
10.0
100
AcDbDimension
  2
*D6
 10
8087.991555215813
 20
7939.958693604639
 30
0.0
 11
8017.991555215813
 21
8306.95869360464
 31
0.0
 70
    32
 71
     5
 42
-1.0
  3
MATSU
100
AcDbAlignedDimension
 13
7586.060457437612
 23
8673.958693604639
 33
0.0
 14
7586.060457437612
 24
7939.958693604639
 34
0.0
 50
90.0
100
AcDbRotatedDimension
1001
ACAD
1000
DSTYLE
1002
{
1070
   140
1040
2.5
1070
    40
1040
40.0
1070
     7
1000
_OPEN
1070
     6
1000
_OPEN
1002
}
  0
DIMENSION
  5
12BF
330
2
100
AcDbEntity
  8
3
 48
10.0
100
AcDbDimension
  2
*D7
 10
10487.59739514701
 20
7766.958693604639
 30
0.0
 11
10417.59739514701
 21
8036.958693604638
 31
0.0
 70
    32
 71
     5
 42
-1.0
  3
MATSU
100
AcDbAlignedDimension
 13
10313.29430419713
 23
8306.958693604638
 33
0.0
 14
10313.29430419713
 24
7766.958693604639
 34
0.0
 50
270.0
100
AcDbRotatedDimension
1001
ACAD
1000
DSTYLE
1002
{
1070
   140
1040
2.5
1070
    40
1040
40.0
1070
     7
1000
_OPEN
1070
     6
1000
_OPEN
1002
}
  0
DIMENSION
  5
12CC
330
2
100
AcDbEntity
  8
3
 48
10.0
100
AcDbDimension
  2
*D8
 10
7133.060457437612
 20
9391.316197416641
 30
0.0
 11
6775.560457437612
 21
9461.316197416641
 31
0.0
 70
    32
 71
     5
 42
-1.0
  3
MATSU
100
AcDbAlignedDimension
 13
6418.060457437611
 23
9166.958693604639
 33
0.0
 14
7133.060457437612
 24
9273.925306040824
 34
0.0
100
AcDbRotatedDimension
1001
ACAD
1000
DSTYLE
1002
{
1070
   140
1040
2.5
1070
    40
1040
40.0
1070
     7
1000
_OPEN
1070
     6
1000
_OPEN
1002
}
  0
DIMENSION
  5
12D9
330
2
100
AcDbEntity
  8
3
 48
10.0
100
AcDbDimension
  2
*D9
 10
7848.060457437611
 20
9391.316197416641
 30
0.0
 11
7490.560457437613
 21
9461.316197416641
 31
0.0
 70
    32
 71
     5
 42
-1.0
  3
MATSU
100
AcDbAlignedDimension
 13
7133.060457437612
 23
9273.925306040824
 33
0.0
 14
7848.060457437611
 24
9166.958693604639
 34
0.0
100
AcDbRotatedDimension
1001
ACAD
1000
DSTYLE
1002
{
1070
   140
1040
2.5
1070
    40
1040
40.0
1070
     7
1000
_OPEN
1070
     6
1000
_OPEN
1002
}
  0
DIMENSION
  5
12E6
330
2
100
AcDbEntity
  8
3
 48
10.0
100
AcDbDimension
  2
*D10
 10
8583.29430419713
 20
9391.316197416641
 30
0.0
 11
9408.294304197131
 21
9461.316197416641
 31
0.0
 70
    32
 71
     5
 42
-1.0
  3
MATSU
100
AcDbAlignedDimension
 13
10233.29430419713
 23
9166.958693604639
 33
0.0
 14
8583.29430419713
 24
9166.958693604639
 34
0.0
100
AcDbRotatedDimension
1001
ACAD
1000
DSTYLE
1002
{
1070
   140
1040
2.5
1070
    40
1040
40.0
1070
     7
1000
_OPEN
1070
     6
1000
_OPEN
1002
}
  0
DIMENSION
  5
12F3
330
2
100
AcDbEntity
  8
3
 48
10.0
100
AcDbDimension
  2
*D11
 10
11683.52815095664
 20
9391.316197416641
 30
0.0
 11
11326.02815095664
 21
9461.316197416641
 31
0.0
 70
    32
 71
     5
 42
-1.0
  3
MATSU
100
AcDbAlignedDimension
 13
10968.52815095664
 23
9166.958693604639
 33
0.0
 14
11683.52815095664
 24
9273.925306040824
 34
0.0
100
AcDbRotatedDimension
1001
ACAD
1000
DSTYLE
1002
{
1070
   140
1040
2.5
1070
    40
1040
40.0
1070
     7
1000
_OPEN
1070
     6
1000
_OPEN
1002
}
  0
DIMENSION
  5
1300
330
2
100
AcDbEntity
  8
3
 48
10.0
100
AcDbDimension
  2
*D12
 10
12398.52815095664
 20
9391.316197416641
 30
0.0
 11
12041.02815095664
 21
9461.316197416641
 31
0.0
 70
    32
 71
     5
 42
-1.0
  3
MATSU
100
AcDbAlignedDimension
 13
11683.52815095664
 23
9273.925306040824
 33
0.0
 14
12398.52815095664
 24
9166.958693604639
 34
0.0
100
AcDbRotatedDimension
1001
ACAD
1000
DSTYLE
1002
{
1070
   140
1040
2.5
1070
    40
1040
40.0
1070
     7
1000
_OPEN
1070
     6
1000
_OPEN
1002
}
  0
DIMENSION
  5
130D
330
2
100
AcDbEntity
  8
3
 48
10.0
100
AcDbDimension
  2
*D13
 10
12136.52815095664
 20
8874.075034021437
 30
0.0
 11
11683.52815095664
 21
8944.075034021437
 31
0.0
 70
    32
 71
     5
 42
-1.0
  3
MATSU
100
AcDbAlignedDimension
 13
11230.52815095664
 23
8673.958693604639
 33
0.0
 14
12136.52815095664
 24
8673.958693604637
 34
0.0
100
AcDbRotatedDimension
1001
ACAD
1000
DSTYLE
1002
{
1070
   140
1040
2.5
1070
    40
1040
40.0
1070
     7
1000
_OPEN
1070
     6
1000
_OPEN
1002
}
  0
DIMENSION
  5
131A
330
2
100
AcDbEntity
  8
3
 48
10.0
100
AcDbDimension
  2
*D14
 10
12649.13314095618
 20
7939.958693604637
 30
0.0
 11
12579.13314095618
 21
8306.958693604638
 31
0.0
 70
    32
 71
     5
 42
-1.0
  3
MATSU
100
AcDbAlignedDimension
 13
12136.52815095664
 23
8673.958693604637
 33
0.0
 14
12136.52815095664
 24
7939.958693604637
 34
0.0
 50
90.0
100
AcDbRotatedDimension
1001
ACAD
1000
DSTYLE
1002
{
1070
   140
1040
2.5
1070
    40
1040
40.0
1070
     7
1000
_OPEN
1070
     6
1000
_OPEN
1002
}
  0
ENDSEC
  0
SECTION
  2
OBJECTS
  0
DICTIONARY
  5
1A
330
0
100
AcDbDictionary
281
     1
  3
ACAD_GROUP
350
18
  3
ACAD_LAYOUT
350
8AC
  3
ACAD_MLINESTYLE
350
19
  3
ACAD_PLOTSETTINGS
350
8AD
  3
ACAD_PLOTSTYLENAME
350
8AA
  0
DICTIONARY
  5
8D9
330
2
100
AcDbDictionary
280
     1
281
     1
  3
ACAD_LAYOUTSELFREF
360
C7D
  0
DICTIONARY
  5
8DB
330
8
100
AcDbDictionary
280
     1
281
     1
  3
ACAD_LAYOUTSELFREF
360
C7E
  0
DICTIONARY
  5
18
102
{ACAD_REACTORS
330
1A
102
}
330
1A
100
AcDbDictionary
281
     1
  0
DICTIONARY
  5
8AC
102
{ACAD_REACTORS
330
1A
102
}
330
1A
100
AcDbDictionary
281
     1
  3
Model
350
8AE
  3
ﾚｲｱｳﾄ1
350
8AF
  0
DICTIONARY
  5
19
102
{ACAD_REACTORS
330
1A
102
}
330
1A
100
AcDbDictionary
281
     1
  3
STANDARD
350
1E
  0
DICTIONARY
  5
8AD
102
{ACAD_REACTORS
330
1A
102
}
330
1A
100
AcDbDictionary
281
     1
  0
ACDBDICTIONARYWDFLT
  5
8AA
102
{ACAD_REACTORS
330
1A
102
}
330
1A
100
AcDbDictionary
281
     1
  3
Normal
350
8AB
100
AcDbDictionaryWithDefault
340
8AB
1001
ACAD
1000
TREAT_AS_HARD
1070
     0
1000
TREAT_AS_HARD
1070
     0
  0
XRECORD
  5
C7D
102
{ACAD_REACTORS
330
8D9
102
}
330
8D9
100
AcDbXrecord
280
     1
340
2
  0
XRECORD
  5
C7E
102
{ACAD_REACTORS
330
8DB
102
}
330
8DB
100
AcDbXrecord
280
     1
340
8
  0
LAYOUT
  5
8AE
102
{ACAD_REACTORS
330
8AC
102
}
330
8AC
100
AcDbPlotSettings
  1

  2
EPSON LP-9300
  4

  6

 40
0.0
 41
0.0
 42
0.0
 43
0.0
 44
0.0
 45
0.0
 46
0.0
 47
0.0
 48
0.0
 49
0.0
140
0.0
141
0.0
142
1.0
143
1.0
 70
  1712
 72
     0
 73
     0
 74
     0
  7

 75
     0
147
1.0
148
0.0
149
0.0
100
AcDbLayout
  1
Model
 70
     1
 71
     0
 10
0.0
 20
0.0
 11
12.0
 21
9.0
 12
0.0
 22
0.0
 32
0.0
 14
0.0
 24
0.0
 34
0.0
 15
0.0
 25
0.0
 35
0.0
146
0.0
 13
0.0
 23
0.0
 33
0.0
 16
1.0
 26
0.0
 36
0.0
 17
0.0
 27
1.0
 37
0.0
 76
     0
330
2
  0
LAYOUT
  5
8AF
102
{ACAD_REACTORS
330
8AC
102
}
330
8AC
100
AcDbPlotSettings
  1

  2
EPSON LP-9300
  4

  6

 40
0.0
 41
0.0
 42
0.0
 43
0.0
 44
0.0
 45
0.0
 46
0.0
 47
0.0
 48
0.0
 49
0.0
140
0.0
141
0.0
142
1.0
143
1.0
 70
   688
 72
     0
 73
     0
 74
     5
  7

 75
    16
147
1.0
148
0.0
149
0.0
100
AcDbLayout
  1
ﾚｲｱｳﾄ1
 70
     0
 71
     1
 10
0.0
 20
0.0
 11
12.0
 21
9.0
 12
0.0
 22
0.0
 32
0.0
 14
1.000000000000000E+20
 24
1.000000000000000E+20
 34
1.000000000000000E+20
 15
-1.000000000000000E+20
 25
-1.000000000000000E+20
 35
-1.000000000000000E+20
146
0.0
 13
0.0
 23
0.0
 33
0.0
 16
1.0
 26
0.0
 36
0.0
 17
0.0
 27
1.0
 37
0.0
 76
     0
330
8
  0
MLINESTYLE
  5
1E
102
{ACAD_REACTORS
330
19
102
}
330
19
100
AcDbMlineStyle
  2
STANDARD
 70
     0
  3

 62
     0
 51
90.0
 52
90.0
 71
     2
 49
0.5
 62
   256
  6
BYLAYER
 49
-0.5
 62
   256
  6
BYLAYER
  0
ACDBPLACEHOLDER
  5
8AB
102
{ACAD_REACTORS
330
8AA
102
}
330
8AA
  0
ENDSEC
  0
EOF
