  0
SECTION
  2
HEADER
  9
$ACADVER
  1
AC1009
  9
$INSBASE
 10
0.0
 20
0.0
 30
0.0
  9
$EXTMIN
 10
6403.0604574376111
 20
5426.5815883283894
 30
0.0
  9
$EXTMAX
 10
12819.74395831865
 20
15373.190634328381
 30
0.0
  9
$LIMMIN
 10
0.0
 20
0.0
  9
$LIMMAX
 10
297.0
 20
210.0
  9
$ORTHOMODE
 70
     0
  9
$REGENMODE
 70
     1
  9
$FILLMODE
 70
     1
  9
$QTEXTMODE
 70
     0
  9
$MIRRTEXT
 70
     0
  9
$DRAGMODE
 70
     2
  9
$LTSCALE
 40
20.0
  9
$OSMODE
 70
    37
  9
$ATTMODE
 70
     1
  9
$TEXTSIZE
 40
52.5
  9
$TRACEWID
 40
0.05
  9
$TEXTSTYLE
  7
STANDARD
  9
$CLAYER
  8
3
  9
$CELTYPE
  6
BYLAYER
  9
$CECOLOR
 62
   256
  9
$DIMSCALE
 40
40.0
  9
$DIMASZ
 40
2.0
  9
$DIMEXO
 40
1.0
  9
$DIMDLI
 40
10.0
  9
$DIMRND
 40
0.0
  9
$DIMDLE
 40
0.0
  9
$DIMEXE
 40
1.0
  9
$DIMTP
 40
0.0
  9
$DIMTM
 40
0.0
  9
$DIMTXT
 40
2.5
  9
$DIMCEN
 40
0.0
  9
$DIMTSZ
 40
0.0
  9
$DIMTOL
 70
     0
  9
$DIMLIM
 70
     0
  9
$DIMTIH
 70
     0
  9
$DIMTOH
 70
     0
  9
$DIMSE1
 70
     0
  9
$DIMSE2
 70
     0
  9
$DIMTAD
 70
     1
  9
$DIMZIN
 70
     8
  9
$DIMBLK
  1

  9
$DIMASO
 70
     1
  9
$DIMSHO
 70
     1
  9
$DIMPOST
  1

  9
$DIMAPOST
  1

  9
$DIMALT
 70
     0
  9
$DIMALTD
 70
     2
  9
$DIMALTF
 40
0.03937
  9
$DIMLFAC
 40
1.0
  9
$DIMTOFL
 70
     1
  9
$DIMTVP
 40
0.0
  9
$DIMTIX
 70
     0
  9
$DIMSOXD
 70
     0
  9
$DIMSAH
 70
     1
  9
$DIMBLK1
  1
OPEN
  9
$DIMBLK2
  1
OPEN
  9
$DIMSTYLE
  2
MATSU
  9
$DIMCLRD
 70
   256
  9
$DIMCLRE
 70
   256
  9
$DIMCLRT
 70
   256
  9
$DIMTFAC
 40
1.0
  9
$DIMGAP
 40
0.5
  9
$LUNITS
 70
     2
  9
$LUPREC
 70
     3
  9
$SKETCHINC
 40
0.1
  9
$FILLETRAD
 40
5.0
  9
$AUNITS
 70
     0
  9
$AUPREC
 70
     2
  9
$MENU
  1
acad
  9
$ELEVATION
 40
0.0
  9
$PELEVATION
 40
0.0
  9
$THICKNESS
 40
0.0
  9
$LIMCHECK
 70
     0
  9
$BLIPMODE
 70
     0
  9
$CHAMFERA
 40
0.0
  9
$CHAMFERB
 40
0.0
  9
$SKPOLY
 70
     0
  9
$TDCREATE
 40
2451997.4538002321
  9
$TDUPDATE
 40
2454953.8559909491
  9
$TDINDWG
 40
0.0727045833
  9
$TDUSRTIMER
 40
0.0727045833
  9
$USRTIMER
 70
     1
  9
$ANGBASE
 50
0.0
  9
$ANGDIR
 70
     0
  9
$PDMODE
 70
     0
  9
$PDSIZE
 40
1.0
  9
$PLINEWID
 40
0.0
  9
$COORDS
 70
     1
  9
$SPLFRAME
 70
     0
  9
$SPLINETYPE
 70
     6
  9
$SPLINESEGS
 70
     8
  9
$ATTDIA
 70
     0
  9
$ATTREQ
 70
     1
  9
$HANDLING
 70
 10241
  9
$HANDSEED
  5
134F
  9
$SURFTAB1
 70
     6
  9
$SURFTAB2
 70
     6
  9
$SURFTYPE
 70
     6
  9
$SURFU
 70
     6
  9
$SURFV
 70
     6
  9
$UCSNAME
  2

  9
$UCSORG
 10
0.0
 20
0.0
 30
0.0
  9
$UCSXDIR
 10
1.0
 20
0.0
 30
0.0
  9
$UCSYDIR
 10
0.0
 20
1.0
 30
0.0
  9
$PUCSNAME
  2

  9
$PUCSORG
 10
0.0
 20
0.0
 30
0.0
  9
$PUCSXDIR
 10
1.0
 20
0.0
 30
0.0
  9
$PUCSYDIR
 10
0.0
 20
1.0
 30
0.0
  9
$USERI1
 70
     0
  9
$USERI2
 70
     0
  9
$USERI3
 70
     0
  9
$USERI4
 70
     0
  9
$USERI5
 70
     0
  9
$USERR1
 40
0.0
  9
$USERR2
 40
0.0
  9
$USERR3
 40
0.0
  9
$USERR4
 40
0.0
  9
$USERR5
 40
0.0
  9
$WORLDVIEW
 70
     1
  9
$SHADEDGE
 70
     3
  9
$SHADEDIF
 70
    70
  9
$TILEMODE
 70
     1
  9
$MAXACTVP
 70
    16
  9
$PLIMCHECK
 70
     0
  9
$PEXTMIN
 10
1.0000000000000000E+020
 20
1.0000000000000000E+020
 30
1.0000000000000000E+020
  9
$PEXTMAX
 10
-1.0000000000000000E+020
 20
-1.0000000000000000E+020
 30
-1.0000000000000000E+020
  9
$PLIMMIN
 10
0.0
 20
0.0
  9
$PLIMMAX
 10
12.0
 20
9.0
  9
$UNITMODE
 70
     0
  9
$VISRETAIN
 70
     0
  9
$PLINEGEN
 70
     0
  9
$PSLTSCALE
 70
     0
  0
ENDSEC
  0
SECTION
  2
TABLES
  0
TABLE
  2
VPORT
 70
     2
  0
VPORT
  2
*ACTIVE
 70
     0
 10
0.0
 20
0.0
 11
1.0
 21
1.0
 12
13214.373792426781
 22
9513.6757693373584
 13
0.0
 23
0.0
 14
5.0
 24
5.0
 15
0.0
 25
0.0
 16
0.0
 26
0.0
 36
1.0
 17
0.0
 27
0.0
 37
0.0
 40
12428.730053126121
 41
1.5051150895140659
 42
50.0
 43
0.0
 44
0.0
 50
0.0
 51
0.0
 71
     0
 72
   100
 73
     1
 74
     0
 75
     0
 76
     0
 77
     0
 78
     2
  0
ENDTAB
  0
TABLE
  2
LTYPE
 70
     2
  0
LTYPE
  2
CONTINUOUS
 70
     0
  3
Solid line
 72
    65
 73
     0
 40
0.0
  0
LTYPE
  2
CENTER
 70
     0
  3
____ _ ____ _ ____ _ ____ _ ____ _ ____ _ ____ 
 72
    65
 73
     4
 40
2.0
 49
1.25
 49
-0.25
 49
0.25
 49
-0.25
  0
ENDTAB
  0
TABLE
  2
LAYER
 70
     6
  0
LAYER
  2
0
 70
     0
 62
     7
  6
CONTINUOUS
  0
LAYER
  2
DEFPOINTS
 70
     0
 62
     7
  6
CONTINUOUS
  0
LAYER
  2
3
 70
     0
 62
     2
  6
CONTINUOUS
  0
LAYER
  2
2
 70
     0
 62
     3
  6
CENTER
  0
LAYER
  2
1
 70
     0
 62
     4
  6
CONTINUOUS
  0
LAYER
  2
4
 70
     0
 62
     7
  6
CONTINUOUS
  0
ENDTAB
  0
TABLE
  2
STYLE
 70
     2
  0
STYLE
  2
STANDARD
 70
     0
 40
0.0
 41
1.0
 50
0.0
 71
     0
 42
52.5
  3
C:\Program Files\AutoCAD LT\simplex.shx
  4
C:\Program Files\AutoCAD LT\extfont.shx
  0
STYLE
  2
SUNPOU
 70
     0
 40
0.0
 41
1.0
 50
15.0
 71
     0
 42
5.0
  3
simplex.shx
  4
extfont.shx
  0
ENDTAB
  0
TABLE
  2
VIEW
 70
     0
  0
ENDTAB
  0
TABLE
  2
UCS
 70
     0
  0
ENDTAB
  0
TABLE
  2
APPID
 70
     1
  0
APPID
  2
ACAD
 70
     0
  0
ENDTAB
  0
TABLE
  2
DIMSTYLE
 70
     2
  0
DIMSTYLE
  2
MATSU
 70
     0
  3

  4

  5

  6
OPEN
  7
OPEN
 40
10.0
 41
2.0
 42
1.0
 43
10.0
 44
1.0
 45
0.0
 46
0.0
 47
0.0
 48
0.0
140
3.0
141
0.0
142
0.0
143
0.03937
144
1.0
145
0.0
146
1.0
147
0.5
 71
     0
 72
     0
 73
     0
 74
     0
 75
     0
 76
     0
 77
     1
 78
     8
170
     0
171
     2
172
     1
173
     1
174
     0
175
     0
176
   256
177
   256
178
   256
  0
DIMSTYLE
  2
IGA
 70
     0
  3

  4

  5

  6
OPEN
  7
OPEN
 40
2.0
 41
2.0
 42
0.5
 43
10.0
 44
1.0
 45
0.0
 46
0.0
 47
1.0
 48
1.0
140
3.0
141
0.0
142
0.0
143
0.03937
144
1.0
145
0.0
146
10.0
147
1.0
 71
     0
 72
     0
 73
     0
 74
     0
 75
     0
 76
     0
 77
     1
 78
     8
170
     0
171
     2
172
     0
173
     1
174
     0
175
     0
176
     0
177
     0
178
     0
  0
ENDTAB
  0
ENDSEC
  0
SECTION
  2
BLOCKS
  0
BLOCK
  8
0
  2
$MODEL_SPACE
 70
     0
 10
0.0
 20
0.0
 30
0.0
  3
$MODEL_SPACE
  1

  0
ENDBLK
  5
7
  8
0
  0
BLOCK
 67
     1
  8
0
  2
$PAPER_SPACE
 70
     0
 10
0.0
 20
0.0
 30
0.0
  3
$PAPER_SPACE
  1

  0
ENDBLK
  5
A
 67
     1
  8
0
  0
BLOCK
  8
0
  2
_OPEN
 70
     0
 10
0.0
 20
0.0
 30
0.0
  3
_OPEN
  1

  0
LINE
  5
194
  8
0
  6
BYBLOCK
 62
     0
 10
-1.0
 20
0.1666666666666666
 30
0.0
 11
0.0
 21
0.0
 31
0.0
  0
LINE
  5
195
  8
0
  6
BYBLOCK
 62
     0
 10
0.0
 20
0.0
 30
0.0
 11
-1.0
 21
-0.1666666666666666
 31
0.0
  0
LINE
  5
196
  8
0
  6
BYBLOCK
 62
     0
 10
0.0
 20
0.0
 30
0.0
 11
-1.0
 21
0.0
 31
0.0
  0
ENDBLK
  5
197
  8
0
  0
BLOCK
  8
0
  2
*D1
 70
     1
 10
0.0
 20
0.0
 30
0.0
  3
*D1
  1

  0
LINE
  5
1267
  8
0
  6
BYBLOCK
 10
10353.29430419713
 20
11798.97371961822
 30
0.0
 11
10645.09902690321
 21
11798.97371961822
 31
0.0
  0
LINE
  5
1268
  8
0
  6
BYBLOCK
 10
10353.29430419713
 20
10368.97371961822
 30
0.0
 11
10645.09902690321
 21
10368.97371961822
 31
0.0
  0
LINE
  5
1269
  8
0
  6
BYBLOCK
 10
10605.09902690321
 20
11718.97371961822
 30
0.0
 11
10605.09902690321
 21
10448.97371961822
 31
0.0
  0
INSERT
  5
126A
  8
0
  6
BYBLOCK
  2
_OPEN
 10
10605.09902690321
 20
11798.97371961822
 30
0.0
 41
80.0
 42
80.0
 43
80.0
 50
90.0
  0
INSERT
  5
126B
  8
0
  6
BYBLOCK
  2
_OPEN
 10
10605.09902690321
 20
10368.97371961822
 30
0.0
 41
80.0
 42
80.0
 43
80.0
 50
270.0
  0
TEXT
  5
126C
  8
3
 10
10585.09902690321
 20
10897.996880230939
 30
0.0
 40
100.0
  1
1430
 50
90.0
 51
15.0
  7
SUNPOU
  0
POINT
  5
126D
  8
DEFPOINTS
  6
BYBLOCK
 62
     0
 10
10313.29430419713
 20
11798.97371961822
 30
0.0
  0
POINT
  5
126E
  8
DEFPOINTS
  6
BYBLOCK
 62
     0
 10
10313.29430419713
 20
10368.97371961822
 30
0.0
  0
POINT
  5
126F
  8
DEFPOINTS
  6
BYBLOCK
 62
     0
 10
10605.09902690321
 20
10368.97371961822
 30
0.0
  0
ENDBLK
  5
1270
  8
0
  0
BLOCK
  8
0
  2
*D2
 70
     1
 10
0.0
 20
0.0
 30
0.0
  3
*D2
  1

  0
LINE
  5
1274
  8
0
  6
BYBLOCK
 10
10968.528150956639
 20
7726.9586936046398
 30
0.0
 11
10968.528150956639
 21
7487.4644281129213
 31
0.0
  0
LINE
  5
1275
  8
0
  6
BYBLOCK
 10
12398.528150956639
 20
7726.958693604638
 30
0.0
 11
12398.528150956639
 21
7487.4644281129213
 31
0.0
  0
LINE
  5
1276
  8
0
  6
BYBLOCK
 10
11048.528150956639
 20
7527.4644281129204
 30
0.0
 11
12318.528150956639
 21
7527.4644281129204
 31
0.0
  0
INSERT
  5
1277
  8
0
  6
BYBLOCK
  2
_OPEN
 10
10968.528150956639
 20
7527.4644281129204
 30
0.0
 41
80.0
 42
80.0
 43
80.0
 50
180.0
  0
INSERT
  5
1278
  8
0
  6
BYBLOCK
  2
_OPEN
 10
12398.528150956639
 20
7527.4644281129204
 30
0.0
 41
80.0
 42
80.0
 43
80.0
  0
TEXT
  5
1279
  8
3
 10
11497.551311569359
 20
7547.4644281129204
 30
0.0
 40
100.0
  1
1430
 51
15.0
  7
SUNPOU
  0
POINT
  5
127A
  8
DEFPOINTS
  6
BYBLOCK
 62
     0
 10
10968.528150956639
 20
7766.9586936046389
 30
0.0
  0
POINT
  5
127B
  8
DEFPOINTS
  6
BYBLOCK
 62
     0
 10
12398.528150956639
 20
7766.9586936046389
 30
0.0
  0
POINT
  5
127C
  8
DEFPOINTS
  6
BYBLOCK
 62
     0
 10
12398.528150956639
 20
7527.4644281129204
 30
0.0
  0
ENDBLK
  5
127D
  8
0
  0
BLOCK
  8
0
  2
*D3
 70
     1
 10
0.0
 20
0.0
 30
0.0
  3
*D3
  1

  0
LINE
  5
131E
  8
0
  6
BYBLOCK
 10
10313.29430419713
 20
7726.958693604638
 30
0.0
 11
10313.29430419713
 21
7487.4644281129213
 31
0.0
  0
LINE
  5
131F
  8
0
  6
BYBLOCK
 10
8503.2943041971303
 20
7726.958693604638
 30
0.0
 11
8503.2943041971303
 21
7487.4644281129213
 31
0.0
  0
LINE
  5
1320
  8
0
  6
BYBLOCK
 10
10233.29430419713
 20
7527.4644281129204
 30
0.0
 11
8583.2943041971303
 21
7527.4644281129204
 31
0.0
  0
INSERT
  5
1321
  8
0
  6
BYBLOCK
  2
_OPEN
 10
10313.29430419713
 20
7527.4644281129204
 30
0.0
 41
80.0
 42
80.0
 43
80.0
  0
INSERT
  5
1322
  8
0
  6
BYBLOCK
  2
_OPEN
 10
8503.2943041971303
 20
7527.4644281129204
 30
0.0
 41
80.0
 42
80.0
 43
80.0
 50
180.0
  0
TEXT
  5
1323
  8
3
 10
9231.8412743336594
 20
7547.4644281129204
 30
0.0
 40
100.0
  1
1810
 51
15.0
  7
SUNPOU
  0
POINT
  5
1324
  8
DEFPOINTS
  6
BYBLOCK
 62
     0
 10
10313.29430419713
 20
7766.9586936046389
 30
0.0
  0
POINT
  5
1325
  8
DEFPOINTS
  6
BYBLOCK
 62
     0
 10
8503.2943041971303
 20
7766.9586936046389
 30
0.0
  0
POINT
  5
1326
  8
DEFPOINTS
  6
BYBLOCK
 62
     0
 10
8503.2943041971303
 20
7527.4644281129204
 30
0.0
  0
ENDBLK
  5
1327
  8
0
  0
BLOCK
  8
0
  2
*D4
 70
     1
 10
0.0
 20
0.0
 30
0.0
  3
*D4
  1

  0
LINE
  5
128E
  8
0
  6
BYBLOCK
 10
6418.0604574376111
 20
7726.958693604638
 30
0.0
 11
6418.0604574376111
 21
7487.4644281129213
 31
0.0
  0
LINE
  5
128F
  8
0
  6
BYBLOCK
 10
7848.0604574376111
 20
7726.9586936046398
 30
0.0
 11
7848.0604574376111
 21
7487.4644281129213
 31
0.0
  0
LINE
  5
1290
  8
0
  6
BYBLOCK
 10
6498.0604574376111
 20
7527.4644281129204
 30
0.0
 11
7768.0604574376121
 21
7527.4644281129204
 31
0.0
  0
INSERT
  5
1291
  8
0
  6
BYBLOCK
  2
_OPEN
 10
6418.0604574376111
 20
7527.4644281129204
 30
0.0
 41
80.0
 42
80.0
 43
80.0
 50
180.0
  0
INSERT
  5
1292
  8
0
  6
BYBLOCK
  2
_OPEN
 10
7848.0604574376111
 20
7527.4644281129204
 30
0.0
 41
80.0
 42
80.0
 43
80.0
  0
TEXT
  5
1293
  8
3
 10
6947.0836180503302
 20
7547.4644281129204
 30
0.0
 40
100.0
  1
1430
 51
15.0
  7
SUNPOU
  0
POINT
  5
1294
  8
DEFPOINTS
  6
BYBLOCK
 62
     0
 10
6418.0604574376111
 20
7766.9586936046389
 30
0.0
  0
POINT
  5
1295
  8
DEFPOINTS
  6
BYBLOCK
 62
     0
 10
7848.0604574376111
 20
7766.9586936046398
 30
0.0
  0
POINT
  5
1296
  8
DEFPOINTS
  6
BYBLOCK
 62
     0
 10
7848.0604574376111
 20
7527.4644281129204
 30
0.0
  0
ENDBLK
  5
1297
  8
0
  0
BLOCK
  8
0
  2
*D5
 70
     1
 10
0.0
 20
0.0
 30
0.0
  3
*D5
  1

  0
LINE
  5
129B
  8
0
  6
BYBLOCK
 10
6680.0604574376139
 20
8713.958693604638
 30
0.0
 11
6680.0604574376139
 21
8914.0750340214381
 31
0.0
  0
LINE
  5
129C
  8
0
  6
BYBLOCK
 10
7586.0604574376121
 20
8713.9586936046398
 30
0.0
 11
7586.0604574376121
 21
8914.0750340214381
 31
0.0
  0
LINE
  5
129D
  8
0
  6
BYBLOCK
 10
6760.0604574376139
 20
8874.0750340214363
 30
0.0
 11
7506.0604574376121
 21
8874.0750340214363
 31
0.0
  0
INSERT
  5
129E
  8
0
  6
BYBLOCK
  2
_OPEN
 10
6680.0604574376139
 20
8874.0750340214363
 30
0.0
 41
80.0
 42
80.0
 43
80.0
 50
180.0
  0
INSERT
  5
129F
  8
0
  6
BYBLOCK
  2
_OPEN
 10
7586.0604574376121
 20
8874.0750340214363
 30
0.0
 41
80.0
 42
80.0
 43
80.0
  0
TEXT
  5
12A0
  8
3
 10
6993.4725216255811
 20
8894.0750340214381
 30
0.0
 40
100.0
  1
906
 51
15.0
  7
SUNPOU
  0
POINT
  5
12A1
  8
DEFPOINTS
  6
BYBLOCK
 62
     0
 10
6680.0604574376139
 20
8673.9586936046362
 30
0.0
  0
POINT
  5
12A2
  8
DEFPOINTS
  6
BYBLOCK
 62
     0
 10
7586.0604574376121
 20
8673.9586936046398
 30
0.0
  0
POINT
  5
12A3
  8
DEFPOINTS
  6
BYBLOCK
 62
     0
 10
7586.0604574376121
 20
8874.0750340214363
 30
0.0
  0
ENDBLK
  5
12A4
  8
0
  0
BLOCK
  8
0
  2
*D6
 70
     1
 10
0.0
 20
0.0
 30
0.0
  3
*D6
  1

  0
LINE
  5
12A8
  8
0
  6
BYBLOCK
 10
7626.060457437613
 20
8673.9586936046398
 30
0.0
 11
8127.9915552158118
 21
8673.9586936046398
 31
0.0
  0
LINE
  5
12A9
  8
0
  6
BYBLOCK
 10
7626.060457437613
 20
7939.9586936046389
 30
0.0
 11
8127.9915552158118
 21
7939.9586936046389
 31
0.0
  0
LINE
  5
12AA
  8
0
  6
BYBLOCK
 10
8087.9915552158127
 20
8593.9586936046398
 30
0.0
 11
8087.9915552158127
 21
8019.9586936046389
 31
0.0
  0
INSERT
  5
12AB
  8
0
  6
BYBLOCK
  2
_OPEN
 10
8087.9915552158127
 20
8673.9586936046398
 30
0.0
 41
80.0
 42
80.0
 43
80.0
 50
90.0
  0
INSERT
  5
12AC
  8
0
  6
BYBLOCK
  2
_OPEN
 10
8087.9915552158127
 20
7939.9586936046389
 30
0.0
 41
80.0
 42
80.0
 43
80.0
 50
270.0
  0
TEXT
  5
12AD
  8
3
 10
8067.9915552158127
 20
8162.0166832545974
 30
0.0
 40
100.0
  1
734
 50
90.0
 51
15.0
  7
SUNPOU
  0
POINT
  5
12AE
  8
DEFPOINTS
  6
BYBLOCK
 62
     0
 10
7586.0604574376121
 20
8673.9586936046398
 30
0.0
  0
POINT
  5
12AF
  8
DEFPOINTS
  6
BYBLOCK
 62
     0
 10
7586.0604574376121
 20
7939.9586936046389
 30
0.0
  0
POINT
  5
12B0
  8
DEFPOINTS
  6
BYBLOCK
 62
     0
 10
8087.9915552158127
 20
7939.9586936046389
 30
0.0
  0
ENDBLK
  5
12B1
  8
0
  0
BLOCK
  8
0
  2
*D7
 70
     1
 10
0.0
 20
0.0
 30
0.0
  3
*D7
  1

  0
LINE
  5
1329
  8
0
  6
BYBLOCK
 10
10353.29430419713
 20
8306.958693604638
 30
0.0
 11
10527.59739514701
 21
8306.958693604638
 31
0.0
  0
LINE
  5
132A
  8
0
  6
BYBLOCK
 10
10353.29430419713
 20
7766.9586936046389
 30
0.0
 11
10527.59739514701
 21
7766.9586936046389
 31
0.0
  0
LINE
  5
132B
  8
0
  6
BYBLOCK
 10
10487.59739514701
 20
8226.958693604638
 30
0.0
 11
10487.59739514701
 21
7846.958693604638
 31
0.0
  0
INSERT
  5
132C
  8
0
  6
BYBLOCK
  2
_OPEN
 10
10487.59739514701
 20
8306.958693604638
 30
0.0
 41
80.0
 42
80.0
 43
80.0
 50
90.0
  0
INSERT
  5
132D
  8
0
  6
BYBLOCK
  2
_OPEN
 10
10487.59739514701
 20
7766.9586936046389
 30
0.0
 41
80.0
 42
80.0
 43
80.0
 50
270.0
  0
TEXT
  5
132E
  8
3
 10
10467.59739514701
 20
7897.3707577926052
 30
0.0
 40
100.0
  1
540
 50
90.0
 51
15.0
  7
SUNPOU
  0
POINT
  5
132F
  8
DEFPOINTS
  6
BYBLOCK
 62
     0
 10
10313.29430419713
 20
8306.958693604638
 30
0.0
  0
POINT
  5
1330
  8
DEFPOINTS
  6
BYBLOCK
 62
     0
 10
10313.29430419713
 20
7766.9586936046389
 30
0.0
  0
POINT
  5
1331
  8
DEFPOINTS
  6
BYBLOCK
 62
     0
 10
10487.59739514701
 20
7766.9586936046389
 30
0.0
  0
ENDBLK
  5
1332
  8
0
  0
BLOCK
  8
0
  2
*D8
 70
     1
 10
0.0
 20
0.0
 30
0.0
  3
*D8
  1

  0
LINE
  5
12C2
  8
0
  6
BYBLOCK
 10
6418.0604574376111
 20
9206.958693604638
 30
0.0
 11
6418.0604574376111
 21
9431.3161974166414
 31
0.0
  0
LINE
  5
12C3
  8
0
  6
BYBLOCK
 10
7133.0604574376121
 20
9313.9253060408246
 30
0.0
 11
7133.0604574376121
 21
9431.3161974166414
 31
0.0
  0
LINE
  5
12C4
  8
0
  6
BYBLOCK
 10
6498.0604574376111
 20
9391.3161974166414
 30
0.0
 11
7053.060457437613
 21
9391.3161974166414
 31
0.0
  0
INSERT
  5
12C5
  8
0
  6
BYBLOCK
  2
_OPEN
 10
6418.0604574376111
 20
9391.3161974166414
 30
0.0
 41
80.0
 42
80.0
 43
80.0
 50
180.0
  0
INSERT
  5
12C6
  8
0
  6
BYBLOCK
  2
_OPEN
 10
7133.0604574376121
 20
9391.3161974166414
 30
0.0
 41
80.0
 42
80.0
 43
80.0
  0
TEXT
  5
12C7
  8
3
 10
6638.3534740065325
 20
9411.3161974166414
 30
0.0
 40
100.0
  1
715
 51
15.0
  7
SUNPOU
  0
POINT
  5
12C8
  8
DEFPOINTS
  6
BYBLOCK
 62
     0
 10
6418.0604574376111
 20
9166.9586936046398
 30
0.0
  0
POINT
  5
12C9
  8
DEFPOINTS
  6
BYBLOCK
 62
     0
 10
7133.0604574376121
 20
9273.9253060408246
 30
0.0
  0
POINT
  5
12CA
  8
DEFPOINTS
  6
BYBLOCK
 62
     0
 10
7133.0604574376121
 20
9391.3161974166414
 30
0.0
  0
ENDBLK
  5
12CB
  8
0
  0
BLOCK
  8
0
  2
*D9
 70
     1
 10
0.0
 20
0.0
 30
0.0
  3
*D9
  1

  0
LINE
  5
12CF
  8
0
  6
BYBLOCK
 10
7133.0604574376121
 20
9313.9253060408246
 30
0.0
 11
7133.0604574376121
 21
9431.3161974166414
 31
0.0
  0
LINE
  5
12D0
  8
0
  6
BYBLOCK
 10
7848.0604574376111
 20
9206.958693604638
 30
0.0
 11
7848.0604574376111
 21
9431.3161974166414
 31
0.0
  0
LINE
  5
12D1
  8
0
  6
BYBLOCK
 10
7213.0604574376121
 20
9391.3161974166414
 30
0.0
 11
7768.0604574376121
 21
9391.3161974166414
 31
0.0
  0
INSERT
  5
12D2
  8
0
  6
BYBLOCK
  2
_OPEN
 10
7133.0604574376121
 20
9391.3161974166414
 30
0.0
 41
80.0
 42
80.0
 43
80.0
 50
180.0
  0
INSERT
  5
12D3
  8
0
  6
BYBLOCK
  2
_OPEN
 10
7848.0604574376111
 20
9391.3161974166414
 30
0.0
 41
80.0
 42
80.0
 43
80.0
  0
TEXT
  5
12D4
  8
3
 10
7353.3534740065325
 20
9411.3161974166414
 30
0.0
 40
100.0
  1
715
 51
15.0
  7
SUNPOU
  0
POINT
  5
12D5
  8
DEFPOINTS
  6
BYBLOCK
 62
     0
 10
7133.0604574376121
 20
9273.9253060408246
 30
0.0
  0
POINT
  5
12D6
  8
DEFPOINTS
  6
BYBLOCK
 62
     0
 10
7848.0604574376111
 20
9166.9586936046398
 30
0.0
  0
POINT
  5
12D7
  8
DEFPOINTS
  6
BYBLOCK
 62
     0
 10
7848.0604574376111
 20
9391.3161974166414
 30
0.0
  0
ENDBLK
  5
12D8
  8
0
  0
BLOCK
  8
0
  2
*D10
 70
     1
 10
0.0
 20
0.0
 30
0.0
  3
*D10
  1

  0
LINE
  5
1334
  8
0
  6
BYBLOCK
 10
10233.29430419713
 20
9206.958693604638
 30
0.0
 11
10233.29430419713
 21
9431.3161974166414
 31
0.0
  0
LINE
  5
1335
  8
0
  6
BYBLOCK
 10
8583.2943041971303
 20
9206.958693604638
 30
0.0
 11
8583.2943041971303
 21
9431.3161974166414
 31
0.0
  0
LINE
  5
1336
  8
0
  6
BYBLOCK
 10
10153.29430419713
 20
9391.3161974166414
 30
0.0
 11
8663.2943041971303
 21
9391.3161974166414
 31
0.0
  0
INSERT
  5
1337
  8
0
  6
BYBLOCK
  2
_OPEN
 10
10233.29430419713
 20
9391.3161974166414
 30
0.0
 41
80.0
 42
80.0
 43
80.0
  0
INSERT
  5
1338
  8
0
  6
BYBLOCK
  2
_OPEN
 10
8583.2943041971303
 20
9391.3161974166414
 30
0.0
 41
80.0
 42
80.0
 43
80.0
 50
180.0
  0
TEXT
  5
1339
  8
3
 10
9222.3174648098502
 20
9411.3161974166414
 30
0.0
 40
100.0
  1
1650
 51
15.0
  7
SUNPOU
  0
POINT
  5
133A
  8
DEFPOINTS
  6
BYBLOCK
 62
     0
 10
10233.29430419713
 20
9166.9586936046398
 30
0.0
  0
POINT
  5
133B
  8
DEFPOINTS
  6
BYBLOCK
 62
     0
 10
8583.2943041971303
 20
9166.9586936046398
 30
0.0
  0
POINT
  5
133C
  8
DEFPOINTS
  6
BYBLOCK
 62
     0
 10
8583.2943041971303
 20
9391.3161974166414
 30
0.0
  0
ENDBLK
  5
133D
  8
0
  0
BLOCK
  8
0
  2
*D11
 70
     1
 10
0.0
 20
0.0
 30
0.0
  3
*D11
  1

  0
LINE
  5
12E9
  8
0
  6
BYBLOCK
 10
10968.528150956639
 20
9206.958693604638
 30
0.0
 11
10968.528150956639
 21
9431.3161974166414
 31
0.0
  0
LINE
  5
12EA
  8
0
  6
BYBLOCK
 10
11683.528150956639
 20
9313.9253060408246
 30
0.0
 11
11683.528150956639
 21
9431.3161974166414
 31
0.0
  0
LINE
  5
12EB
  8
0
  6
BYBLOCK
 10
11048.528150956639
 20
9391.3161974166414
 30
0.0
 11
11603.528150956639
 21
9391.3161974166414
 31
0.0
  0
INSERT
  5
12EC
  8
0
  6
BYBLOCK
  2
_OPEN
 10
10968.528150956639
 20
9391.3161974166414
 30
0.0
 41
80.0
 42
80.0
 43
80.0
 50
180.0
  0
INSERT
  5
12ED
  8
0
  6
BYBLOCK
  2
_OPEN
 10
11683.528150956639
 20
9391.3161974166414
 30
0.0
 41
80.0
 42
80.0
 43
80.0
  0
TEXT
  5
12EE
  8
3
 10
11188.82116752557
 20
9411.3161974166414
 30
0.0
 40
100.0
  1
715
 51
15.0
  7
SUNPOU
  0
POINT
  5
12EF
  8
DEFPOINTS
  6
BYBLOCK
 62
     0
 10
10968.528150956639
 20
9166.9586936046398
 30
0.0
  0
POINT
  5
12F0
  8
DEFPOINTS
  6
BYBLOCK
 62
     0
 10
11683.528150956639
 20
9273.9253060408246
 30
0.0
  0
POINT
  5
12F1
  8
DEFPOINTS
  6
BYBLOCK
 62
     0
 10
11683.528150956639
 20
9391.3161974166414
 30
0.0
  0
ENDBLK
  5
12F2
  8
0
  0
BLOCK
  8
0
  2
*D12
 70
     1
 10
0.0
 20
0.0
 30
0.0
  3
*D12
  1

  0
LINE
  5
12F6
  8
0
  6
BYBLOCK
 10
11683.528150956639
 20
9313.9253060408246
 30
0.0
 11
11683.528150956639
 21
9431.3161974166414
 31
0.0
  0
LINE
  5
12F7
  8
0
  6
BYBLOCK
 10
12398.528150956639
 20
9206.958693604638
 30
0.0
 11
12398.528150956639
 21
9431.3161974166414
 31
0.0
  0
LINE
  5
12F8
  8
0
  6
BYBLOCK
 10
11763.528150956639
 20
9391.3161974166414
 30
0.0
 11
12318.528150956639
 21
9391.3161974166414
 31
0.0
  0
INSERT
  5
12F9
  8
0
  6
BYBLOCK
  2
_OPEN
 10
11683.528150956639
 20
9391.3161974166414
 30
0.0
 41
80.0
 42
80.0
 43
80.0
 50
180.0
  0
INSERT
  5
12FA
  8
0
  6
BYBLOCK
  2
_OPEN
 10
12398.528150956639
 20
9391.3161974166414
 30
0.0
 41
80.0
 42
80.0
 43
80.0
  0
TEXT
  5
12FB
  8
3
 10
11903.82116752557
 20
9411.3161974166414
 30
0.0
 40
100.0
  1
715
 51
15.0
  7
SUNPOU
  0
POINT
  5
12FC
  8
DEFPOINTS
  6
BYBLOCK
 62
     0
 10
11683.528150956639
 20
9273.9253060408246
 30
0.0
  0
POINT
  5
12FD
  8
DEFPOINTS
  6
BYBLOCK
 62
     0
 10
12398.528150956639
 20
9166.9586936046398
 30
0.0
  0
POINT
  5
12FE
  8
DEFPOINTS
  6
BYBLOCK
 62
     0
 10
12398.528150956639
 20
9391.3161974166414
 30
0.0
  0
ENDBLK
  5
12FF
  8
0
  0
BLOCK
  8
0
  2
*D13
 70
     1
 10
0.0
 20
0.0
 30
0.0
  3
*D13
  1

  0
LINE
  5
1303
  8
0
  6
BYBLOCK
 10
11230.528150956639
 20
8713.9586936046398
 30
0.0
 11
11230.528150956639
 21
8914.0750340214381
 31
0.0
  0
LINE
  5
1304
  8
0
  6
BYBLOCK
 10
12136.528150956639
 20
8713.958693604638
 30
0.0
 11
12136.528150956639
 21
8914.0750340214381
 31
0.0
  0
LINE
  5
1305
  8
0
  6
BYBLOCK
 10
11310.528150956639
 20
8874.0750340214363
 30
0.0
 11
12056.528150956639
 21
8874.0750340214363
 31
0.0
  0
INSERT
  5
1306
  8
0
  6
BYBLOCK
  2
_OPEN
 10
11230.528150956639
 20
8874.0750340214363
 30
0.0
 41
80.0
 42
80.0
 43
80.0
 50
180.0
  0
INSERT
  5
1307
  8
0
  6
BYBLOCK
  2
_OPEN
 10
12136.528150956639
 20
8874.0750340214363
 30
0.0
 41
80.0
 42
80.0
 43
80.0
  0
TEXT
  5
1308
  8
3
 10
11543.94021514461
 20
8894.0750340214381
 30
0.0
 40
100.0
  1
906
 51
15.0
  7
SUNPOU
  0
POINT
  5
1309
  8
DEFPOINTS
  6
BYBLOCK
 62
     0
 10
11230.528150956639
 20
8673.9586936046398
 30
0.0
  0
POINT
  5
130A
  8
DEFPOINTS
  6
BYBLOCK
 62
     0
 10
12136.528150956639
 20
8673.9586936046362
 30
0.0
  0
POINT
  5
130B
  8
DEFPOINTS
  6
BYBLOCK
 62
     0
 10
12136.528150956639
 20
8874.0750340214363
 30
0.0
  0
ENDBLK
  5
130C
  8
0
  0
BLOCK
  8
0
  2
*D14
 70
     1
 10
0.0
 20
0.0
 30
0.0
  3
*D14
  1

  0
LINE
  5
1310
  8
0
  6
BYBLOCK
 10
12176.528150956639
 20
8673.9586936046362
 30
0.0
 11
12689.133140956181
 21
8673.9586936046362
 31
0.0
  0
LINE
  5
1311
  8
0
  6
BYBLOCK
 10
12176.528150956639
 20
7939.9586936046371
 30
0.0
 11
12689.133140956181
 21
7939.9586936046371
 31
0.0
  0
LINE
  5
1312
  8
0
  6
BYBLOCK
 10
12649.133140956181
 20
8593.9586936046398
 30
0.0
 11
12649.133140956181
 21
8019.9586936046389
 31
0.0
  0
INSERT
  5
1313
  8
0
  6
BYBLOCK
  2
_OPEN
 10
12649.133140956181
 20
8673.9586936046362
 30
0.0
 41
80.0
 42
80.0
 43
80.0
 50
90.0
  0
INSERT
  5
1314
  8
0
  6
BYBLOCK
  2
_OPEN
 10
12649.133140956181
 20
7939.9586936046371
 30
0.0
 41
80.0
 42
80.0
 43
80.0
 50
270.0
  0
TEXT
  5
1315
  8
3
 10
12629.133140956181
 20
8162.0166832545974
 30
0.0
 40
100.0
  1
734
 50
90.0
 51
15.0
  7
SUNPOU
  0
POINT
  5
1316
  8
DEFPOINTS
  6
BYBLOCK
 62
     0
 10
12136.528150956639
 20
8673.9586936046362
 30
0.0
  0
POINT
  5
1317
  8
DEFPOINTS
  6
BYBLOCK
 62
     0
 10
12136.528150956639
 20
7939.9586936046371
 30
0.0
  0
POINT
  5
1318
  8
DEFPOINTS
  6
BYBLOCK
 62
     0
 10
12649.133140956181
 20
7939.9586936046371
 30
0.0
  0
ENDBLK
  5
1319
  8
0
  0
ENDSEC
  0
SECTION
  2
ENTITIES
  0
LINE
  5
570
  8
4
  6
CONTINUOUS
 10
12819.74395831865
 20
6226.5815883283894
 30
0.0
 11
12819.74395831865
 21
5426.5815883283894
 31
0.0
  0
LINE
  5
571
  8
4
  6
CONTINUOUS
 10
10019.743958318641
 20
6226.5815883283894
 30
0.0
 11
10019.743958318641
 21
5426.5815883283894
 31
0.0
  0
LINE
  5
572
  8
4
  6
CONTINUOUS
 10
8019.7439583186488
 20
6226.5815883283894
 30
0.0
 11
8019.7439583186488
 21
5426.5815883283894
 31
0.0
  0
LINE
  5
575
  8
4
  6
CONTINUOUS
 10
8019.7439583186488
 20
5426.5815883283894
 30
0.0
 11
12819.74395831865
 21
5426.5815883283894
 31
0.0
  0
LINE
  5
576
  8
4
  6
CONTINUOUS
 10
8019.7439583186488
 20
5826.5815883283894
 30
0.0
 11
12819.74395831865
 21
5826.5815883283894
 31
0.0
  0
TEXT
  5
577
  8
4
  6
CONTINUOUS
 10
8173.7522813186479
 20
5952.7536913283893
 30
0.0
 40
200.0
  1
機器名称
  0
TEXT
  5
578
  8
4
  6
CONTINUOUS
 10
8164.7763823186488
 20
5513.1622153283897
 30
0.0
 40
200.0
  1
機器型番
  0
TEXT
  5
579
  8
4
  6
CONTINUOUS
 10
10130.45894031864
 20
5916.8686643283891
 30
0.0
 40
200.0
  1
ミツヤファンユニット
  0
TEXT
  5
57A
  8
4
  6
CONTINUOUS
 10
10166.36194031864
 20
5495.2199253283879
 30
0.0
 40
200.0
  1
MFU#3505-5
  0
TEXT
  5
57C
  8
4
  6
CONTINUOUS
 10
8208.057998318649
 20
13760.29695332839
 30
0.0
 40
200.0
  1
天井吊ベット・床置ベット
  0
TEXT
  5
57D
  8
4
  6
CONTINUOUS
 10
6684.4143313186487
 20
14362.105493328379
 30
0.0
 40
250.0
  1
ベルト駆動式消音ボックス付き多翼ファン
  0
LINE
  5
57E
  8
4
  6
CONTINUOUS
 10
6419.7439583186488
 20
14104.216605328391
 30
0.0
 11
12819.74395831865
 21
14104.216605328391
 31
0.0
  0
LINE
  5
57F
  8
4
  6
CONTINUOUS
 10
6419.7439583186488
 20
14904.216605328391
 30
0.0
 11
12819.74395831865
 21
14904.216605328391
 31
0.0
  0
LINE
  5
580
  8
4
  6
CONTINUOUS
 10
8019.7439583186488
 20
6226.5815883283894
 30
0.0
 11
12819.74395831865
 21
6226.5815883283894
 31
0.0
  0
LINE
  5
581
  8
4
  6
CONTINUOUS
 10
6419.7439583186488
 20
14904.216605328391
 30
0.0
 11
6419.7439583186488
 21
14104.216605328391
 31
0.0
  0
TEXT
  5
582
  8
4
  6
CONTINUOUS
 10
6545.6791553186486
 20
13755.85949832838
 30
0.0
 40
200.0
  1
左回転右吐出
  0
TEXT
  5
583
  8
4
  6
CONTINUOUS
 10
11295.62219531864
 20
15050.82591432839
 30
0.0
 40
224.0
  1
No.
  0
TEXT
  5
584
  8
4
  6
CONTINUOUS
 10
11151.26717431864
 20
13760.29695332839
 30
0.0
 40
200.0
  1
縮尺：1/40
  0
LINE
  5
585
  8
4
  6
CONTINUOUS
 10
12819.74395831865
 20
14904.216605328391
 30
0.0
 11
12819.74395831865
 21
14104.216605328391
 31
0.0
  0
LINE
  5
586
  8
4
  6
CONTINUOUS
 10
11182.213647318649
 20
14951.63592132839
 30
0.0
 11
11182.213647318649
 21
15373.190634328381
 31
0.0
  0
LINE
  5
587
  8
4
  6
CONTINUOUS
 10
11182.213647318649
 20
15373.190634328381
 30
0.0
 11
12819.74395831865
 21
15373.190634328381
 31
0.0
  0
LINE
  5
588
  8
4
  6
CONTINUOUS
 10
12819.74395831865
 20
15373.190634328381
 30
0.0
 11
12819.74395831865
 21
14951.63592132839
 31
0.0
  0
LINE
  5
589
  8
4
  6
CONTINUOUS
 10
12819.74395831865
 20
14951.63592132839
 30
0.0
 11
11182.213647318649
 21
14951.63592132839
 31
0.0
  0
LINE
  5
11F7
  8
1
 10
10313.29430419713
 20
7766.9586936046389
 30
0.0
 11
8503.2943041971303
 21
7766.9586936046389
 31
0.0
  0
LINE
  5
11F8
  8
1
 10
8503.2943041971303
 20
7766.9586936046389
 30
0.0
 11
8503.2943041971303
 21
7866.958693604638
 31
0.0
  0
LINE
  5
11F9
  8
1
 10
8503.2943041971303
 20
7866.958693604638
 30
0.0
 11
10313.29430419713
 21
7866.958693604638
 31
0.0
  0
LINE
  5
11FA
  8
1
 10
10313.29430419713
 20
7866.958693604638
 30
0.0
 11
10313.29430419713
 21
7766.9586936046389
 31
0.0
  0
LINE
  5
11FB
  8
1
 10
8583.2943041971303
 20
7866.958693604638
 30
0.0
 11
8583.2943041971303
 21
9166.9586936046398
 31
0.0
  0
LINE
  5
11FC
  8
1
 10
8583.2943041971303
 20
9166.9586936046398
 30
0.0
 11
10233.29430419713
 21
9166.9586936046398
 31
0.0
  0
LINE
  5
11FD
  8
1
 10
10233.29430419713
 20
9166.9586936046398
 30
0.0
 11
10233.29430419713
 21
7866.958693604638
 31
0.0
  0
LINE
  5
11FE
  8
2
 10
10313.29430419713
 20
8306.958693604638
 30
0.0
 11
8503.2943041971303
 21
8306.958693604638
 31
0.0
  0
LINE
  5
11FF
  8
1
 10
10273.29430419713
 20
8713.9586936046398
 30
0.0
 11
10273.29430419713
 21
7899.958693604638
 31
0.0
  0
LINE
  5
1200
  8
1
 10
8543.2943041971303
 20
7899.958693604638
 30
0.0
 11
8543.2943041971303
 21
8713.9586936046398
 31
0.0
  0
LINE
  5
1201
  8
1
 10
10273.29430419713
 20
8713.9586936046398
 30
0.0
 11
10233.29430419713
 21
8713.9586936046398
 31
0.0
  0
LINE
  5
1202
  8
1
 10
10273.29430419713
 20
7899.958693604638
 30
0.0
 11
10233.29430419713
 21
7899.9586936046398
 31
0.0
  0
LINE
  5
1203
  8
1
 10
8583.2943041971303
 20
8713.958693604638
 30
0.0
 11
8543.2943041971303
 21
8713.9586936046398
 31
0.0
  0
LINE
  5
1204
  8
1
 10
8583.2943041971303
 20
7899.9586936046398
 30
0.0
 11
8543.2943041971303
 21
7899.958693604638
 31
0.0
  0
LINE
  5
1205
  8
1
 10
7848.0604574376111
 20
7866.958693604638
 30
0.0
 11
6418.0604574376111
 21
7866.958693604638
 31
0.0
  0
LINE
  5
1206
  8
1
 10
6418.0604574376111
 20
7766.9586936046389
 30
0.0
 11
7848.0604574376111
 21
7766.9586936046398
 31
0.0
  0
LINE
  5
1207
  8
1
 10
7848.0604574376111
 20
9166.9586936046398
 30
0.0
 11
6418.0604574376111
 21
9166.9586936046398
 31
0.0
  0
LINE
  5
1208
  8
1
 10
7848.0604574376111
 20
7766.9586936046389
 30
0.0
 11
7848.0604574376111
 21
9166.9586936046398
 31
0.0
  0
LINE
  5
1209
  8
1
 10
6418.0604574376111
 20
7766.9586936046389
 30
0.0
 11
6418.0604574376111
 21
9166.9586936046398
 31
0.0
  0
LINE
  5
120A
  8
1
 10
6403.0604574376111
 20
7871.9586936046371
 30
0.0
 11
6403.060457437613
 21
9161.958693604638
 31
0.0
  0
LINE
  5
120B
  8
1
 10
7863.0604574376121
 20
7871.9586936046389
 30
0.0
 11
7863.0604574376121
 21
9161.958693604638
 31
0.0
  0
LINE
  5
120C
  8
1
 10
7863.0604574376121
 20
9161.958693604638
 30
0.0
 11
7848.0604574376111
 21
9161.958693604638
 31
0.0
  0
LINE
  5
120D
  8
1
 10
7863.0604574376111
 20
7871.958693604638
 30
0.0
 11
7848.0604574376111
 21
7871.958693604638
 31
0.0
  0
LINE
  5
120E
  8
1
 10
6418.0604574376111
 20
7871.9586936046371
 30
0.0
 11
6403.060457437613
 21
7871.9586936046371
 31
0.0
  0
LINE
  5
120F
  8
1
 10
6418.0604574376111
 20
9161.958693604638
 30
0.0
 11
6403.060457437613
 21
9161.958693604638
 31
0.0
  0
LINE
  5
1210
  8
2
 10
7133.0604574376121
 20
7766.9586936046389
 30
0.0
 11
7133.0604574376121
 21
8816.187013908022
 31
0.0
  0
LINE
  5
1212
  8
1
 10
6680.0604574376139
 20
7939.9586936046371
 30
0.0
 11
6680.0604574376139
 21
8673.9586936046362
 31
0.0
  0
LINE
  5
1213
  8
1
 10
7586.0604574376121
 20
7939.9586936046389
 30
0.0
 11
7586.0604574376121
 21
8673.9586936046398
 31
0.0
  0
LINE
  5
1214
  8
1
 10
6680.0604574376139
 20
8673.9586936046362
 30
0.0
 11
7586.0604574376121
 21
8673.9586936046398
 31
0.0
  0
LINE
  5
1215
  8
1
 10
6680.0604574376139
 20
7939.9586936046371
 30
0.0
 11
7586.0604574376121
 21
7939.9586936046389
 31
0.0
  0
LINE
  5
1216
  8
1
 10
6640.060457437613
 20
7899.958693604638
 30
0.0
 11
6640.060457437613
 21
8713.9586936046362
 31
0.0
  0
LINE
  5
1217
  8
1
 10
7626.060457437613
 20
7899.9586936046371
 30
0.0
 11
7626.0604574376121
 21
8713.9586936046398
 31
0.0
  0
LINE
  5
1218
  8
1
 10
6640.060457437613
 20
8713.958693604638
 30
0.0
 11
7626.0604574376121
 21
8713.958693604638
 31
0.0
  0
LINE
  5
1219
  8
1
 10
6640.060457437613
 20
7899.958693604638
 30
0.0
 11
7626.0604574376121
 21
7899.958693604638
 31
0.0
  0
LINE
  5
121A
  8
1
 10
6680.0604574376139
 20
7939.9586936046371
 30
0.0
 11
7586.0604574376121
 21
8673.9586936046398
 31
0.0
  0
LINE
  5
121B
  8
1
 10
6680.0604574376139
 20
8673.9586936046362
 30
0.0
 11
7586.0604574376121
 21
7939.9586936046389
 31
0.0
  0
LINE
  5
121E
  8
2
 10
7133.0604574376121
 20
9081.9828248794129
 30
0.0
 11
7133.0604574376121
 21
9273.9253060408246
 31
0.0
  0
LINE
  5
121F
  8
1
 10
8583.2943041971303
 20
9166.9586936046398
 30
0.0
 11
8583.2943041971303
 21
7866.958693604638
 31
0.0
  0
LINE
  5
1222
  8
1
 10
12136.528150956639
 20
8673.9586936046362
 30
0.0
 11
11230.528150956639
 21
7939.9586936046389
 31
0.0
  0
LINE
  5
1223
  8
1
 10
12136.528150956639
 20
7939.9586936046371
 30
0.0
 11
11230.528150956639
 21
8673.9586936046398
 31
0.0
  0
LINE
  5
1224
  8
1
 10
12176.528150956639
 20
7899.958693604638
 30
0.0
 11
11190.528150956639
 21
7899.958693604638
 31
0.0
  0
LINE
  5
1225
  8
1
 10
12176.528150956639
 20
8713.958693604638
 30
0.0
 11
11190.528150956639
 21
8713.958693604638
 31
0.0
  0
LINE
  5
1226
  8
1
 10
12136.528150956639
 20
8673.9586936046362
 30
0.0
 11
11230.528150956639
 21
8673.9586936046398
 31
0.0
  0
LINE
  5
1227
  8
1
 10
12136.528150956639
 20
7939.9586936046371
 30
0.0
 11
11230.528150956639
 21
7939.9586936046389
 31
0.0
  0
LINE
  5
1228
  8
1
 10
12398.528150956639
 20
7766.9586936046389
 30
0.0
 11
10968.528150956639
 21
7766.9586936046398
 31
0.0
  0
LINE
  5
1229
  8
1
 10
10968.528150956639
 20
7866.958693604638
 30
0.0
 11
12398.528150956639
 21
7866.958693604638
 31
0.0
  0
LINE
  5
122A
  8
1
 10
10968.528150956639
 20
9166.9586936046398
 30
0.0
 11
12398.528150956639
 21
9166.9586936046398
 31
0.0
  0
LINE
  5
122B
  8
1
 10
12413.528150956639
 20
7871.9586936046371
 30
0.0
 11
12413.528150956639
 21
9161.958693604638
 31
0.0
  0
LINE
  5
122C
  8
1
 10
12398.528150956639
 20
7766.9586936046389
 30
0.0
 11
12398.528150956639
 21
9166.9586936046398
 31
0.0
  0
LINE
  5
122D
  8
1
 10
12398.528150956639
 20
7871.9586936046371
 30
0.0
 11
12413.528150956639
 21
7871.9586936046371
 31
0.0
  0
LINE
  5
122E
  8
1
 10
12176.528150956639
 20
7899.958693604638
 30
0.0
 11
12176.528150956639
 21
8713.9586936046362
 31
0.0
  0
LINE
  5
122F
  8
1
 10
12136.528150956639
 20
7939.9586936046371
 30
0.0
 11
12136.528150956639
 21
8673.9586936046362
 31
0.0
  0
LINE
  5
1230
  8
1
 10
12398.528150956639
 20
9161.958693604638
 30
0.0
 11
12413.528150956639
 21
9161.958693604638
 31
0.0
  0
LINE
  5
1231
  8
1
 10
10953.528150956639
 20
7871.9586936046389
 30
0.0
 11
10953.528150956639
 21
9161.958693604638
 31
0.0
  0
LINE
  5
1232
  8
1
 10
10968.528150956639
 20
7766.9586936046389
 30
0.0
 11
10968.528150956639
 21
9166.9586936046398
 31
0.0
  0
LINE
  5
1233
  8
2
 10
11683.528150956639
 20
7766.9586936046389
 30
0.0
 11
11683.528150956639
 21
8816.187013908022
 31
0.0
  0
LINE
  5
1234
  8
1
 10
11190.528150956639
 20
7899.9586936046371
 30
0.0
 11
11190.528150956639
 21
8713.9586936046398
 31
0.0
  0
LINE
  5
1235
  8
1
 10
11230.528150956639
 20
7939.9586936046389
 30
0.0
 11
11230.528150956639
 21
8673.9586936046398
 31
0.0
  0
LINE
  5
1236
  8
1
 10
10953.528150956639
 20
7871.958693604638
 30
0.0
 11
10968.528150956639
 21
7871.958693604638
 31
0.0
  0
LINE
  5
1237
  8
2
 10
11683.528150956639
 20
9081.9828248794129
 30
0.0
 11
11683.528150956639
 21
9273.9253060408246
 31
0.0
  0
LINE
  5
1238
  8
1
 10
10953.528150956639
 20
9161.958693604638
 30
0.0
 11
10968.528150956639
 21
9161.958693604638
 31
0.0
  0
LINE
  5
1239
  8
1
 10
8503.2943041971303
 20
10368.97371961822
 30
0.0
 11
10313.29430419713
 21
10368.97371961822
 31
0.0
  0
LINE
  5
123A
  8
1
 10
10313.29430419713
 20
10368.97371961822
 30
0.0
 11
10313.29430419713
 21
10418.97371961822
 31
0.0
  0
LINE
  5
123B
  8
1
 10
10313.29430419713
 20
11798.97371961822
 30
0.0
 11
8503.2943041971303
 21
11798.97371961822
 31
0.0
  0
LINE
  5
123C
  8
1
 10
8503.2943041971303
 20
11798.97371961822
 30
0.0
 11
8503.2943041971303
 21
11748.97371961822
 31
0.0
  0
LINE
  5
123D
  8
1
 10
8503.2943041971303
 20
10418.97371961822
 30
0.0
 11
8583.2943041971303
 21
10418.97371961822
 31
0.0
  0
LINE
  5
123E
  8
1
 10
10313.29430419713
 20
11748.97371961822
 30
0.0
 11
10233.29430419713
 21
11748.97371961822
 31
0.0
  0
LINE
  5
123F
  8
1
 10
10233.29430419713
 20
11688.735384276129
 30
0.0
 11
10233.29430419713
 21
10388.735384276129
 31
0.0
  0
LINE
  5
1240
  8
1
 10
10233.29430419713
 20
10353.97371961822
 30
0.0
 11
10233.29430419713
 21
11813.97371961822
 31
0.0
  0
LINE
  5
1241
  8
1
 10
8583.2943041971303
 20
11813.97371961822
 30
0.0
 11
8583.2943041971303
 21
10353.97371961822
 31
0.0
  0
LINE
  5
1242
  8
1
 10
10313.29430419713
 20
11748.97371961822
 30
0.0
 11
10313.29430419713
 21
11798.97371961822
 31
0.0
  0
LINE
  5
1243
  8
1
 10
8503.2943041971303
 20
10418.97371961822
 30
0.0
 11
8503.2943041971303
 21
10368.97371961822
 31
0.0
  0
LINE
  5
1244
  8
1
 10
10233.29430419713
 20
11813.97371961822
 30
0.0
 11
8583.2943041971303
 21
11813.97371961822
 31
0.0
  0
LINE
  5
1245
  8
1
 10
8583.2943041971303
 20
10353.97371961822
 30
0.0
 11
10233.29430419713
 21
10353.97371961822
 31
0.0
  0
LINE
  5
1246
  8
1
 10
8583.2943041971303
 20
11748.97371961822
 30
0.0
 11
8503.2943041971303
 21
11748.97371961822
 31
0.0
  0
LINE
  5
1247
  8
1
 10
10233.29430419713
 20
10418.97371961822
 30
0.0
 11
10313.29430419713
 21
10418.97371961822
 31
0.0
  0
LINE
  5
1249
  8
2
 10
8503.2943041971303
 20
11083.97371961822
 30
0.0
 11
10313.29430419713
 21
11083.97371961822
 31
0.0
  0
LINE
  5
124A
  8
1
 10
10273.29430419713
 20
10590.97371961822
 30
0.0
 11
10273.29430419713
 21
11576.97371961822
 31
0.0
  0
LINE
  5
124B
  8
1
 10
8543.2943041971284
 20
11576.97371961822
 30
0.0
 11
8543.2943041971284
 21
10590.97371961822
 31
0.0
  0
LINE
  5
124C
  8
1
 10
8543.2943041971284
 20
11576.97371961822
 30
0.0
 11
8583.2943041971303
 21
11576.97371961822
 31
0.0
  0
LINE
  5
124D
  8
1
 10
8543.2943041971266
 20
10590.97371961822
 30
0.0
 11
8583.2943041971303
 21
10590.97371961822
 31
0.0
  0
LINE
  5
124E
  8
1
 10
10233.29430419713
 20
11576.97371961822
 30
0.0
 11
10273.29430419713
 21
11576.97371961822
 31
0.0
  0
LINE
  5
124F
  8
1
 10
10233.29430419713
 20
10590.97371961822
 30
0.0
 11
10273.29430419713
 21
10590.97371961822
 31
0.0
  0
ARC
  5
1253
  8
4
 10
9785.2943041971303
 20
8574.9586936046398
 30
0.0
 40
526.0
 50
180.0
 51
265.42017641768598
  0
ARC
  5
1254
  8
4
 10
9701.2943041971321
 20
8574.9586936046398
 30
0.0
 40
442.0
 50
90.0
 51
180.0
  0
ARC
  5
1258
  8
4
 10
9710.2943041971303
 20
8649.958693604638
 30
0.0
 40
367.0
 50
0.0
 51
90.0
  0
ARC
  5
1259
  8
4
 10
9776.2943041971303
 20
8649.958693604638
 30
0.0
 40
301.0
 50
349.85850191621552
 51
0.0
  0
LINE
  5
125A
  8
4
 10
10133.29430419713
 20
7986.9586936046362
 30
0.0
 11
10133.29430419713
 21
8626.958693604638
 31
0.0
  0
LINE
  5
125C
  8
4
 10
9743.2943041971303
 20
8050.6381809408658
 30
0.0
 11
10133.29430419713
 21
8016.9586936046389
 31
0.0
  0
LINE
  5
125D
  8
4
 10
10072.59145234405
 20
8596.9586936046398
 30
0.0
 11
10133.29430419713
 21
8596.9586936046398
 31
0.0
  0
LINE
  5
1263
  8
4
 10
10133.29430419713
 20
8596.9586936046398
 30
0.0
 11
10233.29430419713
 21
8596.9586936046398
 31
0.0
  0
LINE
  5
1264
  8
4
 10
10133.29430419713
 20
8016.9586936046389
 30
0.0
 11
10233.29430419713
 21
8016.9586936046389
 31
0.0
  0
DIMENSION
  5
1271
  8
3
  2
*D1
 10
10605.09902690321
 20
10368.97371961822
 30
0.0
 11
10535.09902690321
 21
11083.97371961822
 31
0.0
 70
     0
 13
10313.29430419713
 23
11798.97371961822
 33
0.0
 14
10313.29430419713
 24
10368.97371961822
 34
0.0
 50
90.0
1001
ACAD
1000
DSTYLE
1002
{
1070
   140
1040
2.5
1070
    40
1040
40.0
1070
     7
1000
_OPEN
1070
     6
1000
_OPEN
1002
}
  0
DIMENSION
  5
127E
  8
3
  2
*D2
 10
12398.528150956639
 20
7527.4644281129204
 30
0.0
 11
11683.528150956639
 21
7597.4644281129204
 31
0.0
 70
     0
 13
10968.528150956639
 23
7766.9586936046389
 33
0.0
 14
12398.528150956639
 24
7766.9586936046389
 34
0.0
1001
ACAD
1000
DSTYLE
1002
{
1070
   140
1040
2.5
1070
    40
1040
40.0
1070
     7
1000
_OPEN
1070
     6
1000
_OPEN
1002
}
  0
DIMENSION
  5
128B
  8
3
  2
*D3
 10
8503.2943041971303
 20
7527.4644281129204
 30
0.0
 11
9408.2943041971303
 21
7597.4644281129204
 31
0.0
 70
     0
 13
10313.29430419713
 23
7766.9586936046389
 33
0.0
 14
8503.2943041971303
 24
7766.9586936046389
 34
0.0
1001
ACAD
1000
DSTYLE
1002
{
1070
   140
1040
2.5
1070
    40
1040
40.0
1070
     7
1000
_OPEN
1070
     6
1000
_OPEN
1002
}
  0
DIMENSION
  5
1298
  8
3
  2
*D4
 10
7848.0604574376111
 20
7527.4644281129204
 30
0.0
 11
7133.0604574376121
 21
7597.4644281129204
 31
0.0
 70
     0
 13
6418.0604574376111
 23
7766.9586936046389
 33
0.0
 14
7848.0604574376111
 24
7766.9586936046398
 34
0.0
1001
ACAD
1000
DSTYLE
1002
{
1070
   140
1040
2.5
1070
    40
1040
40.0
1070
     7
1000
_OPEN
1070
     6
1000
_OPEN
1002
}
  0
DIMENSION
  5
12A5
  8
3
  2
*D5
 10
7586.0604574376121
 20
8874.0750340214363
 30
0.0
 11
7133.0604574376121
 21
8944.0750340214363
 31
0.0
 70
     0
 13
6680.0604574376139
 23
8673.9586936046362
 33
0.0
 14
7586.0604574376121
 24
8673.9586936046398
 34
0.0
1001
ACAD
1000
DSTYLE
1002
{
1070
   140
1040
2.5
1070
    40
1040
40.0
1070
     7
1000
_OPEN
1070
     6
1000
_OPEN
1002
}
  0
DIMENSION
  5
12B2
  8
3
  2
*D6
 10
8087.9915552158127
 20
7939.9586936046389
 30
0.0
 11
8017.9915552158127
 21
8306.9586936046398
 31
0.0
 70
     0
 13
7586.0604574376121
 23
8673.9586936046398
 33
0.0
 14
7586.0604574376121
 24
7939.9586936046389
 34
0.0
 50
90.0
1001
ACAD
1000
DSTYLE
1002
{
1070
   140
1040
2.5
1070
    40
1040
40.0
1070
     7
1000
_OPEN
1070
     6
1000
_OPEN
1002
}
  0
DIMENSION
  5
12BF
  8
3
  2
*D7
 10
10487.59739514701
 20
7766.9586936046389
 30
0.0
 11
10417.59739514701
 21
8036.958693604638
 31
0.0
 70
     0
 13
10313.29430419713
 23
8306.958693604638
 33
0.0
 14
10313.29430419713
 24
7766.9586936046389
 34
0.0
 50
270.0
1001
ACAD
1000
DSTYLE
1002
{
1070
   140
1040
2.5
1070
    40
1040
40.0
1070
     7
1000
_OPEN
1070
     6
1000
_OPEN
1002
}
  0
DIMENSION
  5
12CC
  8
3
  2
*D8
 10
7133.0604574376121
 20
9391.3161974166414
 30
0.0
 11
6775.5604574376121
 21
9461.3161974166414
 31
0.0
 70
     0
 13
6418.0604574376111
 23
9166.9586936046398
 33
0.0
 14
7133.0604574376121
 24
9273.9253060408246
 34
0.0
1001
ACAD
1000
DSTYLE
1002
{
1070
   140
1040
2.5
1070
    40
1040
40.0
1070
     7
1000
_OPEN
1070
     6
1000
_OPEN
1002
}
  0
DIMENSION
  5
12D9
  8
3
  2
*D9
 10
7848.0604574376111
 20
9391.3161974166414
 30
0.0
 11
7490.560457437613
 21
9461.3161974166414
 31
0.0
 70
     0
 13
7133.0604574376121
 23
9273.9253060408246
 33
0.0
 14
7848.0604574376111
 24
9166.9586936046398
 34
0.0
1001
ACAD
1000
DSTYLE
1002
{
1070
   140
1040
2.5
1070
    40
1040
40.0
1070
     7
1000
_OPEN
1070
     6
1000
_OPEN
1002
}
  0
DIMENSION
  5
12E6
  8
3
  2
*D10
 10
8583.2943041971303
 20
9391.3161974166414
 30
0.0
 11
9408.2943041971303
 21
9461.3161974166414
 31
0.0
 70
     0
 13
10233.29430419713
 23
9166.9586936046398
 33
0.0
 14
8583.2943041971303
 24
9166.9586936046398
 34
0.0
1001
ACAD
1000
DSTYLE
1002
{
1070
   140
1040
2.5
1070
    40
1040
40.0
1070
     7
1000
_OPEN
1070
     6
1000
_OPEN
1002
}
  0
DIMENSION
  5
12F3
  8
3
  2
*D11
 10
11683.528150956639
 20
9391.3161974166414
 30
0.0
 11
11326.028150956639
 21
9461.3161974166414
 31
0.0
 70
     0
 13
10968.528150956639
 23
9166.9586936046398
 33
0.0
 14
11683.528150956639
 24
9273.9253060408246
 34
0.0
1001
ACAD
1000
DSTYLE
1002
{
1070
   140
1040
2.5
1070
    40
1040
40.0
1070
     7
1000
_OPEN
1070
     6
1000
_OPEN
1002
}
  0
DIMENSION
  5
1300
  8
3
  2
*D12
 10
12398.528150956639
 20
9391.3161974166414
 30
0.0
 11
12041.028150956639
 21
9461.3161974166414
 31
0.0
 70
     0
 13
11683.528150956639
 23
9273.9253060408246
 33
0.0
 14
12398.528150956639
 24
9166.9586936046398
 34
0.0
1001
ACAD
1000
DSTYLE
1002
{
1070
   140
1040
2.5
1070
    40
1040
40.0
1070
     7
1000
_OPEN
1070
     6
1000
_OPEN
1002
}
  0
DIMENSION
  5
130D
  8
3
  2
*D13
 10
12136.528150956639
 20
8874.0750340214363
 30
0.0
 11
11683.528150956639
 21
8944.0750340214363
 31
0.0
 70
     0
 13
11230.528150956639
 23
8673.9586936046398
 33
0.0
 14
12136.528150956639
 24
8673.9586936046362
 34
0.0
1001
ACAD
1000
DSTYLE
1002
{
1070
   140
1040
2.5
1070
    40
1040
40.0
1070
     7
1000
_OPEN
1070
     6
1000
_OPEN
1002
}
  0
DIMENSION
  5
131A
  8
3
  2
*D14
 10
12649.133140956181
 20
7939.9586936046371
 30
0.0
 11
12579.133140956181
 21
8306.958693604638
 31
0.0
 70
     0
 13
12136.528150956639
 23
8673.9586936046362
 33
0.0
 14
12136.528150956639
 24
7939.9586936046371
 34
0.0
 50
90.0
1001
ACAD
1000
DSTYLE
1002
{
1070
   140
1040
2.5
1070
    40
1040
40.0
1070
     7
1000
_OPEN
1070
     6
1000
_OPEN
1002
}
  0
ENDSEC
  0
EOF
