  0
SECTION
  2
HEADER
  9
$ACADVER
  1
AC1009
  9
$INSBASE
 10
0.0
 20
0.0
 30
0.0
  9
$EXTMIN
 10
6419.7439583186488
 20
5426.5815883283894
 30
0.0
  9
$EXTMAX
 10
12819.74395831865
 20
15373.190634328381
 30
0.0
  9
$LIMMIN
 10
0.0
 20
0.0
  9
$LIMMAX
 10
297.0
 20
210.0
  9
$ORTHOMODE
 70
     0
  9
$REGENMODE
 70
     1
  9
$FILLMODE
 70
     1
  9
$QTEXTMODE
 70
     0
  9
$MIRRTEXT
 70
     0
  9
$DRAGMODE
 70
     2
  9
$LTSCALE
 40
20.0
  9
$OSMODE
 70
    37
  9
$ATTMODE
 70
     1
  9
$TEXTSIZE
 40
52.5
  9
$TRACEWID
 40
0.05
  9
$TEXTSTYLE
  7
STANDARD
  9
$CLAYER
  8
3
  9
$CELTYPE
  6
BYLAYER
  9
$CECOLOR
 62
   256
  9
$DIMSCALE
 40
40.0
  9
$DIMASZ
 40
2.0
  9
$DIMEXO
 40
1.0
  9
$DIMDLI
 40
10.0
  9
$DIMRND
 40
0.0
  9
$DIMDLE
 40
0.0
  9
$DIMEXE
 40
1.0
  9
$DIMTP
 40
0.0
  9
$DIMTM
 40
0.0
  9
$DIMTXT
 40
2.5
  9
$DIMCEN
 40
0.0
  9
$DIMTSZ
 40
0.0
  9
$DIMTOL
 70
     0
  9
$DIMLIM
 70
     0
  9
$DIMTIH
 70
     0
  9
$DIMTOH
 70
     0
  9
$DIMSE1
 70
     0
  9
$DIMSE2
 70
     0
  9
$DIMTAD
 70
     1
  9
$DIMZIN
 70
     8
  9
$DIMBLK
  1

  9
$DIMASO
 70
     1
  9
$DIMSHO
 70
     1
  9
$DIMPOST
  1

  9
$DIMAPOST
  1

  9
$DIMALT
 70
     0
  9
$DIMALTD
 70
     2
  9
$DIMALTF
 40
0.03937
  9
$DIMLFAC
 40
1.0
  9
$DIMTOFL
 70
     1
  9
$DIMTVP
 40
0.0
  9
$DIMTIX
 70
     0
  9
$DIMSOXD
 70
     0
  9
$DIMSAH
 70
     1
  9
$DIMBLK1
  1
OPEN
  9
$DIMBLK2
  1
OPEN
  9
$DIMSTYLE
  2
MATSU
  9
$DIMCLRD
 70
   256
  9
$DIMCLRE
 70
   256
  9
$DIMCLRT
 70
   256
  9
$DIMTFAC
 40
1.0
  9
$DIMGAP
 40
0.5
  9
$LUNITS
 70
     2
  9
$LUPREC
 70
     3
  9
$SKETCHINC
 40
0.1
  9
$FILLETRAD
 40
5.0
  9
$AUNITS
 70
     0
  9
$AUPREC
 70
     2
  9
$MENU
  1
acad
  9
$ELEVATION
 40
0.0
  9
$PELEVATION
 40
0.0
  9
$THICKNESS
 40
0.0
  9
$LIMCHECK
 70
     0
  9
$BLIPMODE
 70
     0
  9
$CHAMFERA
 40
0.0
  9
$CHAMFERB
 40
0.0
  9
$SKPOLY
 70
     0
  9
$TDCREATE
 40
2451997.4538002321
  9
$TDUPDATE
 40
2454953.8557683681
  9
$TDINDWG
 40
0.0620956944
  9
$TDUSRTIMER
 40
0.0620956944
  9
$USRTIMER
 70
     1
  9
$ANGBASE
 50
0.0
  9
$ANGDIR
 70
     0
  9
$PDMODE
 70
     0
  9
$PDSIZE
 40
1.0
  9
$PLINEWID
 40
0.0
  9
$COORDS
 70
     1
  9
$SPLFRAME
 70
     0
  9
$SPLINETYPE
 70
     6
  9
$SPLINESEGS
 70
     8
  9
$ATTDIA
 70
     0
  9
$ATTREQ
 70
     1
  9
$HANDLING
 70
 10241
  9
$HANDSEED
  5
1224
  9
$SURFTAB1
 70
     6
  9
$SURFTAB2
 70
     6
  9
$SURFTYPE
 70
     6
  9
$SURFU
 70
     6
  9
$SURFV
 70
     6
  9
$UCSNAME
  2

  9
$UCSORG
 10
0.0
 20
0.0
 30
0.0
  9
$UCSXDIR
 10
1.0
 20
0.0
 30
0.0
  9
$UCSYDIR
 10
0.0
 20
1.0
 30
0.0
  9
$PUCSNAME
  2

  9
$PUCSORG
 10
0.0
 20
0.0
 30
0.0
  9
$PUCSXDIR
 10
1.0
 20
0.0
 30
0.0
  9
$PUCSYDIR
 10
0.0
 20
1.0
 30
0.0
  9
$USERI1
 70
     0
  9
$USERI2
 70
     0
  9
$USERI3
 70
     0
  9
$USERI4
 70
     0
  9
$USERI5
 70
     0
  9
$USERR1
 40
0.0
  9
$USERR2
 40
0.0
  9
$USERR3
 40
0.0
  9
$USERR4
 40
0.0
  9
$USERR5
 40
0.0
  9
$WORLDVIEW
 70
     1
  9
$SHADEDGE
 70
     3
  9
$SHADEDIF
 70
    70
  9
$TILEMODE
 70
     1
  9
$MAXACTVP
 70
    16
  9
$PLIMCHECK
 70
     0
  9
$PEXTMIN
 10
1.0000000000000000E+020
 20
1.0000000000000000E+020
 30
1.0000000000000000E+020
  9
$PEXTMAX
 10
-1.0000000000000000E+020
 20
-1.0000000000000000E+020
 30
-1.0000000000000000E+020
  9
$PLIMMIN
 10
0.0
 20
0.0
  9
$PLIMMAX
 10
12.0
 20
9.0
  9
$UNITMODE
 70
     0
  9
$VISRETAIN
 70
     0
  9
$PLINEGEN
 70
     0
  9
$PSLTSCALE
 70
     0
  0
ENDSEC
  0
SECTION
  2
TABLES
  0
TABLE
  2
VPORT
 70
     2
  0
VPORT
  2
*ACTIVE
 70
     0
 10
0.0
 20
0.0
 11
1.0
 21
1.0
 12
12792.03586863403
 22
9415.9057395929067
 13
0.0
 23
0.0
 14
5.0
 24
5.0
 15
0.0
 25
0.0
 16
0.0
 26
0.0
 36
1.0
 17
0.0
 27
0.0
 37
0.0
 40
12428.730053126121
 41
1.5051150895140659
 42
50.0
 43
0.0
 44
0.0
 50
0.0
 51
0.0
 71
     0
 72
   100
 73
     1
 74
     0
 75
     0
 76
     0
 77
     0
 78
     2
  0
ENDTAB
  0
TABLE
  2
LTYPE
 70
     2
  0
LTYPE
  2
CONTINUOUS
 70
     0
  3
Solid line
 72
    65
 73
     0
 40
0.0
  0
LTYPE
  2
CENTER
 70
     0
  3
____ _ ____ _ ____ _ ____ _ ____ _ ____ _ ____ 
 72
    65
 73
     4
 40
2.0
 49
1.25
 49
-0.25
 49
0.25
 49
-0.25
  0
ENDTAB
  0
TABLE
  2
LAYER
 70
     6
  0
LAYER
  2
0
 70
     0
 62
     7
  6
CONTINUOUS
  0
LAYER
  2
DEFPOINTS
 70
     0
 62
     7
  6
CONTINUOUS
  0
LAYER
  2
3
 70
     0
 62
     2
  6
CONTINUOUS
  0
LAYER
  2
2
 70
     0
 62
     3
  6
CENTER
  0
LAYER
  2
1
 70
     0
 62
     4
  6
CONTINUOUS
  0
LAYER
  2
4
 70
     0
 62
     7
  6
CONTINUOUS
  0
ENDTAB
  0
TABLE
  2
STYLE
 70
     2
  0
STYLE
  2
STANDARD
 70
     0
 40
0.0
 41
1.0
 50
0.0
 71
     0
 42
52.5
  3
C:\Program Files\AutoCAD LT\simplex.shx
  4
C:\Program Files\AutoCAD LT\extfont.shx
  0
STYLE
  2
SUNPOU
 70
     0
 40
0.0
 41
1.0
 50
15.0
 71
     0
 42
5.0
  3
simplex.shx
  4
extfont.shx
  0
ENDTAB
  0
TABLE
  2
VIEW
 70
     0
  0
ENDTAB
  0
TABLE
  2
UCS
 70
     0
  0
ENDTAB
  0
TABLE
  2
APPID
 70
     1
  0
APPID
  2
ACAD
 70
     0
  0
ENDTAB
  0
TABLE
  2
DIMSTYLE
 70
     2
  0
DIMSTYLE
  2
MATSU
 70
     0
  3

  4

  5

  6
OPEN
  7
OPEN
 40
10.0
 41
2.0
 42
1.0
 43
10.0
 44
1.0
 45
0.0
 46
0.0
 47
0.0
 48
0.0
140
3.0
141
0.0
142
0.0
143
0.03937
144
1.0
145
0.0
146
1.0
147
0.5
 71
     0
 72
     0
 73
     0
 74
     0
 75
     0
 76
     0
 77
     1
 78
     8
170
     0
171
     2
172
     1
173
     1
174
     0
175
     0
176
   256
177
   256
178
   256
  0
DIMSTYLE
  2
IGA
 70
     0
  3

  4

  5

  6
OPEN
  7
OPEN
 40
2.0
 41
2.0
 42
0.5
 43
10.0
 44
1.0
 45
0.0
 46
0.0
 47
1.0
 48
1.0
140
3.0
141
0.0
142
0.0
143
0.03937
144
1.0
145
0.0
146
10.0
147
1.0
 71
     0
 72
     0
 73
     0
 74
     0
 75
     0
 76
     0
 77
     1
 78
     8
170
     0
171
     2
172
     0
173
     1
174
     0
175
     0
176
     0
177
     0
178
     0
  0
ENDTAB
  0
ENDSEC
  0
SECTION
  2
BLOCKS
  0
BLOCK
  8
0
  2
$MODEL_SPACE
 70
     0
 10
0.0
 20
0.0
 30
0.0
  3
$MODEL_SPACE
  1

  0
ENDBLK
  5
7
  8
0
  0
BLOCK
 67
     1
  8
0
  2
$PAPER_SPACE
 70
     0
 10
0.0
 20
0.0
 30
0.0
  3
$PAPER_SPACE
  1

  0
ENDBLK
  5
A
 67
     1
  8
0
  0
BLOCK
  8
0
  2
_OPEN
 70
     0
 10
0.0
 20
0.0
 30
0.0
  3
_OPEN
  1

  0
LINE
  5
194
  8
0
  6
BYBLOCK
 62
     0
 10
-1.0
 20
0.1666666666666666
 30
0.0
 11
0.0
 21
0.0
 31
0.0
  0
LINE
  5
195
  8
0
  6
BYBLOCK
 62
     0
 10
0.0
 20
0.0
 30
0.0
 11
-1.0
 21
-0.1666666666666666
 31
0.0
  0
LINE
  5
196
  8
0
  6
BYBLOCK
 62
     0
 10
0.0
 20
0.0
 30
0.0
 11
-1.0
 21
0.0
 31
0.0
  0
ENDBLK
  5
197
  8
0
  0
BLOCK
  8
0
  2
*D1
 70
     1
 10
0.0
 20
0.0
 30
0.0
  3
*D1
  1

  0
LINE
  5
1135
  8
0
  6
BYBLOCK
 10
11057.740931204329
 20
8182.7435665809371
 30
0.0
 11
11057.740931204329
 21
7952.2635427099276
 31
0.0
  0
LINE
  5
1136
  8
0
  6
BYBLOCK
 10
12377.740931204329
 20
8182.7435665809371
 30
0.0
 11
12377.740931204329
 21
7952.2635427099276
 31
0.0
  0
LINE
  5
1137
  8
0
  6
BYBLOCK
 10
11137.740931204329
 20
7992.2635427099276
 30
0.0
 11
12297.740931204329
 21
7992.2635427099276
 31
0.0
  0
INSERT
  5
1138
  8
0
  6
BYBLOCK
  2
_OPEN
 10
11057.740931204329
 20
7992.2635427099276
 30
0.0
 41
80.0
 42
80.0
 43
80.0
 50
180.0
  0
INSERT
  5
1139
  8
0
  6
BYBLOCK
  2
_OPEN
 10
12377.740931204329
 20
7992.2635427099276
 30
0.0
 41
80.0
 42
80.0
 43
80.0
  0
TEXT
  5
113A
  8
3
 10
11531.764091817049
 20
8012.2635427099294
 30
0.0
 40
100.0
  1
1320
 51
15.0
  7
SUNPOU
  0
POINT
  5
113B
  8
DEFPOINTS
  6
BYBLOCK
 62
     0
 10
11057.740931204329
 20
8222.7435665809353
 30
0.0
  0
POINT
  5
113C
  8
DEFPOINTS
  6
BYBLOCK
 62
     0
 10
12377.740931204329
 20
8222.7435665809353
 30
0.0
  0
POINT
  5
113D
  8
DEFPOINTS
  6
BYBLOCK
 62
     0
 10
12377.740931204329
 20
7992.2635427099276
 30
0.0
  0
ENDBLK
  5
113E
  8
0
  0
BLOCK
  8
0
  2
*D2
 70
     1
 10
0.0
 20
0.0
 30
0.0
  3
*D2
  1

  0
LINE
  5
1208
  8
0
  6
BYBLOCK
 10
10321.06683960374
 20
8182.7435665809371
 30
0.0
 11
10321.06683960374
 21
7952.2635427099276
 31
0.0
  0
LINE
  5
1209
  8
0
  6
BYBLOCK
 10
8691.0668396037436
 20
8182.7435665809371
 30
0.0
 11
8691.0668396037436
 21
7952.2635427099276
 31
0.0
  0
LINE
  5
120A
  8
0
  6
BYBLOCK
 10
10241.06683960374
 20
7992.2635427099276
 30
0.0
 11
8771.0668396037436
 21
7992.2635427099276
 31
0.0
  0
INSERT
  5
120B
  8
0
  6
BYBLOCK
  2
_OPEN
 10
10321.06683960374
 20
7992.2635427099276
 30
0.0
 41
80.0
 42
80.0
 43
80.0
  0
INSERT
  5
120C
  8
0
  6
BYBLOCK
  2
_OPEN
 10
8691.0668396037436
 20
7992.2635427099276
 30
0.0
 41
80.0
 42
80.0
 43
80.0
 50
180.0
  0
TEXT
  5
120D
  8
3
 10
9320.0900002164635
 20
8012.2635427099294
 30
0.0
 40
100.0
  1
1630
 51
15.0
  7
SUNPOU
  0
POINT
  5
120E
  8
DEFPOINTS
  6
BYBLOCK
 62
     0
 10
10321.06683960374
 20
8222.7435665809353
 30
0.0
  0
POINT
  5
120F
  8
DEFPOINTS
  6
BYBLOCK
 62
     0
 10
8691.0668396037436
 20
8222.7435665809353
 30
0.0
  0
POINT
  5
1210
  8
DEFPOINTS
  6
BYBLOCK
 62
     0
 10
8691.0668396037436
 20
7992.2635427099276
 30
0.0
  0
ENDBLK
  5
1211
  8
0
  0
BLOCK
  8
0
  2
*D3
 70
     1
 10
0.0
 20
0.0
 30
0.0
  3
*D3
  1

  0
LINE
  5
114F
  8
0
  6
BYBLOCK
 10
6634.3927480031498
 20
8182.7435665809371
 30
0.0
 11
6634.3927480031498
 21
7952.2635427099276
 31
0.0
  0
LINE
  5
1150
  8
0
  6
BYBLOCK
 10
7954.392748003148
 20
8182.7435665809371
 30
0.0
 11
7954.392748003148
 21
7952.2635427099276
 31
0.0
  0
LINE
  5
1151
  8
0
  6
BYBLOCK
 10
6714.3927480031489
 20
7992.2635427099276
 30
0.0
 11
7874.3927480031489
 21
7992.2635427099276
 31
0.0
  0
INSERT
  5
1152
  8
0
  6
BYBLOCK
  2
_OPEN
 10
6634.3927480031498
 20
7992.2635427099276
 30
0.0
 41
80.0
 42
80.0
 43
80.0
 50
180.0
  0
INSERT
  5
1153
  8
0
  6
BYBLOCK
  2
_OPEN
 10
7954.392748003148
 20
7992.2635427099276
 30
0.0
 41
80.0
 42
80.0
 43
80.0
  0
TEXT
  5
1154
  8
3
 10
7108.415908615867
 20
8012.2635427099294
 30
0.0
 40
100.0
  1
1320
 51
15.0
  7
SUNPOU
  0
POINT
  5
1155
  8
DEFPOINTS
  6
BYBLOCK
 62
     0
 10
6634.3927480031498
 20
8222.7435665809353
 30
0.0
  0
POINT
  5
1156
  8
DEFPOINTS
  6
BYBLOCK
 62
     0
 10
7954.392748003148
 20
8222.7435665809353
 30
0.0
  0
POINT
  5
1157
  8
DEFPOINTS
  6
BYBLOCK
 62
     0
 10
7954.392748003148
 20
7992.2635427099276
 30
0.0
  0
ENDBLK
  5
1158
  8
0
  0
BLOCK
  8
0
  2
*D4
 70
     1
 10
0.0
 20
0.0
 30
0.0
  3
*D4
  1

  0
LINE
  5
115C
  8
0
  6
BYBLOCK
 10
6891.392748003148
 20
9054.7435665809371
 30
0.0
 11
6891.392748003148
 21
9232.1865654300691
 31
0.0
  0
LINE
  5
115D
  8
0
  6
BYBLOCK
 10
7697.392748003148
 20
9054.7435665809371
 30
0.0
 11
7697.392748003148
 21
9232.1865654300691
 31
0.0
  0
LINE
  5
115E
  8
0
  6
BYBLOCK
 10
6971.3927480031489
 20
9192.1865654300673
 30
0.0
 11
7617.392748003148
 21
9192.1865654300673
 31
0.0
  0
INSERT
  5
115F
  8
0
  6
BYBLOCK
  2
_OPEN
 10
6891.392748003148
 20
9192.1865654300673
 30
0.0
 41
80.0
 42
80.0
 43
80.0
 50
180.0
  0
INSERT
  5
1160
  8
0
  6
BYBLOCK
  2
_OPEN
 10
7697.392748003148
 20
9192.1865654300673
 30
0.0
 41
80.0
 42
80.0
 43
80.0
  0
TEXT
  5
1161
  8
3
 10
7156.5477903043757
 20
9212.1865654300691
 30
0.0
 40
100.0
  1
806
 51
15.0
  7
SUNPOU
  0
POINT
  5
1162
  8
DEFPOINTS
  6
BYBLOCK
 62
     0
 10
6891.392748003148
 20
9014.7435665809371
 30
0.0
  0
POINT
  5
1163
  8
DEFPOINTS
  6
BYBLOCK
 62
     0
 10
7697.392748003148
 20
9014.7435665809371
 30
0.0
  0
POINT
  5
1164
  8
DEFPOINTS
  6
BYBLOCK
 62
     0
 10
7697.392748003148
 20
9192.1865654300673
 30
0.0
  0
ENDBLK
  5
1165
  8
0
  0
BLOCK
  8
0
  2
*D5
 70
     1
 10
0.0
 20
0.0
 30
0.0
  3
*D5
  1

  0
LINE
  5
1169
  8
0
  6
BYBLOCK
 10
7737.3927480031489
 20
9014.7435665809371
 30
0.0
 11
8213.7723650620537
 21
9014.7435665809371
 31
0.0
  0
LINE
  5
116A
  8
0
  6
BYBLOCK
 10
7737.3927480031489
 20
8360.7435665809371
 30
0.0
 11
8213.7723650620537
 21
8360.7435665809371
 31
0.0
  0
LINE
  5
116B
  8
0
  6
BYBLOCK
 10
8173.7723650620537
 20
8934.7435665809371
 30
0.0
 11
8173.7723650620537
 21
8440.7435665809371
 31
0.0
  0
INSERT
  5
116C
  8
0
  6
BYBLOCK
  2
_OPEN
 10
8173.7723650620537
 20
9014.7435665809371
 30
0.0
 41
80.0
 42
80.0
 43
80.0
 50
90.0
  0
INSERT
  5
116D
  8
0
  6
BYBLOCK
  2
_OPEN
 10
8173.7723650620537
 20
8360.7435665809371
 30
0.0
 41
80.0
 42
80.0
 43
80.0
 50
270.0
  0
TEXT
  5
116E
  8
3
 10
8153.7723650620528
 20
8548.0304905706707
 30
0.0
 40
100.0
  1
654
 50
90.0
 51
15.0
  7
SUNPOU
  0
POINT
  5
116F
  8
DEFPOINTS
  6
BYBLOCK
 62
     0
 10
7697.392748003148
 20
9014.7435665809371
 30
0.0
  0
POINT
  5
1170
  8
DEFPOINTS
  6
BYBLOCK
 62
     0
 10
7697.392748003148
 20
8360.7435665809371
 30
0.0
  0
POINT
  5
1171
  8
DEFPOINTS
  6
BYBLOCK
 62
     0
 10
8173.7723650620537
 20
8360.7435665809371
 30
0.0
  0
ENDBLK
  5
1172
  8
0
  0
BLOCK
  8
0
  2
*D6
 70
     1
 10
0.0
 20
0.0
 30
0.0
  3
*D6
  1

  0
LINE
  5
1176
  8
0
  6
BYBLOCK
 10
11314.740931204329
 20
9054.7435665809371
 30
0.0
 11
11314.740931204329
 21
9232.1865654300691
 31
0.0
  0
LINE
  5
1177
  8
0
  6
BYBLOCK
 10
12120.740931204329
 20
9054.7435665809371
 30
0.0
 11
12120.740931204329
 21
9232.1865654300691
 31
0.0
  0
LINE
  5
1178
  8
0
  6
BYBLOCK
 10
11394.740931204329
 20
9192.1865654300673
 30
0.0
 11
12040.740931204329
 21
9192.1865654300673
 31
0.0
  0
INSERT
  5
1179
  8
0
  6
BYBLOCK
  2
_OPEN
 10
11314.740931204329
 20
9192.1865654300673
 30
0.0
 41
80.0
 42
80.0
 43
80.0
 50
180.0
  0
INSERT
  5
117A
  8
0
  6
BYBLOCK
  2
_OPEN
 10
12120.740931204329
 20
9192.1865654300673
 30
0.0
 41
80.0
 42
80.0
 43
80.0
  0
TEXT
  5
117B
  8
3
 10
11579.89597350556
 20
9212.1865654300691
 30
0.0
 40
100.0
  1
806
 51
15.0
  7
SUNPOU
  0
POINT
  5
117C
  8
DEFPOINTS
  6
BYBLOCK
 62
     0
 10
11314.740931204329
 20
9014.7435665809371
 30
0.0
  0
POINT
  5
117D
  8
DEFPOINTS
  6
BYBLOCK
 62
     0
 10
12120.740931204329
 20
9014.7435665809371
 30
0.0
  0
POINT
  5
117E
  8
DEFPOINTS
  6
BYBLOCK
 62
     0
 10
12120.740931204329
 20
9192.1865654300673
 30
0.0
  0
ENDBLK
  5
117F
  8
0
  0
BLOCK
  8
0
  2
*D7
 70
     1
 10
0.0
 20
0.0
 30
0.0
  3
*D7
  1

  0
LINE
  5
1183
  8
0
  6
BYBLOCK
 10
12160.740931204329
 20
9014.7435665809371
 30
0.0
 11
12651.732362055111
 21
9014.7435665809371
 31
0.0
  0
LINE
  5
1184
  8
0
  6
BYBLOCK
 10
12160.740931204329
 20
8360.7435665809371
 30
0.0
 11
12651.732362055111
 21
8360.7435665809371
 31
0.0
  0
LINE
  5
1185
  8
0
  6
BYBLOCK
 10
12611.732362055111
 20
8934.7435665809371
 30
0.0
 11
12611.732362055111
 21
8440.7435665809371
 31
0.0
  0
INSERT
  5
1186
  8
0
  6
BYBLOCK
  2
_OPEN
 10
12611.732362055111
 20
9014.7435665809371
 30
0.0
 41
80.0
 42
80.0
 43
80.0
 50
90.0
  0
INSERT
  5
1187
  8
0
  6
BYBLOCK
  2
_OPEN
 10
12611.732362055111
 20
8360.7435665809371
 30
0.0
 41
80.0
 42
80.0
 43
80.0
 50
270.0
  0
TEXT
  5
1188
  8
3
 10
12591.732362055111
 20
8548.0304905706707
 30
0.0
 40
100.0
  1
654
 50
90.0
 51
15.0
  7
SUNPOU
  0
POINT
  5
1189
  8
DEFPOINTS
  6
BYBLOCK
 62
     0
 10
12120.740931204329
 20
9014.7435665809371
 30
0.0
  0
POINT
  5
118A
  8
DEFPOINTS
  6
BYBLOCK
 62
     0
 10
12120.740931204329
 20
8360.7435665809371
 30
0.0
  0
POINT
  5
118B
  8
DEFPOINTS
  6
BYBLOCK
 62
     0
 10
12611.732362055111
 20
8360.7435665809371
 30
0.0
  0
ENDBLK
  5
118C
  8
0
  0
BLOCK
  8
0
  2
*D8
 70
     1
 10
0.0
 20
0.0
 30
0.0
  3
*D8
  1

  0
LINE
  5
1190
  8
0
  6
BYBLOCK
 10
11057.740931204329
 20
9517.7435665809371
 30
0.0
 11
11057.740931204329
 21
9700.7279288647678
 31
0.0
  0
LINE
  5
1191
  8
0
  6
BYBLOCK
 10
11717.740931204329
 20
9638.6483118159958
 30
0.0
 11
11717.740931204329
 21
9700.7279288647678
 31
0.0
  0
LINE
  5
1192
  8
0
  6
BYBLOCK
 10
11137.740931204329
 20
9660.7279288647678
 30
0.0
 11
11637.740931204329
 21
9660.7279288647678
 31
0.0
  0
INSERT
  5
1193
  8
0
  6
BYBLOCK
  2
_OPEN
 10
11057.740931204329
 20
9660.7279288647678
 30
0.0
 41
80.0
 42
80.0
 43
80.0
 50
180.0
  0
INSERT
  5
1194
  8
0
  6
BYBLOCK
  2
_OPEN
 10
11717.740931204329
 20
9660.7279288647678
 30
0.0
 41
80.0
 42
80.0
 43
80.0
  0
TEXT
  5
1195
  8
3
 10
11246.41001727904
 20
9680.7279288647696
 30
0.0
 40
100.0
  1
660
 51
15.0
  7
SUNPOU
  0
POINT
  5
1196
  8
DEFPOINTS
  6
BYBLOCK
 62
     0
 10
11057.740931204329
 20
9477.7435665809371
 30
0.0
  0
POINT
  5
1197
  8
DEFPOINTS
  6
BYBLOCK
 62
     0
 10
11717.740931204329
 20
9598.648311815994
 30
0.0
  0
POINT
  5
1198
  8
DEFPOINTS
  6
BYBLOCK
 62
     0
 10
11717.740931204329
 20
9660.7279288647678
 30
0.0
  0
ENDBLK
  5
1199
  8
0
  0
BLOCK
  8
0
  2
*D9
 70
     1
 10
0.0
 20
0.0
 30
0.0
  3
*D9
  1

  0
LINE
  5
119D
  8
0
  6
BYBLOCK
 10
11717.740931204329
 20
9638.6483118159958
 30
0.0
 11
11717.740931204329
 21
9700.7279288647678
 31
0.0
  0
LINE
  5
119E
  8
0
  6
BYBLOCK
 10
12377.740931204329
 20
9517.7435665809371
 30
0.0
 11
12377.740931204329
 21
9700.7279288647678
 31
0.0
  0
LINE
  5
119F
  8
0
  6
BYBLOCK
 10
11797.740931204329
 20
9660.7279288647678
 30
0.0
 11
12297.740931204329
 21
9660.7279288647678
 31
0.0
  0
INSERT
  5
11A0
  8
0
  6
BYBLOCK
  2
_OPEN
 10
11717.740931204329
 20
9660.7279288647678
 30
0.0
 41
80.0
 42
80.0
 43
80.0
 50
180.0
  0
INSERT
  5
11A1
  8
0
  6
BYBLOCK
  2
_OPEN
 10
12377.740931204329
 20
9660.7279288647678
 30
0.0
 41
80.0
 42
80.0
 43
80.0
  0
TEXT
  5
11A2
  8
3
 10
11906.41001727904
 20
9680.7279288647696
 30
0.0
 40
100.0
  1
660
 51
15.0
  7
SUNPOU
  0
POINT
  5
11A3
  8
DEFPOINTS
  6
BYBLOCK
 62
     0
 10
11717.740931204329
 20
9598.648311815994
 30
0.0
  0
POINT
  5
11A4
  8
DEFPOINTS
  6
BYBLOCK
 62
     0
 10
12377.740931204329
 20
9477.7435665809371
 30
0.0
  0
POINT
  5
11A5
  8
DEFPOINTS
  6
BYBLOCK
 62
     0
 10
12377.740931204329
 20
9660.7279288647678
 30
0.0
  0
ENDBLK
  5
11A6
  8
0
  0
BLOCK
  8
0
  2
*D10
 70
     1
 10
0.0
 20
0.0
 30
0.0
  3
*D10
  1

  0
LINE
  5
11FD
  8
0
  6
BYBLOCK
 10
10241.06683960374
 20
9517.7435665809371
 30
0.0
 11
10241.06683960374
 21
9700.7279288647678
 31
0.0
  0
LINE
  5
11FE
  8
0
  6
BYBLOCK
 10
8771.0668396037436
 20
9517.7435665809371
 30
0.0
 11
8771.0668396037436
 21
9700.7279288647678
 31
0.0
  0
LINE
  5
11FF
  8
0
  6
BYBLOCK
 10
10161.06683960374
 20
9660.7279288647678
 30
0.0
 11
8851.0668396037436
 21
9660.7279288647678
 31
0.0
  0
INSERT
  5
1200
  8
0
  6
BYBLOCK
  2
_OPEN
 10
10241.06683960374
 20
9660.7279288647678
 30
0.0
 41
80.0
 42
80.0
 43
80.0
  0
INSERT
  5
1201
  8
0
  6
BYBLOCK
  2
_OPEN
 10
8771.0668396037436
 20
9660.7279288647678
 30
0.0
 41
80.0
 42
80.0
 43
80.0
 50
180.0
  0
TEXT
  5
1202
  8
3
 10
9320.0900002164635
 20
9680.7279288647696
 30
0.0
 40
100.0
  1
1470
 51
15.0
  7
SUNPOU
  0
POINT
  5
1203
  8
DEFPOINTS
  6
BYBLOCK
 62
     0
 10
10241.06683960374
 20
9477.7435665809371
 30
0.0
  0
POINT
  5
1204
  8
DEFPOINTS
  6
BYBLOCK
 62
     0
 10
8771.0668396037436
 20
9477.7435665809371
 30
0.0
  0
POINT
  5
1205
  8
DEFPOINTS
  6
BYBLOCK
 62
     0
 10
8771.0668396037436
 20
9660.7279288647678
 30
0.0
  0
ENDBLK
  5
1206
  8
0
  0
BLOCK
  8
0
  2
*D11
 70
     1
 10
0.0
 20
0.0
 30
0.0
  3
*D11
  1

  0
LINE
  5
11B7
  8
0
  6
BYBLOCK
 10
6634.3927480031498
 20
9517.7435665809371
 30
0.0
 11
6634.3927480031498
 21
9700.7279288647678
 31
0.0
  0
LINE
  5
11B8
  8
0
  6
BYBLOCK
 10
7294.3927480031489
 20
9638.6483118159958
 30
0.0
 11
7294.3927480031489
 21
9700.7279288647678
 31
0.0
  0
LINE
  5
11B9
  8
0
  6
BYBLOCK
 10
6714.3927480031489
 20
9660.7279288647678
 30
0.0
 11
7214.3927480031489
 21
9660.7279288647678
 31
0.0
  0
INSERT
  5
11BA
  8
0
  6
BYBLOCK
  2
_OPEN
 10
6634.3927480031498
 20
9660.7279288647678
 30
0.0
 41
80.0
 42
80.0
 43
80.0
 50
180.0
  0
INSERT
  5
11BB
  8
0
  6
BYBLOCK
  2
_OPEN
 10
7294.3927480031489
 20
9660.7279288647678
 30
0.0
 41
80.0
 42
80.0
 43
80.0
  0
TEXT
  5
11BC
  8
3
 10
6823.0618340778583
 20
9680.7279288647696
 30
0.0
 40
100.0
  1
660
 51
15.0
  7
SUNPOU
  0
POINT
  5
11BD
  8
DEFPOINTS
  6
BYBLOCK
 62
     0
 10
6634.3927480031498
 20
9477.7435665809371
 30
0.0
  0
POINT
  5
11BE
  8
DEFPOINTS
  6
BYBLOCK
 62
     0
 10
7294.3927480031489
 20
9598.648311815994
 30
0.0
  0
POINT
  5
11BF
  8
DEFPOINTS
  6
BYBLOCK
 62
     0
 10
7294.3927480031489
 20
9660.7279288647678
 30
0.0
  0
ENDBLK
  5
11C0
  8
0
  0
BLOCK
  8
0
  2
*D12
 70
     1
 10
0.0
 20
0.0
 30
0.0
  3
*D12
  1

  0
LINE
  5
11C4
  8
0
  6
BYBLOCK
 10
7294.3927480031489
 20
9638.6483118159958
 30
0.0
 11
7294.3927480031489
 21
9700.7279288647678
 31
0.0
  0
LINE
  5
11C5
  8
0
  6
BYBLOCK
 10
7954.392748003148
 20
9517.7435665809371
 30
0.0
 11
7954.392748003148
 21
9700.7279288647678
 31
0.0
  0
LINE
  5
11C6
  8
0
  6
BYBLOCK
 10
7374.3927480031489
 20
9660.7279288647678
 30
0.0
 11
7874.3927480031489
 21
9660.7279288647678
 31
0.0
  0
INSERT
  5
11C7
  8
0
  6
BYBLOCK
  2
_OPEN
 10
7294.3927480031489
 20
9660.7279288647678
 30
0.0
 41
80.0
 42
80.0
 43
80.0
 50
180.0
  0
INSERT
  5
11C8
  8
0
  6
BYBLOCK
  2
_OPEN
 10
7954.392748003148
 20
9660.7279288647678
 30
0.0
 41
80.0
 42
80.0
 43
80.0
  0
TEXT
  5
11C9
  8
3
 10
7483.0618340778574
 20
9680.7279288647696
 30
0.0
 40
100.0
  1
660
 51
15.0
  7
SUNPOU
  0
POINT
  5
11CA
  8
DEFPOINTS
  6
BYBLOCK
 62
     0
 10
7294.3927480031489
 20
9598.648311815994
 30
0.0
  0
POINT
  5
11CB
  8
DEFPOINTS
  6
BYBLOCK
 62
     0
 10
7954.392748003148
 20
9477.7435665809371
 30
0.0
  0
POINT
  5
11CC
  8
DEFPOINTS
  6
BYBLOCK
 62
     0
 10
7954.392748003148
 20
9660.7279288647678
 30
0.0
  0
ENDBLK
  5
11CD
  8
0
  0
BLOCK
  8
0
  2
*D13
 70
     1
 10
0.0
 20
0.0
 30
0.0
  3
*D13
  1

  0
LINE
  5
11D1
  8
0
  6
BYBLOCK
 10
10361.06683960374
 20
12198.425139979199
 30
0.0
 11
10615.76099269509
 21
12198.425139979199
 31
0.0
  0
LINE
  5
11D2
  8
0
  6
BYBLOCK
 10
10361.06683960374
 20
10878.42513997921
 30
0.0
 11
10615.76099269509
 21
10878.42513997921
 31
0.0
  0
LINE
  5
11D3
  8
0
  6
BYBLOCK
 10
10575.76099269509
 20
12118.425139979199
 30
0.0
 11
10575.76099269509
 21
10958.42513997921
 31
0.0
  0
INSERT
  5
11D4
  8
0
  6
BYBLOCK
  2
_OPEN
 10
10575.76099269509
 20
12198.425139979199
 30
0.0
 41
80.0
 42
80.0
 43
80.0
 50
90.0
  0
INSERT
  5
11D5
  8
0
  6
BYBLOCK
  2
_OPEN
 10
10575.76099269509
 20
10878.42513997921
 30
0.0
 41
80.0
 42
80.0
 43
80.0
 50
270.0
  0
TEXT
  5
11D6
  8
3
 10
10555.76099269509
 20
11352.44830059193
 30
0.0
 40
100.0
  1
1320
 50
90.0
 51
15.0
  7
SUNPOU
  0
POINT
  5
11D7
  8
DEFPOINTS
  6
BYBLOCK
 62
     0
 10
10321.06683960374
 20
12198.425139979199
 30
0.0
  0
POINT
  5
11D8
  8
DEFPOINTS
  6
BYBLOCK
 62
     0
 10
10321.06683960374
 20
10878.42513997921
 30
0.0
  0
POINT
  5
11D9
  8
DEFPOINTS
  6
BYBLOCK
 62
     0
 10
10575.76099269509
 20
10878.42513997921
 30
0.0
  0
ENDBLK
  5
11DA
  8
0
  0
BLOCK
  8
0
  2
*D14
 70
     1
 10
0.0
 20
0.0
 30
0.0
  3
*D14
  1

  0
LINE
  5
11F0
  8
0
  6
BYBLOCK
 10
10361.06683960374
 20
8687.7435665809371
 30
0.0
 11
10546.65814116935
 21
8687.7435665809371
 31
0.0
  0
LINE
  5
11F1
  8
0
  6
BYBLOCK
 10
10361.06683960374
 20
8222.7435665809353
 30
0.0
 11
10546.65814116935
 21
8222.7435665809353
 31
0.0
  0
LINE
  5
11F2
  8
0
  6
BYBLOCK
 10
10506.65814116935
 20
8767.7435665809371
 30
0.0
 11
10506.65814116935
 21
8847.7435665809353
 31
0.0
  0
LINE
  5
11F3
  8
0
  6
BYBLOCK
 10
10506.65814116935
 20
8142.743566580938
 30
0.0
 11
10506.65814116935
 21
8062.7435665809371
 31
0.0
  0
LINE
  5
11F4
  8
0
  6
BYBLOCK
 10
10506.65814116935
 20
8687.7435665809371
 30
0.0
 11
10506.65814116935
 21
8222.7435665809353
 31
0.0
  0
INSERT
  5
11F5
  8
0
  6
BYBLOCK
  2
_OPEN
 10
10506.65814116935
 20
8687.7435665809371
 30
0.0
 41
80.0
 42
80.0
 43
80.0
 50
270.0
  0
INSERT
  5
11F6
  8
0
  6
BYBLOCK
  2
_OPEN
 10
10506.65814116935
 20
8222.7435665809353
 30
0.0
 41
80.0
 42
80.0
 43
80.0
 50
90.0
  0
TEXT
  5
11F7
  8
3
 10
10486.65814116935
 20
8313.5707632760059
 30
0.0
 40
100.0
  1
465
 50
90.0
 51
15.0
  7
SUNPOU
  0
POINT
  5
11F8
  8
DEFPOINTS
  6
BYBLOCK
 62
     0
 10
10321.06683960374
 20
8687.7435665809371
 30
0.0
  0
POINT
  5
11F9
  8
DEFPOINTS
  6
BYBLOCK
 62
     0
 10
10321.06683960374
 20
8222.7435665809353
 30
0.0
  0
POINT
  5
11FA
  8
DEFPOINTS
  6
BYBLOCK
 62
     0
 10
10506.65814116935
 20
8222.7435665809353
 30
0.0
  0
ENDBLK
  5
11FB
  8
0
  0
ENDSEC
  0
SECTION
  2
ENTITIES
  0
LINE
  5
570
  8
4
  6
CONTINUOUS
 10
12819.74395831865
 20
6226.5815883283894
 30
0.0
 11
12819.74395831865
 21
5426.5815883283894
 31
0.0
  0
LINE
  5
571
  8
4
  6
CONTINUOUS
 10
10019.743958318641
 20
6226.5815883283894
 30
0.0
 11
10019.743958318641
 21
5426.5815883283894
 31
0.0
  0
LINE
  5
572
  8
4
  6
CONTINUOUS
 10
8019.7439583186488
 20
6226.5815883283894
 30
0.0
 11
8019.7439583186488
 21
5426.5815883283894
 31
0.0
  0
LINE
  5
575
  8
4
  6
CONTINUOUS
 10
8019.7439583186488
 20
5426.5815883283894
 30
0.0
 11
12819.74395831865
 21
5426.5815883283894
 31
0.0
  0
LINE
  5
576
  8
4
  6
CONTINUOUS
 10
8019.7439583186488
 20
5826.5815883283894
 30
0.0
 11
12819.74395831865
 21
5826.5815883283894
 31
0.0
  0
TEXT
  5
577
  8
4
  6
CONTINUOUS
 10
8173.7522813186479
 20
5952.7536913283893
 30
0.0
 40
200.0
  1
機器名称
  0
TEXT
  5
578
  8
4
  6
CONTINUOUS
 10
8164.7763823186488
 20
5513.1622153283897
 30
0.0
 40
200.0
  1
機器型番
  0
TEXT
  5
579
  8
4
  6
CONTINUOUS
 10
10130.45894031864
 20
5916.8686643283891
 30
0.0
 40
200.0
  1
ミツヤファンユニット
  0
TEXT
  5
57A
  8
4
  6
CONTINUOUS
 10
10166.36194031864
 20
5495.2199253283879
 30
0.0
 40
200.0
  1
MFU#3005-5
  0
TEXT
  5
57C
  8
4
  6
CONTINUOUS
 10
8208.057998318649
 20
13760.29695332839
 30
0.0
 40
200.0
  1
天井吊ベット・床置ベット
  0
TEXT
  5
57D
  8
4
  6
CONTINUOUS
 10
6684.4143313186487
 20
14362.105493328379
 30
0.0
 40
250.0
  1
ベルト駆動式消音ボックス付き多翼ファン
  0
LINE
  5
57E
  8
4
  6
CONTINUOUS
 10
6419.7439583186488
 20
14104.216605328391
 30
0.0
 11
12819.74395831865
 21
14104.216605328391
 31
0.0
  0
LINE
  5
57F
  8
4
  6
CONTINUOUS
 10
6419.7439583186488
 20
14904.216605328391
 30
0.0
 11
12819.74395831865
 21
14904.216605328391
 31
0.0
  0
LINE
  5
580
  8
4
  6
CONTINUOUS
 10
8019.7439583186488
 20
6226.5815883283894
 30
0.0
 11
12819.74395831865
 21
6226.5815883283894
 31
0.0
  0
LINE
  5
581
  8
4
  6
CONTINUOUS
 10
6419.7439583186488
 20
14904.216605328391
 30
0.0
 11
6419.7439583186488
 21
14104.216605328391
 31
0.0
  0
TEXT
  5
582
  8
4
  6
CONTINUOUS
 10
6545.6791553186486
 20
13755.85949832838
 30
0.0
 40
200.0
  1
左回転右吐出
  0
TEXT
  5
583
  8
4
  6
CONTINUOUS
 10
11295.62219531864
 20
15050.82591432839
 30
0.0
 40
224.0
  1
No.
  0
TEXT
  5
584
  8
4
  6
CONTINUOUS
 10
11151.26717431864
 20
13760.29695332839
 30
0.0
 40
200.0
  1
縮尺：1/40
  0
LINE
  5
585
  8
4
  6
CONTINUOUS
 10
12819.74395831865
 20
14904.216605328391
 30
0.0
 11
12819.74395831865
 21
14104.216605328391
 31
0.0
  0
LINE
  5
586
  8
4
  6
CONTINUOUS
 10
11182.213647318649
 20
14951.63592132839
 30
0.0
 11
11182.213647318649
 21
15373.190634328381
 31
0.0
  0
LINE
  5
587
  8
4
  6
CONTINUOUS
 10
11182.213647318649
 20
15373.190634328381
 30
0.0
 11
12819.74395831865
 21
15373.190634328381
 31
0.0
  0
LINE
  5
588
  8
4
  6
CONTINUOUS
 10
12819.74395831865
 20
15373.190634328381
 30
0.0
 11
12819.74395831865
 21
14951.63592132839
 31
0.0
  0
LINE
  5
589
  8
4
  6
CONTINUOUS
 10
12819.74395831865
 20
14951.63592132839
 30
0.0
 11
11182.213647318649
 21
14951.63592132839
 31
0.0
  0
LINE
  5
10C7
  8
1
 10
10321.06683960374
 20
8222.7435665809353
 30
0.0
 11
8691.0668396037436
 21
8222.7435665809353
 31
0.0
  0
LINE
  5
10C8
  8
1
 10
8691.0668396037436
 20
8222.7435665809353
 30
0.0
 11
8691.0668396037436
 21
8297.7435665809371
 31
0.0
  0
LINE
  5
10C9
  8
1
 10
8691.0668396037436
 20
8297.7435665809371
 30
0.0
 11
10321.06683960374
 21
8297.7435665809371
 31
0.0
  0
LINE
  5
10CA
  8
1
 10
10321.06683960374
 20
8297.7435665809371
 30
0.0
 11
10321.06683960374
 21
8222.7435665809353
 31
0.0
  0
LINE
  5
10CB
  8
1
 10
8771.0668396037436
 20
8297.7435665809371
 30
0.0
 11
8771.0668396037436
 21
9477.7435665809371
 31
0.0
  0
LINE
  5
10CC
  8
1
 10
8771.0668396037436
 20
9477.7435665809371
 30
0.0
 11
10241.06683960374
 21
9477.7435665809371
 31
0.0
  0
LINE
  5
10CD
  8
1
 10
10241.06683960374
 20
9477.7435665809371
 30
0.0
 11
10241.06683960374
 21
8297.7435665809371
 31
0.0
  0
LINE
  5
10CE
  8
2
 10
10321.06683960374
 20
8687.7435665809371
 30
0.0
 11
8691.0668396037436
 21
8687.7435665809371
 31
0.0
  0
LINE
  5
10CF
  8
1
 10
10281.06683960374
 20
9054.7435665809371
 30
0.0
 11
10241.06683960374
 21
9054.7435665809371
 31
0.0
  0
LINE
  5
10D0
  8
1
 10
10281.06683960374
 20
8320.7435665809371
 30
0.0
 11
10241.06683960374
 21
8320.7435665809371
 31
0.0
  0
LINE
  5
10D1
  8
1
 10
10281.06683960374
 20
9054.7435665809371
 30
0.0
 11
10281.06683960374
 21
8320.7435665809371
 31
0.0
  0
LINE
  5
10D2
  8
1
 10
8731.0668396037436
 20
8320.7435665809371
 30
0.0
 11
8731.0668396037436
 21
9054.7435665809371
 31
0.0
  0
LINE
  5
10D3
  8
1
 10
8771.0668396037418
 20
9054.7435665809371
 30
0.0
 11
8731.0668396037418
 21
9054.7435665809371
 31
0.0
  0
LINE
  5
10D4
  8
1
 10
8771.0668396037418
 20
8320.7435665809371
 30
0.0
 11
8731.0668396037436
 21
8320.7435665809371
 31
0.0
  0
LINE
  5
10D5
  8
1
 10
6634.3927480031498
 20
8222.7435665809353
 30
0.0
 11
7954.392748003148
 21
8222.7435665809353
 31
0.0
  0
LINE
  5
10D6
  8
1
 10
7954.392748003148
 20
8297.7435665809371
 30
0.0
 11
6634.3927480031498
 21
8297.7435665809371
 31
0.0
  0
LINE
  5
10D7
  8
1
 10
7954.392748003148
 20
9477.7435665809371
 30
0.0
 11
6634.392748003148
 21
9477.7435665809353
 31
0.0
  0
LINE
  5
10D8
  8
1
 10
7954.392748003148
 20
8222.7435665809353
 30
0.0
 11
7954.392748003148
 21
9477.7435665809371
 31
0.0
  0
LINE
  5
10D9
  8
1
 10
6634.3927480031498
 20
8222.7435665809353
 30
0.0
 11
6634.3927480031498
 21
9477.7435665809371
 31
0.0
  0
LINE
  5
10DA
  8
1
 10
6619.3927480031498
 20
8302.7435665809371
 30
0.0
 11
6619.3927480031489
 21
9472.7435665809353
 31
0.0
  0
LINE
  5
10DB
  8
1
 10
7969.3927480031489
 20
8302.7435665809371
 30
0.0
 11
7969.3927480031489
 21
9472.7435665809353
 31
0.0
  0
LINE
  5
10DC
  8
1
 10
7969.3927480031489
 20
9472.7435665809353
 30
0.0
 11
7954.392748003148
 21
9472.7435665809389
 31
0.0
  0
LINE
  5
10DD
  8
1
 10
7969.3927480031489
 20
8302.7435665809371
 30
0.0
 11
7954.392748003148
 21
8302.7435665809389
 31
0.0
  0
LINE
  5
10DE
  8
1
 10
6634.3927480031498
 20
8302.7435665809389
 30
0.0
 11
6619.3927480031489
 21
8302.7435665809371
 31
0.0
  0
LINE
  5
10DF
  8
1
 10
6634.3927480031498
 20
9472.7435665809353
 30
0.0
 11
6619.3927480031489
 21
9472.7435665809353
 31
0.0
  0
LINE
  5
10E0
  8
2
 10
7294.3927480031489
 20
8222.7435665809353
 30
0.0
 11
7294.3927480031489
 21
9150.452483348372
 31
0.0
  0
LINE
  5
10E2
  8
1
 10
6891.392748003148
 20
9014.7435665809371
 30
0.0
 11
7697.392748003148
 21
9014.7435665809371
 31
0.0
  0
LINE
  5
10E3
  8
1
 10
6891.392748003148
 20
8360.7435665809371
 30
0.0
 11
7697.392748003148
 21
8360.7435665809371
 31
0.0
  0
LINE
  5
10E4
  8
1
 10
6891.392748003148
 20
8360.7435665809371
 30
0.0
 11
6891.392748003148
 21
9014.7435665809371
 31
0.0
  0
LINE
  5
10E5
  8
1
 10
7697.392748003148
 20
8360.7435665809371
 30
0.0
 11
7697.3927480031498
 21
9014.7435665809371
 31
0.0
  0
LINE
  5
10E6
  8
1
 10
6851.392748003148
 20
8320.7435665809371
 30
0.0
 11
6851.392748003148
 21
9054.7435665809371
 31
0.0
  0
LINE
  5
10E7
  8
1
 10
7737.3927480031489
 20
8320.7435665809371
 30
0.0
 11
7737.3927480031489
 21
9054.7435665809371
 31
0.0
  0
LINE
  5
10E8
  8
1
 10
6851.392748003148
 20
9054.7435665809371
 30
0.0
 11
7737.3927480031489
 21
9054.7435665809371
 31
0.0
  0
LINE
  5
10E9
  8
1
 10
6851.392748003148
 20
8320.7435665809371
 30
0.0
 11
7737.3927480031489
 21
8320.7435665809371
 31
0.0
  0
LINE
  5
10EA
  8
1
 10
6891.392748003148
 20
8360.7435665809371
 30
0.0
 11
7697.392748003148
 21
9014.7435665809371
 31
0.0
  0
LINE
  5
10EB
  8
1
 10
7697.392748003148
 20
8360.7435665809371
 30
0.0
 11
6891.392748003148
 21
9014.7435665809371
 31
0.0
  0
LINE
  5
10EE
  8
2
 10
7294.3927480031489
 20
9412.9042544459571
 30
0.0
 11
7294.3927480031489
 21
9598.648311815994
 31
0.0
  0
LINE
  5
10F0
  8
1
 10
11314.740931204329
 20
8360.7435665809371
 30
0.0
 11
12120.740931204329
 21
9014.7435665809371
 31
0.0
  0
LINE
  5
10F1
  8
1
 10
12120.740931204329
 20
8360.7435665809371
 30
0.0
 11
11314.740931204329
 21
9014.7435665809371
 31
0.0
  0
LINE
  5
10F2
  8
1
 10
12160.740931204329
 20
8320.7435665809371
 30
0.0
 11
11274.740931204329
 21
8320.7435665809371
 31
0.0
  0
LINE
  5
10F3
  8
1
 10
12160.740931204329
 20
9054.7435665809371
 30
0.0
 11
11274.740931204329
 21
9054.7435665809371
 31
0.0
  0
LINE
  5
10F4
  8
1
 10
12120.740931204329
 20
9014.7435665809371
 30
0.0
 11
11314.740931204329
 21
9014.7435665809371
 31
0.0
  0
LINE
  5
10F5
  8
1
 10
12120.740931204329
 20
8360.7435665809371
 30
0.0
 11
11314.740931204329
 21
8360.7435665809371
 31
0.0
  0
LINE
  5
10F6
  8
1
 10
11057.740931204329
 20
8297.7435665809371
 30
0.0
 11
12377.740931204329
 21
8297.7435665809371
 31
0.0
  0
LINE
  5
10F7
  8
1
 10
12377.740931204329
 20
8222.7435665809353
 30
0.0
 11
11057.740931204329
 21
8222.7435665809353
 31
0.0
  0
LINE
  5
10F8
  8
1
 10
11057.740931204329
 20
9477.7435665809371
 30
0.0
 11
12377.740931204329
 21
9477.7435665809353
 31
0.0
  0
LINE
  5
10F9
  8
2
 10
11717.740931204329
 20
8222.7435665809353
 30
0.0
 11
11717.740931204329
 21
9150.452483348372
 31
0.0
  0
LINE
  5
10FA
  8
1
 10
12160.740931204329
 20
8320.7435665809371
 30
0.0
 11
12160.740931204329
 21
9054.7435665809371
 31
0.0
  0
LINE
  5
10FB
  8
1
 10
12120.740931204329
 20
8360.7435665809371
 30
0.0
 11
12120.740931204329
 21
9014.7435665809371
 31
0.0
  0
LINE
  5
10FC
  8
1
 10
12392.740931204329
 20
8302.7435665809371
 30
0.0
 11
12392.740931204329
 21
9472.7435665809353
 31
0.0
  0
LINE
  5
10FD
  8
1
 10
12377.740931204329
 20
8222.7435665809353
 30
0.0
 11
12377.740931204329
 21
9477.7435665809371
 31
0.0
  0
LINE
  5
10FE
  8
1
 10
12377.740931204329
 20
8302.7435665809389
 30
0.0
 11
12392.740931204329
 21
8302.7435665809371
 31
0.0
  0
LINE
  5
10FF
  8
1
 10
12377.740931204329
 20
9472.7435665809353
 30
0.0
 11
12392.740931204329
 21
9472.7435665809353
 31
0.0
  0
LINE
  5
1100
  8
2
 10
11717.740931204329
 20
9412.9042544459571
 30
0.0
 11
11717.740931204329
 21
9598.648311815994
 31
0.0
  0
LINE
  5
1101
  8
1
 10
11274.740931204329
 20
8320.7435665809371
 30
0.0
 11
11274.740931204329
 21
9054.7435665809371
 31
0.0
  0
LINE
  5
1102
  8
1
 10
11314.740931204329
 20
8360.7435665809371
 30
0.0
 11
11314.740931204329
 21
9014.7435665809371
 31
0.0
  0
LINE
  5
1103
  8
1
 10
11042.740931204329
 20
8302.7435665809371
 30
0.0
 11
11042.740931204329
 21
9472.7435665809353
 31
0.0
  0
LINE
  5
1104
  8
1
 10
11057.740931204329
 20
8222.7435665809353
 30
0.0
 11
11057.740931204329
 21
9477.7435665809371
 31
0.0
  0
LINE
  5
1105
  8
1
 10
11042.740931204329
 20
8302.7435665809371
 30
0.0
 11
11057.740931204329
 21
8302.7435665809389
 31
0.0
  0
LINE
  5
1106
  8
1
 10
11042.740931204329
 20
9472.7435665809353
 30
0.0
 11
11057.740931204329
 21
9472.7435665809389
 31
0.0
  0
LINE
  5
1107
  8
1
 10
8691.0668396037436
 20
10878.42513997921
 30
0.0
 11
10321.06683960374
 21
10878.42513997921
 31
0.0
  0
LINE
  5
1108
  8
1
 10
10321.06683960374
 20
10878.42513997921
 30
0.0
 11
10321.06683960374
 21
10918.425139979199
 31
0.0
  0
LINE
  5
1109
  8
1
 10
10321.06683960374
 20
12198.425139979199
 30
0.0
 11
8691.0668396037436
 21
12198.425139979199
 31
0.0
  0
LINE
  5
110A
  8
1
 10
8691.0668396037436
 20
12198.425139979199
 30
0.0
 11
8691.0668396037436
 21
12158.425139979199
 31
0.0
  0
LINE
  5
110B
  8
1
 10
8691.0668396037436
 20
10918.42513997921
 30
0.0
 11
8771.0668396037436
 21
10918.425139979199
 31
0.0
  0
LINE
  5
110C
  8
1
 10
10321.06683960374
 20
12158.425139979199
 30
0.0
 11
10241.06683960374
 21
12158.425139979199
 31
0.0
  0
LINE
  5
110D
  8
1
 10
8771.0668396037436
 20
12213.425139979199
 30
0.0
 11
8771.0668396037436
 21
10863.425139979199
 31
0.0
  0
LINE
  5
110E
  8
1
 10
10241.06683960374
 20
10863.42513997921
 30
0.0
 11
10241.06683960374
 21
12213.425139979199
 31
0.0
  0
LINE
  5
110F
  8
1
 10
10321.06683960374
 20
12158.425139979199
 30
0.0
 11
10321.06683960374
 21
12198.425139979199
 31
0.0
  0
LINE
  5
1110
  8
1
 10
8691.0668396037436
 20
10918.425139979199
 30
0.0
 11
8691.0668396037436
 21
10878.42513997921
 31
0.0
  0
LINE
  5
1111
  8
1
 10
10241.06683960374
 20
12213.42513997921
 30
0.0
 11
8771.0668396037436
 21
12213.425139979199
 31
0.0
  0
LINE
  5
1112
  8
1
 10
8771.0668396037418
 20
10863.425139979199
 30
0.0
 11
10241.06683960374
 21
10863.425139979199
 31
0.0
  0
LINE
  5
1113
  8
1
 10
10241.06683960374
 20
10918.425139979199
 30
0.0
 11
10321.06683960374
 21
10918.42513997921
 31
0.0
  0
LINE
  5
1114
  8
1
 10
8771.0668396037436
 20
12158.425139979199
 30
0.0
 11
8691.0668396037436
 21
12158.425139979199
 31
0.0
  0
LINE
  5
1115
  8
2
 10
8691.0668396037436
 20
11538.42513997921
 30
0.0
 11
10321.06683960374
 21
11538.42513997921
 31
0.0
  0
LINE
  5
1116
  8
1
 10
10281.06683960374
 20
11095.42513997921
 30
0.0
 11
10281.06683960374
 21
11981.425139979199
 31
0.0
  0
LINE
  5
1117
  8
1
 10
8731.0668396037436
 20
11981.425139979199
 30
0.0
 11
8731.0668396037436
 21
11095.42513997921
 31
0.0
  0
LINE
  5
1118
  8
1
 10
8731.0668396037436
 20
11981.425139979199
 30
0.0
 11
8771.0668396037436
 21
11981.42513997921
 31
0.0
  0
LINE
  5
1119
  8
1
 10
8731.0668396037436
 20
11095.425139979199
 30
0.0
 11
8771.0668396037436
 21
11095.425139979199
 31
0.0
  0
LINE
  5
111A
  8
1
 10
10241.06683960374
 20
11981.42513997921
 30
0.0
 11
10281.06683960374
 21
11981.42513997921
 31
0.0
  0
LINE
  5
111B
  8
1
 10
10241.06683960374
 20
11095.425139979199
 30
0.0
 11
10281.06683960374
 21
11095.425139979199
 31
0.0
  0
ARC
  5
1121
  8
4
 10
9818.0668396037436
 20
8932.7435665809371
 30
0.0
 40
472.0
 50
180.0
 51
265.5039808655697
  0
ARC
  5
1122
  8
4
 10
9744.0668396037436
 20
8932.7435665809371
 30
0.0
 40
398.0
 50
90.0
 51
180.0
  0
ARC
  5
1126
  8
4
 10
9750.0668396037454
 20
9000.7435665809353
 30
0.0
 40
330.0
 50
0.0
 51
90.0
  0
ARC
  5
1127
  8
4
 10
9812.0668396037436
 20
9000.7435665809353
 30
0.0
 40
268.0
 50
347.72016142257661
 51
0.0
  0
LINE
  5
1128
  8
4
 10
10141.06683960374
 20
8401.7435665809371
 30
0.0
 11
10141.06683960374
 21
8973.7435665809389
 31
0.0
  0
LINE
  5
112A
  8
4
 10
10141.06683960374
 20
8431.7435665809371
 30
0.0
 11
9781.0668396037454
 21
8462.1960131923352
 31
0.0
  0
LINE
  5
112B
  8
4
 10
10073.93512710721
 20
8943.7435665809371
 30
0.0
 11
10141.06683960374
 21
8943.7435665809371
 31
0.0
  0
LINE
  5
1131
  8
4
 10
10141.06683960374
 20
8943.7435665809371
 30
0.0
 11
10241.06683960374
 21
8943.7435665809371
 31
0.0
  0
LINE
  5
1132
  8
4
 10
10141.06683960374
 20
8431.7435665809371
 30
0.0
 11
10241.06683960374
 21
8431.7435665809371
 31
0.0
  0
DIMENSION
  5
113F
  8
3
  2
*D1
 10
12377.740931204329
 20
7992.2635427099276
 30
0.0
 11
11717.740931204329
 21
8062.2635427099276
 31
0.0
 70
     0
 13
11057.740931204329
 23
8222.7435665809353
 33
0.0
 14
12377.740931204329
 24
8222.7435665809353
 34
0.0
1001
ACAD
1000
DSTYLE
1002
{
1070
   140
1040
2.5
1070
    40
1040
40.0
1070
     7
1000
_OPEN
1070
     6
1000
_OPEN
1002
}
  0
DIMENSION
  5
114C
  8
3
  2
*D2
 10
8691.0668396037436
 20
7992.2635427099276
 30
0.0
 11
9506.0668396037454
 21
8062.2635427099276
 31
0.0
 70
     0
 13
10321.06683960374
 23
8222.7435665809353
 33
0.0
 14
8691.0668396037436
 24
8222.7435665809353
 34
0.0
1001
ACAD
1000
DSTYLE
1002
{
1070
   140
1040
2.5
1070
    40
1040
40.0
1070
     7
1000
_OPEN
1070
     6
1000
_OPEN
1002
}
  0
DIMENSION
  5
1159
  8
3
  2
*D3
 10
7954.392748003148
 20
7992.2635427099276
 30
0.0
 11
7294.3927480031489
 21
8062.2635427099276
 31
0.0
 70
     0
 13
6634.3927480031498
 23
8222.7435665809353
 33
0.0
 14
7954.392748003148
 24
8222.7435665809353
 34
0.0
1001
ACAD
1000
DSTYLE
1002
{
1070
   140
1040
2.5
1070
    40
1040
40.0
1070
     7
1000
_OPEN
1070
     6
1000
_OPEN
1002
}
  0
DIMENSION
  5
1166
  8
3
  2
*D4
 10
7697.392748003148
 20
9192.1865654300673
 30
0.0
 11
7294.3927480031489
 21
9262.1865654300673
 31
0.0
 70
     0
 13
6891.392748003148
 23
9014.7435665809371
 33
0.0
 14
7697.392748003148
 24
9014.7435665809371
 34
0.0
1001
ACAD
1000
DSTYLE
1002
{
1070
   140
1040
2.5
1070
    40
1040
40.0
1070
     7
1000
_OPEN
1070
     6
1000
_OPEN
1002
}
  0
DIMENSION
  5
1173
  8
3
  2
*D5
 10
8173.7723650620537
 20
8360.7435665809371
 30
0.0
 11
8103.7723650620537
 21
8687.7435665809371
 31
0.0
 70
     0
 13
7697.392748003148
 23
9014.7435665809371
 33
0.0
 14
7697.392748003148
 24
8360.7435665809371
 34
0.0
 50
90.0
1001
ACAD
1000
DSTYLE
1002
{
1070
   140
1040
2.5
1070
    40
1040
40.0
1070
     7
1000
_OPEN
1070
     6
1000
_OPEN
1002
}
  0
DIMENSION
  5
1180
  8
3
  2
*D6
 10
12120.740931204329
 20
9192.1865654300673
 30
0.0
 11
11717.740931204329
 21
9262.1865654300673
 31
0.0
 70
     0
 13
11314.740931204329
 23
9014.7435665809371
 33
0.0
 14
12120.740931204329
 24
9014.7435665809371
 34
0.0
1001
ACAD
1000
DSTYLE
1002
{
1070
   140
1040
2.5
1070
    40
1040
40.0
1070
     7
1000
_OPEN
1070
     6
1000
_OPEN
1002
}
  0
DIMENSION
  5
118D
  8
3
  2
*D7
 10
12611.732362055111
 20
8360.7435665809371
 30
0.0
 11
12541.732362055111
 21
8687.7435665809371
 31
0.0
 70
     0
 13
12120.740931204329
 23
9014.7435665809371
 33
0.0
 14
12120.740931204329
 24
8360.7435665809371
 34
0.0
 50
90.0
1001
ACAD
1000
DSTYLE
1002
{
1070
   140
1040
2.5
1070
    40
1040
40.0
1070
     7
1000
_OPEN
1070
     6
1000
_OPEN
1002
}
  0
DIMENSION
  5
119A
  8
3
  2
*D8
 10
11717.740931204329
 20
9660.7279288647678
 30
0.0
 11
11387.740931204329
 21
9730.7279288647678
 31
0.0
 70
     0
 13
11057.740931204329
 23
9477.7435665809371
 33
0.0
 14
11717.740931204329
 24
9598.648311815994
 34
0.0
1001
ACAD
1000
DSTYLE
1002
{
1070
   140
1040
2.5
1070
    40
1040
40.0
1070
     7
1000
_OPEN
1070
     6
1000
_OPEN
1002
}
  0
DIMENSION
  5
11A7
  8
3
  2
*D9
 10
12377.740931204329
 20
9660.7279288647678
 30
0.0
 11
12047.740931204329
 21
9730.7279288647678
 31
0.0
 70
     0
 13
11717.740931204329
 23
9598.648311815994
 33
0.0
 14
12377.740931204329
 24
9477.7435665809371
 34
0.0
1001
ACAD
1000
DSTYLE
1002
{
1070
   140
1040
2.5
1070
    40
1040
40.0
1070
     7
1000
_OPEN
1070
     6
1000
_OPEN
1002
}
  0
DIMENSION
  5
11B4
  8
3
  2
*D10
 10
8771.0668396037436
 20
9660.7279288647678
 30
0.0
 11
9506.0668396037454
 21
9730.7279288647678
 31
0.0
 70
     0
 13
10241.06683960374
 23
9477.7435665809371
 33
0.0
 14
8771.0668396037436
 24
9477.7435665809371
 34
0.0
1001
ACAD
1000
DSTYLE
1002
{
1070
   140
1040
2.5
1070
    40
1040
40.0
1070
     7
1000
_OPEN
1070
     6
1000
_OPEN
1002
}
  0
DIMENSION
  5
11C1
  8
3
  2
*D11
 10
7294.3927480031489
 20
9660.7279288647678
 30
0.0
 11
6964.3927480031489
 21
9730.7279288647678
 31
0.0
 70
     0
 13
6634.3927480031498
 23
9477.7435665809371
 33
0.0
 14
7294.3927480031489
 24
9598.648311815994
 34
0.0
1001
ACAD
1000
DSTYLE
1002
{
1070
   140
1040
2.5
1070
    40
1040
40.0
1070
     7
1000
_OPEN
1070
     6
1000
_OPEN
1002
}
  0
DIMENSION
  5
11CE
  8
3
  2
*D12
 10
7954.392748003148
 20
9660.7279288647678
 30
0.0
 11
7624.3927480031489
 21
9730.7279288647678
 31
0.0
 70
     0
 13
7294.3927480031489
 23
9598.648311815994
 33
0.0
 14
7954.392748003148
 24
9477.7435665809371
 34
0.0
1001
ACAD
1000
DSTYLE
1002
{
1070
   140
1040
2.5
1070
    40
1040
40.0
1070
     7
1000
_OPEN
1070
     6
1000
_OPEN
1002
}
  0
DIMENSION
  5
11DB
  8
3
  2
*D13
 10
10575.76099269509
 20
10878.42513997921
 30
0.0
 11
10505.76099269509
 21
11538.42513997921
 31
0.0
 70
     0
 13
10321.06683960374
 23
12198.425139979199
 33
0.0
 14
10321.06683960374
 24
10878.42513997921
 34
0.0
 50
90.0
1001
ACAD
1000
DSTYLE
1002
{
1070
   140
1040
2.5
1070
    40
1040
40.0
1070
     7
1000
_OPEN
1070
     6
1000
_OPEN
1002
}
  0
DIMENSION
  5
11EA
  8
3
  2
*D14
 10
10506.65814116935
 20
8222.7435665809353
 30
0.0
 11
10436.65814116935
 21
8455.2435665809371
 31
0.0
 70
     0
 13
10321.06683960374
 23
8687.7435665809371
 33
0.0
 14
10321.06683960374
 24
8222.7435665809353
 34
0.0
 50
270.0
1001
ACAD
1000
DSTYLE
1002
{
1070
   140
1040
2.5
1070
    40
1040
40.0
1070
     7
1000
_OPEN
1070
     6
1000
_OPEN
1002
}
  0
ENDSEC
  0
EOF
