  0
SECTION
  2
HEADER
  9
$ACADVER
  1
AC1015
  9
$ACADMAINTVER
 70
     6
  9
$DWGCODEPAGE
  3
ANSI_932
  9
$INSBASE
 10
0.0
 20
0.0
 30
0.0
  9
$EXTMIN
 10
6419.743958318649
 20
5426.581588328389
 30
0.0
  9
$EXTMAX
 10
12819.74395831865
 20
15373.19063432838
 30
0.0
  9
$LIMMIN
 10
0.0
 20
0.0
  9
$LIMMAX
 10
297.0
 20
210.0
  9
$ORTHOMODE
 70
     1
  9
$REGENMODE
 70
     1
  9
$FILLMODE
 70
     1
  9
$QTEXTMODE
 70
     0
  9
$MIRRTEXT
 70
     0
  9
$LTSCALE
 40
20.0
  9
$ATTMODE
 70
     1
  9
$TEXTSIZE
 40
52.5
  9
$TRACEWID
 40
0.05
  9
$TEXTSTYLE
  7
STANDARD
  9
$CLAYER
  8
3
  9
$CELTYPE
  6
BYLAYER
  9
$CECOLOR
 62
   256
  9
$CELTSCALE
 40
10.0
  9
$DISPSILH
 70
     0
  9
$DIMSCALE
 40
40.0
  9
$DIMASZ
 40
2.0
  9
$DIMEXO
 40
1.0
  9
$DIMDLI
 40
10.0
  9
$DIMRND
 40
0.0
  9
$DIMDLE
 40
0.0
  9
$DIMEXE
 40
1.0
  9
$DIMTP
 40
0.0
  9
$DIMTM
 40
0.0
  9
$DIMTXT
 40
2.5
  9
$DIMCEN
 40
0.0
  9
$DIMTSZ
 40
0.0
  9
$DIMTOL
 70
     0
  9
$DIMLIM
 70
     0
  9
$DIMTIH
 70
     0
  9
$DIMTOH
 70
     0
  9
$DIMSE1
 70
     0
  9
$DIMSE2
 70
     0
  9
$DIMTAD
 70
     1
  9
$DIMZIN
 70
     8
  9
$DIMBLK
  1

  9
$DIMASO
 70
     1
  9
$DIMSHO
 70
     1
  9
$DIMPOST
  1

  9
$DIMAPOST
  1

  9
$DIMALT
 70
     0
  9
$DIMALTD
 70
     2
  9
$DIMALTF
 40
0.03937
  9
$DIMLFAC
 40
1.0
  9
$DIMTOFL
 70
     1
  9
$DIMTVP
 40
0.0
  9
$DIMTIX
 70
     0
  9
$DIMSOXD
 70
     0
  9
$DIMSAH
 70
     1
  9
$DIMBLK1
  1
OPEN
  9
$DIMBLK2
  1
OPEN
  9
$DIMSTYLE
  2
MATSU
  9
$DIMCLRD
 70
   256
  9
$DIMCLRE
 70
   256
  9
$DIMCLRT
 70
   256
  9
$DIMTFAC
 40
1.0
  9
$DIMGAP
 40
0.5
  9
$DIMJUST
 70
     0
  9
$DIMSD1
 70
     0
  9
$DIMSD2
 70
     0
  9
$DIMTOLJ
 70
     1
  9
$DIMTZIN
 70
     8
  9
$DIMALTZ
 70
     0
  9
$DIMALTTZ
 70
     0
  9
$DIMUPT
 70
     0
  9
$DIMDEC
 70
     4
  9
$DIMTDEC
 70
     4
  9
$DIMALTU
 70
     2
  9
$DIMALTTD
 70
     2
  9
$DIMTXSTY
  7
SUNPOU
  9
$DIMAUNIT
 70
     0
  9
$DIMADEC
 70
     0
  9
$DIMALTRND
 40
0.0
  9
$DIMAZIN
 70
     0
  9
$DIMDSEP
 70
    46
  9
$DIMATFIT
 70
     3
  9
$DIMFRAC
 70
     0
  9
$DIMLDRBLK
  1
OPEN
  9
$DIMLUNIT
 70
     2
  9
$DIMLWD
 70
    -2
  9
$DIMLWE
 70
    -2
  9
$DIMTMOVE
 70
     0
  9
$LUNITS
 70
     2
  9
$LUPREC
 70
     3
  9
$SKETCHINC
 40
0.1
  9
$FILLETRAD
 40
5.0
  9
$AUNITS
 70
     0
  9
$AUPREC
 70
     2
  9
$MENU
  1
acad
  9
$ELEVATION
 40
0.0
  9
$PELEVATION
 40
0.0
  9
$THICKNESS
 40
0.0
  9
$LIMCHECK
 70
     0
  9
$CHAMFERA
 40
0.0
  9
$CHAMFERB
 40
0.0
  9
$CHAMFERC
 40
20.0
  9
$CHAMFERD
 40
0.0
  9
$SKPOLY
 70
     0
  9
$TDCREATE
 40
2451997.453800232
  9
$TDUCREATE
 40
2451997.078800231
  9
$TDUPDATE
 40
2456463.620677615
  9
$TDUUPDATE
 40
2456463.245677615
  9
$TDINDWG
 40
0.0629809606
  9
$TDUSRTIMER
 40
0.0629809606
  9
$USRTIMER
 70
     1
  9
$ANGBASE
 50
0.0
  9
$ANGDIR
 70
     0
  9
$PDMODE
 70
     0
  9
$PDSIZE
 40
1.0
  9
$PLINEWID
 40
0.0
  9
$SPLFRAME
 70
     0
  9
$SPLINETYPE
 70
     6
  9
$SPLINESEGS
 70
     8
  9
$HANDSEED
  5
122A
  9
$SURFTAB1
 70
     6
  9
$SURFTAB2
 70
     6
  9
$SURFTYPE
 70
     6
  9
$SURFU
 70
     6
  9
$SURFV
 70
     6
  9
$UCSBASE
  2

  9
$UCSNAME
  2

  9
$UCSORG
 10
0.0
 20
0.0
 30
0.0
  9
$UCSXDIR
 10
1.0
 20
0.0
 30
0.0
  9
$UCSYDIR
 10
0.0
 20
1.0
 30
0.0
  9
$UCSORTHOREF
  2

  9
$UCSORTHOVIEW
 70
     0
  9
$UCSORGTOP
 10
0.0
 20
0.0
 30
0.0
  9
$UCSORGBOTTOM
 10
0.0
 20
0.0
 30
0.0
  9
$UCSORGLEFT
 10
0.0
 20
0.0
 30
0.0
  9
$UCSORGRIGHT
 10
0.0
 20
0.0
 30
0.0
  9
$UCSORGFRONT
 10
0.0
 20
0.0
 30
0.0
  9
$UCSORGBACK
 10
0.0
 20
0.0
 30
0.0
  9
$PUCSBASE
  2

  9
$PUCSNAME
  2

  9
$PUCSORG
 10
0.0
 20
0.0
 30
0.0
  9
$PUCSXDIR
 10
1.0
 20
0.0
 30
0.0
  9
$PUCSYDIR
 10
0.0
 20
1.0
 30
0.0
  9
$PUCSORTHOREF
  2

  9
$PUCSORTHOVIEW
 70
     0
  9
$PUCSORGTOP
 10
0.0
 20
0.0
 30
0.0
  9
$PUCSORGBOTTOM
 10
0.0
 20
0.0
 30
0.0
  9
$PUCSORGLEFT
 10
0.0
 20
0.0
 30
0.0
  9
$PUCSORGRIGHT
 10
0.0
 20
0.0
 30
0.0
  9
$PUCSORGFRONT
 10
0.0
 20
0.0
 30
0.0
  9
$PUCSORGBACK
 10
0.0
 20
0.0
 30
0.0
  9
$USERI1
 70
     0
  9
$USERI2
 70
     0
  9
$USERI3
 70
     0
  9
$USERI4
 70
     0
  9
$USERI5
 70
     0
  9
$USERR1
 40
0.0
  9
$USERR2
 40
0.0
  9
$USERR3
 40
0.0
  9
$USERR4
 40
0.0
  9
$USERR5
 40
0.0
  9
$WORLDVIEW
 70
     1
  9
$SHADEDGE
 70
     3
  9
$SHADEDIF
 70
    70
  9
$TILEMODE
 70
     1
  9
$MAXACTVP
 70
    16
  9
$PINSBASE
 10
0.0
 20
0.0
 30
0.0
  9
$PLIMCHECK
 70
     0
  9
$PEXTMIN
 10
1.000000000000000E+20
 20
1.000000000000000E+20
 30
1.000000000000000E+20
  9
$PEXTMAX
 10
-1.000000000000000E+20
 20
-1.000000000000000E+20
 30
-1.000000000000000E+20
  9
$PLIMMIN
 10
0.0
 20
0.0
  9
$PLIMMAX
 10
12.0
 20
9.0
  9
$UNITMODE
 70
     0
  9
$VISRETAIN
 70
     0
  9
$PLINEGEN
 70
     0
  9
$PSLTSCALE
 70
     0
  9
$TREEDEPTH
 70
  3020
  9
$CMLSTYLE
  2
STANDARD
  9
$CMLJUST
 70
     0
  9
$CMLSCALE
 40
20.0
  9
$PROXYGRAPHICS
 70
     1
  9
$MEASUREMENT
 70
     1
  9
$CELWEIGHT
370
    -1
  9
$ENDCAPS
280
     0
  9
$JOINSTYLE
280
     0
  9
$LWDISPLAY
290
     0
  9
$INSUNITS
 70
     0
  9
$HYPERLINKBASE
  1

  9
$STYLESHEET
  1

  9
$XEDIT
290
     1
  9
$CEPSNTYPE
380
     0
  9
$PSTYLEMODE
290
     1
  9
$FINGERPRINTGUID
  2
{A276ECD2-75B9-11D5-A85E-0080AD788799}
  9
$VERSIONGUID
  2
{8F88B14E-339D-407D-9FF5-5D08D19B3C2E}
  9
$EXTNAMES
290
     1
  9
$PSVPSCALE
 40
0.0
  9
$OLESTARTUP
290
     0
  0
ENDSEC
  0
SECTION
  2
CLASSES
  0
CLASS
  1
XRECORD
  2
AcDbXrecord
  3
AutoCAD 2000
 90
    32768
280
     0
281
     0
  0
CLASS
  1
ACDBDICTIONARYWDFLT
  2
AcDbDictionaryWithDefault
  3
AutoCAD 2000
 90
        0
280
     0
281
     0
  0
CLASS
  1
ACDBPLACEHOLDER
  2
AcDbPlaceHolder
  3
AutoCAD 2000
 90
        0
280
     0
281
     0
  0
CLASS
  1
LAYOUT
  2
AcDbLayout
  3
AutoCAD 2000
 90
        0
280
     0
281
     0
  0
CLASS
  1
LONG_TRANSACTION
  2
AcDbLongTransaction
  3
AutoCAD 2000
 90
    32768
280
     0
281
     0
  0
CLASS
  1
LWPOLYLINE
  2
AcDbPolyline
  3
AutoCAD 2000
 90
    32768
280
     0
281
     1
  0
CLASS
  1
HATCH
  2
AcDbHatch
  3
AutoCAD 2000
 90
    32768
280
     0
281
     1
  0
CLASS
  1
XRECORD
  2
AcDbXrecord
  3
AutoCAD 2000
 90
    32768
280
     0
281
     0
  0
CLASS
  1
LONG_TRANSACTION
  2
AcDbLongTransaction
  3
AutoCAD 2000
 90
    32768
280
     0
281
     0
  0
CLASS
  1
LWPOLYLINE
  2
AcDbPolyline
  3
AutoCAD 2000
 90
    32768
280
     0
281
     1
  0
CLASS
  1
HATCH
  2
AcDbHatch
  3
AutoCAD 2000
 90
    32768
280
     0
281
     1
  0
CLASS
  1
XRECORD
  2
AcDbXrecord
  3
AutoCAD 2000
 90
    32768
280
     0
281
     0
  0
ENDSEC
  0
SECTION
  2
TABLES
  0
TABLE
  2
VPORT
  5
12
330
0
100
AcDbSymbolTable
 70
     3
  0
VPORT
  5
1229
330
12
100
AcDbSymbolTableRecord
100
AcDbViewportTableRecord
  2
*Active
 70
     0
 10
0.0
 20
0.0
 11
1.0
 21
1.0
 12
14085.20139026557
 22
9320.316204749913
 13
0.0
 23
0.0
 14
5.0
 24
5.0
 15
0.0
 25
0.0
 16
0.0
 26
0.0
 36
1.0
 17
0.0
 27
0.0
 37
0.0
 40
12237.55098344014
 41
1.73997233748271
 42
50.0
 43
0.0
 44
0.0
 50
0.0
 51
0.0
 71
     0
 72
   100
 73
     1
 74
     0
 75
     0
 76
     0
 77
     0
 78
     2
281
     0
 65
     1
110
0.0
120
0.0
130
0.0
111
1.0
121
0.0
131
0.0
112
0.0
122
1.0
132
0.0
 79
     0
146
0.0
  0
ENDTAB
  0
TABLE
  2
LTYPE
  5
E
330
0
100
AcDbSymbolTable
 70
     2
  0
LTYPE
  5
F
330
E
100
AcDbSymbolTableRecord
100
AcDbLinetypeTableRecord
  2
BYBLOCK
 70
     0
  3

 72
    65
 73
     0
 40
0.0
  0
LTYPE
  5
6
330
E
100
AcDbSymbolTableRecord
100
AcDbLinetypeTableRecord
  2
BYLAYER
 70
     0
  3

 72
    65
 73
     0
 40
0.0
  0
LTYPE
  5
5
330
E
100
AcDbSymbolTableRecord
100
AcDbLinetypeTableRecord
  2
CONTINUOUS
 70
     0
  3
Solid line
 72
    65
 73
     0
 40
0.0
  0
LTYPE
  5
41
330
E
100
AcDbSymbolTableRecord
100
AcDbLinetypeTableRecord
  2
CENTER
 70
     0
  3
____ _ ____ _ ____ _ ____ _ ____ _ ____ _ ____ 
 72
    65
 73
     4
 40
2.0
 49
1.25
 74
     0
 49
-0.25
 74
     0
 49
0.25
 74
     0
 49
-0.25
 74
     0
  0
ENDTAB
  0
TABLE
  2
LAYER
  5
B
330
0
100
AcDbSymbolTable
 70
     6
  0
LAYER
  5
4
330
B
100
AcDbSymbolTableRecord
100
AcDbLayerTableRecord
  2
0
 70
     0
 62
     7
  6
CONTINUOUS
370
    -3
390
8AB
  0
LAYER
  5
3E
330
B
100
AcDbSymbolTableRecord
100
AcDbLayerTableRecord
  2
DEFPOINTS
 70
     0
 62
     7
  6
CONTINUOUS
290
     0
370
    -3
390
8AB
  0
LAYER
  5
442
330
B
100
AcDbSymbolTableRecord
100
AcDbLayerTableRecord
  2
3
 70
     0
 62
     2
  6
CONTINUOUS
370
    -3
390
8AB
  0
LAYER
  5
443
330
B
100
AcDbSymbolTableRecord
100
AcDbLayerTableRecord
  2
2
 70
     0
 62
     3
  6
CENTER
370
    -3
390
8AB
  0
LAYER
  5
444
330
B
100
AcDbSymbolTableRecord
100
AcDbLayerTableRecord
  2
1
 70
     0
 62
     4
  6
CONTINUOUS
370
    -3
390
8AB
  0
LAYER
  5
445
330
B
100
AcDbSymbolTableRecord
100
AcDbLayerTableRecord
  2
4
 70
     0
 62
     7
  6
CONTINUOUS
370
    -3
390
8AB
  0
ENDTAB
  0
TABLE
  2
STYLE
  5
C
330
0
100
AcDbSymbolTable
 70
     2
  0
STYLE
  5
D
330
C
100
AcDbSymbolTableRecord
100
AcDbTextStyleTableRecord
  2
STANDARD
 70
     0
 40
0.0
 41
1.0
 50
0.0
 71
     0
 42
52.5
  3
C:\Program Files\AutoCAD LT\simplex.shx
  4
C:\Program Files\AutoCAD LT\extfont.shx
  0
STYLE
  5
1C
330
C
100
AcDbSymbolTableRecord
100
AcDbTextStyleTableRecord
  2
SUNPOU
 70
     0
 40
0.0
 41
1.0
 50
15.0
 71
     0
 42
5.0
  3
simplex.shx
  4
extfont.shx
  0
ENDTAB
  0
TABLE
  2
VIEW
  5
10
330
0
100
AcDbSymbolTable
 70
     0
  0
ENDTAB
  0
TABLE
  2
UCS
  5
11
330
0
100
AcDbSymbolTable
 70
     0
  0
ENDTAB
  0
TABLE
  2
APPID
  5
14
330
0
100
AcDbSymbolTable
 70
     1
  0
APPID
  5
15
330
14
100
AcDbSymbolTableRecord
100
AcDbRegAppTableRecord
  2
ACAD
 70
     0
  0
ENDTAB
  0
TABLE
  2
DIMSTYLE
  5
16
330
0
100
AcDbSymbolTable
 70
     2
100
AcDbDimStyleTable
 71
     0
  0
DIMSTYLE
105
1F
102
{ACAD_REACTORS
330
113F
330
114C
330
1159
330
1166
330
1173
330
1180
330
118D
330
119A
330
11A7
330
11B4
330
11C1
330
11CE
330
11DB
330
11EA
102
}
330
16
100
AcDbSymbolTableRecord
100
AcDbDimStyleTableRecord
  2
MATSU
 70
     0
 40
10.0
 41
2.0
 42
1.0
 43
10.0
 44
1.0
 73
     0
 74
     0
 77
     1
 78
     8
140
3.0
141
0.0
143
0.03937
147
0.5
172
     1
173
     1
176
   256
177
   256
178
   256
284
     8
340
1C
341
192
343
192
344
192
  0
DIMSTYLE
105
446
330
16
100
AcDbSymbolTableRecord
100
AcDbDimStyleTableRecord
  2
IGA
 70
     0
 40
2.0
 41
2.0
 42
0.5
 43
10.0
 44
1.0
 47
1.0
 48
1.0
 73
     0
 74
     0
 77
     1
 78
     8
140
3.0
141
0.0
143
0.03937
146
10.0
147
1.0
173
     1
271
     1
272
     0
279
     2
284
     8
340
D
341
192
343
192
344
192
  0
ENDTAB
  0
TABLE
  2
BLOCK_RECORD
  5
1
330
0
100
AcDbSymbolTable
 70
    15
  0
BLOCK_RECORD
  5
2
102
{ACAD_XDICTIONARY
360
8D9
102
}
330
1
100
AcDbSymbolTableRecord
100
AcDbBlockTableRecord
  2
*MODEL_SPACE
340
8AE
  0
BLOCK_RECORD
  5
8
102
{ACAD_XDICTIONARY
360
8DB
102
}
330
1
100
AcDbSymbolTableRecord
100
AcDbBlockTableRecord
  2
*PAPER_SPACE
340
8AF
  0
BLOCK_RECORD
  5
192
330
1
100
AcDbSymbolTableRecord
100
AcDbBlockTableRecord
  2
_OPEN
340
0
102
{BLKREFS
331
1138
331
1139
331
120B
331
120C
331
1152
331
1153
331
115F
331
1160
331
116C
331
116D
331
1179
331
117A
331
1186
331
1187
331
1193
331
1194
331
11A0
331
11A1
331
1200
331
1201
331
11BA
331
11BB
331
11C7
331
11C8
331
11D4
331
11D5
331
11F5
331
11F6
102
}
  0
BLOCK_RECORD
  5
1133
330
1
100
AcDbSymbolTableRecord
100
AcDbBlockTableRecord
  2
*D1
340
0
  0
BLOCK_RECORD
  5
1140
330
1
100
AcDbSymbolTableRecord
100
AcDbBlockTableRecord
  2
*D2
340
0
  0
BLOCK_RECORD
  5
114D
330
1
100
AcDbSymbolTableRecord
100
AcDbBlockTableRecord
  2
*D3
340
0
  0
BLOCK_RECORD
  5
115A
330
1
100
AcDbSymbolTableRecord
100
AcDbBlockTableRecord
  2
*D4
340
0
  0
BLOCK_RECORD
  5
1167
330
1
100
AcDbSymbolTableRecord
100
AcDbBlockTableRecord
  2
*D5
340
0
  0
BLOCK_RECORD
  5
1174
330
1
100
AcDbSymbolTableRecord
100
AcDbBlockTableRecord
  2
*D6
340
0
  0
BLOCK_RECORD
  5
1181
330
1
100
AcDbSymbolTableRecord
100
AcDbBlockTableRecord
  2
*D7
340
0
  0
BLOCK_RECORD
  5
118E
330
1
100
AcDbSymbolTableRecord
100
AcDbBlockTableRecord
  2
*D8
340
0
  0
BLOCK_RECORD
  5
119B
330
1
100
AcDbSymbolTableRecord
100
AcDbBlockTableRecord
  2
*D9
340
0
  0
BLOCK_RECORD
  5
11A8
330
1
100
AcDbSymbolTableRecord
100
AcDbBlockTableRecord
  2
*D10
340
0
  0
BLOCK_RECORD
  5
11B5
330
1
100
AcDbSymbolTableRecord
100
AcDbBlockTableRecord
  2
*D11
340
0
  0
BLOCK_RECORD
  5
11C2
330
1
100
AcDbSymbolTableRecord
100
AcDbBlockTableRecord
  2
*D12
340
0
  0
BLOCK_RECORD
  5
11CF
330
1
100
AcDbSymbolTableRecord
100
AcDbBlockTableRecord
  2
*D13
340
0
  0
BLOCK_RECORD
  5
11DC
330
1
100
AcDbSymbolTableRecord
100
AcDbBlockTableRecord
  2
*D14
340
0
  0
ENDTAB
  0
ENDSEC
  0
SECTION
  2
BLOCKS
  0
BLOCK
  5
3
330
2
100
AcDbEntity
  8
0
100
AcDbBlockBegin
  2
*MODEL_SPACE
 70
     0
 10
0.0
 20
0.0
 30
0.0
  3
*MODEL_SPACE
  1

  0
ENDBLK
  5
7
330
2
100
AcDbEntity
  8
0
100
AcDbBlockEnd
  0
BLOCK
  5
9
330
8
100
AcDbEntity
 67
     1
  8
0
100
AcDbBlockBegin
  2
*PAPER_SPACE
 70
     0
 10
0.0
 20
0.0
 30
0.0
  3
*PAPER_SPACE
  1

  0
ENDBLK
  5
A
330
8
100
AcDbEntity
 67
     1
  8
0
100
AcDbBlockEnd
  0
BLOCK
  5
193
330
192
100
AcDbEntity
  8
0
 48
20.0
100
AcDbBlockBegin
  2
_OPEN
 70
     0
 10
0.0
 20
0.0
 30
0.0
  3
_OPEN
  1

  0
LINE
  5
194
330
192
100
AcDbEntity
  8
0
  6
ByBlock
 62
     0
 48
20.0
100
AcDbLine
 10
-1.0
 20
0.1666666666666666
 30
0.0
 11
0.0
 21
0.0
 31
0.0
  0
LINE
  5
195
330
192
100
AcDbEntity
  8
0
  6
ByBlock
 62
     0
 48
20.0
100
AcDbLine
 10
0.0
 20
0.0
 30
0.0
 11
-1.0
 21
-0.1666666666666666
 31
0.0
  0
LINE
  5
196
330
192
100
AcDbEntity
  8
0
  6
ByBlock
 62
     0
 48
20.0
100
AcDbLine
 10
0.0
 20
0.0
 30
0.0
 11
-1.0
 21
0.0
 31
0.0
  0
ENDBLK
  5
197
330
192
100
AcDbEntity
  8
0
 48
20.0
100
AcDbBlockEnd
  0
BLOCK
  5
1134
330
1133
100
AcDbEntity
  8
0
 48
10.0
100
AcDbBlockBegin
  2
*D1
 70
     1
 10
0.0
 20
0.0
 30
0.0
  3
*D1
  1

  0
LINE
  5
1135
330
1133
100
AcDbEntity
  8
0
  6
ByBlock
 48
10.0
100
AcDbLine
 10
11057.74093120433
 20
8182.743566580937
 30
0.0
 11
11057.74093120433
 21
7952.263542709928
 31
0.0
  0
LINE
  5
1136
330
1133
100
AcDbEntity
  8
0
  6
ByBlock
 48
10.0
100
AcDbLine
 10
12377.74093120433
 20
8182.743566580937
 30
0.0
 11
12377.74093120433
 21
7952.263542709928
 31
0.0
  0
LINE
  5
1137
330
1133
100
AcDbEntity
  8
0
  6
ByBlock
 48
10.0
100
AcDbLine
 10
11137.74093120433
 20
7992.263542709928
 30
0.0
 11
12297.74093120433
 21
7992.263542709928
 31
0.0
  0
INSERT
  5
1138
330
1133
100
AcDbEntity
  8
0
  6
ByBlock
 48
10.0
100
AcDbBlockReference
  2
_OPEN
 10
11057.74093120433
 20
7992.263542709928
 30
0.0
 41
80.0
 42
80.0
 43
80.0
 50
180.0
  0
INSERT
  5
1139
330
1133
100
AcDbEntity
  8
0
  6
ByBlock
 48
10.0
100
AcDbBlockReference
  2
_OPEN
 10
12377.74093120433
 20
7992.263542709928
 30
0.0
 41
80.0
 42
80.0
 43
80.0
  0
MTEXT
  5
113A
330
1133
100
AcDbEntity
  8
0
  6
ByBlock
 48
10.0
100
AcDbMText
 10
11717.74093120433
 20
8062.263542709928
 30
0.0
 40
100.0
 41
0.0
 71
     5
 72
     5
  1
\A1;1320
  7
SUNPOU
 73
     1
 44
1.0
  0
POINT
  5
113B
330
1133
100
AcDbEntity
  8
DEFPOINTS
  6
ByBlock
 62
     0
 48
10.0
100
AcDbPoint
 10
11057.74093120433
 20
8222.743566580936
 30
0.0
  0
POINT
  5
113C
330
1133
100
AcDbEntity
  8
DEFPOINTS
  6
ByBlock
 62
     0
 48
10.0
100
AcDbPoint
 10
12377.74093120433
 20
8222.743566580936
 30
0.0
  0
POINT
  5
113D
330
1133
100
AcDbEntity
  8
DEFPOINTS
  6
ByBlock
 62
     0
 48
10.0
100
AcDbPoint
 10
12377.74093120433
 20
7992.263542709928
 30
0.0
  0
ENDBLK
  5
113E
330
1133
100
AcDbEntity
  8
0
 48
10.0
100
AcDbBlockEnd
  0
BLOCK
  5
1207
330
1140
100
AcDbEntity
  8
0
 48
10.0
100
AcDbBlockBegin
  2
*D2
 70
     1
 10
0.0
 20
0.0
 30
0.0
  3
*D2
  1

  0
LINE
  5
1208
330
1140
100
AcDbEntity
  8
0
  6
ByBlock
 48
10.0
100
AcDbLine
 10
10321.06683960374
 20
8182.743566580937
 30
0.0
 11
10321.06683960374
 21
7952.263542709928
 31
0.0
  0
LINE
  5
1209
330
1140
100
AcDbEntity
  8
0
  6
ByBlock
 48
10.0
100
AcDbLine
 10
8691.066839603744
 20
8182.743566580937
 30
0.0
 11
8691.066839603744
 21
7952.263542709928
 31
0.0
  0
LINE
  5
120A
330
1140
100
AcDbEntity
  8
0
  6
ByBlock
 48
10.0
100
AcDbLine
 10
10241.06683960374
 20
7992.263542709928
 30
0.0
 11
8771.066839603744
 21
7992.263542709928
 31
0.0
  0
INSERT
  5
120B
330
1140
100
AcDbEntity
  8
0
  6
ByBlock
 48
10.0
100
AcDbBlockReference
  2
_OPEN
 10
10321.06683960374
 20
7992.263542709928
 30
0.0
 41
80.0
 42
80.0
 43
80.0
  0
INSERT
  5
120C
330
1140
100
AcDbEntity
  8
0
  6
ByBlock
 48
10.0
100
AcDbBlockReference
  2
_OPEN
 10
8691.066839603744
 20
7992.263542709928
 30
0.0
 41
80.0
 42
80.0
 43
80.0
 50
180.0
  0
MTEXT
  5
120D
330
1140
100
AcDbEntity
  8
0
  6
ByBlock
 48
10.0
100
AcDbMText
 10
9506.066839603745
 20
8062.263542709928
 30
0.0
 40
100.0
 41
0.0
 71
     5
 72
     5
  1
\A1;1630
  7
SUNPOU
 73
     1
 44
1.0
  0
POINT
  5
120E
330
1140
100
AcDbEntity
  8
DEFPOINTS
  6
ByBlock
 62
     0
 48
10.0
100
AcDbPoint
 10
10321.06683960374
 20
8222.743566580936
 30
0.0
  0
POINT
  5
120F
330
1140
100
AcDbEntity
  8
DEFPOINTS
  6
ByBlock
 62
     0
 48
10.0
100
AcDbPoint
 10
8691.066839603744
 20
8222.743566580936
 30
0.0
  0
POINT
  5
1210
330
1140
100
AcDbEntity
  8
DEFPOINTS
  6
ByBlock
 62
     0
 48
10.0
100
AcDbPoint
 10
8691.066839603744
 20
7992.263542709928
 30
0.0
  0
ENDBLK
  5
1211
330
1140
100
AcDbEntity
  8
0
 48
10.0
100
AcDbBlockEnd
  0
BLOCK
  5
114E
330
114D
100
AcDbEntity
  8
0
 48
10.0
100
AcDbBlockBegin
  2
*D3
 70
     1
 10
0.0
 20
0.0
 30
0.0
  3
*D3
  1

  0
LINE
  5
114F
330
114D
100
AcDbEntity
  8
0
  6
ByBlock
 48
10.0
100
AcDbLine
 10
6634.39274800315
 20
8182.743566580937
 30
0.0
 11
6634.39274800315
 21
7952.263542709928
 31
0.0
  0
LINE
  5
1150
330
114D
100
AcDbEntity
  8
0
  6
ByBlock
 48
10.0
100
AcDbLine
 10
7954.392748003148
 20
8182.743566580937
 30
0.0
 11
7954.392748003148
 21
7952.263542709928
 31
0.0
  0
LINE
  5
1151
330
114D
100
AcDbEntity
  8
0
  6
ByBlock
 48
10.0
100
AcDbLine
 10
6714.392748003149
 20
7992.263542709928
 30
0.0
 11
7874.392748003149
 21
7992.263542709928
 31
0.0
  0
INSERT
  5
1152
330
114D
100
AcDbEntity
  8
0
  6
ByBlock
 48
10.0
100
AcDbBlockReference
  2
_OPEN
 10
6634.39274800315
 20
7992.263542709928
 30
0.0
 41
80.0
 42
80.0
 43
80.0
 50
180.0
  0
INSERT
  5
1153
330
114D
100
AcDbEntity
  8
0
  6
ByBlock
 48
10.0
100
AcDbBlockReference
  2
_OPEN
 10
7954.392748003148
 20
7992.263542709928
 30
0.0
 41
80.0
 42
80.0
 43
80.0
  0
MTEXT
  5
1154
330
114D
100
AcDbEntity
  8
0
  6
ByBlock
 48
10.0
100
AcDbMText
 10
7294.392748003149
 20
8062.263542709928
 30
0.0
 40
100.0
 41
0.0
 71
     5
 72
     5
  1
\A1;1320
  7
SUNPOU
 73
     1
 44
1.0
  0
POINT
  5
1155
330
114D
100
AcDbEntity
  8
DEFPOINTS
  6
ByBlock
 62
     0
 48
10.0
100
AcDbPoint
 10
6634.39274800315
 20
8222.743566580936
 30
0.0
  0
POINT
  5
1156
330
114D
100
AcDbEntity
  8
DEFPOINTS
  6
ByBlock
 62
     0
 48
10.0
100
AcDbPoint
 10
7954.392748003148
 20
8222.743566580936
 30
0.0
  0
POINT
  5
1157
330
114D
100
AcDbEntity
  8
DEFPOINTS
  6
ByBlock
 62
     0
 48
10.0
100
AcDbPoint
 10
7954.392748003148
 20
7992.263542709928
 30
0.0
  0
ENDBLK
  5
1158
330
114D
100
AcDbEntity
  8
0
 48
10.0
100
AcDbBlockEnd
  0
BLOCK
  5
115B
330
115A
100
AcDbEntity
  8
0
 48
10.0
100
AcDbBlockBegin
  2
*D4
 70
     1
 10
0.0
 20
0.0
 30
0.0
  3
*D4
  1

  0
LINE
  5
115C
330
115A
100
AcDbEntity
  8
0
  6
ByBlock
 48
10.0
100
AcDbLine
 10
6891.392748003148
 20
9054.743566580937
 30
0.0
 11
6891.392748003148
 21
9232.186565430069
 31
0.0
  0
LINE
  5
115D
330
115A
100
AcDbEntity
  8
0
  6
ByBlock
 48
10.0
100
AcDbLine
 10
7697.392748003148
 20
9054.743566580937
 30
0.0
 11
7697.392748003148
 21
9232.186565430069
 31
0.0
  0
LINE
  5
115E
330
115A
100
AcDbEntity
  8
0
  6
ByBlock
 48
10.0
100
AcDbLine
 10
6971.392748003149
 20
9192.186565430068
 30
0.0
 11
7617.392748003148
 21
9192.186565430068
 31
0.0
  0
INSERT
  5
115F
330
115A
100
AcDbEntity
  8
0
  6
ByBlock
 48
10.0
100
AcDbBlockReference
  2
_OPEN
 10
6891.392748003148
 20
9192.186565430068
 30
0.0
 41
80.0
 42
80.0
 43
80.0
 50
180.0
  0
INSERT
  5
1160
330
115A
100
AcDbEntity
  8
0
  6
ByBlock
 48
10.0
100
AcDbBlockReference
  2
_OPEN
 10
7697.392748003148
 20
9192.186565430068
 30
0.0
 41
80.0
 42
80.0
 43
80.0
  0
MTEXT
  5
1161
330
115A
100
AcDbEntity
  8
0
  6
ByBlock
 48
10.0
100
AcDbMText
 10
7294.392748003149
 20
9262.186565430068
 30
0.0
 40
100.0
 41
0.0
 71
     5
 72
     5
  1
\A1;806
  7
SUNPOU
 73
     1
 44
1.0
  0
POINT
  5
1162
330
115A
100
AcDbEntity
  8
DEFPOINTS
  6
ByBlock
 62
     0
 48
10.0
100
AcDbPoint
 10
6891.392748003148
 20
9014.743566580937
 30
0.0
  0
POINT
  5
1163
330
115A
100
AcDbEntity
  8
DEFPOINTS
  6
ByBlock
 62
     0
 48
10.0
100
AcDbPoint
 10
7697.392748003148
 20
9014.743566580937
 30
0.0
  0
POINT
  5
1164
330
115A
100
AcDbEntity
  8
DEFPOINTS
  6
ByBlock
 62
     0
 48
10.0
100
AcDbPoint
 10
7697.392748003148
 20
9192.186565430068
 30
0.0
  0
ENDBLK
  5
1165
330
115A
100
AcDbEntity
  8
0
 48
10.0
100
AcDbBlockEnd
  0
BLOCK
  5
1168
330
1167
100
AcDbEntity
  8
0
 48
10.0
100
AcDbBlockBegin
  2
*D5
 70
     1
 10
0.0
 20
0.0
 30
0.0
  3
*D5
  1

  0
LINE
  5
1169
330
1167
100
AcDbEntity
  8
0
  6
ByBlock
 48
10.0
100
AcDbLine
 10
7737.392748003149
 20
9014.743566580937
 30
0.0
 11
8213.772365062053
 21
9014.743566580937
 31
0.0
  0
LINE
  5
116A
330
1167
100
AcDbEntity
  8
0
  6
ByBlock
 48
10.0
100
AcDbLine
 10
7737.392748003149
 20
8360.743566580937
 30
0.0
 11
8213.772365062053
 21
8360.743566580937
 31
0.0
  0
LINE
  5
116B
330
1167
100
AcDbEntity
  8
0
  6
ByBlock
 48
10.0
100
AcDbLine
 10
8173.772365062054
 20
8934.743566580937
 30
0.0
 11
8173.772365062054
 21
8440.743566580938
 31
0.0
  0
INSERT
  5
116C
330
1167
100
AcDbEntity
  8
0
  6
ByBlock
 48
10.0
100
AcDbBlockReference
  2
_OPEN
 10
8173.772365062054
 20
9014.743566580937
 30
0.0
 41
80.0
 42
80.0
 43
80.0
 50
90.0
  0
INSERT
  5
116D
330
1167
100
AcDbEntity
  8
0
  6
ByBlock
 48
10.0
100
AcDbBlockReference
  2
_OPEN
 10
8173.772365062054
 20
8360.743566580937
 30
0.0
 41
80.0
 42
80.0
 43
80.0
 50
270.0
  0
MTEXT
  5
116E
330
1167
100
AcDbEntity
  8
0
  6
ByBlock
 48
10.0
100
AcDbMText
 10
8103.772365062054
 20
8687.743566580937
 30
0.0
 40
100.0
 41
0.0
 71
     5
 72
     5
  1
\A1;654
  7
SUNPOU
 11
0.0
 21
1.0
 31
0.0
 73
     1
 44
1.0
  0
POINT
  5
116F
330
1167
100
AcDbEntity
  8
DEFPOINTS
  6
ByBlock
 62
     0
 48
10.0
100
AcDbPoint
 10
7697.392748003148
 20
9014.743566580937
 30
0.0
  0
POINT
  5
1170
330
1167
100
AcDbEntity
  8
DEFPOINTS
  6
ByBlock
 62
     0
 48
10.0
100
AcDbPoint
 10
7697.392748003148
 20
8360.743566580937
 30
0.0
  0
POINT
  5
1171
330
1167
100
AcDbEntity
  8
DEFPOINTS
  6
ByBlock
 62
     0
 48
10.0
100
AcDbPoint
 10
8173.772365062054
 20
8360.743566580937
 30
0.0
  0
ENDBLK
  5
1172
330
1167
100
AcDbEntity
  8
0
 48
10.0
100
AcDbBlockEnd
  0
BLOCK
  5
1175
330
1174
100
AcDbEntity
  8
0
 48
10.0
100
AcDbBlockBegin
  2
*D6
 70
     1
 10
0.0
 20
0.0
 30
0.0
  3
*D6
  1

  0
LINE
  5
1176
330
1174
100
AcDbEntity
  8
0
  6
ByBlock
 48
10.0
100
AcDbLine
 10
11314.74093120433
 20
9054.743566580937
 30
0.0
 11
11314.74093120433
 21
9232.186565430069
 31
0.0
  0
LINE
  5
1177
330
1174
100
AcDbEntity
  8
0
  6
ByBlock
 48
10.0
100
AcDbLine
 10
12120.74093120433
 20
9054.743566580937
 30
0.0
 11
12120.74093120433
 21
9232.186565430069
 31
0.0
  0
LINE
  5
1178
330
1174
100
AcDbEntity
  8
0
  6
ByBlock
 48
10.0
100
AcDbLine
 10
11394.74093120433
 20
9192.186565430068
 30
0.0
 11
12040.74093120433
 21
9192.186565430068
 31
0.0
  0
INSERT
  5
1179
330
1174
100
AcDbEntity
  8
0
  6
ByBlock
 48
10.0
100
AcDbBlockReference
  2
_OPEN
 10
11314.74093120433
 20
9192.186565430068
 30
0.0
 41
80.0
 42
80.0
 43
80.0
 50
180.0
  0
INSERT
  5
117A
330
1174
100
AcDbEntity
  8
0
  6
ByBlock
 48
10.0
100
AcDbBlockReference
  2
_OPEN
 10
12120.74093120433
 20
9192.186565430068
 30
0.0
 41
80.0
 42
80.0
 43
80.0
  0
MTEXT
  5
117B
330
1174
100
AcDbEntity
  8
0
  6
ByBlock
 48
10.0
100
AcDbMText
 10
11717.74093120433
 20
9262.186565430068
 30
0.0
 40
100.0
 41
0.0
 71
     5
 72
     5
  1
\A1;806
  7
SUNPOU
 73
     1
 44
1.0
  0
POINT
  5
117C
330
1174
100
AcDbEntity
  8
DEFPOINTS
  6
ByBlock
 62
     0
 48
10.0
100
AcDbPoint
 10
11314.74093120433
 20
9014.743566580937
 30
0.0
  0
POINT
  5
117D
330
1174
100
AcDbEntity
  8
DEFPOINTS
  6
ByBlock
 62
     0
 48
10.0
100
AcDbPoint
 10
12120.74093120433
 20
9014.743566580937
 30
0.0
  0
POINT
  5
117E
330
1174
100
AcDbEntity
  8
DEFPOINTS
  6
ByBlock
 62
     0
 48
10.0
100
AcDbPoint
 10
12120.74093120433
 20
9192.186565430068
 30
0.0
  0
ENDBLK
  5
117F
330
1174
100
AcDbEntity
  8
0
 48
10.0
100
AcDbBlockEnd
  0
BLOCK
  5
1182
330
1181
100
AcDbEntity
  8
0
 48
10.0
100
AcDbBlockBegin
  2
*D7
 70
     1
 10
0.0
 20
0.0
 30
0.0
  3
*D7
  1

  0
LINE
  5
1183
330
1181
100
AcDbEntity
  8
0
  6
ByBlock
 48
10.0
100
AcDbLine
 10
12160.74093120433
 20
9014.743566580937
 30
0.0
 11
12651.73236205511
 21
9014.743566580937
 31
0.0
  0
LINE
  5
1184
330
1181
100
AcDbEntity
  8
0
  6
ByBlock
 48
10.0
100
AcDbLine
 10
12160.74093120433
 20
8360.743566580937
 30
0.0
 11
12651.73236205511
 21
8360.743566580937
 31
0.0
  0
LINE
  5
1185
330
1181
100
AcDbEntity
  8
0
  6
ByBlock
 48
10.0
100
AcDbLine
 10
12611.73236205511
 20
8934.743566580937
 30
0.0
 11
12611.73236205511
 21
8440.743566580938
 31
0.0
  0
INSERT
  5
1186
330
1181
100
AcDbEntity
  8
0
  6
ByBlock
 48
10.0
100
AcDbBlockReference
  2
_OPEN
 10
12611.73236205511
 20
9014.743566580937
 30
0.0
 41
80.0
 42
80.0
 43
80.0
 50
90.0
  0
INSERT
  5
1187
330
1181
100
AcDbEntity
  8
0
  6
ByBlock
 48
10.0
100
AcDbBlockReference
  2
_OPEN
 10
12611.73236205511
 20
8360.743566580937
 30
0.0
 41
80.0
 42
80.0
 43
80.0
 50
270.0
  0
MTEXT
  5
1188
330
1181
100
AcDbEntity
  8
0
  6
ByBlock
 48
10.0
100
AcDbMText
 10
12541.73236205511
 20
8687.743566580937
 30
0.0
 40
100.0
 41
0.0
 71
     5
 72
     5
  1
\A1;654
  7
SUNPOU
 11
0.0
 21
1.0
 31
0.0
 73
     1
 44
1.0
  0
POINT
  5
1189
330
1181
100
AcDbEntity
  8
DEFPOINTS
  6
ByBlock
 62
     0
 48
10.0
100
AcDbPoint
 10
12120.74093120433
 20
9014.743566580937
 30
0.0
  0
POINT
  5
118A
330
1181
100
AcDbEntity
  8
DEFPOINTS
  6
ByBlock
 62
     0
 48
10.0
100
AcDbPoint
 10
12120.74093120433
 20
8360.743566580937
 30
0.0
  0
POINT
  5
118B
330
1181
100
AcDbEntity
  8
DEFPOINTS
  6
ByBlock
 62
     0
 48
10.0
100
AcDbPoint
 10
12611.73236205511
 20
8360.743566580937
 30
0.0
  0
ENDBLK
  5
118C
330
1181
100
AcDbEntity
  8
0
 48
10.0
100
AcDbBlockEnd
  0
BLOCK
  5
118F
330
118E
100
AcDbEntity
  8
0
 48
10.0
100
AcDbBlockBegin
  2
*D8
 70
     1
 10
0.0
 20
0.0
 30
0.0
  3
*D8
  1

  0
LINE
  5
1190
330
118E
100
AcDbEntity
  8
0
  6
ByBlock
 48
10.0
100
AcDbLine
 10
11057.74093120433
 20
9517.743566580938
 30
0.0
 11
11057.74093120433
 21
9700.727928864768
 31
0.0
  0
LINE
  5
1191
330
118E
100
AcDbEntity
  8
0
  6
ByBlock
 48
10.0
100
AcDbLine
 10
11717.74093120433
 20
9638.648311815995
 30
0.0
 11
11717.74093120433
 21
9700.727928864768
 31
0.0
  0
LINE
  5
1192
330
118E
100
AcDbEntity
  8
0
  6
ByBlock
 48
10.0
100
AcDbLine
 10
11137.74093120433
 20
9660.727928864767
 30
0.0
 11
11637.74093120433
 21
9660.727928864767
 31
0.0
  0
INSERT
  5
1193
330
118E
100
AcDbEntity
  8
0
  6
ByBlock
 48
10.0
100
AcDbBlockReference
  2
_OPEN
 10
11057.74093120433
 20
9660.727928864767
 30
0.0
 41
80.0
 42
80.0
 43
80.0
 50
180.0
  0
INSERT
  5
1194
330
118E
100
AcDbEntity
  8
0
  6
ByBlock
 48
10.0
100
AcDbBlockReference
  2
_OPEN
 10
11717.74093120433
 20
9660.727928864767
 30
0.0
 41
80.0
 42
80.0
 43
80.0
  0
MTEXT
  5
1195
330
118E
100
AcDbEntity
  8
0
  6
ByBlock
 48
10.0
100
AcDbMText
 10
11387.74093120433
 20
9730.727928864768
 30
0.0
 40
100.0
 41
0.0
 71
     5
 72
     5
  1
\A1;660
  7
SUNPOU
 73
     1
 44
1.0
  0
POINT
  5
1196
330
118E
100
AcDbEntity
  8
DEFPOINTS
  6
ByBlock
 62
     0
 48
10.0
100
AcDbPoint
 10
11057.74093120433
 20
9477.743566580938
 30
0.0
  0
POINT
  5
1197
330
118E
100
AcDbEntity
  8
DEFPOINTS
  6
ByBlock
 62
     0
 48
10.0
100
AcDbPoint
 10
11717.74093120433
 20
9598.648311815994
 30
0.0
  0
POINT
  5
1198
330
118E
100
AcDbEntity
  8
DEFPOINTS
  6
ByBlock
 62
     0
 48
10.0
100
AcDbPoint
 10
11717.74093120433
 20
9660.727928864767
 30
0.0
  0
ENDBLK
  5
1199
330
118E
100
AcDbEntity
  8
0
 48
10.0
100
AcDbBlockEnd
  0
BLOCK
  5
119C
330
119B
100
AcDbEntity
  8
0
 48
10.0
100
AcDbBlockBegin
  2
*D9
 70
     1
 10
0.0
 20
0.0
 30
0.0
  3
*D9
  1

  0
LINE
  5
119D
330
119B
100
AcDbEntity
  8
0
  6
ByBlock
 48
10.0
100
AcDbLine
 10
11717.74093120433
 20
9638.648311815995
 30
0.0
 11
11717.74093120433
 21
9700.727928864768
 31
0.0
  0
LINE
  5
119E
330
119B
100
AcDbEntity
  8
0
  6
ByBlock
 48
10.0
100
AcDbLine
 10
12377.74093120433
 20
9517.743566580938
 30
0.0
 11
12377.74093120433
 21
9700.727928864768
 31
0.0
  0
LINE
  5
119F
330
119B
100
AcDbEntity
  8
0
  6
ByBlock
 48
10.0
100
AcDbLine
 10
11797.74093120433
 20
9660.727928864767
 30
0.0
 11
12297.74093120433
 21
9660.727928864767
 31
0.0
  0
INSERT
  5
11A0
330
119B
100
AcDbEntity
  8
0
  6
ByBlock
 48
10.0
100
AcDbBlockReference
  2
_OPEN
 10
11717.74093120433
 20
9660.727928864767
 30
0.0
 41
80.0
 42
80.0
 43
80.0
 50
180.0
  0
INSERT
  5
11A1
330
119B
100
AcDbEntity
  8
0
  6
ByBlock
 48
10.0
100
AcDbBlockReference
  2
_OPEN
 10
12377.74093120433
 20
9660.727928864767
 30
0.0
 41
80.0
 42
80.0
 43
80.0
  0
MTEXT
  5
11A2
330
119B
100
AcDbEntity
  8
0
  6
ByBlock
 48
10.0
100
AcDbMText
 10
12047.74093120433
 20
9730.727928864768
 30
0.0
 40
100.0
 41
0.0
 71
     5
 72
     5
  1
\A1;660
  7
SUNPOU
 73
     1
 44
1.0
  0
POINT
  5
11A3
330
119B
100
AcDbEntity
  8
DEFPOINTS
  6
ByBlock
 62
     0
 48
10.0
100
AcDbPoint
 10
11717.74093120433
 20
9598.648311815994
 30
0.0
  0
POINT
  5
11A4
330
119B
100
AcDbEntity
  8
DEFPOINTS
  6
ByBlock
 62
     0
 48
10.0
100
AcDbPoint
 10
12377.74093120433
 20
9477.743566580938
 30
0.0
  0
POINT
  5
11A5
330
119B
100
AcDbEntity
  8
DEFPOINTS
  6
ByBlock
 62
     0
 48
10.0
100
AcDbPoint
 10
12377.74093120433
 20
9660.727928864767
 30
0.0
  0
ENDBLK
  5
11A6
330
119B
100
AcDbEntity
  8
0
 48
10.0
100
AcDbBlockEnd
  0
BLOCK
  5
11FC
330
11A8
100
AcDbEntity
  8
0
 48
10.0
100
AcDbBlockBegin
  2
*D10
 70
     1
 10
0.0
 20
0.0
 30
0.0
  3
*D10
  1

  0
LINE
  5
11FD
330
11A8
100
AcDbEntity
  8
0
  6
ByBlock
 48
10.0
100
AcDbLine
 10
10241.06683960374
 20
9517.743566580938
 30
0.0
 11
10241.06683960374
 21
9700.727928864768
 31
0.0
  0
LINE
  5
11FE
330
11A8
100
AcDbEntity
  8
0
  6
ByBlock
 48
10.0
100
AcDbLine
 10
8771.066839603744
 20
9517.743566580938
 30
0.0
 11
8771.066839603744
 21
9700.727928864768
 31
0.0
  0
LINE
  5
11FF
330
11A8
100
AcDbEntity
  8
0
  6
ByBlock
 48
10.0
100
AcDbLine
 10
10161.06683960374
 20
9660.727928864767
 30
0.0
 11
8851.066839603744
 21
9660.727928864767
 31
0.0
  0
INSERT
  5
1200
330
11A8
100
AcDbEntity
  8
0
  6
ByBlock
 48
10.0
100
AcDbBlockReference
  2
_OPEN
 10
10241.06683960374
 20
9660.727928864767
 30
0.0
 41
80.0
 42
80.0
 43
80.0
  0
INSERT
  5
1201
330
11A8
100
AcDbEntity
  8
0
  6
ByBlock
 48
10.0
100
AcDbBlockReference
  2
_OPEN
 10
8771.066839603744
 20
9660.727928864767
 30
0.0
 41
80.0
 42
80.0
 43
80.0
 50
180.0
  0
MTEXT
  5
1202
330
11A8
100
AcDbEntity
  8
0
  6
ByBlock
 48
10.0
100
AcDbMText
 10
9506.066839603745
 20
9730.727928864768
 30
0.0
 40
100.0
 41
0.0
 71
     5
 72
     5
  1
\A1;1470
  7
SUNPOU
 73
     1
 44
1.0
  0
POINT
  5
1203
330
11A8
100
AcDbEntity
  8
DEFPOINTS
  6
ByBlock
 62
     0
 48
10.0
100
AcDbPoint
 10
10241.06683960374
 20
9477.743566580938
 30
0.0
  0
POINT
  5
1204
330
11A8
100
AcDbEntity
  8
DEFPOINTS
  6
ByBlock
 62
     0
 48
10.0
100
AcDbPoint
 10
8771.066839603744
 20
9477.743566580938
 30
0.0
  0
POINT
  5
1205
330
11A8
100
AcDbEntity
  8
DEFPOINTS
  6
ByBlock
 62
     0
 48
10.0
100
AcDbPoint
 10
8771.066839603744
 20
9660.727928864767
 30
0.0
  0
ENDBLK
  5
1206
330
11A8
100
AcDbEntity
  8
0
 48
10.0
100
AcDbBlockEnd
  0
BLOCK
  5
11B6
330
11B5
100
AcDbEntity
  8
0
 48
10.0
100
AcDbBlockBegin
  2
*D11
 70
     1
 10
0.0
 20
0.0
 30
0.0
  3
*D11
  1

  0
LINE
  5
11B7
330
11B5
100
AcDbEntity
  8
0
  6
ByBlock
 48
10.0
100
AcDbLine
 10
6634.39274800315
 20
9517.743566580938
 30
0.0
 11
6634.39274800315
 21
9700.727928864768
 31
0.0
  0
LINE
  5
11B8
330
11B5
100
AcDbEntity
  8
0
  6
ByBlock
 48
10.0
100
AcDbLine
 10
7294.392748003149
 20
9638.648311815995
 30
0.0
 11
7294.392748003149
 21
9700.727928864768
 31
0.0
  0
LINE
  5
11B9
330
11B5
100
AcDbEntity
  8
0
  6
ByBlock
 48
10.0
100
AcDbLine
 10
6714.392748003149
 20
9660.727928864767
 30
0.0
 11
7214.392748003149
 21
9660.727928864767
 31
0.0
  0
INSERT
  5
11BA
330
11B5
100
AcDbEntity
  8
0
  6
ByBlock
 48
10.0
100
AcDbBlockReference
  2
_OPEN
 10
6634.39274800315
 20
9660.727928864767
 30
0.0
 41
80.0
 42
80.0
 43
80.0
 50
180.0
  0
INSERT
  5
11BB
330
11B5
100
AcDbEntity
  8
0
  6
ByBlock
 48
10.0
100
AcDbBlockReference
  2
_OPEN
 10
7294.392748003149
 20
9660.727928864767
 30
0.0
 41
80.0
 42
80.0
 43
80.0
  0
MTEXT
  5
11BC
330
11B5
100
AcDbEntity
  8
0
  6
ByBlock
 48
10.0
100
AcDbMText
 10
6964.392748003149
 20
9730.727928864768
 30
0.0
 40
100.0
 41
0.0
 71
     5
 72
     5
  1
\A1;660
  7
SUNPOU
 73
     1
 44
1.0
  0
POINT
  5
11BD
330
11B5
100
AcDbEntity
  8
DEFPOINTS
  6
ByBlock
 62
     0
 48
10.0
100
AcDbPoint
 10
6634.39274800315
 20
9477.743566580938
 30
0.0
  0
POINT
  5
11BE
330
11B5
100
AcDbEntity
  8
DEFPOINTS
  6
ByBlock
 62
     0
 48
10.0
100
AcDbPoint
 10
7294.392748003149
 20
9598.648311815994
 30
0.0
  0
POINT
  5
11BF
330
11B5
100
AcDbEntity
  8
DEFPOINTS
  6
ByBlock
 62
     0
 48
10.0
100
AcDbPoint
 10
7294.392748003149
 20
9660.727928864767
 30
0.0
  0
ENDBLK
  5
11C0
330
11B5
100
AcDbEntity
  8
0
 48
10.0
100
AcDbBlockEnd
  0
BLOCK
  5
11C3
330
11C2
100
AcDbEntity
  8
0
 48
10.0
100
AcDbBlockBegin
  2
*D12
 70
     1
 10
0.0
 20
0.0
 30
0.0
  3
*D12
  1

  0
LINE
  5
11C4
330
11C2
100
AcDbEntity
  8
0
  6
ByBlock
 48
10.0
100
AcDbLine
 10
7294.392748003149
 20
9638.648311815995
 30
0.0
 11
7294.392748003149
 21
9700.727928864768
 31
0.0
  0
LINE
  5
11C5
330
11C2
100
AcDbEntity
  8
0
  6
ByBlock
 48
10.0
100
AcDbLine
 10
7954.392748003148
 20
9517.743566580938
 30
0.0
 11
7954.392748003148
 21
9700.727928864768
 31
0.0
  0
LINE
  5
11C6
330
11C2
100
AcDbEntity
  8
0
  6
ByBlock
 48
10.0
100
AcDbLine
 10
7374.392748003149
 20
9660.727928864767
 30
0.0
 11
7874.392748003149
 21
9660.727928864767
 31
0.0
  0
INSERT
  5
11C7
330
11C2
100
AcDbEntity
  8
0
  6
ByBlock
 48
10.0
100
AcDbBlockReference
  2
_OPEN
 10
7294.392748003149
 20
9660.727928864767
 30
0.0
 41
80.0
 42
80.0
 43
80.0
 50
180.0
  0
INSERT
  5
11C8
330
11C2
100
AcDbEntity
  8
0
  6
ByBlock
 48
10.0
100
AcDbBlockReference
  2
_OPEN
 10
7954.392748003148
 20
9660.727928864767
 30
0.0
 41
80.0
 42
80.0
 43
80.0
  0
MTEXT
  5
11C9
330
11C2
100
AcDbEntity
  8
0
  6
ByBlock
 48
10.0
100
AcDbMText
 10
7624.392748003149
 20
9730.727928864768
 30
0.0
 40
100.0
 41
0.0
 71
     5
 72
     5
  1
\A1;660
  7
SUNPOU
 73
     1
 44
1.0
  0
POINT
  5
11CA
330
11C2
100
AcDbEntity
  8
DEFPOINTS
  6
ByBlock
 62
     0
 48
10.0
100
AcDbPoint
 10
7294.392748003149
 20
9598.648311815994
 30
0.0
  0
POINT
  5
11CB
330
11C2
100
AcDbEntity
  8
DEFPOINTS
  6
ByBlock
 62
     0
 48
10.0
100
AcDbPoint
 10
7954.392748003148
 20
9477.743566580938
 30
0.0
  0
POINT
  5
11CC
330
11C2
100
AcDbEntity
  8
DEFPOINTS
  6
ByBlock
 62
     0
 48
10.0
100
AcDbPoint
 10
7954.392748003148
 20
9660.727928864767
 30
0.0
  0
ENDBLK
  5
11CD
330
11C2
100
AcDbEntity
  8
0
 48
10.0
100
AcDbBlockEnd
  0
BLOCK
  5
11D0
330
11CF
100
AcDbEntity
  8
0
 48
10.0
100
AcDbBlockBegin
  2
*D13
 70
     1
 10
0.0
 20
0.0
 30
0.0
  3
*D13
  1

  0
LINE
  5
11D1
330
11CF
100
AcDbEntity
  8
0
  6
ByBlock
 48
10.0
100
AcDbLine
 10
10361.06683960374
 20
12198.4251399792
 30
0.0
 11
10615.76099269509
 21
12198.4251399792
 31
0.0
  0
LINE
  5
11D2
330
11CF
100
AcDbEntity
  8
0
  6
ByBlock
 48
10.0
100
AcDbLine
 10
10361.06683960374
 20
10878.42513997921
 30
0.0
 11
10615.76099269509
 21
10878.42513997921
 31
0.0
  0
LINE
  5
11D3
330
11CF
100
AcDbEntity
  8
0
  6
ByBlock
 48
10.0
100
AcDbLine
 10
10575.76099269509
 20
12118.4251399792
 30
0.0
 11
10575.76099269509
 21
10958.42513997921
 31
0.0
  0
INSERT
  5
11D4
330
11CF
100
AcDbEntity
  8
0
  6
ByBlock
 48
10.0
100
AcDbBlockReference
  2
_OPEN
 10
10575.76099269509
 20
12198.4251399792
 30
0.0
 41
80.0
 42
80.0
 43
80.0
 50
90.0
  0
INSERT
  5
11D5
330
11CF
100
AcDbEntity
  8
0
  6
ByBlock
 48
10.0
100
AcDbBlockReference
  2
_OPEN
 10
10575.76099269509
 20
10878.42513997921
 30
0.0
 41
80.0
 42
80.0
 43
80.0
 50
270.0
  0
MTEXT
  5
11D6
330
11CF
100
AcDbEntity
  8
0
  6
ByBlock
 48
10.0
100
AcDbMText
 10
10505.76099269509
 20
11538.42513997921
 30
0.0
 40
100.0
 41
0.0
 71
     5
 72
     5
  1
\A1;1320
  7
SUNPOU
 11
0.0
 21
1.0
 31
0.0
 73
     1
 44
1.0
  0
POINT
  5
11D7
330
11CF
100
AcDbEntity
  8
DEFPOINTS
  6
ByBlock
 62
     0
 48
10.0
100
AcDbPoint
 10
10321.06683960374
 20
12198.4251399792
 30
0.0
  0
POINT
  5
11D8
330
11CF
100
AcDbEntity
  8
DEFPOINTS
  6
ByBlock
 62
     0
 48
10.0
100
AcDbPoint
 10
10321.06683960374
 20
10878.42513997921
 30
0.0
  0
POINT
  5
11D9
330
11CF
100
AcDbEntity
  8
DEFPOINTS
  6
ByBlock
 62
     0
 48
10.0
100
AcDbPoint
 10
10575.76099269509
 20
10878.42513997921
 30
0.0
  0
ENDBLK
  5
11DA
330
11CF
100
AcDbEntity
  8
0
 48
10.0
100
AcDbBlockEnd
  0
BLOCK
  5
11EF
330
11DC
100
AcDbEntity
  8
0
 48
10.0
100
AcDbBlockBegin
  2
*D14
 70
     1
 10
0.0
 20
0.0
 30
0.0
  3
*D14
  1

  0
LINE
  5
11F0
330
11DC
100
AcDbEntity
  8
0
  6
ByBlock
 48
10.0
100
AcDbLine
 10
10361.06683960374
 20
8687.743566580937
 30
0.0
 11
10546.65814116935
 21
8687.743566580937
 31
0.0
  0
LINE
  5
11F1
330
11DC
100
AcDbEntity
  8
0
  6
ByBlock
 48
10.0
100
AcDbLine
 10
10361.06683960374
 20
8222.743566580936
 30
0.0
 11
10546.65814116935
 21
8222.743566580936
 31
0.0
  0
LINE
  5
11F2
330
11DC
100
AcDbEntity
  8
0
  6
ByBlock
 48
10.0
100
AcDbLine
 10
10506.65814116935
 20
8767.743566580938
 30
0.0
 11
10506.65814116935
 21
8847.743566580936
 31
0.0
  0
LINE
  5
11F3
330
11DC
100
AcDbEntity
  8
0
  6
ByBlock
 48
10.0
100
AcDbLine
 10
10506.65814116935
 20
8142.743566580938
 30
0.0
 11
10506.65814116935
 21
8062.743566580937
 31
0.0
  0
LINE
  5
11F4
330
11DC
100
AcDbEntity
  8
0
  6
ByBlock
 48
10.0
100
AcDbLine
 10
10506.65814116935
 20
8687.743566580937
 30
0.0
 11
10506.65814116935
 21
8222.743566580936
 31
0.0
  0
INSERT
  5
11F5
330
11DC
100
AcDbEntity
  8
0
  6
ByBlock
 48
10.0
100
AcDbBlockReference
  2
_OPEN
 10
10506.65814116935
 20
8687.743566580937
 30
0.0
 41
80.0
 42
80.0
 43
80.0
 50
270.0
  0
INSERT
  5
11F6
330
11DC
100
AcDbEntity
  8
0
  6
ByBlock
 48
10.0
100
AcDbBlockReference
  2
_OPEN
 10
10506.65814116935
 20
8222.743566580936
 30
0.0
 41
80.0
 42
80.0
 43
80.0
 50
90.0
  0
MTEXT
  5
11F7
330
11DC
100
AcDbEntity
  8
0
  6
ByBlock
 48
10.0
100
AcDbMText
 10
10436.65814116935
 20
8455.243566580938
 30
0.0
 40
100.0
 41
0.0
 71
     5
 72
     5
  1
\A1;465
  7
SUNPOU
 11
0.0
 21
1.0
 31
0.0
 73
     1
 44
1.0
  0
POINT
  5
11F8
330
11DC
100
AcDbEntity
  8
DEFPOINTS
  6
ByBlock
 62
     0
 48
10.0
100
AcDbPoint
 10
10321.06683960374
 20
8687.743566580937
 30
0.0
  0
POINT
  5
11F9
330
11DC
100
AcDbEntity
  8
DEFPOINTS
  6
ByBlock
 62
     0
 48
10.0
100
AcDbPoint
 10
10321.06683960374
 20
8222.743566580936
 30
0.0
  0
POINT
  5
11FA
330
11DC
100
AcDbEntity
  8
DEFPOINTS
  6
ByBlock
 62
     0
 48
10.0
100
AcDbPoint
 10
10506.65814116935
 20
8222.743566580936
 30
0.0
  0
ENDBLK
  5
11FB
330
11DC
100
AcDbEntity
  8
0
 48
10.0
100
AcDbBlockEnd
  0
ENDSEC
  0
SECTION
  2
ENTITIES
  0
LINE
  5
570
330
2
100
AcDbEntity
  8
4
  6
Continuous
 48
10.0
100
AcDbLine
 10
12819.74395831865
 20
6226.581588328389
 30
0.0
 11
12819.74395831865
 21
5426.581588328389
 31
0.0
  0
LINE
  5
571
330
2
100
AcDbEntity
  8
4
  6
Continuous
 48
10.0
100
AcDbLine
 10
10019.74395831864
 20
6226.581588328389
 30
0.0
 11
10019.74395831864
 21
5426.581588328389
 31
0.0
  0
LINE
  5
572
330
2
100
AcDbEntity
  8
4
  6
Continuous
 48
10.0
100
AcDbLine
 10
8019.743958318649
 20
6226.581588328389
 30
0.0
 11
8019.743958318649
 21
5426.581588328389
 31
0.0
  0
LINE
  5
575
330
2
100
AcDbEntity
  8
4
  6
Continuous
 48
10.0
100
AcDbLine
 10
8019.743958318649
 20
5426.581588328389
 30
0.0
 11
12819.74395831865
 21
5426.581588328389
 31
0.0
  0
LINE
  5
576
330
2
100
AcDbEntity
  8
4
  6
Continuous
 48
10.0
100
AcDbLine
 10
8019.743958318649
 20
5826.581588328389
 30
0.0
 11
12819.74395831865
 21
5826.581588328389
 31
0.0
  0
TEXT
  5
577
330
2
100
AcDbEntity
  8
4
  6
Continuous
 48
10.0
100
AcDbText
 10
8173.752281318648
 20
5952.753691328389
 30
0.0
 40
200.0
  1
機器名称
100
AcDbText
  0
TEXT
  5
578
330
2
100
AcDbEntity
  8
4
  6
Continuous
 48
10.0
100
AcDbText
 10
8164.776382318649
 20
5513.16221532839
 30
0.0
 40
200.0
  1
機器型番
100
AcDbText
  0
TEXT
  5
579
330
2
100
AcDbEntity
  8
4
  6
Continuous
 48
10.0
100
AcDbText
 10
10130.45894031864
 20
5916.868664328389
 30
0.0
 40
200.0
  1
ミツヤファンユニット
100
AcDbText
  0
TEXT
  5
57A
330
2
100
AcDbEntity
  8
4
  6
Continuous
 48
10.0
100
AcDbText
 10
10166.36194031864
 20
5495.219925328388
 30
0.0
 40
200.0
  1
MFU#3005-5
100
AcDbText
  0
TEXT
  5
57C
330
2
100
AcDbEntity
  8
4
  6
Continuous
 48
10.0
100
AcDbText
 10
8208.057998318649
 20
13760.29695332839
 30
0.0
 40
200.0
  1
天井吊りベット
100
AcDbText
  0
TEXT
  5
57D
330
2
100
AcDbEntity
  8
4
  6
Continuous
 48
10.0
100
AcDbText
 10
6684.414331318649
 20
14362.10549332838
 30
0.0
 40
250.0
  1
ベルト駆動式消音ボックス付き多翼ファン
100
AcDbText
  0
LINE
  5
57E
330
2
100
AcDbEntity
  8
4
  6
Continuous
 48
10.0
100
AcDbLine
 10
6419.743958318649
 20
14104.21660532839
 30
0.0
 11
12819.74395831865
 21
14104.21660532839
 31
0.0
  0
LINE
  5
57F
330
2
100
AcDbEntity
  8
4
  6
Continuous
 48
10.0
100
AcDbLine
 10
6419.743958318649
 20
14904.21660532839
 30
0.0
 11
12819.74395831865
 21
14904.21660532839
 31
0.0
  0
LINE
  5
580
330
2
100
AcDbEntity
  8
4
  6
Continuous
 48
10.0
100
AcDbLine
 10
8019.743958318649
 20
6226.581588328389
 30
0.0
 11
12819.74395831865
 21
6226.581588328389
 31
0.0
  0
LINE
  5
581
330
2
100
AcDbEntity
  8
4
  6
Continuous
 48
10.0
100
AcDbLine
 10
6419.743958318649
 20
14904.21660532839
 30
0.0
 11
6419.743958318649
 21
14104.21660532839
 31
0.0
  0
TEXT
  5
582
330
2
100
AcDbEntity
  8
4
  6
Continuous
 48
10.0
100
AcDbText
 10
6545.679155318649
 20
13755.85949832838
 30
0.0
 40
200.0
  1
左回転右吐出
100
AcDbText
  0
TEXT
  5
583
330
2
100
AcDbEntity
  8
4
  6
Continuous
 48
10.0
100
AcDbText
 10
11295.62219531864
 20
15050.82591432839
 30
0.0
 40
224.0
  1
No.
100
AcDbText
  0
TEXT
  5
584
330
2
100
AcDbEntity
  8
4
  6
Continuous
 48
10.0
100
AcDbText
 10
11151.26717431864
 20
13760.29695332839
 30
0.0
 40
200.0
  1
縮尺：1/40
100
AcDbText
  0
LINE
  5
585
330
2
100
AcDbEntity
  8
4
  6
Continuous
 48
10.0
100
AcDbLine
 10
12819.74395831865
 20
14904.21660532839
 30
0.0
 11
12819.74395831865
 21
14104.21660532839
 31
0.0
  0
LINE
  5
586
330
2
100
AcDbEntity
  8
4
  6
Continuous
 48
10.0
100
AcDbLine
 10
11182.21364731865
 20
14951.63592132839
 30
0.0
 11
11182.21364731865
 21
15373.19063432838
 31
0.0
  0
LINE
  5
587
330
2
100
AcDbEntity
  8
4
  6
Continuous
 48
10.0
100
AcDbLine
 10
11182.21364731865
 20
15373.19063432838
 30
0.0
 11
12819.74395831865
 21
15373.19063432838
 31
0.0
  0
LINE
  5
588
330
2
100
AcDbEntity
  8
4
  6
Continuous
 48
10.0
100
AcDbLine
 10
12819.74395831865
 20
15373.19063432838
 30
0.0
 11
12819.74395831865
 21
14951.63592132839
 31
0.0
  0
LINE
  5
589
330
2
100
AcDbEntity
  8
4
  6
Continuous
 48
10.0
100
AcDbLine
 10
12819.74395831865
 20
14951.63592132839
 30
0.0
 11
11182.21364731865
 21
14951.63592132839
 31
0.0
  0
LINE
  5
10C7
330
2
100
AcDbEntity
  8
1
 48
10.0
100
AcDbLine
 10
10321.06683960374
 20
8222.743566580936
 30
0.0
 11
8691.066839603744
 21
8222.743566580936
 31
0.0
  0
LINE
  5
10C8
330
2
100
AcDbEntity
  8
1
 48
10.0
100
AcDbLine
 10
8691.066839603744
 20
8222.743566580936
 30
0.0
 11
8691.066839603744
 21
8297.743566580937
 31
0.0
  0
LINE
  5
10C9
330
2
100
AcDbEntity
  8
1
 48
10.0
100
AcDbLine
 10
8691.066839603744
 20
8297.743566580937
 30
0.0
 11
10321.06683960374
 21
8297.743566580937
 31
0.0
  0
LINE
  5
10CA
330
2
100
AcDbEntity
  8
1
 48
10.0
100
AcDbLine
 10
10321.06683960374
 20
8297.743566580937
 30
0.0
 11
10321.06683960374
 21
8222.743566580936
 31
0.0
  0
LINE
  5
10CB
330
2
100
AcDbEntity
  8
1
 48
10.0
100
AcDbLine
 10
8771.066839603744
 20
8297.743566580937
 30
0.0
 11
8771.066839603744
 21
9477.743566580938
 31
0.0
  0
LINE
  5
10CC
330
2
100
AcDbEntity
  8
1
 48
10.0
100
AcDbLine
 10
8771.066839603744
 20
9477.743566580938
 30
0.0
 11
10241.06683960374
 21
9477.743566580938
 31
0.0
  0
LINE
  5
10CD
330
2
100
AcDbEntity
  8
1
 48
10.0
100
AcDbLine
 10
10241.06683960374
 20
9477.743566580938
 30
0.0
 11
10241.06683960374
 21
8297.743566580937
 31
0.0
  0
LINE
  5
10CE
330
2
100
AcDbEntity
  8
2
 48
10.0
100
AcDbLine
 10
10321.06683960374
 20
8687.743566580937
 30
0.0
 11
8691.066839603744
 21
8687.743566580937
 31
0.0
  0
LINE
  5
10CF
330
2
100
AcDbEntity
  8
1
 48
10.0
100
AcDbLine
 10
10281.06683960374
 20
9054.743566580937
 30
0.0
 11
10241.06683960374
 21
9054.743566580937
 31
0.0
  0
LINE
  5
10D0
330
2
100
AcDbEntity
  8
1
 48
10.0
100
AcDbLine
 10
10281.06683960374
 20
8320.743566580937
 30
0.0
 11
10241.06683960374
 21
8320.743566580937
 31
0.0
  0
LINE
  5
10D1
330
2
100
AcDbEntity
  8
1
 48
10.0
100
AcDbLine
 10
10281.06683960374
 20
9054.743566580937
 30
0.0
 11
10281.06683960374
 21
8320.743566580937
 31
0.0
  0
LINE
  5
10D2
330
2
100
AcDbEntity
  8
1
 48
10.0
100
AcDbLine
 10
8731.066839603744
 20
8320.743566580937
 30
0.0
 11
8731.066839603744
 21
9054.743566580937
 31
0.0
  0
LINE
  5
10D3
330
2
100
AcDbEntity
  8
1
 48
10.0
100
AcDbLine
 10
8771.066839603742
 20
9054.743566580937
 30
0.0
 11
8731.066839603741
 21
9054.743566580937
 31
0.0
  0
LINE
  5
10D4
330
2
100
AcDbEntity
  8
1
 48
10.0
100
AcDbLine
 10
8771.066839603742
 20
8320.743566580937
 30
0.0
 11
8731.066839603744
 21
8320.743566580937
 31
0.0
  0
LINE
  5
10D5
330
2
100
AcDbEntity
  8
1
 48
10.0
100
AcDbLine
 10
6634.39274800315
 20
8222.743566580936
 30
0.0
 11
7954.392748003148
 21
8222.743566580936
 31
0.0
  0
LINE
  5
10D6
330
2
100
AcDbEntity
  8
1
 48
10.0
100
AcDbLine
 10
7954.392748003148
 20
8297.743566580937
 30
0.0
 11
6634.39274800315
 21
8297.743566580937
 31
0.0
  0
LINE
  5
10D7
330
2
100
AcDbEntity
  8
1
 48
10.0
100
AcDbLine
 10
7954.392748003148
 20
9477.743566580938
 30
0.0
 11
6634.392748003148
 21
9477.743566580935
 31
0.0
  0
LINE
  5
10D8
330
2
100
AcDbEntity
  8
1
 48
10.0
100
AcDbLine
 10
7954.392748003148
 20
8222.743566580936
 30
0.0
 11
7954.392748003148
 21
9477.743566580938
 31
0.0
  0
LINE
  5
10D9
330
2
100
AcDbEntity
  8
1
 48
10.0
100
AcDbLine
 10
6634.39274800315
 20
8222.743566580936
 30
0.0
 11
6634.39274800315
 21
9477.743566580938
 31
0.0
  0
LINE
  5
10DA
330
2
100
AcDbEntity
  8
1
 48
10.0
100
AcDbLine
 10
6619.39274800315
 20
8302.743566580938
 30
0.0
 11
6619.392748003149
 21
9472.743566580936
 31
0.0
  0
LINE
  5
10DB
330
2
100
AcDbEntity
  8
1
 48
10.0
100
AcDbLine
 10
7969.392748003149
 20
8302.743566580938
 30
0.0
 11
7969.392748003149
 21
9472.743566580936
 31
0.0
  0
LINE
  5
10DC
330
2
100
AcDbEntity
  8
1
 48
10.0
100
AcDbLine
 10
7969.392748003149
 20
9472.743566580936
 30
0.0
 11
7954.392748003148
 21
9472.743566580939
 31
0.0
  0
LINE
  5
10DD
330
2
100
AcDbEntity
  8
1
 48
10.0
100
AcDbLine
 10
7969.392748003149
 20
8302.743566580938
 30
0.0
 11
7954.392748003148
 21
8302.743566580939
 31
0.0
  0
LINE
  5
10DE
330
2
100
AcDbEntity
  8
1
 48
10.0
100
AcDbLine
 10
6634.39274800315
 20
8302.743566580939
 30
0.0
 11
6619.392748003149
 21
8302.743566580938
 31
0.0
  0
LINE
  5
10DF
330
2
100
AcDbEntity
  8
1
 48
10.0
100
AcDbLine
 10
6634.39274800315
 20
9472.743566580936
 30
0.0
 11
6619.392748003149
 21
9472.743566580936
 31
0.0
  0
LINE
  5
10E0
330
2
100
AcDbEntity
  8
2
 48
10.0
100
AcDbLine
 10
7294.392748003149
 20
8222.743566580936
 30
0.0
 11
7294.392748003149
 21
9150.452483348372
 31
0.0
  0
LINE
  5
10E2
330
2
100
AcDbEntity
  8
1
 48
10.0
100
AcDbLine
 10
6891.392748003148
 20
9014.743566580937
 30
0.0
 11
7697.392748003148
 21
9014.743566580937
 31
0.0
  0
LINE
  5
10E3
330
2
100
AcDbEntity
  8
1
 48
10.0
100
AcDbLine
 10
6891.392748003148
 20
8360.743566580937
 30
0.0
 11
7697.392748003148
 21
8360.743566580937
 31
0.0
  0
LINE
  5
10E4
330
2
100
AcDbEntity
  8
1
 48
10.0
100
AcDbLine
 10
6891.392748003148
 20
8360.743566580937
 30
0.0
 11
6891.392748003148
 21
9014.743566580937
 31
0.0
  0
LINE
  5
10E5
330
2
100
AcDbEntity
  8
1
 48
10.0
100
AcDbLine
 10
7697.392748003148
 20
8360.743566580937
 30
0.0
 11
7697.39274800315
 21
9014.743566580937
 31
0.0
  0
LINE
  5
10E6
330
2
100
AcDbEntity
  8
1
 48
10.0
100
AcDbLine
 10
6851.392748003148
 20
8320.743566580937
 30
0.0
 11
6851.392748003148
 21
9054.743566580937
 31
0.0
  0
LINE
  5
10E7
330
2
100
AcDbEntity
  8
1
 48
10.0
100
AcDbLine
 10
7737.392748003149
 20
8320.743566580937
 30
0.0
 11
7737.392748003149
 21
9054.743566580937
 31
0.0
  0
LINE
  5
10E8
330
2
100
AcDbEntity
  8
1
 48
10.0
100
AcDbLine
 10
6851.392748003148
 20
9054.743566580937
 30
0.0
 11
7737.392748003149
 21
9054.743566580937
 31
0.0
  0
LINE
  5
10E9
330
2
100
AcDbEntity
  8
1
 48
10.0
100
AcDbLine
 10
6851.392748003148
 20
8320.743566580937
 30
0.0
 11
7737.392748003149
 21
8320.743566580937
 31
0.0
  0
LINE
  5
10EA
330
2
100
AcDbEntity
  8
1
 48
10.0
100
AcDbLine
 10
6891.392748003148
 20
8360.743566580937
 30
0.0
 11
7697.392748003148
 21
9014.743566580937
 31
0.0
  0
LINE
  5
10EB
330
2
100
AcDbEntity
  8
1
 48
10.0
100
AcDbLine
 10
7697.392748003148
 20
8360.743566580937
 30
0.0
 11
6891.392748003148
 21
9014.743566580937
 31
0.0
  0
LINE
  5
10EE
330
2
100
AcDbEntity
  8
2
 48
10.0
100
AcDbLine
 10
7294.392748003149
 20
9412.904254445958
 30
0.0
 11
7294.392748003149
 21
9598.648311815994
 31
0.0
  0
LINE
  5
10F0
330
2
100
AcDbEntity
  8
1
 48
10.0
100
AcDbLine
 10
11314.74093120433
 20
8360.743566580937
 30
0.0
 11
12120.74093120433
 21
9014.743566580937
 31
0.0
  0
LINE
  5
10F1
330
2
100
AcDbEntity
  8
1
 48
10.0
100
AcDbLine
 10
12120.74093120433
 20
8360.743566580937
 30
0.0
 11
11314.74093120433
 21
9014.743566580937
 31
0.0
  0
LINE
  5
10F2
330
2
100
AcDbEntity
  8
1
 48
10.0
100
AcDbLine
 10
12160.74093120433
 20
8320.743566580937
 30
0.0
 11
11274.74093120433
 21
8320.743566580937
 31
0.0
  0
LINE
  5
10F3
330
2
100
AcDbEntity
  8
1
 48
10.0
100
AcDbLine
 10
12160.74093120433
 20
9054.743566580937
 30
0.0
 11
11274.74093120433
 21
9054.743566580937
 31
0.0
  0
LINE
  5
10F4
330
2
100
AcDbEntity
  8
1
 48
10.0
100
AcDbLine
 10
12120.74093120433
 20
9014.743566580937
 30
0.0
 11
11314.74093120433
 21
9014.743566580937
 31
0.0
  0
LINE
  5
10F5
330
2
100
AcDbEntity
  8
1
 48
10.0
100
AcDbLine
 10
12120.74093120433
 20
8360.743566580937
 30
0.0
 11
11314.74093120433
 21
8360.743566580937
 31
0.0
  0
LINE
  5
10F6
330
2
100
AcDbEntity
  8
1
 48
10.0
100
AcDbLine
 10
11057.74093120433
 20
8297.743566580937
 30
0.0
 11
12377.74093120433
 21
8297.743566580937
 31
0.0
  0
LINE
  5
10F7
330
2
100
AcDbEntity
  8
1
 48
10.0
100
AcDbLine
 10
12377.74093120433
 20
8222.743566580936
 30
0.0
 11
11057.74093120433
 21
8222.743566580936
 31
0.0
  0
LINE
  5
10F8
330
2
100
AcDbEntity
  8
1
 48
10.0
100
AcDbLine
 10
11057.74093120433
 20
9477.743566580938
 30
0.0
 11
12377.74093120433
 21
9477.743566580935
 31
0.0
  0
LINE
  5
10F9
330
2
100
AcDbEntity
  8
2
 48
10.0
100
AcDbLine
 10
11717.74093120433
 20
8222.743566580936
 30
0.0
 11
11717.74093120433
 21
9150.452483348372
 31
0.0
  0
LINE
  5
10FA
330
2
100
AcDbEntity
  8
1
 48
10.0
100
AcDbLine
 10
12160.74093120433
 20
8320.743566580937
 30
0.0
 11
12160.74093120433
 21
9054.743566580937
 31
0.0
  0
LINE
  5
10FB
330
2
100
AcDbEntity
  8
1
 48
10.0
100
AcDbLine
 10
12120.74093120433
 20
8360.743566580937
 30
0.0
 11
12120.74093120433
 21
9014.743566580937
 31
0.0
  0
LINE
  5
10FC
330
2
100
AcDbEntity
  8
1
 48
10.0
100
AcDbLine
 10
12392.74093120433
 20
8302.743566580938
 30
0.0
 11
12392.74093120433
 21
9472.743566580936
 31
0.0
  0
LINE
  5
10FD
330
2
100
AcDbEntity
  8
1
 48
10.0
100
AcDbLine
 10
12377.74093120433
 20
8222.743566580936
 30
0.0
 11
12377.74093120433
 21
9477.743566580938
 31
0.0
  0
LINE
  5
10FE
330
2
100
AcDbEntity
  8
1
 48
10.0
100
AcDbLine
 10
12377.74093120433
 20
8302.743566580939
 30
0.0
 11
12392.74093120433
 21
8302.743566580938
 31
0.0
  0
LINE
  5
10FF
330
2
100
AcDbEntity
  8
1
 48
10.0
100
AcDbLine
 10
12377.74093120433
 20
9472.743566580936
 30
0.0
 11
12392.74093120433
 21
9472.743566580936
 31
0.0
  0
LINE
  5
1100
330
2
100
AcDbEntity
  8
2
 48
10.0
100
AcDbLine
 10
11717.74093120433
 20
9412.904254445958
 30
0.0
 11
11717.74093120433
 21
9598.648311815994
 31
0.0
  0
LINE
  5
1101
330
2
100
AcDbEntity
  8
1
 48
10.0
100
AcDbLine
 10
11274.74093120433
 20
8320.743566580937
 30
0.0
 11
11274.74093120433
 21
9054.743566580937
 31
0.0
  0
LINE
  5
1102
330
2
100
AcDbEntity
  8
1
 48
10.0
100
AcDbLine
 10
11314.74093120433
 20
8360.743566580937
 30
0.0
 11
11314.74093120433
 21
9014.743566580937
 31
0.0
  0
LINE
  5
1103
330
2
100
AcDbEntity
  8
1
 48
10.0
100
AcDbLine
 10
11042.74093120433
 20
8302.743566580938
 30
0.0
 11
11042.74093120433
 21
9472.743566580936
 31
0.0
  0
LINE
  5
1104
330
2
100
AcDbEntity
  8
1
 48
10.0
100
AcDbLine
 10
11057.74093120433
 20
8222.743566580936
 30
0.0
 11
11057.74093120433
 21
9477.743566580938
 31
0.0
  0
LINE
  5
1105
330
2
100
AcDbEntity
  8
1
 48
10.0
100
AcDbLine
 10
11042.74093120433
 20
8302.743566580938
 30
0.0
 11
11057.74093120433
 21
8302.743566580939
 31
0.0
  0
LINE
  5
1106
330
2
100
AcDbEntity
  8
1
 48
10.0
100
AcDbLine
 10
11042.74093120433
 20
9472.743566580936
 30
0.0
 11
11057.74093120433
 21
9472.743566580939
 31
0.0
  0
LINE
  5
1107
330
2
100
AcDbEntity
  8
1
 48
10.0
100
AcDbLine
 10
8691.066839603744
 20
10878.42513997921
 30
0.0
 11
10321.06683960374
 21
10878.42513997921
 31
0.0
  0
LINE
  5
1108
330
2
100
AcDbEntity
  8
1
 48
10.0
100
AcDbLine
 10
10321.06683960374
 20
10878.42513997921
 30
0.0
 11
10321.06683960374
 21
10918.4251399792
 31
0.0
  0
LINE
  5
1109
330
2
100
AcDbEntity
  8
1
 48
10.0
100
AcDbLine
 10
10321.06683960374
 20
12198.4251399792
 30
0.0
 11
8691.066839603744
 21
12198.4251399792
 31
0.0
  0
LINE
  5
110A
330
2
100
AcDbEntity
  8
1
 48
10.0
100
AcDbLine
 10
8691.066839603744
 20
12198.4251399792
 30
0.0
 11
8691.066839603744
 21
12158.4251399792
 31
0.0
  0
LINE
  5
110B
330
2
100
AcDbEntity
  8
1
 48
10.0
100
AcDbLine
 10
8691.066839603744
 20
10918.42513997921
 30
0.0
 11
8771.066839603744
 21
10918.4251399792
 31
0.0
  0
LINE
  5
110C
330
2
100
AcDbEntity
  8
1
 48
10.0
100
AcDbLine
 10
10321.06683960374
 20
12158.4251399792
 30
0.0
 11
10241.06683960374
 21
12158.4251399792
 31
0.0
  0
LINE
  5
110D
330
2
100
AcDbEntity
  8
1
 48
10.0
100
AcDbLine
 10
8771.066839603744
 20
12213.4251399792
 30
0.0
 11
8771.066839603744
 21
10863.4251399792
 31
0.0
  0
LINE
  5
110E
330
2
100
AcDbEntity
  8
1
 48
10.0
100
AcDbLine
 10
10241.06683960374
 20
10863.42513997921
 30
0.0
 11
10241.06683960374
 21
12213.4251399792
 31
0.0
  0
LINE
  5
110F
330
2
100
AcDbEntity
  8
1
 48
10.0
100
AcDbLine
 10
10321.06683960374
 20
12158.4251399792
 30
0.0
 11
10321.06683960374
 21
12198.4251399792
 31
0.0
  0
LINE
  5
1110
330
2
100
AcDbEntity
  8
1
 48
10.0
100
AcDbLine
 10
8691.066839603744
 20
10918.4251399792
 30
0.0
 11
8691.066839603744
 21
10878.42513997921
 31
0.0
  0
LINE
  5
1111
330
2
100
AcDbEntity
  8
1
 48
10.0
100
AcDbLine
 10
10241.06683960374
 20
12213.42513997921
 30
0.0
 11
8771.066839603744
 21
12213.4251399792
 31
0.0
  0
LINE
  5
1112
330
2
100
AcDbEntity
  8
1
 48
10.0
100
AcDbLine
 10
8771.066839603742
 20
10863.4251399792
 30
0.0
 11
10241.06683960374
 21
10863.4251399792
 31
0.0
  0
LINE
  5
1113
330
2
100
AcDbEntity
  8
1
 48
10.0
100
AcDbLine
 10
10241.06683960374
 20
10918.4251399792
 30
0.0
 11
10321.06683960374
 21
10918.42513997921
 31
0.0
  0
LINE
  5
1114
330
2
100
AcDbEntity
  8
1
 48
10.0
100
AcDbLine
 10
8771.066839603744
 20
12158.4251399792
 30
0.0
 11
8691.066839603744
 21
12158.4251399792
 31
0.0
  0
LINE
  5
1115
330
2
100
AcDbEntity
  8
2
 48
10.0
100
AcDbLine
 10
8691.066839603744
 20
11538.42513997921
 30
0.0
 11
10321.06683960374
 21
11538.42513997921
 31
0.0
  0
LINE
  5
1116
330
2
100
AcDbEntity
  8
1
 48
10.0
100
AcDbLine
 10
10281.06683960374
 20
11095.42513997921
 30
0.0
 11
10281.06683960374
 21
11981.4251399792
 31
0.0
  0
LINE
  5
1117
330
2
100
AcDbEntity
  8
1
 48
10.0
100
AcDbLine
 10
8731.066839603744
 20
11981.4251399792
 30
0.0
 11
8731.066839603744
 21
11095.42513997921
 31
0.0
  0
LINE
  5
1118
330
2
100
AcDbEntity
  8
1
 48
10.0
100
AcDbLine
 10
8731.066839603744
 20
11981.4251399792
 30
0.0
 11
8771.066839603744
 21
11981.42513997921
 31
0.0
  0
LINE
  5
1119
330
2
100
AcDbEntity
  8
1
 48
10.0
100
AcDbLine
 10
8731.066839603744
 20
11095.4251399792
 30
0.0
 11
8771.066839603744
 21
11095.4251399792
 31
0.0
  0
LINE
  5
111A
330
2
100
AcDbEntity
  8
1
 48
10.0
100
AcDbLine
 10
10241.06683960374
 20
11981.42513997921
 30
0.0
 11
10281.06683960374
 21
11981.42513997921
 31
0.0
  0
LINE
  5
111B
330
2
100
AcDbEntity
  8
1
 48
10.0
100
AcDbLine
 10
10241.06683960374
 20
11095.4251399792
 30
0.0
 11
10281.06683960374
 21
11095.4251399792
 31
0.0
  0
ARC
  5
1121
330
2
100
AcDbEntity
  8
4
 48
10.0
100
AcDbCircle
 10
9818.066839603744
 20
8932.743566580937
 30
0.0
 40
472.0
100
AcDbArc
 50
180.0
 51
265.5039808655697
  0
ARC
  5
1122
330
2
100
AcDbEntity
  8
4
 48
10.0
100
AcDbCircle
 10
9744.066839603744
 20
8932.743566580937
 30
0.0
 40
398.0
100
AcDbArc
 50
90.0
 51
180.0
  0
ARC
  5
1126
330
2
100
AcDbEntity
  8
4
 48
10.0
100
AcDbCircle
 10
9750.066839603745
 20
9000.743566580936
 30
0.0
 40
330.0
100
AcDbArc
 50
0.0
 51
90.0
  0
ARC
  5
1127
330
2
100
AcDbEntity
  8
4
 48
10.0
100
AcDbCircle
 10
9812.066839603744
 20
9000.743566580936
 30
0.0
 40
268.0
100
AcDbArc
 50
347.7201614225766
 51
0.0
  0
LINE
  5
1128
330
2
100
AcDbEntity
  8
4
 48
10.0
100
AcDbLine
 10
10141.06683960374
 20
8401.743566580938
 30
0.0
 11
10141.06683960374
 21
8973.743566580939
 31
0.0
  0
LINE
  5
112A
330
2
100
AcDbEntity
  8
4
 48
10.0
100
AcDbLine
 10
10141.06683960374
 20
8431.743566580937
 30
0.0
 11
9781.066839603745
 21
8462.196013192336
 31
0.0
  0
LINE
  5
112B
330
2
100
AcDbEntity
  8
4
 48
10.0
100
AcDbLine
 10
10073.93512710721
 20
8943.743566580938
 30
0.0
 11
10141.06683960374
 21
8943.743566580938
 31
0.0
  0
LINE
  5
1131
330
2
100
AcDbEntity
  8
4
 48
10.0
100
AcDbLine
 10
10141.06683960374
 20
8943.743566580938
 30
0.0
 11
10241.06683960374
 21
8943.743566580938
 31
0.0
  0
LINE
  5
1132
330
2
100
AcDbEntity
  8
4
 48
10.0
100
AcDbLine
 10
10141.06683960374
 20
8431.743566580937
 30
0.0
 11
10241.06683960374
 21
8431.743566580937
 31
0.0
  0
DIMENSION
  5
113F
330
2
100
AcDbEntity
  8
3
 48
10.0
100
AcDbDimension
  2
*D1
 10
12377.74093120433
 20
7992.263542709928
 30
0.0
 11
11717.74093120433
 21
8062.263542709928
 31
0.0
 70
    32
 71
     5
 42
-1.0
  3
MATSU
100
AcDbAlignedDimension
 13
11057.74093120433
 23
8222.743566580936
 33
0.0
 14
12377.74093120433
 24
8222.743566580936
 34
0.0
100
AcDbRotatedDimension
1001
ACAD
1000
DSTYLE
1002
{
1070
   140
1040
2.5
1070
    40
1040
40.0
1070
     7
1000
_OPEN
1070
     6
1000
_OPEN
1002
}
  0
DIMENSION
  5
114C
330
2
100
AcDbEntity
  8
3
 48
10.0
100
AcDbDimension
  2
*D2
 10
8691.066839603744
 20
7992.263542709928
 30
0.0
 11
9506.066839603745
 21
8062.263542709928
 31
0.0
 70
    32
 71
     5
 42
-1.0
  3
MATSU
100
AcDbAlignedDimension
 13
10321.06683960374
 23
8222.743566580936
 33
0.0
 14
8691.066839603744
 24
8222.743566580936
 34
0.0
100
AcDbRotatedDimension
1001
ACAD
1000
DSTYLE
1002
{
1070
   140
1040
2.5
1070
    40
1040
40.0
1070
     7
1000
_OPEN
1070
     6
1000
_OPEN
1002
}
  0
DIMENSION
  5
1159
330
2
100
AcDbEntity
  8
3
 48
10.0
100
AcDbDimension
  2
*D3
 10
7954.392748003148
 20
7992.263542709928
 30
0.0
 11
7294.392748003149
 21
8062.263542709928
 31
0.0
 70
    32
 71
     5
 42
-1.0
  3
MATSU
100
AcDbAlignedDimension
 13
6634.39274800315
 23
8222.743566580936
 33
0.0
 14
7954.392748003148
 24
8222.743566580936
 34
0.0
100
AcDbRotatedDimension
1001
ACAD
1000
DSTYLE
1002
{
1070
   140
1040
2.5
1070
    40
1040
40.0
1070
     7
1000
_OPEN
1070
     6
1000
_OPEN
1002
}
  0
DIMENSION
  5
1166
330
2
100
AcDbEntity
  8
3
 48
10.0
100
AcDbDimension
  2
*D4
 10
7697.392748003148
 20
9192.186565430068
 30
0.0
 11
7294.392748003149
 21
9262.186565430068
 31
0.0
 70
    32
 71
     5
 42
-1.0
  3
MATSU
100
AcDbAlignedDimension
 13
6891.392748003148
 23
9014.743566580937
 33
0.0
 14
7697.392748003148
 24
9014.743566580937
 34
0.0
100
AcDbRotatedDimension
1001
ACAD
1000
DSTYLE
1002
{
1070
   140
1040
2.5
1070
    40
1040
40.0
1070
     7
1000
_OPEN
1070
     6
1000
_OPEN
1002
}
  0
DIMENSION
  5
1173
330
2
100
AcDbEntity
  8
3
 48
10.0
100
AcDbDimension
  2
*D5
 10
8173.772365062054
 20
8360.743566580937
 30
0.0
 11
8103.772365062054
 21
8687.743566580937
 31
0.0
 70
    32
 71
     5
 42
-1.0
  3
MATSU
100
AcDbAlignedDimension
 13
7697.392748003148
 23
9014.743566580937
 33
0.0
 14
7697.392748003148
 24
8360.743566580937
 34
0.0
 50
90.0
100
AcDbRotatedDimension
1001
ACAD
1000
DSTYLE
1002
{
1070
   140
1040
2.5
1070
    40
1040
40.0
1070
     7
1000
_OPEN
1070
     6
1000
_OPEN
1002
}
  0
DIMENSION
  5
1180
330
2
100
AcDbEntity
  8
3
 48
10.0
100
AcDbDimension
  2
*D6
 10
12120.74093120433
 20
9192.186565430068
 30
0.0
 11
11717.74093120433
 21
9262.186565430068
 31
0.0
 70
    32
 71
     5
 42
-1.0
  3
MATSU
100
AcDbAlignedDimension
 13
11314.74093120433
 23
9014.743566580937
 33
0.0
 14
12120.74093120433
 24
9014.743566580937
 34
0.0
100
AcDbRotatedDimension
1001
ACAD
1000
DSTYLE
1002
{
1070
   140
1040
2.5
1070
    40
1040
40.0
1070
     7
1000
_OPEN
1070
     6
1000
_OPEN
1002
}
  0
DIMENSION
  5
118D
330
2
100
AcDbEntity
  8
3
 48
10.0
100
AcDbDimension
  2
*D7
 10
12611.73236205511
 20
8360.743566580937
 30
0.0
 11
12541.73236205511
 21
8687.743566580937
 31
0.0
 70
    32
 71
     5
 42
-1.0
  3
MATSU
100
AcDbAlignedDimension
 13
12120.74093120433
 23
9014.743566580937
 33
0.0
 14
12120.74093120433
 24
8360.743566580937
 34
0.0
 50
90.0
100
AcDbRotatedDimension
1001
ACAD
1000
DSTYLE
1002
{
1070
   140
1040
2.5
1070
    40
1040
40.0
1070
     7
1000
_OPEN
1070
     6
1000
_OPEN
1002
}
  0
DIMENSION
  5
119A
330
2
100
AcDbEntity
  8
3
 48
10.0
100
AcDbDimension
  2
*D8
 10
11717.74093120433
 20
9660.727928864767
 30
0.0
 11
11387.74093120433
 21
9730.727928864768
 31
0.0
 70
    32
 71
     5
 42
-1.0
  3
MATSU
100
AcDbAlignedDimension
 13
11057.74093120433
 23
9477.743566580938
 33
0.0
 14
11717.74093120433
 24
9598.648311815994
 34
0.0
100
AcDbRotatedDimension
1001
ACAD
1000
DSTYLE
1002
{
1070
   140
1040
2.5
1070
    40
1040
40.0
1070
     7
1000
_OPEN
1070
     6
1000
_OPEN
1002
}
  0
DIMENSION
  5
11A7
330
2
100
AcDbEntity
  8
3
 48
10.0
100
AcDbDimension
  2
*D9
 10
12377.74093120433
 20
9660.727928864767
 30
0.0
 11
12047.74093120433
 21
9730.727928864768
 31
0.0
 70
    32
 71
     5
 42
-1.0
  3
MATSU
100
AcDbAlignedDimension
 13
11717.74093120433
 23
9598.648311815994
 33
0.0
 14
12377.74093120433
 24
9477.743566580938
 34
0.0
100
AcDbRotatedDimension
1001
ACAD
1000
DSTYLE
1002
{
1070
   140
1040
2.5
1070
    40
1040
40.0
1070
     7
1000
_OPEN
1070
     6
1000
_OPEN
1002
}
  0
DIMENSION
  5
11B4
330
2
100
AcDbEntity
  8
3
 48
10.0
100
AcDbDimension
  2
*D10
 10
8771.066839603744
 20
9660.727928864767
 30
0.0
 11
9506.066839603745
 21
9730.727928864768
 31
0.0
 70
    32
 71
     5
 42
-1.0
  3
MATSU
100
AcDbAlignedDimension
 13
10241.06683960374
 23
9477.743566580938
 33
0.0
 14
8771.066839603744
 24
9477.743566580938
 34
0.0
100
AcDbRotatedDimension
1001
ACAD
1000
DSTYLE
1002
{
1070
   140
1040
2.5
1070
    40
1040
40.0
1070
     7
1000
_OPEN
1070
     6
1000
_OPEN
1002
}
  0
DIMENSION
  5
11C1
330
2
100
AcDbEntity
  8
3
 48
10.0
100
AcDbDimension
  2
*D11
 10
7294.392748003149
 20
9660.727928864767
 30
0.0
 11
6964.392748003149
 21
9730.727928864768
 31
0.0
 70
    32
 71
     5
 42
-1.0
  3
MATSU
100
AcDbAlignedDimension
 13
6634.39274800315
 23
9477.743566580938
 33
0.0
 14
7294.392748003149
 24
9598.648311815994
 34
0.0
100
AcDbRotatedDimension
1001
ACAD
1000
DSTYLE
1002
{
1070
   140
1040
2.5
1070
    40
1040
40.0
1070
     7
1000
_OPEN
1070
     6
1000
_OPEN
1002
}
  0
DIMENSION
  5
11CE
330
2
100
AcDbEntity
  8
3
 48
10.0
100
AcDbDimension
  2
*D12
 10
7954.392748003148
 20
9660.727928864767
 30
0.0
 11
7624.392748003149
 21
9730.727928864768
 31
0.0
 70
    32
 71
     5
 42
-1.0
  3
MATSU
100
AcDbAlignedDimension
 13
7294.392748003149
 23
9598.648311815994
 33
0.0
 14
7954.392748003148
 24
9477.743566580938
 34
0.0
100
AcDbRotatedDimension
1001
ACAD
1000
DSTYLE
1002
{
1070
   140
1040
2.5
1070
    40
1040
40.0
1070
     7
1000
_OPEN
1070
     6
1000
_OPEN
1002
}
  0
DIMENSION
  5
11DB
330
2
100
AcDbEntity
  8
3
 48
10.0
100
AcDbDimension
  2
*D13
 10
10575.76099269509
 20
10878.42513997921
 30
0.0
 11
10505.76099269509
 21
11538.42513997921
 31
0.0
 70
    32
 71
     5
 42
-1.0
  3
MATSU
100
AcDbAlignedDimension
 13
10321.06683960374
 23
12198.4251399792
 33
0.0
 14
10321.06683960374
 24
10878.42513997921
 34
0.0
 50
90.0
100
AcDbRotatedDimension
1001
ACAD
1000
DSTYLE
1002
{
1070
   140
1040
2.5
1070
    40
1040
40.0
1070
     7
1000
_OPEN
1070
     6
1000
_OPEN
1002
}
  0
DIMENSION
  5
11EA
330
2
100
AcDbEntity
  8
3
 48
10.0
100
AcDbDimension
  2
*D14
 10
10506.65814116935
 20
8222.743566580936
 30
0.0
 11
10436.65814116935
 21
8455.243566580938
 31
0.0
 70
    32
 71
     5
 42
-1.0
  3
MATSU
100
AcDbAlignedDimension
 13
10321.06683960374
 23
8687.743566580937
 33
0.0
 14
10321.06683960374
 24
8222.743566580936
 34
0.0
 50
270.0
100
AcDbRotatedDimension
1001
ACAD
1000
DSTYLE
1002
{
1070
   140
1040
2.5
1070
    40
1040
40.0
1070
     7
1000
_OPEN
1070
     6
1000
_OPEN
1002
}
  0
ENDSEC
  0
SECTION
  2
OBJECTS
  0
DICTIONARY
  5
1A
330
0
100
AcDbDictionary
281
     1
  3
ACAD_GROUP
350
18
  3
ACAD_LAYOUT
350
8AC
  3
ACAD_MLINESTYLE
350
19
  3
ACAD_PLOTSETTINGS
350
8AD
  3
ACAD_PLOTSTYLENAME
350
8AA
  0
DICTIONARY
  5
8D9
330
2
100
AcDbDictionary
280
     1
281
     1
  3
ACAD_LAYOUTSELFREF
360
C7D
  0
DICTIONARY
  5
8DB
330
8
100
AcDbDictionary
280
     1
281
     1
  3
ACAD_LAYOUTSELFREF
360
C7E
  0
DICTIONARY
  5
18
102
{ACAD_REACTORS
330
1A
102
}
330
1A
100
AcDbDictionary
281
     1
  0
DICTIONARY
  5
8AC
102
{ACAD_REACTORS
330
1A
102
}
330
1A
100
AcDbDictionary
281
     1
  3
Model
350
8AE
  3
ﾚｲｱｳﾄ1
350
8AF
  0
DICTIONARY
  5
19
102
{ACAD_REACTORS
330
1A
102
}
330
1A
100
AcDbDictionary
281
     1
  3
STANDARD
350
1E
  0
DICTIONARY
  5
8AD
102
{ACAD_REACTORS
330
1A
102
}
330
1A
100
AcDbDictionary
281
     1
  0
ACDBDICTIONARYWDFLT
  5
8AA
102
{ACAD_REACTORS
330
1A
102
}
330
1A
100
AcDbDictionary
281
     1
  3
Normal
350
8AB
100
AcDbDictionaryWithDefault
340
8AB
1001
ACAD
1000
TREAT_AS_HARD
1070
     0
1000
TREAT_AS_HARD
1070
     0
  0
XRECORD
  5
C7D
102
{ACAD_REACTORS
330
8D9
102
}
330
8D9
100
AcDbXrecord
280
     1
340
2
  0
XRECORD
  5
C7E
102
{ACAD_REACTORS
330
8DB
102
}
330
8DB
100
AcDbXrecord
280
     1
340
8
  0
LAYOUT
  5
8AE
102
{ACAD_REACTORS
330
8AC
102
}
330
8AC
100
AcDbPlotSettings
  1

  2
EPSON LP-9300
  4

  6

 40
0.0
 41
0.0
 42
0.0
 43
0.0
 44
0.0
 45
0.0
 46
0.0
 47
0.0
 48
0.0
 49
0.0
140
0.0
141
0.0
142
1.0
143
1.0
 70
  1712
 72
     0
 73
     0
 74
     0
  7

 75
     0
147
1.0
148
0.0
149
0.0
100
AcDbLayout
  1
Model
 70
     1
 71
     0
 10
0.0
 20
0.0
 11
12.0
 21
9.0
 12
0.0
 22
0.0
 32
0.0
 14
0.0
 24
0.0
 34
0.0
 15
0.0
 25
0.0
 35
0.0
146
0.0
 13
0.0
 23
0.0
 33
0.0
 16
1.0
 26
0.0
 36
0.0
 17
0.0
 27
1.0
 37
0.0
 76
     0
330
2
  0
LAYOUT
  5
8AF
102
{ACAD_REACTORS
330
8AC
102
}
330
8AC
100
AcDbPlotSettings
  1

  2
EPSON LP-9300
  4

  6

 40
0.0
 41
0.0
 42
0.0
 43
0.0
 44
0.0
 45
0.0
 46
0.0
 47
0.0
 48
0.0
 49
0.0
140
0.0
141
0.0
142
1.0
143
1.0
 70
   688
 72
     0
 73
     0
 74
     5
  7

 75
    16
147
1.0
148
0.0
149
0.0
100
AcDbLayout
  1
ﾚｲｱｳﾄ1
 70
     0
 71
     1
 10
0.0
 20
0.0
 11
12.0
 21
9.0
 12
0.0
 22
0.0
 32
0.0
 14
1.000000000000000E+20
 24
1.000000000000000E+20
 34
1.000000000000000E+20
 15
-1.000000000000000E+20
 25
-1.000000000000000E+20
 35
-1.000000000000000E+20
146
0.0
 13
0.0
 23
0.0
 33
0.0
 16
1.0
 26
0.0
 36
0.0
 17
0.0
 27
1.0
 37
0.0
 76
     0
330
8
  0
MLINESTYLE
  5
1E
102
{ACAD_REACTORS
330
19
102
}
330
19
100
AcDbMlineStyle
  2
STANDARD
 70
     0
  3

 62
     0
 51
90.0
 52
90.0
 71
     2
 49
0.5
 62
   256
  6
BYLAYER
 49
-0.5
 62
   256
  6
BYLAYER
  0
ACDBPLACEHOLDER
  5
8AB
102
{ACAD_REACTORS
330
8AA
102
}
330
8AA
  0
ENDSEC
  0
EOF
