  0
SECTION
  2
HEADER
  9
$ACADVER
  1
AC1015
  9
$ACADMAINTVER
 70
     6
  9
$DWGCODEPAGE
  3
ANSI_932
  9
$INSBASE
 10
0.0
 20
0.0
 30
0.0
  9
$EXTMIN
 10
6419.743958318649
 20
5426.581588328389
 30
0.0
  9
$EXTMAX
 10
12819.74395831865
 20
15373.19063432838
 30
0.0
  9
$LIMMIN
 10
0.0
 20
0.0
  9
$LIMMAX
 10
297.0
 20
210.0
  9
$ORTHOMODE
 70
     1
  9
$REGENMODE
 70
     1
  9
$FILLMODE
 70
     1
  9
$QTEXTMODE
 70
     0
  9
$MIRRTEXT
 70
     0
  9
$LTSCALE
 40
20.0
  9
$ATTMODE
 70
     1
  9
$TEXTSIZE
 40
52.5
  9
$TRACEWID
 40
0.05
  9
$TEXTSTYLE
  7
STANDARD
  9
$CLAYER
  8
3
  9
$CELTYPE
  6
BYLAYER
  9
$CECOLOR
 62
   256
  9
$CELTSCALE
 40
10.0
  9
$DISPSILH
 70
     0
  9
$DIMSCALE
 40
40.0
  9
$DIMASZ
 40
2.0
  9
$DIMEXO
 40
1.0
  9
$DIMDLI
 40
10.0
  9
$DIMRND
 40
0.0
  9
$DIMDLE
 40
0.0
  9
$DIMEXE
 40
1.0
  9
$DIMTP
 40
0.0
  9
$DIMTM
 40
0.0
  9
$DIMTXT
 40
2.5
  9
$DIMCEN
 40
0.0
  9
$DIMTSZ
 40
0.0
  9
$DIMTOL
 70
     0
  9
$DIMLIM
 70
     0
  9
$DIMTIH
 70
     0
  9
$DIMTOH
 70
     0
  9
$DIMSE1
 70
     0
  9
$DIMSE2
 70
     0
  9
$DIMTAD
 70
     1
  9
$DIMZIN
 70
     8
  9
$DIMBLK
  1

  9
$DIMASO
 70
     1
  9
$DIMSHO
 70
     1
  9
$DIMPOST
  1

  9
$DIMAPOST
  1

  9
$DIMALT
 70
     0
  9
$DIMALTD
 70
     2
  9
$DIMALTF
 40
0.03937
  9
$DIMLFAC
 40
1.0
  9
$DIMTOFL
 70
     1
  9
$DIMTVP
 40
0.0
  9
$DIMTIX
 70
     0
  9
$DIMSOXD
 70
     0
  9
$DIMSAH
 70
     1
  9
$DIMBLK1
  1
OPEN
  9
$DIMBLK2
  1
OPEN
  9
$DIMSTYLE
  2
MATSU
  9
$DIMCLRD
 70
   256
  9
$DIMCLRE
 70
   256
  9
$DIMCLRT
 70
   256
  9
$DIMTFAC
 40
1.0
  9
$DIMGAP
 40
0.5
  9
$DIMJUST
 70
     0
  9
$DIMSD1
 70
     0
  9
$DIMSD2
 70
     0
  9
$DIMTOLJ
 70
     1
  9
$DIMTZIN
 70
     8
  9
$DIMALTZ
 70
     0
  9
$DIMALTTZ
 70
     0
  9
$DIMUPT
 70
     0
  9
$DIMDEC
 70
     4
  9
$DIMTDEC
 70
     4
  9
$DIMALTU
 70
     2
  9
$DIMALTTD
 70
     2
  9
$DIMTXSTY
  7
SUNPOU
  9
$DIMAUNIT
 70
     0
  9
$DIMADEC
 70
     0
  9
$DIMALTRND
 40
0.0
  9
$DIMAZIN
 70
     0
  9
$DIMDSEP
 70
    46
  9
$DIMATFIT
 70
     3
  9
$DIMFRAC
 70
     0
  9
$DIMLDRBLK
  1
OPEN
  9
$DIMLUNIT
 70
     2
  9
$DIMLWD
 70
    -2
  9
$DIMLWE
 70
    -2
  9
$DIMTMOVE
 70
     0
  9
$LUNITS
 70
     2
  9
$LUPREC
 70
     3
  9
$SKETCHINC
 40
0.1
  9
$FILLETRAD
 40
5.0
  9
$AUNITS
 70
     0
  9
$AUPREC
 70
     2
  9
$MENU
  1
acad
  9
$ELEVATION
 40
0.0
  9
$PELEVATION
 40
0.0
  9
$THICKNESS
 40
0.0
  9
$LIMCHECK
 70
     0
  9
$CHAMFERA
 40
0.0
  9
$CHAMFERB
 40
0.0
  9
$CHAMFERC
 40
20.0
  9
$CHAMFERD
 40
0.0
  9
$SKPOLY
 70
     0
  9
$TDCREATE
 40
2451997.453800232
  9
$TDUCREATE
 40
2451997.078800231
  9
$TDUPDATE
 40
2456463.584810613
  9
$TDUUPDATE
 40
2456463.209810613
  9
$TDINDWG
 40
0.0515253356
  9
$TDUSRTIMER
 40
0.0515253356
  9
$USRTIMER
 70
     1
  9
$ANGBASE
 50
0.0
  9
$ANGDIR
 70
     0
  9
$PDMODE
 70
     0
  9
$PDSIZE
 40
1.0
  9
$PLINEWID
 40
0.0
  9
$SPLFRAME
 70
     0
  9
$SPLINETYPE
 70
     6
  9
$SPLINESEGS
 70
     8
  9
$HANDSEED
  5
10DA
  9
$SURFTAB1
 70
     6
  9
$SURFTAB2
 70
     6
  9
$SURFTYPE
 70
     6
  9
$SURFU
 70
     6
  9
$SURFV
 70
     6
  9
$UCSBASE
  2

  9
$UCSNAME
  2

  9
$UCSORG
 10
0.0
 20
0.0
 30
0.0
  9
$UCSXDIR
 10
1.0
 20
0.0
 30
0.0
  9
$UCSYDIR
 10
0.0
 20
1.0
 30
0.0
  9
$UCSORTHOREF
  2

  9
$UCSORTHOVIEW
 70
     0
  9
$UCSORGTOP
 10
0.0
 20
0.0
 30
0.0
  9
$UCSORGBOTTOM
 10
0.0
 20
0.0
 30
0.0
  9
$UCSORGLEFT
 10
0.0
 20
0.0
 30
0.0
  9
$UCSORGRIGHT
 10
0.0
 20
0.0
 30
0.0
  9
$UCSORGFRONT
 10
0.0
 20
0.0
 30
0.0
  9
$UCSORGBACK
 10
0.0
 20
0.0
 30
0.0
  9
$PUCSBASE
  2

  9
$PUCSNAME
  2

  9
$PUCSORG
 10
0.0
 20
0.0
 30
0.0
  9
$PUCSXDIR
 10
1.0
 20
0.0
 30
0.0
  9
$PUCSYDIR
 10
0.0
 20
1.0
 30
0.0
  9
$PUCSORTHOREF
  2

  9
$PUCSORTHOVIEW
 70
     0
  9
$PUCSORGTOP
 10
0.0
 20
0.0
 30
0.0
  9
$PUCSORGBOTTOM
 10
0.0
 20
0.0
 30
0.0
  9
$PUCSORGLEFT
 10
0.0
 20
0.0
 30
0.0
  9
$PUCSORGRIGHT
 10
0.0
 20
0.0
 30
0.0
  9
$PUCSORGFRONT
 10
0.0
 20
0.0
 30
0.0
  9
$PUCSORGBACK
 10
0.0
 20
0.0
 30
0.0
  9
$USERI1
 70
     0
  9
$USERI2
 70
     0
  9
$USERI3
 70
     0
  9
$USERI4
 70
     0
  9
$USERI5
 70
     0
  9
$USERR1
 40
0.0
  9
$USERR2
 40
0.0
  9
$USERR3
 40
0.0
  9
$USERR4
 40
0.0
  9
$USERR5
 40
0.0
  9
$WORLDVIEW
 70
     1
  9
$SHADEDGE
 70
     3
  9
$SHADEDIF
 70
    70
  9
$TILEMODE
 70
     1
  9
$MAXACTVP
 70
    16
  9
$PINSBASE
 10
0.0
 20
0.0
 30
0.0
  9
$PLIMCHECK
 70
     0
  9
$PEXTMIN
 10
1.000000000000000E+20
 20
1.000000000000000E+20
 30
1.000000000000000E+20
  9
$PEXTMAX
 10
-1.000000000000000E+20
 20
-1.000000000000000E+20
 30
-1.000000000000000E+20
  9
$PLIMMIN
 10
0.0
 20
0.0
  9
$PLIMMAX
 10
12.0
 20
9.0
  9
$UNITMODE
 70
     0
  9
$VISRETAIN
 70
     0
  9
$PLINEGEN
 70
     0
  9
$PSLTSCALE
 70
     0
  9
$TREEDEPTH
 70
  3020
  9
$CMLSTYLE
  2
STANDARD
  9
$CMLJUST
 70
     0
  9
$CMLSCALE
 40
20.0
  9
$PROXYGRAPHICS
 70
     1
  9
$MEASUREMENT
 70
     1
  9
$CELWEIGHT
370
    -1
  9
$ENDCAPS
280
     0
  9
$JOINSTYLE
280
     0
  9
$LWDISPLAY
290
     0
  9
$INSUNITS
 70
     0
  9
$HYPERLINKBASE
  1

  9
$STYLESHEET
  1

  9
$XEDIT
290
     1
  9
$CEPSNTYPE
380
     0
  9
$PSTYLEMODE
290
     1
  9
$FINGERPRINTGUID
  2
{A276ECD2-75B9-11D5-A85E-0080AD788799}
  9
$VERSIONGUID
  2
{0D0819F5-93F0-4A2F-AE0A-56ACFE7288F6}
  9
$EXTNAMES
290
     1
  9
$PSVPSCALE
 40
0.0
  9
$OLESTARTUP
290
     0
  0
ENDSEC
  0
SECTION
  2
CLASSES
  0
CLASS
  1
XRECORD
  2
AcDbXrecord
  3
AutoCAD 2000
 90
    32768
280
     0
281
     0
  0
CLASS
  1
ACDBDICTIONARYWDFLT
  2
AcDbDictionaryWithDefault
  3
AutoCAD 2000
 90
        0
280
     0
281
     0
  0
CLASS
  1
ACDBPLACEHOLDER
  2
AcDbPlaceHolder
  3
AutoCAD 2000
 90
        0
280
     0
281
     0
  0
CLASS
  1
LAYOUT
  2
AcDbLayout
  3
AutoCAD 2000
 90
        0
280
     0
281
     0
  0
CLASS
  1
LONG_TRANSACTION
  2
AcDbLongTransaction
  3
AutoCAD 2000
 90
    32768
280
     0
281
     0
  0
CLASS
  1
LWPOLYLINE
  2
AcDbPolyline
  3
AutoCAD 2000
 90
    32768
280
     0
281
     1
  0
CLASS
  1
HATCH
  2
AcDbHatch
  3
AutoCAD 2000
 90
    32768
280
     0
281
     1
  0
CLASS
  1
XRECORD
  2
AcDbXrecord
  3
AutoCAD 2000
 90
    32768
280
     0
281
     0
  0
CLASS
  1
LONG_TRANSACTION
  2
AcDbLongTransaction
  3
AutoCAD 2000
 90
    32768
280
     0
281
     0
  0
CLASS
  1
LWPOLYLINE
  2
AcDbPolyline
  3
AutoCAD 2000
 90
    32768
280
     0
281
     1
  0
CLASS
  1
HATCH
  2
AcDbHatch
  3
AutoCAD 2000
 90
    32768
280
     0
281
     1
  0
CLASS
  1
XRECORD
  2
AcDbXrecord
  3
AutoCAD 2000
 90
    32768
280
     0
281
     0
  0
ENDSEC
  0
SECTION
  2
TABLES
  0
TABLE
  2
VPORT
  5
12
330
0
100
AcDbSymbolTable
 70
     3
  0
VPORT
  5
10D9
330
12
100
AcDbSymbolTableRecord
100
AcDbViewportTableRecord
  2
*Active
 70
     0
 10
0.0
 20
0.0
 11
1.0
 21
1.0
 12
15420.44825833845
 22
8978.121015166028
 13
0.0
 23
0.0
 14
5.0
 24
5.0
 15
0.0
 25
0.0
 16
0.0
 26
0.0
 36
1.0
 17
0.0
 27
0.0
 37
0.0
 40
12237.55098344014
 41
1.73997233748271
 42
50.0
 43
0.0
 44
0.0
 50
0.0
 51
0.0
 71
     0
 72
   100
 73
     1
 74
     0
 75
     0
 76
     0
 77
     0
 78
     2
281
     0
 65
     1
110
0.0
120
0.0
130
0.0
111
1.0
121
0.0
131
0.0
112
0.0
122
1.0
132
0.0
 79
     0
146
0.0
  0
ENDTAB
  0
TABLE
  2
LTYPE
  5
E
330
0
100
AcDbSymbolTable
 70
     2
  0
LTYPE
  5
F
330
E
100
AcDbSymbolTableRecord
100
AcDbLinetypeTableRecord
  2
BYBLOCK
 70
     0
  3

 72
    65
 73
     0
 40
0.0
  0
LTYPE
  5
6
330
E
100
AcDbSymbolTableRecord
100
AcDbLinetypeTableRecord
  2
BYLAYER
 70
     0
  3

 72
    65
 73
     0
 40
0.0
  0
LTYPE
  5
5
330
E
100
AcDbSymbolTableRecord
100
AcDbLinetypeTableRecord
  2
CONTINUOUS
 70
     0
  3
Solid line
 72
    65
 73
     0
 40
0.0
  0
LTYPE
  5
41
330
E
100
AcDbSymbolTableRecord
100
AcDbLinetypeTableRecord
  2
CENTER
 70
     0
  3
____ _ ____ _ ____ _ ____ _ ____ _ ____ _ ____ 
 72
    65
 73
     4
 40
2.0
 49
1.25
 74
     0
 49
-0.25
 74
     0
 49
0.25
 74
     0
 49
-0.25
 74
     0
  0
ENDTAB
  0
TABLE
  2
LAYER
  5
B
330
0
100
AcDbSymbolTable
 70
     6
  0
LAYER
  5
4
330
B
100
AcDbSymbolTableRecord
100
AcDbLayerTableRecord
  2
0
 70
     0
 62
     7
  6
CONTINUOUS
370
    -3
390
8AB
  0
LAYER
  5
3E
330
B
100
AcDbSymbolTableRecord
100
AcDbLayerTableRecord
  2
DEFPOINTS
 70
     0
 62
     7
  6
CONTINUOUS
290
     0
370
    -3
390
8AB
  0
LAYER
  5
442
330
B
100
AcDbSymbolTableRecord
100
AcDbLayerTableRecord
  2
3
 70
     0
 62
     2
  6
CONTINUOUS
370
    -3
390
8AB
  0
LAYER
  5
443
330
B
100
AcDbSymbolTableRecord
100
AcDbLayerTableRecord
  2
2
 70
     0
 62
     3
  6
CENTER
370
    -3
390
8AB
  0
LAYER
  5
444
330
B
100
AcDbSymbolTableRecord
100
AcDbLayerTableRecord
  2
1
 70
     0
 62
     4
  6
CONTINUOUS
370
    -3
390
8AB
  0
LAYER
  5
445
330
B
100
AcDbSymbolTableRecord
100
AcDbLayerTableRecord
  2
4
 70
     0
 62
     7
  6
CONTINUOUS
370
    -3
390
8AB
  0
ENDTAB
  0
TABLE
  2
STYLE
  5
C
330
0
100
AcDbSymbolTable
 70
     2
  0
STYLE
  5
D
330
C
100
AcDbSymbolTableRecord
100
AcDbTextStyleTableRecord
  2
STANDARD
 70
     0
 40
0.0
 41
1.0
 50
0.0
 71
     0
 42
52.5
  3
C:\Program Files\AutoCAD LT\simplex.shx
  4
C:\Program Files\AutoCAD LT\extfont.shx
  0
STYLE
  5
1C
330
C
100
AcDbSymbolTableRecord
100
AcDbTextStyleTableRecord
  2
SUNPOU
 70
     0
 40
0.0
 41
1.0
 50
15.0
 71
     0
 42
5.0
  3
simplex.shx
  4
extfont.shx
  0
ENDTAB
  0
TABLE
  2
VIEW
  5
10
330
0
100
AcDbSymbolTable
 70
     0
  0
ENDTAB
  0
TABLE
  2
UCS
  5
11
330
0
100
AcDbSymbolTable
 70
     0
  0
ENDTAB
  0
TABLE
  2
APPID
  5
14
330
0
100
AcDbSymbolTable
 70
     1
  0
APPID
  5
15
330
14
100
AcDbSymbolTableRecord
100
AcDbRegAppTableRecord
  2
ACAD
 70
     0
  0
ENDTAB
  0
TABLE
  2
DIMSTYLE
  5
16
330
0
100
AcDbSymbolTable
 70
     2
100
AcDbDimStyleTable
 71
     0
  0
DIMSTYLE
105
1F
102
{ACAD_REACTORS
330
FF3
330
1000
330
100D
330
101A
330
1027
330
1034
330
1041
330
104E
330
105B
330
1068
330
1075
330
1082
330
108F
330
109E
102
}
330
16
100
AcDbSymbolTableRecord
100
AcDbDimStyleTableRecord
  2
MATSU
 70
     0
 40
10.0
 41
2.0
 42
1.0
 43
10.0
 44
1.0
 73
     0
 74
     0
 77
     1
 78
     8
140
3.0
141
0.0
143
0.03937
147
0.5
172
     1
173
     1
176
   256
177
   256
178
   256
284
     8
340
1C
341
192
343
192
344
192
  0
DIMSTYLE
105
446
330
16
100
AcDbSymbolTableRecord
100
AcDbDimStyleTableRecord
  2
IGA
 70
     0
 40
2.0
 41
2.0
 42
0.5
 43
10.0
 44
1.0
 47
1.0
 48
1.0
 73
     0
 74
     0
 77
     1
 78
     8
140
3.0
141
0.0
143
0.03937
146
10.0
147
1.0
173
     1
271
     1
272
     0
279
     2
284
     8
340
D
341
192
343
192
344
192
  0
ENDTAB
  0
TABLE
  2
BLOCK_RECORD
  5
1
330
0
100
AcDbSymbolTable
 70
    15
  0
BLOCK_RECORD
  5
2
102
{ACAD_XDICTIONARY
360
8D9
102
}
330
1
100
AcDbSymbolTableRecord
100
AcDbBlockTableRecord
  2
*MODEL_SPACE
340
8AE
  0
BLOCK_RECORD
  5
8
102
{ACAD_XDICTIONARY
360
8DB
102
}
330
1
100
AcDbSymbolTableRecord
100
AcDbBlockTableRecord
  2
*PAPER_SPACE
340
8AF
  0
BLOCK_RECORD
  5
192
330
1
100
AcDbSymbolTableRecord
100
AcDbBlockTableRecord
  2
_OPEN
340
0
102
{BLKREFS
331
FEC
331
FED
331
FF9
331
FFA
331
10BD
331
10BE
331
1013
331
1014
331
1020
331
1021
331
102D
331
102E
331
103A
331
103B
331
1047
331
1048
331
10B2
331
10B3
331
1061
331
1062
331
106E
331
106F
331
107B
331
107C
331
1088
331
1089
331
10A7
331
10A8
102
}
  0
BLOCK_RECORD
  5
FE7
330
1
100
AcDbSymbolTableRecord
100
AcDbBlockTableRecord
  2
*D1
340
0
  0
BLOCK_RECORD
  5
FF4
330
1
100
AcDbSymbolTableRecord
100
AcDbBlockTableRecord
  2
*D2
340
0
  0
BLOCK_RECORD
  5
1001
330
1
100
AcDbSymbolTableRecord
100
AcDbBlockTableRecord
  2
*D3
340
0
  0
BLOCK_RECORD
  5
100E
330
1
100
AcDbSymbolTableRecord
100
AcDbBlockTableRecord
  2
*D4
340
0
  0
BLOCK_RECORD
  5
101B
330
1
100
AcDbSymbolTableRecord
100
AcDbBlockTableRecord
  2
*D5
340
0
  0
BLOCK_RECORD
  5
1028
330
1
100
AcDbSymbolTableRecord
100
AcDbBlockTableRecord
  2
*D6
340
0
  0
BLOCK_RECORD
  5
1035
330
1
100
AcDbSymbolTableRecord
100
AcDbBlockTableRecord
  2
*D7
340
0
  0
BLOCK_RECORD
  5
1042
330
1
100
AcDbSymbolTableRecord
100
AcDbBlockTableRecord
  2
*D8
340
0
  0
BLOCK_RECORD
  5
104F
330
1
100
AcDbSymbolTableRecord
100
AcDbBlockTableRecord
  2
*D9
340
0
  0
BLOCK_RECORD
  5
105C
330
1
100
AcDbSymbolTableRecord
100
AcDbBlockTableRecord
  2
*D10
340
0
  0
BLOCK_RECORD
  5
1069
330
1
100
AcDbSymbolTableRecord
100
AcDbBlockTableRecord
  2
*D11
340
0
  0
BLOCK_RECORD
  5
1076
330
1
100
AcDbSymbolTableRecord
100
AcDbBlockTableRecord
  2
*D12
340
0
  0
BLOCK_RECORD
  5
1083
330
1
100
AcDbSymbolTableRecord
100
AcDbBlockTableRecord
  2
*D13
340
0
  0
BLOCK_RECORD
  5
1090
330
1
100
AcDbSymbolTableRecord
100
AcDbBlockTableRecord
  2
*D14
340
0
  0
ENDTAB
  0
ENDSEC
  0
SECTION
  2
BLOCKS
  0
BLOCK
  5
3
330
2
100
AcDbEntity
  8
0
100
AcDbBlockBegin
  2
*MODEL_SPACE
 70
     0
 10
0.0
 20
0.0
 30
0.0
  3
*MODEL_SPACE
  1

  0
ENDBLK
  5
7
330
2
100
AcDbEntity
  8
0
100
AcDbBlockEnd
  0
BLOCK
  5
9
330
8
100
AcDbEntity
 67
     1
  8
0
100
AcDbBlockBegin
  2
*PAPER_SPACE
 70
     0
 10
0.0
 20
0.0
 30
0.0
  3
*PAPER_SPACE
  1

  0
ENDBLK
  5
A
330
8
100
AcDbEntity
 67
     1
  8
0
100
AcDbBlockEnd
  0
BLOCK
  5
193
330
192
100
AcDbEntity
  8
0
 48
20.0
100
AcDbBlockBegin
  2
_OPEN
 70
     0
 10
0.0
 20
0.0
 30
0.0
  3
_OPEN
  1

  0
LINE
  5
194
330
192
100
AcDbEntity
  8
0
  6
ByBlock
 62
     0
 48
20.0
100
AcDbLine
 10
-1.0
 20
0.1666666666666666
 30
0.0
 11
0.0
 21
0.0
 31
0.0
  0
LINE
  5
195
330
192
100
AcDbEntity
  8
0
  6
ByBlock
 62
     0
 48
20.0
100
AcDbLine
 10
0.0
 20
0.0
 30
0.0
 11
-1.0
 21
-0.1666666666666666
 31
0.0
  0
LINE
  5
196
330
192
100
AcDbEntity
  8
0
  6
ByBlock
 62
     0
 48
20.0
100
AcDbLine
 10
0.0
 20
0.0
 30
0.0
 11
-1.0
 21
0.0
 31
0.0
  0
ENDBLK
  5
197
330
192
100
AcDbEntity
  8
0
 48
20.0
100
AcDbBlockEnd
  0
BLOCK
  5
FE8
330
FE7
100
AcDbEntity
  8
0
 48
10.0
100
AcDbBlockBegin
  2
*D1
 70
     1
 10
0.0
 20
0.0
 30
0.0
  3
*D1
  1

  0
LINE
  5
FE9
330
FE7
100
AcDbEntity
  8
0
  6
ByBlock
 48
10.0
100
AcDbLine
 10
10232.78115664494
 20
11592.49005494341
 30
0.0
 11
10564.82410864084
 21
11592.49005494341
 31
0.0
  0
LINE
  5
FEA
330
FE7
100
AcDbEntity
  8
0
  6
ByBlock
 48
10.0
100
AcDbLine
 10
10232.78115664494
 20
10472.49005494341
 30
0.0
 11
10564.82410864084
 21
10472.49005494341
 31
0.0
  0
LINE
  5
FEB
330
FE7
100
AcDbEntity
  8
0
  6
ByBlock
 48
10.0
100
AcDbLine
 10
10524.82410864084
 20
11512.49005494341
 30
0.0
 11
10524.82410864084
 21
10552.49005494341
 31
0.0
  0
INSERT
  5
FEC
330
FE7
100
AcDbEntity
  8
0
  6
ByBlock
 48
10.0
100
AcDbBlockReference
  2
_OPEN
 10
10524.82410864084
 20
11592.49005494341
 30
0.0
 41
80.0
 42
80.0
 43
80.0
 50
90.0
  0
INSERT
  5
FED
330
FE7
100
AcDbEntity
  8
0
  6
ByBlock
 48
10.0
100
AcDbBlockReference
  2
_OPEN
 10
10524.82410864084
 20
10472.49005494341
 30
0.0
 41
80.0
 42
80.0
 43
80.0
 50
270.0
  0
MTEXT
  5
FEE
330
FE7
100
AcDbEntity
  8
0
  6
ByBlock
 48
10.0
100
AcDbMText
 10
10454.82410864084
 20
11032.49005494342
 30
0.0
 40
100.0
 41
0.0
 71
     5
 72
     5
  1
\A1;1120
  7
SUNPOU
 11
0.0
 21
1.0
 31
0.0
 73
     1
 44
1.0
  0
POINT
  5
FEF
330
FE7
100
AcDbEntity
  8
DEFPOINTS
  6
ByBlock
 62
     0
 48
10.0
100
AcDbPoint
 10
10192.78115664494
 20
11592.49005494341
 30
0.0
  0
POINT
  5
FF0
330
FE7
100
AcDbEntity
  8
DEFPOINTS
  6
ByBlock
 62
     0
 48
10.0
100
AcDbPoint
 10
10192.78115664494
 20
10472.49005494341
 30
0.0
  0
POINT
  5
FF1
330
FE7
100
AcDbEntity
  8
DEFPOINTS
  6
ByBlock
 62
     0
 48
10.0
100
AcDbPoint
 10
10524.82410864084
 20
10472.49005494341
 30
0.0
  0
ENDBLK
  5
FF2
330
FE7
100
AcDbEntity
  8
0
 48
10.0
100
AcDbBlockEnd
  0
BLOCK
  5
FF5
330
FF4
100
AcDbEntity
  8
0
 48
10.0
100
AcDbBlockBegin
  2
*D2
 70
     1
 10
0.0
 20
0.0
 30
0.0
  3
*D2
  1

  0
LINE
  5
FF6
330
FF4
100
AcDbEntity
  8
0
  6
ByBlock
 48
10.0
100
AcDbLine
 10
11045.81373815912
 20
8125.610722184404
 30
0.0
 11
11045.81373815912
 21
7877.257210623922
 31
0.0
  0
LINE
  5
FF7
330
FF4
100
AcDbEntity
  8
0
  6
ByBlock
 48
10.0
100
AcDbLine
 10
12165.81373815912
 20
8125.610722184404
 30
0.0
 11
12165.81373815912
 21
7877.257210623922
 31
0.0
  0
LINE
  5
FF8
330
FF4
100
AcDbEntity
  8
0
  6
ByBlock
 48
10.0
100
AcDbLine
 10
11125.81373815912
 20
7917.257210623922
 30
0.0
 11
12085.81373815912
 21
7917.257210623922
 31
0.0
  0
INSERT
  5
FF9
330
FF4
100
AcDbEntity
  8
0
  6
ByBlock
 48
10.0
100
AcDbBlockReference
  2
_OPEN
 10
11045.81373815912
 20
7917.257210623922
 30
0.0
 41
80.0
 42
80.0
 43
80.0
 50
180.0
  0
INSERT
  5
FFA
330
FF4
100
AcDbEntity
  8
0
  6
ByBlock
 48
10.0
100
AcDbBlockReference
  2
_OPEN
 10
12165.81373815912
 20
7917.257210623922
 30
0.0
 41
80.0
 42
80.0
 43
80.0
  0
MTEXT
  5
FFB
330
FF4
100
AcDbEntity
  8
0
  6
ByBlock
 48
10.0
100
AcDbMText
 10
11605.81373815912
 20
7987.257210623922
 30
0.0
 40
100.0
 41
0.0
 71
     5
 72
     5
  1
\A1;1120
  7
SUNPOU
 73
     1
 44
1.0
  0
POINT
  5
FFC
330
FF4
100
AcDbEntity
  8
DEFPOINTS
  6
ByBlock
 62
     0
 48
10.0
100
AcDbPoint
 10
11045.81373815912
 20
8165.610722184403
 30
0.0
  0
POINT
  5
FFD
330
FF4
100
AcDbEntity
  8
DEFPOINTS
  6
ByBlock
 62
     0
 48
10.0
100
AcDbPoint
 10
12165.81373815912
 20
8165.610722184405
 30
0.0
  0
POINT
  5
FFE
330
FF4
100
AcDbEntity
  8
DEFPOINTS
  6
ByBlock
 62
     0
 48
10.0
100
AcDbPoint
 10
12165.81373815912
 20
7917.257210623922
 30
0.0
  0
ENDBLK
  5
FFF
330
FF4
100
AcDbEntity
  8
0
 48
10.0
100
AcDbBlockEnd
  0
BLOCK
  5
10B9
330
1001
100
AcDbEntity
  8
0
 48
10.0
100
AcDbBlockBegin
  2
*D3
 70
     1
 10
0.0
 20
0.0
 30
0.0
  3
*D3
  1

  0
LINE
  5
10BA
330
1001
100
AcDbEntity
  8
0
  6
ByBlock
 48
10.0
100
AcDbLine
 10
10192.78115664494
 20
8125.610722184404
 30
0.0
 11
10192.78115664494
 21
7877.257210623922
 31
0.0
  0
LINE
  5
10BB
330
1001
100
AcDbEntity
  8
0
  6
ByBlock
 48
10.0
100
AcDbLine
 10
8732.781156644945
 20
8125.610722184404
 30
0.0
 11
8732.781156644945
 21
7877.257210623922
 31
0.0
  0
LINE
  5
10BC
330
1001
100
AcDbEntity
  8
0
  6
ByBlock
 48
10.0
100
AcDbLine
 10
10112.78115664494
 20
7917.257210623922
 30
0.0
 11
8812.781156644945
 21
7917.257210623922
 31
0.0
  0
INSERT
  5
10BD
330
1001
100
AcDbEntity
  8
0
  6
ByBlock
 48
10.0
100
AcDbBlockReference
  2
_OPEN
 10
10192.78115664494
 20
7917.257210623922
 30
0.0
 41
80.0
 42
80.0
 43
80.0
  0
INSERT
  5
10BE
330
1001
100
AcDbEntity
  8
0
  6
ByBlock
 48
10.0
100
AcDbBlockReference
  2
_OPEN
 10
8732.781156644945
 20
7917.257210623922
 30
0.0
 41
80.0
 42
80.0
 43
80.0
 50
180.0
  0
MTEXT
  5
10BF
330
1001
100
AcDbEntity
  8
0
  6
ByBlock
 48
10.0
100
AcDbMText
 10
9462.781156644945
 20
7987.257210623922
 30
0.0
 40
100.0
 41
0.0
 71
     5
 72
     5
  1
\A1;1460
  7
SUNPOU
 73
     1
 44
1.0
  0
POINT
  5
10C0
330
1001
100
AcDbEntity
  8
DEFPOINTS
  6
ByBlock
 62
     0
 48
10.0
100
AcDbPoint
 10
10192.78115664494
 20
8165.610722184405
 30
0.0
  0
POINT
  5
10C1
330
1001
100
AcDbEntity
  8
DEFPOINTS
  6
ByBlock
 62
     0
 48
10.0
100
AcDbPoint
 10
8732.781156644945
 20
8165.610722184405
 30
0.0
  0
POINT
  5
10C2
330
1001
100
AcDbEntity
  8
DEFPOINTS
  6
ByBlock
 62
     0
 48
10.0
100
AcDbPoint
 10
8732.781156644945
 20
7917.257210623922
 30
0.0
  0
ENDBLK
  5
10C3
330
1001
100
AcDbEntity
  8
0
 48
10.0
100
AcDbBlockEnd
  0
BLOCK
  5
100F
330
100E
100
AcDbEntity
  8
0
 48
10.0
100
AcDbBlockBegin
  2
*D4
 70
     1
 10
0.0
 20
0.0
 30
0.0
  3
*D4
  1

  0
LINE
  5
1010
330
100E
100
AcDbEntity
  8
0
  6
ByBlock
 48
10.0
100
AcDbLine
 10
6759.748575130768
 20
8125.610722184404
 30
0.0
 11
6759.748575130768
 21
7877.257210623922
 31
0.0
  0
LINE
  5
1011
330
100E
100
AcDbEntity
  8
0
  6
ByBlock
 48
10.0
100
AcDbLine
 10
7879.748575130768
 20
8125.610722184404
 30
0.0
 11
7879.748575130768
 21
7877.257210623922
 31
0.0
  0
LINE
  5
1012
330
100E
100
AcDbEntity
  8
0
  6
ByBlock
 48
10.0
100
AcDbLine
 10
6839.748575130768
 20
7917.257210623922
 30
0.0
 11
7799.748575130769
 21
7917.257210623922
 31
0.0
  0
INSERT
  5
1013
330
100E
100
AcDbEntity
  8
0
  6
ByBlock
 48
10.0
100
AcDbBlockReference
  2
_OPEN
 10
6759.748575130768
 20
7917.257210623922
 30
0.0
 41
80.0
 42
80.0
 43
80.0
 50
180.0
  0
INSERT
  5
1014
330
100E
100
AcDbEntity
  8
0
  6
ByBlock
 48
10.0
100
AcDbBlockReference
  2
_OPEN
 10
7879.748575130768
 20
7917.257210623922
 30
0.0
 41
80.0
 42
80.0
 43
80.0
  0
MTEXT
  5
1015
330
100E
100
AcDbEntity
  8
0
  6
ByBlock
 48
10.0
100
AcDbMText
 10
7319.748575130768
 20
7987.257210623922
 30
0.0
 40
100.0
 41
0.0
 71
     5
 72
     5
  1
\A1;1120
  7
SUNPOU
 73
     1
 44
1.0
  0
POINT
  5
1016
330
100E
100
AcDbEntity
  8
DEFPOINTS
  6
ByBlock
 62
     0
 48
10.0
100
AcDbPoint
 10
6759.748575130768
 20
8165.610722184405
 30
0.0
  0
POINT
  5
1017
330
100E
100
AcDbEntity
  8
DEFPOINTS
  6
ByBlock
 62
     0
 48
10.0
100
AcDbPoint
 10
7879.748575130768
 20
8165.610722184405
 30
0.0
  0
POINT
  5
1018
330
100E
100
AcDbEntity
  8
DEFPOINTS
  6
ByBlock
 62
     0
 48
10.0
100
AcDbPoint
 10
7879.748575130768
 20
7917.257210623922
 30
0.0
  0
ENDBLK
  5
1019
330
100E
100
AcDbEntity
  8
0
 48
10.0
100
AcDbBlockEnd
  0
BLOCK
  5
101C
330
101B
100
AcDbEntity
  8
0
 48
10.0
100
AcDbBlockBegin
  2
*D5
 70
     1
 10
0.0
 20
0.0
 30
0.0
  3
*D5
  1

  0
LINE
  5
101D
330
101B
100
AcDbEntity
  8
0
  6
ByBlock
 48
10.0
100
AcDbLine
 10
6942.748575130768
 20
8907.610722184402
 30
0.0
 11
6942.748575130768
 21
9021.517545918102
 31
0.0
  0
LINE
  5
101E
330
101B
100
AcDbEntity
  8
0
  6
ByBlock
 48
10.0
100
AcDbLine
 10
7696.748575130768
 20
8907.610722184402
 30
0.0
 11
7696.748575130768
 21
9021.517545918102
 31
0.0
  0
LINE
  5
101F
330
101B
100
AcDbEntity
  8
0
  6
ByBlock
 48
10.0
100
AcDbLine
 10
7022.748575130768
 20
8981.517545918103
 30
0.0
 11
7616.748575130768
 21
8981.517545918103
 31
0.0
  0
INSERT
  5
1020
330
101B
100
AcDbEntity
  8
0
  6
ByBlock
 48
10.0
100
AcDbBlockReference
  2
_OPEN
 10
6942.748575130768
 20
8981.517545918103
 30
0.0
 41
80.0
 42
80.0
 43
80.0
 50
180.0
  0
INSERT
  5
1021
330
101B
100
AcDbEntity
  8
0
  6
ByBlock
 48
10.0
100
AcDbBlockReference
  2
_OPEN
 10
7696.748575130768
 20
8981.517545918103
 30
0.0
 41
80.0
 42
80.0
 43
80.0
  0
MTEXT
  5
1022
330
101B
100
AcDbEntity
  8
0
  6
ByBlock
 48
10.0
100
AcDbMText
 10
7319.748575130768
 20
9051.517545918102
 30
0.0
 40
100.0
 41
0.0
 71
     5
 72
     5
  1
\A1;754
  7
SUNPOU
 73
     1
 44
1.0
  0
POINT
  5
1023
330
101B
100
AcDbEntity
  8
DEFPOINTS
  6
ByBlock
 62
     0
 48
10.0
100
AcDbPoint
 10
6942.748575130768
 20
8867.610722184403
 30
0.0
  0
POINT
  5
1024
330
101B
100
AcDbEntity
  8
DEFPOINTS
  6
ByBlock
 62
     0
 48
10.0
100
AcDbPoint
 10
7696.748575130768
 20
8867.610722184403
 30
0.0
  0
POINT
  5
1025
330
101B
100
AcDbEntity
  8
DEFPOINTS
  6
ByBlock
 62
     0
 48
10.0
100
AcDbPoint
 10
7696.748575130768
 20
8981.517545918103
 30
0.0
  0
ENDBLK
  5
1026
330
101B
100
AcDbEntity
  8
0
 48
10.0
100
AcDbBlockEnd
  0
BLOCK
  5
1029
330
1028
100
AcDbEntity
  8
0
 48
10.0
100
AcDbBlockBegin
  2
*D6
 70
     1
 10
0.0
 20
0.0
 30
0.0
  3
*D6
  1

  0
LINE
  5
102A
330
1028
100
AcDbEntity
  8
0
  6
ByBlock
 48
10.0
100
AcDbLine
 10
11228.81373815912
 20
8907.610722184402
 30
0.0
 11
11228.81373815912
 21
9021.517545918102
 31
0.0
  0
LINE
  5
102B
330
1028
100
AcDbEntity
  8
0
  6
ByBlock
 48
10.0
100
AcDbLine
 10
11982.81373815912
 20
8907.610722184402
 30
0.0
 11
11982.81373815912
 21
9021.517545918102
 31
0.0
  0
LINE
  5
102C
330
1028
100
AcDbEntity
  8
0
  6
ByBlock
 48
10.0
100
AcDbLine
 10
11308.81373815912
 20
8981.517545918103
 30
0.0
 11
11902.81373815912
 21
8981.517545918103
 31
0.0
  0
INSERT
  5
102D
330
1028
100
AcDbEntity
  8
0
  6
ByBlock
 48
10.0
100
AcDbBlockReference
  2
_OPEN
 10
11228.81373815912
 20
8981.517545918103
 30
0.0
 41
80.0
 42
80.0
 43
80.0
 50
180.0
  0
INSERT
  5
102E
330
1028
100
AcDbEntity
  8
0
  6
ByBlock
 48
10.0
100
AcDbBlockReference
  2
_OPEN
 10
11982.81373815912
 20
8981.517545918103
 30
0.0
 41
80.0
 42
80.0
 43
80.0
  0
MTEXT
  5
102F
330
1028
100
AcDbEntity
  8
0
  6
ByBlock
 48
10.0
100
AcDbMText
 10
11605.81373815912
 20
9051.517545918102
 30
0.0
 40
100.0
 41
0.0
 71
     5
 72
     5
  1
\A1;754
  7
SUNPOU
 73
     1
 44
1.0
  0
POINT
  5
1030
330
1028
100
AcDbEntity
  8
DEFPOINTS
  6
ByBlock
 62
     0
 48
10.0
100
AcDbPoint
 10
11228.81373815912
 20
8867.610722184403
 30
0.0
  0
POINT
  5
1031
330
1028
100
AcDbEntity
  8
DEFPOINTS
  6
ByBlock
 62
     0
 48
10.0
100
AcDbPoint
 10
11982.81373815912
 20
8867.610722184403
 30
0.0
  0
POINT
  5
1032
330
1028
100
AcDbEntity
  8
DEFPOINTS
  6
ByBlock
 62
     0
 48
10.0
100
AcDbPoint
 10
11982.81373815912
 20
8981.517545918103
 30
0.0
  0
ENDBLK
  5
1033
330
1028
100
AcDbEntity
  8
0
 48
10.0
100
AcDbBlockEnd
  0
BLOCK
  5
1036
330
1035
100
AcDbEntity
  8
0
 48
10.0
100
AcDbBlockBegin
  2
*D7
 70
     1
 10
0.0
 20
0.0
 30
0.0
  3
*D7
  1

  0
LINE
  5
1037
330
1035
100
AcDbEntity
  8
0
  6
ByBlock
 48
10.0
100
AcDbLine
 10
6759.748575130768
 20
9270.610722184406
 30
0.0
 11
6759.748575130768
 21
9482.697006076522
 31
0.0
  0
LINE
  5
1038
330
1035
100
AcDbEntity
  8
0
  6
ByBlock
 48
10.0
100
AcDbLine
 10
7319.748575130768
 20
9330.016007583536
 30
0.0
 11
7319.748575130768
 21
9482.697006076522
 31
0.0
  0
LINE
  5
1039
330
1035
100
AcDbEntity
  8
0
  6
ByBlock
 48
10.0
100
AcDbLine
 10
6839.748575130768
 20
9442.697006076521
 30
0.0
 11
7239.748575130768
 21
9442.697006076521
 31
0.0
  0
INSERT
  5
103A
330
1035
100
AcDbEntity
  8
0
  6
ByBlock
 48
10.0
100
AcDbBlockReference
  2
_OPEN
 10
6759.748575130768
 20
9442.697006076521
 30
0.0
 41
80.0
 42
80.0
 43
80.0
 50
180.0
  0
INSERT
  5
103B
330
1035
100
AcDbEntity
  8
0
  6
ByBlock
 48
10.0
100
AcDbBlockReference
  2
_OPEN
 10
7319.748575130768
 20
9442.697006076521
 30
0.0
 41
80.0
 42
80.0
 43
80.0
  0
MTEXT
  5
103C
330
1035
100
AcDbEntity
  8
0
  6
ByBlock
 48
10.0
100
AcDbMText
 10
7039.748575130769
 20
9512.697006076521
 30
0.0
 40
100.0
 41
0.0
 71
     5
 72
     5
  1
\A1;560
  7
SUNPOU
 73
     1
 44
1.0
  0
POINT
  5
103D
330
1035
100
AcDbEntity
  8
DEFPOINTS
  6
ByBlock
 62
     0
 48
10.0
100
AcDbPoint
 10
6759.748575130768
 20
9230.610722184405
 30
0.0
  0
POINT
  5
103E
330
1035
100
AcDbEntity
  8
DEFPOINTS
  6
ByBlock
 62
     0
 48
10.0
100
AcDbPoint
 10
7319.748575130768
 20
9290.016007583536
 30
0.0
  0
POINT
  5
103F
330
1035
100
AcDbEntity
  8
DEFPOINTS
  6
ByBlock
 62
     0
 48
10.0
100
AcDbPoint
 10
7319.748575130768
 20
9442.697006076521
 30
0.0
  0
ENDBLK
  5
1040
330
1035
100
AcDbEntity
  8
0
 48
10.0
100
AcDbBlockEnd
  0
BLOCK
  5
1043
330
1042
100
AcDbEntity
  8
0
 48
10.0
100
AcDbBlockBegin
  2
*D8
 70
     1
 10
0.0
 20
0.0
 30
0.0
  3
*D8
  1

  0
LINE
  5
1044
330
1042
100
AcDbEntity
  8
0
  6
ByBlock
 48
10.0
100
AcDbLine
 10
7319.748575130768
 20
9330.016007583536
 30
0.0
 11
7319.748575130768
 21
9482.697006076522
 31
0.0
  0
LINE
  5
1045
330
1042
100
AcDbEntity
  8
0
  6
ByBlock
 48
10.0
100
AcDbLine
 10
7879.748575130768
 20
9270.610722184406
 30
0.0
 11
7879.748575130768
 21
9482.697006076522
 31
0.0
  0
LINE
  5
1046
330
1042
100
AcDbEntity
  8
0
  6
ByBlock
 48
10.0
100
AcDbLine
 10
7399.748575130769
 20
9442.697006076521
 30
0.0
 11
7799.748575130769
 21
9442.697006076521
 31
0.0
  0
INSERT
  5
1047
330
1042
100
AcDbEntity
  8
0
  6
ByBlock
 48
10.0
100
AcDbBlockReference
  2
_OPEN
 10
7319.748575130768
 20
9442.697006076521
 30
0.0
 41
80.0
 42
80.0
 43
80.0
 50
180.0
  0
INSERT
  5
1048
330
1042
100
AcDbEntity
  8
0
  6
ByBlock
 48
10.0
100
AcDbBlockReference
  2
_OPEN
 10
7879.748575130768
 20
9442.697006076521
 30
0.0
 41
80.0
 42
80.0
 43
80.0
  0
MTEXT
  5
1049
330
1042
100
AcDbEntity
  8
0
  6
ByBlock
 48
10.0
100
AcDbMText
 10
7599.748575130769
 20
9512.697006076521
 30
0.0
 40
100.0
 41
0.0
 71
     5
 72
     5
  1
\A1;560
  7
SUNPOU
 73
     1
 44
1.0
  0
POINT
  5
104A
330
1042
100
AcDbEntity
  8
DEFPOINTS
  6
ByBlock
 62
     0
 48
10.0
100
AcDbPoint
 10
7319.748575130768
 20
9290.016007583536
 30
0.0
  0
POINT
  5
104B
330
1042
100
AcDbEntity
  8
DEFPOINTS
  6
ByBlock
 62
     0
 48
10.0
100
AcDbPoint
 10
7879.748575130768
 20
9230.610722184405
 30
0.0
  0
POINT
  5
104C
330
1042
100
AcDbEntity
  8
DEFPOINTS
  6
ByBlock
 62
     0
 48
10.0
100
AcDbPoint
 10
7879.748575130768
 20
9442.697006076521
 30
0.0
  0
ENDBLK
  5
104D
330
1042
100
AcDbEntity
  8
0
 48
10.0
100
AcDbBlockEnd
  0
BLOCK
  5
10AE
330
104F
100
AcDbEntity
  8
0
 48
10.0
100
AcDbBlockBegin
  2
*D9
 70
     1
 10
0.0
 20
0.0
 30
0.0
  3
*D9
  1

  0
LINE
  5
10AF
330
104F
100
AcDbEntity
  8
0
  6
ByBlock
 48
10.0
100
AcDbLine
 10
10112.78115664494
 20
9270.610722184406
 30
0.0
 11
10112.78115664494
 21
9482.697006076522
 31
0.0
  0
LINE
  5
10B0
330
104F
100
AcDbEntity
  8
0
  6
ByBlock
 48
10.0
100
AcDbLine
 10
8812.781156644945
 20
9270.610722184406
 30
0.0
 11
8812.781156644945
 21
9482.697006076522
 31
0.0
  0
LINE
  5
10B1
330
104F
100
AcDbEntity
  8
0
  6
ByBlock
 48
10.0
100
AcDbLine
 10
10032.78115664494
 20
9442.697006076521
 30
0.0
 11
8892.781156644945
 21
9442.697006076521
 31
0.0
  0
INSERT
  5
10B2
330
104F
100
AcDbEntity
  8
0
  6
ByBlock
 48
10.0
100
AcDbBlockReference
  2
_OPEN
 10
10112.78115664494
 20
9442.697006076521
 30
0.0
 41
80.0
 42
80.0
 43
80.0
  0
INSERT
  5
10B3
330
104F
100
AcDbEntity
  8
0
  6
ByBlock
 48
10.0
100
AcDbBlockReference
  2
_OPEN
 10
8812.781156644945
 20
9442.697006076521
 30
0.0
 41
80.0
 42
80.0
 43
80.0
 50
180.0
  0
MTEXT
  5
10B4
330
104F
100
AcDbEntity
  8
0
  6
ByBlock
 48
10.0
100
AcDbMText
 10
9462.781156644945
 20
9512.697006076521
 30
0.0
 40
100.0
 41
0.0
 71
     5
 72
     5
  1
\A1;1300
  7
SUNPOU
 73
     1
 44
1.0
  0
POINT
  5
10B5
330
104F
100
AcDbEntity
  8
DEFPOINTS
  6
ByBlock
 62
     0
 48
10.0
100
AcDbPoint
 10
10112.78115664494
 20
9230.610722184405
 30
0.0
  0
POINT
  5
10B6
330
104F
100
AcDbEntity
  8
DEFPOINTS
  6
ByBlock
 62
     0
 48
10.0
100
AcDbPoint
 10
8812.781156644945
 20
9230.610722184405
 30
0.0
  0
POINT
  5
10B7
330
104F
100
AcDbEntity
  8
DEFPOINTS
  6
ByBlock
 62
     0
 48
10.0
100
AcDbPoint
 10
8812.781156644945
 20
9442.697006076521
 30
0.0
  0
ENDBLK
  5
10B8
330
104F
100
AcDbEntity
  8
0
 48
10.0
100
AcDbBlockEnd
  0
BLOCK
  5
105D
330
105C
100
AcDbEntity
  8
0
 48
10.0
100
AcDbBlockBegin
  2
*D10
 70
     1
 10
0.0
 20
0.0
 30
0.0
  3
*D10
  1

  0
LINE
  5
105E
330
105C
100
AcDbEntity
  8
0
  6
ByBlock
 48
10.0
100
AcDbLine
 10
11045.81373815912
 20
9270.610722184406
 30
0.0
 11
11045.81373815912
 21
9482.697006076522
 31
0.0
  0
LINE
  5
105F
330
105C
100
AcDbEntity
  8
0
  6
ByBlock
 48
10.0
100
AcDbLine
 10
11605.81373815912
 20
9330.016007583536
 30
0.0
 11
11605.81373815912
 21
9482.697006076522
 31
0.0
  0
LINE
  5
1060
330
105C
100
AcDbEntity
  8
0
  6
ByBlock
 48
10.0
100
AcDbLine
 10
11125.81373815912
 20
9442.697006076521
 30
0.0
 11
11525.81373815912
 21
9442.697006076521
 31
0.0
  0
INSERT
  5
1061
330
105C
100
AcDbEntity
  8
0
  6
ByBlock
 48
10.0
100
AcDbBlockReference
  2
_OPEN
 10
11045.81373815912
 20
9442.697006076521
 30
0.0
 41
80.0
 42
80.0
 43
80.0
 50
180.0
  0
INSERT
  5
1062
330
105C
100
AcDbEntity
  8
0
  6
ByBlock
 48
10.0
100
AcDbBlockReference
  2
_OPEN
 10
11605.81373815912
 20
9442.697006076521
 30
0.0
 41
80.0
 42
80.0
 43
80.0
  0
MTEXT
  5
1063
330
105C
100
AcDbEntity
  8
0
  6
ByBlock
 48
10.0
100
AcDbMText
 10
11325.81373815912
 20
9512.697006076521
 30
0.0
 40
100.0
 41
0.0
 71
     5
 72
     5
  1
\A1;560
  7
SUNPOU
 73
     1
 44
1.0
  0
POINT
  5
1064
330
105C
100
AcDbEntity
  8
DEFPOINTS
  6
ByBlock
 62
     0
 48
10.0
100
AcDbPoint
 10
11045.81373815912
 20
9230.610722184405
 30
0.0
  0
POINT
  5
1065
330
105C
100
AcDbEntity
  8
DEFPOINTS
  6
ByBlock
 62
     0
 48
10.0
100
AcDbPoint
 10
11605.81373815912
 20
9290.016007583536
 30
0.0
  0
POINT
  5
1066
330
105C
100
AcDbEntity
  8
DEFPOINTS
  6
ByBlock
 62
     0
 48
10.0
100
AcDbPoint
 10
11605.81373815912
 20
9442.697006076521
 30
0.0
  0
ENDBLK
  5
1067
330
105C
100
AcDbEntity
  8
0
 48
10.0
100
AcDbBlockEnd
  0
BLOCK
  5
106A
330
1069
100
AcDbEntity
  8
0
 48
10.0
100
AcDbBlockBegin
  2
*D11
 70
     1
 10
0.0
 20
0.0
 30
0.0
  3
*D11
  1

  0
LINE
  5
106B
330
1069
100
AcDbEntity
  8
0
  6
ByBlock
 48
10.0
100
AcDbLine
 10
11605.81373815912
 20
9330.016007583536
 30
0.0
 11
11605.81373815912
 21
9482.697006076522
 31
0.0
  0
LINE
  5
106C
330
1069
100
AcDbEntity
  8
0
  6
ByBlock
 48
10.0
100
AcDbLine
 10
12165.81373815912
 20
9270.610722184406
 30
0.0
 11
12165.81373815912
 21
9482.697006076522
 31
0.0
  0
LINE
  5
106D
330
1069
100
AcDbEntity
  8
0
  6
ByBlock
 48
10.0
100
AcDbLine
 10
11685.81373815912
 20
9442.697006076521
 30
0.0
 11
12085.81373815912
 21
9442.697006076521
 31
0.0
  0
INSERT
  5
106E
330
1069
100
AcDbEntity
  8
0
  6
ByBlock
 48
10.0
100
AcDbBlockReference
  2
_OPEN
 10
11605.81373815912
 20
9442.697006076521
 30
0.0
 41
80.0
 42
80.0
 43
80.0
 50
180.0
  0
INSERT
  5
106F
330
1069
100
AcDbEntity
  8
0
  6
ByBlock
 48
10.0
100
AcDbBlockReference
  2
_OPEN
 10
12165.81373815912
 20
9442.697006076521
 30
0.0
 41
80.0
 42
80.0
 43
80.0
  0
MTEXT
  5
1070
330
1069
100
AcDbEntity
  8
0
  6
ByBlock
 48
10.0
100
AcDbMText
 10
11885.81373815912
 20
9512.697006076521
 30
0.0
 40
100.0
 41
0.0
 71
     5
 72
     5
  1
\A1;560
  7
SUNPOU
 73
     1
 44
1.0
  0
POINT
  5
1071
330
1069
100
AcDbEntity
  8
DEFPOINTS
  6
ByBlock
 62
     0
 48
10.0
100
AcDbPoint
 10
11605.81373815912
 20
9290.016007583536
 30
0.0
  0
POINT
  5
1072
330
1069
100
AcDbEntity
  8
DEFPOINTS
  6
ByBlock
 62
     0
 48
10.0
100
AcDbPoint
 10
12165.81373815912
 20
9230.610722184405
 30
0.0
  0
POINT
  5
1073
330
1069
100
AcDbEntity
  8
DEFPOINTS
  6
ByBlock
 62
     0
 48
10.0
100
AcDbPoint
 10
12165.81373815912
 20
9442.697006076521
 30
0.0
  0
ENDBLK
  5
1074
330
1069
100
AcDbEntity
  8
0
 48
10.0
100
AcDbBlockEnd
  0
BLOCK
  5
1077
330
1076
100
AcDbEntity
  8
0
 48
10.0
100
AcDbBlockBegin
  2
*D12
 70
     1
 10
0.0
 20
0.0
 30
0.0
  3
*D12
  1

  0
LINE
  5
1078
330
1076
100
AcDbEntity
  8
0
  6
ByBlock
 48
10.0
100
AcDbLine
 10
12022.81373815912
 20
8867.610722184403
 30
0.0
 11
12482.20300333722
 21
8867.610722184403
 31
0.0
  0
LINE
  5
1079
330
1076
100
AcDbEntity
  8
0
  6
ByBlock
 48
10.0
100
AcDbLine
 10
12022.81373815912
 20
8283.610722184404
 30
0.0
 11
12482.20300333722
 21
8283.610722184404
 31
0.0
  0
LINE
  5
107A
330
1076
100
AcDbEntity
  8
0
  6
ByBlock
 48
10.0
100
AcDbLine
 10
12442.20300333722
 20
8787.610722184403
 30
0.0
 11
12442.20300333722
 21
8363.610722184406
 31
0.0
  0
INSERT
  5
107B
330
1076
100
AcDbEntity
  8
0
  6
ByBlock
 48
10.0
100
AcDbBlockReference
  2
_OPEN
 10
12442.20300333722
 20
8867.610722184403
 30
0.0
 41
80.0
 42
80.0
 43
80.0
 50
90.0
  0
INSERT
  5
107C
330
1076
100
AcDbEntity
  8
0
  6
ByBlock
 48
10.0
100
AcDbBlockReference
  2
_OPEN
 10
12442.20300333722
 20
8283.610722184404
 30
0.0
 41
80.0
 42
80.0
 43
80.0
 50
270.0
  0
MTEXT
  5
107D
330
1076
100
AcDbEntity
  8
0
  6
ByBlock
 48
10.0
100
AcDbMText
 10
12372.20300333722
 20
8575.610722184404
 30
0.0
 40
100.0
 41
0.0
 71
     5
 72
     5
  1
\A1;584
  7
SUNPOU
 11
0.0
 21
1.0
 31
0.0
 73
     1
 44
1.0
  0
POINT
  5
107E
330
1076
100
AcDbEntity
  8
DEFPOINTS
  6
ByBlock
 62
     0
 48
10.0
100
AcDbPoint
 10
11982.81373815912
 20
8867.610722184403
 30
0.0
  0
POINT
  5
107F
330
1076
100
AcDbEntity
  8
DEFPOINTS
  6
ByBlock
 62
     0
 48
10.0
100
AcDbPoint
 10
11982.81373815912
 20
8283.610722184404
 30
0.0
  0
POINT
  5
1080
330
1076
100
AcDbEntity
  8
DEFPOINTS
  6
ByBlock
 62
     0
 48
10.0
100
AcDbPoint
 10
12442.20300333722
 20
8283.610722184404
 30
0.0
  0
ENDBLK
  5
1081
330
1076
100
AcDbEntity
  8
0
 48
10.0
100
AcDbBlockEnd
  0
BLOCK
  5
1084
330
1083
100
AcDbEntity
  8
0
 48
10.0
100
AcDbBlockBegin
  2
*D13
 70
     1
 10
0.0
 20
0.0
 30
0.0
  3
*D13
  1

  0
LINE
  5
1085
330
1083
100
AcDbEntity
  8
0
  6
ByBlock
 48
10.0
100
AcDbLine
 10
7736.748575130768
 20
8867.610722184403
 30
0.0
 11
8162.18263723764
 21
8867.610722184403
 31
0.0
  0
LINE
  5
1086
330
1083
100
AcDbEntity
  8
0
  6
ByBlock
 48
10.0
100
AcDbLine
 10
7736.748575130768
 20
8283.610722184402
 30
0.0
 11
8162.18263723764
 21
8283.610722184402
 31
0.0
  0
LINE
  5
1087
330
1083
100
AcDbEntity
  8
0
  6
ByBlock
 48
10.0
100
AcDbLine
 10
8122.182637237639
 20
8787.610722184403
 30
0.0
 11
8122.182637237639
 21
8363.610722184402
 31
0.0
  0
INSERT
  5
1088
330
1083
100
AcDbEntity
  8
0
  6
ByBlock
 48
10.0
100
AcDbBlockReference
  2
_OPEN
 10
8122.182637237639
 20
8867.610722184403
 30
0.0
 41
80.0
 42
80.0
 43
80.0
 50
90.0
  0
INSERT
  5
1089
330
1083
100
AcDbEntity
  8
0
  6
ByBlock
 48
10.0
100
AcDbBlockReference
  2
_OPEN
 10
8122.182637237639
 20
8283.610722184402
 30
0.0
 41
80.0
 42
80.0
 43
80.0
 50
270.0
  0
MTEXT
  5
108A
330
1083
100
AcDbEntity
  8
0
  6
ByBlock
 48
10.0
100
AcDbMText
 10
8052.182637237638
 20
8575.610722184404
 30
0.0
 40
100.0
 41
0.0
 71
     5
 72
     5
  1
\A1;584
  7
SUNPOU
 11
0.0
 21
1.0
 31
0.0
 73
     1
 44
1.0
  0
POINT
  5
108B
330
1083
100
AcDbEntity
  8
DEFPOINTS
  6
ByBlock
 62
     0
 48
10.0
100
AcDbPoint
 10
7696.748575130768
 20
8867.610722184403
 30
0.0
  0
POINT
  5
108C
330
1083
100
AcDbEntity
  8
DEFPOINTS
  6
ByBlock
 62
     0
 48
10.0
100
AcDbPoint
 10
7696.748575130769
 20
8283.610722184402
 30
0.0
  0
POINT
  5
108D
330
1083
100
AcDbEntity
  8
DEFPOINTS
  6
ByBlock
 62
     0
 48
10.0
100
AcDbPoint
 10
8122.182637237639
 20
8283.610722184402
 30
0.0
  0
ENDBLK
  5
108E
330
1083
100
AcDbEntity
  8
0
 48
10.0
100
AcDbBlockEnd
  0
BLOCK
  5
10A1
330
1090
100
AcDbEntity
  8
0
 48
10.0
100
AcDbBlockBegin
  2
*D14
 70
     1
 10
0.0
 20
0.0
 30
0.0
  3
*D14
  1

  0
LINE
  5
10A2
330
1090
100
AcDbEntity
  8
0
  6
ByBlock
 48
10.0
100
AcDbLine
 10
10232.78115664494
 20
8575.610722184405
 30
0.0
 11
10440.96684580695
 21
8575.610722184405
 31
0.0
  0
LINE
  5
10A3
330
1090
100
AcDbEntity
  8
0
  6
ByBlock
 48
10.0
100
AcDbLine
 10
10232.78115664494
 20
8165.610722184405
 30
0.0
 11
10440.96684580695
 21
8165.610722184405
 31
0.0
  0
LINE
  5
10A4
330
1090
100
AcDbEntity
  8
0
  6
ByBlock
 48
10.0
100
AcDbLine
 10
10400.96684580695
 20
8655.610722184404
 30
0.0
 11
10400.96684580695
 21
8735.610722184405
 31
0.0
  0
LINE
  5
10A5
330
1090
100
AcDbEntity
  8
0
  6
ByBlock
 48
10.0
100
AcDbLine
 10
10400.96684580695
 20
8085.610722184405
 30
0.0
 11
10400.96684580695
 21
8005.610722184405
 31
0.0
  0
LINE
  5
10A6
330
1090
100
AcDbEntity
  8
0
  6
ByBlock
 48
10.0
100
AcDbLine
 10
10400.96684580695
 20
8575.610722184405
 30
0.0
 11
10400.96684580695
 21
8165.610722184405
 31
0.0
  0
INSERT
  5
10A7
330
1090
100
AcDbEntity
  8
0
  6
ByBlock
 48
10.0
100
AcDbBlockReference
  2
_OPEN
 10
10400.96684580695
 20
8575.610722184405
 30
0.0
 41
80.0
 42
80.0
 43
80.0
 50
270.0
  0
INSERT
  5
10A8
330
1090
100
AcDbEntity
  8
0
  6
ByBlock
 48
10.0
100
AcDbBlockReference
  2
_OPEN
 10
10400.96684580695
 20
8165.610722184405
 30
0.0
 41
80.0
 42
80.0
 43
80.0
 50
90.0
  0
MTEXT
  5
10A9
330
1090
100
AcDbEntity
  8
0
  6
ByBlock
 48
10.0
100
AcDbMText
 10
10330.96684580695
 20
8370.610722184405
 30
0.0
 40
100.0
 41
0.0
 71
     5
 72
     5
  1
\A1;410
  7
SUNPOU
 11
0.0
 21
1.0
 31
0.0
 73
     1
 44
1.0
  0
POINT
  5
10AA
330
1090
100
AcDbEntity
  8
DEFPOINTS
  6
ByBlock
 62
     0
 48
10.0
100
AcDbPoint
 10
10192.78115664494
 20
8575.610722184405
 30
0.0
  0
POINT
  5
10AB
330
1090
100
AcDbEntity
  8
DEFPOINTS
  6
ByBlock
 62
     0
 48
10.0
100
AcDbPoint
 10
10192.78115664494
 20
8165.610722184405
 30
0.0
  0
POINT
  5
10AC
330
1090
100
AcDbEntity
  8
DEFPOINTS
  6
ByBlock
 62
     0
 48
10.0
100
AcDbPoint
 10
10400.96684580695
 20
8165.610722184405
 30
0.0
  0
ENDBLK
  5
10AD
330
1090
100
AcDbEntity
  8
0
 48
10.0
100
AcDbBlockEnd
  0
ENDSEC
  0
SECTION
  2
ENTITIES
  0
LINE
  5
570
330
2
100
AcDbEntity
  8
4
  6
Continuous
 48
10.0
100
AcDbLine
 10
12819.74395831865
 20
6226.581588328389
 30
0.0
 11
12819.74395831865
 21
5426.581588328389
 31
0.0
  0
LINE
  5
571
330
2
100
AcDbEntity
  8
4
  6
Continuous
 48
10.0
100
AcDbLine
 10
10019.74395831864
 20
6226.581588328389
 30
0.0
 11
10019.74395831864
 21
5426.581588328389
 31
0.0
  0
LINE
  5
572
330
2
100
AcDbEntity
  8
4
  6
Continuous
 48
10.0
100
AcDbLine
 10
8019.743958318649
 20
6226.581588328389
 30
0.0
 11
8019.743958318649
 21
5426.581588328389
 31
0.0
  0
LINE
  5
575
330
2
100
AcDbEntity
  8
4
  6
Continuous
 48
10.0
100
AcDbLine
 10
8019.743958318649
 20
5426.581588328389
 30
0.0
 11
12819.74395831865
 21
5426.581588328389
 31
0.0
  0
LINE
  5
576
330
2
100
AcDbEntity
  8
4
  6
Continuous
 48
10.0
100
AcDbLine
 10
8019.743958318649
 20
5826.581588328389
 30
0.0
 11
12819.74395831865
 21
5826.581588328389
 31
0.0
  0
TEXT
  5
577
330
2
100
AcDbEntity
  8
4
  6
Continuous
 48
10.0
100
AcDbText
 10
8173.752281318648
 20
5952.753691328389
 30
0.0
 40
200.0
  1
機器名称
100
AcDbText
  0
TEXT
  5
578
330
2
100
AcDbEntity
  8
4
  6
Continuous
 48
10.0
100
AcDbText
 10
8164.776382318649
 20
5513.16221532839
 30
0.0
 40
200.0
  1
機器型番
100
AcDbText
  0
TEXT
  5
579
330
2
100
AcDbEntity
  8
4
  6
Continuous
 48
10.0
100
AcDbText
 10
10130.45894031864
 20
5916.868664328389
 30
0.0
 40
200.0
  1
ミツヤファンユニット
100
AcDbText
  0
TEXT
  5
57A
330
2
100
AcDbEntity
  8
4
  6
Continuous
 48
10.0
100
AcDbText
 10
10166.36194031864
 20
5495.219925328388
 30
0.0
 40
200.0
  1
MFU#2505-5
100
AcDbText
  0
TEXT
  5
57C
330
2
100
AcDbEntity
  8
4
  6
Continuous
 48
10.0
100
AcDbText
 10
8208.057998318649
 20
13760.29695332839
 30
0.0
 40
200.0
  1
床置ベット
100
AcDbText
  0
TEXT
  5
57D
330
2
100
AcDbEntity
  8
4
  6
Continuous
 48
10.0
100
AcDbText
 10
6684.414331318649
 20
14362.10549332838
 30
0.0
 40
250.0
  1
ベルト駆動式消音ボックス付き多翼ファン
100
AcDbText
  0
LINE
  5
57E
330
2
100
AcDbEntity
  8
4
  6
Continuous
 48
10.0
100
AcDbLine
 10
6419.743958318649
 20
14104.21660532839
 30
0.0
 11
12819.74395831865
 21
14104.21660532839
 31
0.0
  0
LINE
  5
57F
330
2
100
AcDbEntity
  8
4
  6
Continuous
 48
10.0
100
AcDbLine
 10
6419.743958318649
 20
14904.21660532839
 30
0.0
 11
12819.74395831865
 21
14904.21660532839
 31
0.0
  0
LINE
  5
580
330
2
100
AcDbEntity
  8
4
  6
Continuous
 48
10.0
100
AcDbLine
 10
8019.743958318649
 20
6226.581588328389
 30
0.0
 11
12819.74395831865
 21
6226.581588328389
 31
0.0
  0
LINE
  5
581
330
2
100
AcDbEntity
  8
4
  6
Continuous
 48
10.0
100
AcDbLine
 10
6419.743958318649
 20
14904.21660532839
 30
0.0
 11
6419.743958318649
 21
14104.21660532839
 31
0.0
  0
TEXT
  5
582
330
2
100
AcDbEntity
  8
4
  6
Continuous
 48
10.0
100
AcDbText
 10
6545.679155318649
 20
13755.85949832838
 30
0.0
 40
200.0
  1
左回転右吐出
100
AcDbText
  0
TEXT
  5
583
330
2
100
AcDbEntity
  8
4
  6
Continuous
 48
10.0
100
AcDbText
 10
11295.62219531864
 20
15050.82591432839
 30
0.0
 40
224.0
  1
No.
100
AcDbText
  0
TEXT
  5
584
330
2
100
AcDbEntity
  8
4
  6
Continuous
 48
10.0
100
AcDbText
 10
11151.26717431864
 20
13760.29695332839
 30
0.0
 40
200.0
  1
縮尺：1/40
100
AcDbText
  0
LINE
  5
585
330
2
100
AcDbEntity
  8
4
  6
Continuous
 48
10.0
100
AcDbLine
 10
12819.74395831865
 20
14904.21660532839
 30
0.0
 11
12819.74395831865
 21
14104.21660532839
 31
0.0
  0
LINE
  5
586
330
2
100
AcDbEntity
  8
4
  6
Continuous
 48
10.0
100
AcDbLine
 10
11182.21364731865
 20
14951.63592132839
 30
0.0
 11
11182.21364731865
 21
15373.19063432838
 31
0.0
  0
LINE
  5
587
330
2
100
AcDbEntity
  8
4
  6
Continuous
 48
10.0
100
AcDbLine
 10
11182.21364731865
 20
15373.19063432838
 30
0.0
 11
12819.74395831865
 21
15373.19063432838
 31
0.0
  0
LINE
  5
588
330
2
100
AcDbEntity
  8
4
  6
Continuous
 48
10.0
100
AcDbLine
 10
12819.74395831865
 20
15373.19063432838
 30
0.0
 11
12819.74395831865
 21
14951.63592132839
 31
0.0
  0
LINE
  5
589
330
2
100
AcDbEntity
  8
4
  6
Continuous
 48
10.0
100
AcDbLine
 10
12819.74395831865
 20
14951.63592132839
 30
0.0
 11
11182.21364731865
 21
14951.63592132839
 31
0.0
  0
LINE
  5
F79
330
2
100
AcDbEntity
  8
1
 48
10.0
100
AcDbLine
 10
10192.78115664494
 20
8165.610722184405
 30
0.0
 11
8732.781156644945
 21
8165.610722184405
 31
0.0
  0
LINE
  5
F7A
330
2
100
AcDbEntity
  8
1
 48
10.0
100
AcDbLine
 10
8732.781156644945
 20
8165.610722184405
 30
0.0
 11
8732.781156644945
 21
8240.610722184404
 31
0.0
  0
LINE
  5
F7B
330
2
100
AcDbEntity
  8
1
 48
10.0
100
AcDbLine
 10
8732.781156644945
 20
8240.610722184404
 30
0.0
 11
10192.78115664494
 21
8240.610722184404
 31
0.0
  0
LINE
  5
F7C
330
2
100
AcDbEntity
  8
1
 48
10.0
100
AcDbLine
 10
10192.78115664494
 20
8240.610722184404
 30
0.0
 11
10192.78115664494
 21
8165.610722184405
 31
0.0
  0
LINE
  5
F7D
330
2
100
AcDbEntity
  8
1
 48
10.0
100
AcDbLine
 10
8812.781156644945
 20
8240.610722184404
 30
0.0
 11
8812.781156644945
 21
9230.610722184405
 31
0.0
  0
LINE
  5
F7E
330
2
100
AcDbEntity
  8
1
 48
10.0
100
AcDbLine
 10
8812.781156644945
 20
9230.610722184405
 30
0.0
 11
10112.78115664494
 21
9230.610722184405
 31
0.0
  0
LINE
  5
F7F
330
2
100
AcDbEntity
  8
1
 48
10.0
100
AcDbLine
 10
10112.78115664494
 20
9230.610722184405
 30
0.0
 11
10112.78115664494
 21
8240.610722184404
 31
0.0
  0
LINE
  5
F80
330
2
100
AcDbEntity
  8
2
 48
10.0
100
AcDbLine
 10
10192.78115664494
 20
8575.610722184405
 30
0.0
 11
8732.781156644945
 21
8575.610722184405
 31
0.0
  0
LINE
  5
F81
330
2
100
AcDbEntity
  8
1
 48
10.0
100
AcDbLine
 10
10142.78115664494
 20
8897.610722184404
 30
0.0
 11
10112.78115664494
 21
8897.610722184404
 31
0.0
  0
LINE
  5
F82
330
2
100
AcDbEntity
  8
1
 48
10.0
100
AcDbLine
 10
10142.78115664494
 20
8253.610722184404
 30
0.0
 11
10112.78115664494
 21
8253.610722184404
 31
0.0
  0
LINE
  5
F83
330
2
100
AcDbEntity
  8
1
 48
10.0
100
AcDbLine
 10
10142.78115664494
 20
8897.610722184404
 30
0.0
 11
10142.78115664494
 21
8253.610722184404
 31
0.0
  0
LINE
  5
F84
330
2
100
AcDbEntity
  8
1
 48
10.0
100
AcDbLine
 10
8782.781156644947
 20
8253.610722184404
 30
0.0
 11
8782.781156644945
 21
8897.610722184404
 31
0.0
  0
LINE
  5
F85
330
2
100
AcDbEntity
  8
1
 48
10.0
100
AcDbLine
 10
8812.781156644945
 20
8897.610722184404
 30
0.0
 11
8782.781156644945
 21
8897.610722184404
 31
0.0
  0
LINE
  5
F87
330
2
100
AcDbEntity
  8
1
 48
10.0
100
AcDbLine
 10
8812.781156644945
 20
8253.610722184404
 30
0.0
 11
8782.781156644945
 21
8253.610722184404
 31
0.0
  0
LINE
  5
F88
330
2
100
AcDbEntity
  8
1
 48
10.0
100
AcDbLine
 10
7879.748575130768
 20
8240.610722184404
 30
0.0
 11
6759.748575130768
 21
8240.610722184404
 31
0.0
  0
LINE
  5
F89
330
2
100
AcDbEntity
  8
1
 48
10.0
100
AcDbLine
 10
6759.748575130768
 20
8165.610722184405
 30
0.0
 11
7879.748575130768
 21
8165.610722184403
 31
0.0
  0
LINE
  5
F8A
330
2
100
AcDbEntity
  8
1
 48
10.0
100
AcDbLine
 10
7879.748575130768
 20
9230.610722184405
 30
0.0
 11
6759.748575130768
 21
9230.610722184405
 31
0.0
  0
LINE
  5
F8B
330
2
100
AcDbEntity
  8
1
 48
10.0
100
AcDbLine
 10
7879.748575130768
 20
8165.610722184405
 30
0.0
 11
7879.748575130768
 21
9230.610722184405
 31
0.0
  0
LINE
  5
F8C
330
2
100
AcDbEntity
  8
1
 48
10.0
100
AcDbLine
 10
6759.748575130768
 20
8165.610722184405
 30
0.0
 11
6759.748575130768
 21
9230.610722184405
 31
0.0
  0
LINE
  5
F8D
330
2
100
AcDbEntity
  8
1
 48
10.0
100
AcDbLine
 10
6744.748575130768
 20
8245.610722184403
 30
0.0
 11
6744.748575130768
 21
9225.610722184404
 31
0.0
  0
LINE
  5
F8E
330
2
100
AcDbEntity
  8
1
 48
10.0
100
AcDbLine
 10
7894.748575130768
 20
8245.610722184405
 30
0.0
 11
7894.748575130769
 21
9225.610722184407
 31
0.0
  0
LINE
  5
F8F
330
2
100
AcDbEntity
  8
1
 48
10.0
100
AcDbLine
 10
7894.748575130768
 20
9225.610722184404
 30
0.0
 11
7879.748575130768
 21
9225.610722184404
 31
0.0
  0
LINE
  5
F90
330
2
100
AcDbEntity
  8
1
 48
10.0
100
AcDbLine
 10
7894.748575130766
 20
8245.610722184405
 30
0.0
 11
7879.748575130768
 21
8245.610722184403
 31
0.0
  0
LINE
  5
F91
330
2
100
AcDbEntity
  8
1
 48
10.0
100
AcDbLine
 10
6759.748575130768
 20
9225.610722184404
 30
0.0
 11
6744.748575130768
 21
9225.610722184404
 31
0.0
  0
LINE
  5
F92
330
2
100
AcDbEntity
  8
1
 48
10.0
100
AcDbLine
 10
6759.748575130767
 20
8245.610722184402
 30
0.0
 11
6744.748575130768
 21
8245.610722184403
 31
0.0
  0
LINE
  5
F93
330
2
100
AcDbEntity
  8
2
 48
10.0
100
AcDbLine
 10
7319.748575130768
 20
8165.610722184405
 30
0.0
 11
7319.748575130768
 21
8974.335002990617
 31
0.0
  0
LINE
  5
F95
330
2
100
AcDbEntity
  8
1
 48
10.0
100
AcDbLine
 10
6942.74857513077
 20
8283.610722184404
 30
0.0
 11
6942.748575130768
 21
8867.610722184403
 31
0.0
  0
LINE
  5
F96
330
2
100
AcDbEntity
  8
1
 48
10.0
100
AcDbLine
 10
7696.748575130769
 20
8283.610722184402
 30
0.0
 11
7696.748575130768
 21
8867.610722184403
 31
0.0
  0
LINE
  5
F97
330
2
100
AcDbEntity
  8
1
 48
10.0
100
AcDbLine
 10
6942.748575130768
 20
8867.610722184403
 30
0.0
 11
7696.748575130769
 21
8867.610722184403
 31
0.0
  0
LINE
  5
F98
330
2
100
AcDbEntity
  8
1
 48
10.0
100
AcDbLine
 10
6942.748575130768
 20
8283.610722184404
 30
0.0
 11
7696.748575130769
 21
8283.610722184404
 31
0.0
  0
LINE
  5
F99
330
2
100
AcDbEntity
  8
1
 48
10.0
100
AcDbLine
 10
6912.748575130769
 20
8253.610722184406
 30
0.0
 11
6912.748575130769
 21
8897.610722184403
 31
0.0
  0
LINE
  5
F9A
330
2
100
AcDbEntity
  8
1
 48
10.0
100
AcDbLine
 10
7726.748575130769
 20
8253.610722184404
 30
0.0
 11
7726.748575130769
 21
8897.610722184404
 31
0.0
  0
LINE
  5
F9B
330
2
100
AcDbEntity
  8
1
 48
10.0
100
AcDbLine
 10
6912.748575130769
 20
8897.610722184403
 30
0.0
 11
7726.748575130769
 21
8897.610722184401
 31
0.0
  0
LINE
  5
F9C
330
2
100
AcDbEntity
  8
1
 48
10.0
100
AcDbLine
 10
6912.748575130769
 20
8253.610722184406
 30
0.0
 11
7726.748575130769
 21
8253.610722184404
 31
0.0
  0
LINE
  5
F9D
330
2
100
AcDbEntity
  8
1
 48
10.0
100
AcDbLine
 10
6942.74857513077
 20
8283.610722184404
 30
0.0
 11
7696.748575130768
 21
8867.610722184403
 31
0.0
  0
LINE
  5
F9E
330
2
100
AcDbEntity
  8
1
 48
10.0
100
AcDbLine
 10
6942.748575130768
 20
8867.610722184403
 30
0.0
 11
7696.748575130769
 21
8283.610722184404
 31
0.0
  0
LINE
  5
FA1
330
2
100
AcDbEntity
  8
2
 48
10.0
100
AcDbLine
 10
7319.748575130768
 20
9156.770148915073
 30
0.0
 11
7319.748575130768
 21
9290.016007583536
 31
0.0
  0
LINE
  5
FA3
330
2
100
AcDbEntity
  8
1
 48
10.0
100
AcDbLine
 10
11982.81373815912
 20
8867.610722184403
 30
0.0
 11
11228.81373815912
 21
8283.610722184404
 31
0.0
  0
LINE
  5
FA4
330
2
100
AcDbEntity
  8
1
 48
10.0
100
AcDbLine
 10
11982.81373815912
 20
8283.610722184404
 30
0.0
 11
11228.81373815912
 21
8867.610722184403
 31
0.0
  0
LINE
  5
FA5
330
2
100
AcDbEntity
  8
1
 48
10.0
100
AcDbLine
 10
12012.81373815912
 20
8897.610722184403
 30
0.0
 11
11198.81373815912
 21
8897.610722184401
 31
0.0
  0
LINE
  5
FA6
330
2
100
AcDbEntity
  8
1
 48
10.0
100
AcDbLine
 10
12012.81373815912
 20
8253.610722184406
 30
0.0
 11
11198.81373815912
 21
8253.610722184404
 31
0.0
  0
LINE
  5
FA7
330
2
100
AcDbEntity
  8
1
 48
10.0
100
AcDbLine
 10
11982.81373815912
 20
8867.610722184403
 30
0.0
 11
11228.81373815912
 21
8867.610722184403
 31
0.0
  0
LINE
  5
FA8
330
2
100
AcDbEntity
  8
1
 48
10.0
100
AcDbLine
 10
11982.81373815912
 20
8283.610722184404
 30
0.0
 11
11228.81373815912
 21
8283.610722184404
 31
0.0
  0
LINE
  5
FA9
330
2
100
AcDbEntity
  8
1
 48
10.0
100
AcDbLine
 10
12165.81373815912
 20
8165.610722184405
 30
0.0
 11
11045.81373815912
 21
8165.610722184403
 31
0.0
  0
LINE
  5
FAA
330
2
100
AcDbEntity
  8
1
 48
10.0
100
AcDbLine
 10
11045.81373815912
 20
8240.610722184404
 30
0.0
 11
12165.81373815912
 21
8240.610722184404
 31
0.0
  0
LINE
  5
FAB
330
2
100
AcDbEntity
  8
1
 48
10.0
100
AcDbLine
 10
11045.81373815912
 20
9230.610722184405
 30
0.0
 11
12165.81373815912
 21
9230.610722184405
 31
0.0
  0
LINE
  5
FAC
330
2
100
AcDbEntity
  8
2
 48
10.0
100
AcDbLine
 10
11605.81373815912
 20
8165.610722184405
 30
0.0
 11
11605.81373815912
 21
8974.335002990617
 31
0.0
  0
LINE
  5
FAD
330
2
100
AcDbEntity
  8
1
 48
10.0
100
AcDbLine
 10
12012.81373815912
 20
8253.610722184406
 30
0.0
 11
12012.81373815912
 21
8897.610722184403
 31
0.0
  0
LINE
  5
FAE
330
2
100
AcDbEntity
  8
1
 48
10.0
100
AcDbLine
 10
12180.81373815912
 20
8245.610722184403
 30
0.0
 11
12180.81373815912
 21
9225.610722184404
 31
0.0
  0
LINE
  5
FAF
330
2
100
AcDbEntity
  8
1
 48
10.0
100
AcDbLine
 10
12165.81373815912
 20
8165.610722184405
 30
0.0
 11
12165.81373815912
 21
9230.610722184405
 31
0.0
  0
LINE
  5
FB0
330
2
100
AcDbEntity
  8
1
 48
10.0
100
AcDbLine
 10
12165.81373815912
 20
8245.610722184402
 30
0.0
 11
12180.81373815912
 21
8245.610722184403
 31
0.0
  0
LINE
  5
FB1
330
2
100
AcDbEntity
  8
1
 48
10.0
100
AcDbLine
 10
11982.81373815912
 20
8283.610722184404
 30
0.0
 11
11982.81373815912
 21
8867.610722184403
 31
0.0
  0
LINE
  5
FB2
330
2
100
AcDbEntity
  8
1
 48
10.0
100
AcDbLine
 10
12165.81373815912
 20
9225.610722184404
 30
0.0
 11
12180.81373815912
 21
9225.610722184404
 31
0.0
  0
LINE
  5
FB3
330
2
100
AcDbEntity
  8
2
 48
10.0
100
AcDbLine
 10
11605.81373815912
 20
9156.770148915073
 30
0.0
 11
11605.81373815912
 21
9290.016007583536
 31
0.0
  0
LINE
  5
FB4
330
2
100
AcDbEntity
  8
1
 48
10.0
100
AcDbLine
 10
11198.81373815912
 20
8253.610722184404
 30
0.0
 11
11198.81373815912
 21
8897.610722184404
 31
0.0
  0
LINE
  5
FB5
330
2
100
AcDbEntity
  8
1
 48
10.0
100
AcDbLine
 10
11030.81373815912
 20
8245.610722184405
 30
0.0
 11
11030.81373815912
 21
9225.610722184407
 31
0.0
  0
LINE
  5
FB6
330
2
100
AcDbEntity
  8
1
 48
10.0
100
AcDbLine
 10
11045.81373815912
 20
8165.610722184405
 30
0.0
 11
11045.81373815912
 21
9230.610722184405
 31
0.0
  0
LINE
  5
FB7
330
2
100
AcDbEntity
  8
1
 48
10.0
100
AcDbLine
 10
11228.81373815912
 20
8283.610722184402
 30
0.0
 11
11228.81373815912
 21
8867.610722184403
 31
0.0
  0
LINE
  5
FB8
330
2
100
AcDbEntity
  8
1
 48
10.0
100
AcDbLine
 10
11030.81373815912
 20
8245.610722184405
 30
0.0
 11
11045.81373815912
 21
8245.610722184403
 31
0.0
  0
LINE
  5
FB9
330
2
100
AcDbEntity
  8
1
 48
10.0
100
AcDbLine
 10
11030.81373815912
 20
9225.610722184404
 30
0.0
 11
11045.81373815912
 21
9225.610722184404
 31
0.0
  0
LINE
  5
FBA
330
2
100
AcDbEntity
  8
1
 48
10.0
100
AcDbLine
 10
8732.781156644945
 20
10472.49005494341
 30
0.0
 11
10192.78115664494
 21
10472.49005494341
 31
0.0
  0
LINE
  5
FBB
330
2
100
AcDbEntity
  8
1
 48
10.0
100
AcDbLine
 10
10192.78115664494
 20
10472.49005494341
 30
0.0
 11
10192.78115664494
 21
10512.49005494341
 31
0.0
  0
LINE
  5
FBC
330
2
100
AcDbEntity
  8
1
 48
10.0
100
AcDbLine
 10
10192.78115664494
 20
11592.49005494341
 30
0.0
 11
8732.781156644945
 21
11592.49005494341
 31
0.0
  0
LINE
  5
FBD
330
2
100
AcDbEntity
  8
1
 48
10.0
100
AcDbLine
 10
8732.781156644945
 20
11592.49005494341
 30
0.0
 11
8732.781156644945
 21
11552.49005494341
 31
0.0
  0
LINE
  5
FBE
330
2
100
AcDbEntity
  8
1
 48
10.0
100
AcDbLine
 10
8732.781156644945
 20
10512.49005494341
 30
0.0
 11
8812.781156644945
 21
10512.49005494341
 31
0.0
  0
LINE
  5
FBF
330
2
100
AcDbEntity
  8
1
 48
10.0
100
AcDbLine
 10
10192.78115664494
 20
11552.49005494341
 30
0.0
 11
10112.78115664494
 21
11552.49005494341
 31
0.0
  0
LINE
  5
FC0
330
2
100
AcDbEntity
  8
1
 48
10.0
100
AcDbLine
 10
8812.781156644945
 20
11607.49005494341
 30
0.0
 11
8812.781156644945
 21
10457.49005494341
 31
0.0
  0
LINE
  5
FC1
330
2
100
AcDbEntity
  8
1
 48
10.0
100
AcDbLine
 10
10112.78115664494
 20
10457.49005494341
 30
0.0
 11
10112.78115664494
 21
11607.49005494341
 31
0.0
  0
LINE
  5
FC2
330
2
100
AcDbEntity
  8
1
 48
10.0
100
AcDbLine
 10
10192.78115664494
 20
11552.49005494341
 30
0.0
 11
10192.78115664494
 21
11592.49005494341
 31
0.0
  0
LINE
  5
FC3
330
2
100
AcDbEntity
  8
1
 48
10.0
100
AcDbLine
 10
8732.781156644945
 20
10512.49005494341
 30
0.0
 11
8732.781156644945
 21
10472.49005494341
 31
0.0
  0
LINE
  5
FC4
330
2
100
AcDbEntity
  8
1
 48
10.0
100
AcDbLine
 10
10112.78115664494
 20
11607.49005494342
 30
0.0
 11
8812.781156644945
 21
11607.49005494341
 31
0.0
  0
LINE
  5
FC5
330
2
100
AcDbEntity
  8
1
 48
10.0
100
AcDbLine
 10
8812.781156644945
 20
10457.49005494341
 30
0.0
 11
10112.78115664494
 21
10457.49005494341
 31
0.0
  0
LINE
  5
FC6
330
2
100
AcDbEntity
  8
1
 48
10.0
100
AcDbLine
 10
8812.781156644945
 20
11552.49005494341
 30
0.0
 11
8732.781156644945
 21
11552.49005494341
 31
0.0
  0
LINE
  5
FC7
330
2
100
AcDbEntity
  8
1
 48
10.0
100
AcDbLine
 10
10112.78115664494
 20
10512.49005494341
 30
0.0
 11
10192.78115664494
 21
10512.49005494341
 31
0.0
  0
LINE
  5
FC8
330
2
100
AcDbEntity
  8
2
 48
10.0
100
AcDbLine
 10
8732.781156644945
 20
11032.49005494342
 30
0.0
 11
10192.78115664494
 21
11032.49005494342
 31
0.0
  0
LINE
  5
FC9
330
2
100
AcDbEntity
  8
1
 48
10.0
100
AcDbLine
 10
8782.781156644945
 20
11439.49005494341
 30
0.0
 11
8812.781156644948
 21
11439.49005494342
 31
0.0
  0
LINE
  5
FCA
330
2
100
AcDbEntity
  8
1
 48
10.0
100
AcDbLine
 10
8782.781156644945
 20
10625.49005494341
 30
0.0
 11
8812.781156644948
 21
10625.49005494342
 31
0.0
  0
LINE
  5
FCB
330
2
100
AcDbEntity
  8
1
 48
10.0
100
AcDbLine
 10
10142.78115664494
 20
10625.49005494341
 30
0.0
 11
10142.78115664494
 21
11439.49005494341
 31
0.0
  0
LINE
  5
FCC
330
2
100
AcDbEntity
  8
1
 48
10.0
100
AcDbLine
 10
8782.781156644945
 20
11439.49005494341
 30
0.0
 11
8782.781156644945
 21
10625.49005494341
 31
0.0
  0
LINE
  5
FCD
330
2
100
AcDbEntity
  8
1
 48
10.0
100
AcDbLine
 10
10112.78115664494
 20
11439.49005494341
 30
0.0
 11
10142.78115664494
 21
11439.49005494341
 31
0.0
  0
LINE
  5
FCE
330
2
100
AcDbEntity
  8
1
 48
10.0
100
AcDbLine
 10
10112.78115664494
 20
10625.49005494342
 30
0.0
 11
10142.78115664494
 21
10625.49005494341
 31
0.0
  0
ARC
  5
FD4
330
2
100
AcDbEntity
  8
4
 48
10.0
100
AcDbCircle
 10
9737.781156644945
 20
8763.610722184406
 30
0.0
 40
372.0
100
AcDbArc
 50
180.0
 51
265.3743494204775
  0
ARC
  5
FD5
330
2
100
AcDbEntity
  8
4
 48
10.0
100
AcDbCircle
 10
9677.781156644947
 20
8763.610722184406
 30
0.0
 40
312.0
100
AcDbArc
 50
90.0
 51
180.0
  0
ARC
  5
FD9
330
2
100
AcDbEntity
  8
4
 48
10.0
100
AcDbCircle
 10
9684.781156644945
 20
8816.610722184405
 30
0.0
 40
259.0
100
AcDbArc
 50
0.0
 51
90.0
  0
ARC
  5
FDA
330
2
100
AcDbEntity
  8
4
 48
10.0
100
AcDbCircle
 10
9730.781156644946
 20
8816.610722184405
 30
0.0
 40
213.0
100
AcDbArc
 50
350.5423094583231
 51
0.0
  0
LINE
  5
FDB
330
2
100
AcDbEntity
  8
4
 48
10.0
100
AcDbLine
 10
10012.78115664494
 20
8344.610722184404
 30
0.0
 11
10012.78115664494
 21
8806.610722184407
 31
0.0
  0
LINE
  5
FDD
330
2
100
AcDbEntity
  8
4
 48
10.0
100
AcDbLine
 10
9707.781156644946
 20
8392.822372852876
 30
0.0
 11
10012.78115664494
 21
8369.610722184404
 31
0.0
  0
LINE
  5
FDE
330
2
100
AcDbEntity
  8
4
 48
10.0
100
AcDbLine
 10
9940.88589243165
 20
8781.610722184405
 30
0.0
 11
10012.78115664494
 21
8781.610722184405
 31
0.0
  0
LINE
  5
FE5
330
2
100
AcDbEntity
  8
4
 48
10.0
100
AcDbLine
 10
10012.78115664494
 20
8781.610722184405
 30
0.0
 11
10112.78115664494
 21
8781.610722184405
 31
0.0
  0
LINE
  5
FE6
330
2
100
AcDbEntity
  8
4
 48
10.0
100
AcDbLine
 10
10012.78115664494
 20
8369.610722184404
 30
0.0
 11
10112.78115664494
 21
8369.610722184404
 31
0.0
  0
DIMENSION
  5
FF3
330
2
100
AcDbEntity
  8
3
 48
10.0
100
AcDbDimension
  2
*D1
 10
10524.82410864084
 20
10472.49005494341
 30
0.0
 11
10454.82410864084
 21
11032.49005494342
 31
0.0
 70
    32
 71
     5
 42
-1.0
  3
MATSU
100
AcDbAlignedDimension
 13
10192.78115664494
 23
11592.49005494341
 33
0.0
 14
10192.78115664494
 24
10472.49005494341
 34
0.0
 50
90.0
100
AcDbRotatedDimension
1001
ACAD
1000
DSTYLE
1002
{
1070
   140
1040
2.5
1070
    40
1040
40.0
1070
     7
1000
_OPEN
1070
     6
1000
_OPEN
1002
}
  0
DIMENSION
  5
1000
330
2
100
AcDbEntity
  8
3
 48
10.0
100
AcDbDimension
  2
*D2
 10
12165.81373815912
 20
7917.257210623922
 30
0.0
 11
11605.81373815912
 21
7987.257210623922
 31
0.0
 70
    32
 71
     5
 42
-1.0
  3
MATSU
100
AcDbAlignedDimension
 13
11045.81373815912
 23
8165.610722184403
 33
0.0
 14
12165.81373815912
 24
8165.610722184405
 34
0.0
100
AcDbRotatedDimension
1001
ACAD
1000
DSTYLE
1002
{
1070
   140
1040
2.5
1070
    40
1040
40.0
1070
     7
1000
_OPEN
1070
     6
1000
_OPEN
1002
}
  0
DIMENSION
  5
100D
330
2
100
AcDbEntity
  8
3
 48
10.0
100
AcDbDimension
  2
*D3
 10
8732.781156644945
 20
7917.257210623922
 30
0.0
 11
9462.781156644945
 21
7987.257210623922
 31
0.0
 70
    32
 71
     5
 42
-1.0
  3
MATSU
100
AcDbAlignedDimension
 13
10192.78115664494
 23
8165.610722184405
 33
0.0
 14
8732.781156644945
 24
8165.610722184405
 34
0.0
100
AcDbRotatedDimension
1001
ACAD
1000
DSTYLE
1002
{
1070
   140
1040
2.5
1070
    40
1040
40.0
1070
     7
1000
_OPEN
1070
     6
1000
_OPEN
1002
}
  0
DIMENSION
  5
101A
330
2
100
AcDbEntity
  8
3
 48
10.0
100
AcDbDimension
  2
*D4
 10
7879.748575130768
 20
7917.257210623922
 30
0.0
 11
7319.748575130768
 21
7987.257210623922
 31
0.0
 70
    32
 71
     5
 42
-1.0
  3
MATSU
100
AcDbAlignedDimension
 13
6759.748575130768
 23
8165.610722184405
 33
0.0
 14
7879.748575130768
 24
8165.610722184405
 34
0.0
100
AcDbRotatedDimension
1001
ACAD
1000
DSTYLE
1002
{
1070
   140
1040
2.5
1070
    40
1040
40.0
1070
     7
1000
_OPEN
1070
     6
1000
_OPEN
1002
}
  0
DIMENSION
  5
1027
330
2
100
AcDbEntity
  8
3
 48
10.0
100
AcDbDimension
  2
*D5
 10
7696.748575130768
 20
8981.517545918103
 30
0.0
 11
7319.748575130768
 21
9051.517545918102
 31
0.0
 70
    32
 71
     5
 42
-1.0
  3
MATSU
100
AcDbAlignedDimension
 13
6942.748575130768
 23
8867.610722184403
 33
0.0
 14
7696.748575130768
 24
8867.610722184403
 34
0.0
100
AcDbRotatedDimension
1001
ACAD
1000
DSTYLE
1002
{
1070
   140
1040
2.5
1070
    40
1040
40.0
1070
     7
1000
_OPEN
1070
     6
1000
_OPEN
1002
}
  0
DIMENSION
  5
1034
330
2
100
AcDbEntity
  8
3
 48
10.0
100
AcDbDimension
  2
*D6
 10
11982.81373815912
 20
8981.517545918103
 30
0.0
 11
11605.81373815912
 21
9051.517545918102
 31
0.0
 70
    32
 71
     5
 42
-1.0
  3
MATSU
100
AcDbAlignedDimension
 13
11228.81373815912
 23
8867.610722184403
 33
0.0
 14
11982.81373815912
 24
8867.610722184403
 34
0.0
100
AcDbRotatedDimension
1001
ACAD
1000
DSTYLE
1002
{
1070
   140
1040
2.5
1070
    40
1040
40.0
1070
     7
1000
_OPEN
1070
     6
1000
_OPEN
1002
}
  0
DIMENSION
  5
1041
330
2
100
AcDbEntity
  8
3
 48
10.0
100
AcDbDimension
  2
*D7
 10
7319.748575130768
 20
9442.697006076521
 30
0.0
 11
7039.748575130769
 21
9512.697006076521
 31
0.0
 70
    32
 71
     5
 42
-1.0
  3
MATSU
100
AcDbAlignedDimension
 13
6759.748575130768
 23
9230.610722184405
 33
0.0
 14
7319.748575130768
 24
9290.016007583536
 34
0.0
100
AcDbRotatedDimension
1001
ACAD
1000
DSTYLE
1002
{
1070
   140
1040
2.5
1070
    40
1040
40.0
1070
     7
1000
_OPEN
1070
     6
1000
_OPEN
1002
}
  0
DIMENSION
  5
104E
330
2
100
AcDbEntity
  8
3
 48
10.0
100
AcDbDimension
  2
*D8
 10
7879.748575130768
 20
9442.697006076521
 30
0.0
 11
7599.748575130769
 21
9512.697006076521
 31
0.0
 70
    32
 71
     5
 42
-1.0
  3
MATSU
100
AcDbAlignedDimension
 13
7319.748575130768
 23
9290.016007583536
 33
0.0
 14
7879.748575130768
 24
9230.610722184405
 34
0.0
100
AcDbRotatedDimension
1001
ACAD
1000
DSTYLE
1002
{
1070
   140
1040
2.5
1070
    40
1040
40.0
1070
     7
1000
_OPEN
1070
     6
1000
_OPEN
1002
}
  0
DIMENSION
  5
105B
330
2
100
AcDbEntity
  8
3
 48
10.0
100
AcDbDimension
  2
*D9
 10
8812.781156644945
 20
9442.697006076521
 30
0.0
 11
9462.781156644945
 21
9512.697006076521
 31
0.0
 70
    32
 71
     5
 42
-1.0
  3
MATSU
100
AcDbAlignedDimension
 13
10112.78115664494
 23
9230.610722184405
 33
0.0
 14
8812.781156644945
 24
9230.610722184405
 34
0.0
100
AcDbRotatedDimension
1001
ACAD
1000
DSTYLE
1002
{
1070
   140
1040
2.5
1070
    40
1040
40.0
1070
     7
1000
_OPEN
1070
     6
1000
_OPEN
1002
}
  0
DIMENSION
  5
1068
330
2
100
AcDbEntity
  8
3
 48
10.0
100
AcDbDimension
  2
*D10
 10
11605.81373815912
 20
9442.697006076521
 30
0.0
 11
11325.81373815912
 21
9512.697006076521
 31
0.0
 70
    32
 71
     5
 42
-1.0
  3
MATSU
100
AcDbAlignedDimension
 13
11045.81373815912
 23
9230.610722184405
 33
0.0
 14
11605.81373815912
 24
9290.016007583536
 34
0.0
100
AcDbRotatedDimension
1001
ACAD
1000
DSTYLE
1002
{
1070
   140
1040
2.5
1070
    40
1040
40.0
1070
     7
1000
_OPEN
1070
     6
1000
_OPEN
1002
}
  0
DIMENSION
  5
1075
330
2
100
AcDbEntity
  8
3
 48
10.0
100
AcDbDimension
  2
*D11
 10
12165.81373815912
 20
9442.697006076521
 30
0.0
 11
11885.81373815912
 21
9512.697006076521
 31
0.0
 70
    32
 71
     5
 42
-1.0
  3
MATSU
100
AcDbAlignedDimension
 13
11605.81373815912
 23
9290.016007583536
 33
0.0
 14
12165.81373815912
 24
9230.610722184405
 34
0.0
100
AcDbRotatedDimension
1001
ACAD
1000
DSTYLE
1002
{
1070
   140
1040
2.5
1070
    40
1040
40.0
1070
     7
1000
_OPEN
1070
     6
1000
_OPEN
1002
}
  0
DIMENSION
  5
1082
330
2
100
AcDbEntity
  8
3
 48
10.0
100
AcDbDimension
  2
*D12
 10
12442.20300333722
 20
8283.610722184404
 30
0.0
 11
12372.20300333722
 21
8575.610722184404
 31
0.0
 70
    32
 71
     5
 42
-1.0
  3
MATSU
100
AcDbAlignedDimension
 13
11982.81373815912
 23
8867.610722184403
 33
0.0
 14
11982.81373815912
 24
8283.610722184404
 34
0.0
 50
90.0
100
AcDbRotatedDimension
1001
ACAD
1000
DSTYLE
1002
{
1070
   140
1040
2.5
1070
    40
1040
40.0
1070
     7
1000
_OPEN
1070
     6
1000
_OPEN
1002
}
  0
DIMENSION
  5
108F
330
2
100
AcDbEntity
  8
3
 48
10.0
100
AcDbDimension
  2
*D13
 10
8122.182637237639
 20
8283.610722184402
 30
0.0
 11
8052.182637237638
 21
8575.610722184404
 31
0.0
 70
    32
 71
     5
 42
-1.0
  3
MATSU
100
AcDbAlignedDimension
 13
7696.748575130768
 23
8867.610722184403
 33
0.0
 14
7696.748575130769
 24
8283.610722184402
 34
0.0
 50
90.0
100
AcDbRotatedDimension
1001
ACAD
1000
DSTYLE
1002
{
1070
   140
1040
2.5
1070
    40
1040
40.0
1070
     7
1000
_OPEN
1070
     6
1000
_OPEN
1002
}
  0
DIMENSION
  5
109E
330
2
100
AcDbEntity
  8
3
 48
10.0
100
AcDbDimension
  2
*D14
 10
10400.96684580695
 20
8165.610722184405
 30
0.0
 11
10330.96684580695
 21
8370.610722184405
 31
0.0
 70
    32
 71
     5
 42
-1.0
  3
MATSU
100
AcDbAlignedDimension
 13
10192.78115664494
 23
8575.610722184405
 33
0.0
 14
10192.78115664494
 24
8165.610722184405
 34
0.0
 50
270.0
100
AcDbRotatedDimension
1001
ACAD
1000
DSTYLE
1002
{
1070
   140
1040
2.5
1070
    40
1040
40.0
1070
     7
1000
_OPEN
1070
     6
1000
_OPEN
1002
}
  0
ENDSEC
  0
SECTION
  2
OBJECTS
  0
DICTIONARY
  5
1A
330
0
100
AcDbDictionary
281
     1
  3
ACAD_GROUP
350
18
  3
ACAD_LAYOUT
350
8AC
  3
ACAD_MLINESTYLE
350
19
  3
ACAD_PLOTSETTINGS
350
8AD
  3
ACAD_PLOTSTYLENAME
350
8AA
  0
DICTIONARY
  5
8D9
330
2
100
AcDbDictionary
280
     1
281
     1
  3
ACAD_LAYOUTSELFREF
360
C7D
  0
DICTIONARY
  5
8DB
330
8
100
AcDbDictionary
280
     1
281
     1
  3
ACAD_LAYOUTSELFREF
360
C7E
  0
DICTIONARY
  5
18
102
{ACAD_REACTORS
330
1A
102
}
330
1A
100
AcDbDictionary
281
     1
  0
DICTIONARY
  5
8AC
102
{ACAD_REACTORS
330
1A
102
}
330
1A
100
AcDbDictionary
281
     1
  3
Model
350
8AE
  3
ﾚｲｱｳﾄ1
350
8AF
  0
DICTIONARY
  5
19
102
{ACAD_REACTORS
330
1A
102
}
330
1A
100
AcDbDictionary
281
     1
  3
STANDARD
350
1E
  0
DICTIONARY
  5
8AD
102
{ACAD_REACTORS
330
1A
102
}
330
1A
100
AcDbDictionary
281
     1
  0
ACDBDICTIONARYWDFLT
  5
8AA
102
{ACAD_REACTORS
330
1A
102
}
330
1A
100
AcDbDictionary
281
     1
  3
Normal
350
8AB
100
AcDbDictionaryWithDefault
340
8AB
1001
ACAD
1000
TREAT_AS_HARD
1070
     0
1000
TREAT_AS_HARD
1070
     0
  0
XRECORD
  5
C7D
102
{ACAD_REACTORS
330
8D9
102
}
330
8D9
100
AcDbXrecord
280
     1
340
2
  0
XRECORD
  5
C7E
102
{ACAD_REACTORS
330
8DB
102
}
330
8DB
100
AcDbXrecord
280
     1
340
8
  0
LAYOUT
  5
8AE
102
{ACAD_REACTORS
330
8AC
102
}
330
8AC
100
AcDbPlotSettings
  1

  2
EPSON LP-9300
  4

  6

 40
0.0
 41
0.0
 42
0.0
 43
0.0
 44
0.0
 45
0.0
 46
0.0
 47
0.0
 48
0.0
 49
0.0
140
0.0
141
0.0
142
1.0
143
1.0
 70
  1712
 72
     0
 73
     0
 74
     0
  7

 75
     0
147
1.0
148
0.0
149
0.0
100
AcDbLayout
  1
Model
 70
     1
 71
     0
 10
0.0
 20
0.0
 11
12.0
 21
9.0
 12
0.0
 22
0.0
 32
0.0
 14
0.0
 24
0.0
 34
0.0
 15
0.0
 25
0.0
 35
0.0
146
0.0
 13
0.0
 23
0.0
 33
0.0
 16
1.0
 26
0.0
 36
0.0
 17
0.0
 27
1.0
 37
0.0
 76
     0
330
2
  0
LAYOUT
  5
8AF
102
{ACAD_REACTORS
330
8AC
102
}
330
8AC
100
AcDbPlotSettings
  1

  2
EPSON LP-9300
  4

  6

 40
0.0
 41
0.0
 42
0.0
 43
0.0
 44
0.0
 45
0.0
 46
0.0
 47
0.0
 48
0.0
 49
0.0
140
0.0
141
0.0
142
1.0
143
1.0
 70
   688
 72
     0
 73
     0
 74
     5
  7

 75
    16
147
1.0
148
0.0
149
0.0
100
AcDbLayout
  1
ﾚｲｱｳﾄ1
 70
     0
 71
     1
 10
0.0
 20
0.0
 11
12.0
 21
9.0
 12
0.0
 22
0.0
 32
0.0
 14
1.000000000000000E+20
 24
1.000000000000000E+20
 34
1.000000000000000E+20
 15
-1.000000000000000E+20
 25
-1.000000000000000E+20
 35
-1.000000000000000E+20
146
0.0
 13
0.0
 23
0.0
 33
0.0
 16
1.0
 26
0.0
 36
0.0
 17
0.0
 27
1.0
 37
0.0
 76
     0
330
8
  0
MLINESTYLE
  5
1E
102
{ACAD_REACTORS
330
19
102
}
330
19
100
AcDbMlineStyle
  2
STANDARD
 70
     0
  3

 62
     0
 51
90.0
 52
90.0
 71
     2
 49
0.5
 62
   256
  6
BYLAYER
 49
-0.5
 62
   256
  6
BYLAYER
  0
ACDBPLACEHOLDER
  5
8AB
102
{ACAD_REACTORS
330
8AA
102
}
330
8AA
  0
ENDSEC
  0
EOF
