  0
SECTION
  2
HEADER
  9
$ACADVER
  1
AC1009
  9
$INSBASE
 10
0.0
 20
0.0
 30
0.0
  9
$EXTMIN
 10
6419.7439583186488
 20
5426.5815883283894
 30
0.0
  9
$EXTMAX
 10
12819.74395831865
 20
15373.190634328381
 30
0.0
  9
$LIMMIN
 10
0.0
 20
0.0
  9
$LIMMAX
 10
297.0
 20
210.0
  9
$ORTHOMODE
 70
     0
  9
$REGENMODE
 70
     1
  9
$FILLMODE
 70
     1
  9
$QTEXTMODE
 70
     0
  9
$MIRRTEXT
 70
     0
  9
$DRAGMODE
 70
     2
  9
$LTSCALE
 40
20.0
  9
$OSMODE
 70
    37
  9
$ATTMODE
 70
     1
  9
$TEXTSIZE
 40
52.5
  9
$TRACEWID
 40
0.05
  9
$TEXTSTYLE
  7
STANDARD
  9
$CLAYER
  8
3
  9
$CELTYPE
  6
BYLAYER
  9
$CECOLOR
 62
   256
  9
$DIMSCALE
 40
40.0
  9
$DIMASZ
 40
2.0
  9
$DIMEXO
 40
1.0
  9
$DIMDLI
 40
10.0
  9
$DIMRND
 40
0.0
  9
$DIMDLE
 40
0.0
  9
$DIMEXE
 40
1.0
  9
$DIMTP
 40
0.0
  9
$DIMTM
 40
0.0
  9
$DIMTXT
 40
2.5
  9
$DIMCEN
 40
0.0
  9
$DIMTSZ
 40
0.0
  9
$DIMTOL
 70
     0
  9
$DIMLIM
 70
     0
  9
$DIMTIH
 70
     0
  9
$DIMTOH
 70
     0
  9
$DIMSE1
 70
     0
  9
$DIMSE2
 70
     0
  9
$DIMTAD
 70
     1
  9
$DIMZIN
 70
     8
  9
$DIMBLK
  1

  9
$DIMASO
 70
     1
  9
$DIMSHO
 70
     1
  9
$DIMPOST
  1

  9
$DIMAPOST
  1

  9
$DIMALT
 70
     0
  9
$DIMALTD
 70
     2
  9
$DIMALTF
 40
0.03937
  9
$DIMLFAC
 40
1.0
  9
$DIMTOFL
 70
     1
  9
$DIMTVP
 40
0.0
  9
$DIMTIX
 70
     0
  9
$DIMSOXD
 70
     0
  9
$DIMSAH
 70
     1
  9
$DIMBLK1
  1
OPEN
  9
$DIMBLK2
  1
OPEN
  9
$DIMSTYLE
  2
MATSU
  9
$DIMCLRD
 70
   256
  9
$DIMCLRE
 70
   256
  9
$DIMCLRT
 70
   256
  9
$DIMTFAC
 40
1.0
  9
$DIMGAP
 40
0.5
  9
$LUNITS
 70
     2
  9
$LUPREC
 70
     3
  9
$SKETCHINC
 40
0.1
  9
$FILLETRAD
 40
5.0
  9
$AUNITS
 70
     0
  9
$AUPREC
 70
     2
  9
$MENU
  1
acad
  9
$ELEVATION
 40
0.0
  9
$PELEVATION
 40
0.0
  9
$THICKNESS
 40
0.0
  9
$LIMCHECK
 70
     0
  9
$BLIPMODE
 70
     0
  9
$CHAMFERA
 40
0.0
  9
$CHAMFERB
 40
0.0
  9
$SKPOLY
 70
     0
  9
$TDCREATE
 40
2451997.4538002321
  9
$TDUPDATE
 40
2454953.857140555
  9
$TDINDWG
 40
0.0504903125
  9
$TDUSRTIMER
 40
0.0504903125
  9
$USRTIMER
 70
     1
  9
$ANGBASE
 50
0.0
  9
$ANGDIR
 70
     0
  9
$PDMODE
 70
     0
  9
$PDSIZE
 40
1.0
  9
$PLINEWID
 40
0.0
  9
$COORDS
 70
     1
  9
$SPLFRAME
 70
     0
  9
$SPLINETYPE
 70
     6
  9
$SPLINESEGS
 70
     8
  9
$ATTDIA
 70
     0
  9
$ATTREQ
 70
     1
  9
$HANDLING
 70
 10241
  9
$HANDSEED
  5
10DB
  9
$SURFTAB1
 70
     6
  9
$SURFTAB2
 70
     6
  9
$SURFTYPE
 70
     6
  9
$SURFU
 70
     6
  9
$SURFV
 70
     6
  9
$UCSNAME
  2

  9
$UCSORG
 10
0.0
 20
0.0
 30
0.0
  9
$UCSXDIR
 10
1.0
 20
0.0
 30
0.0
  9
$UCSYDIR
 10
0.0
 20
1.0
 30
0.0
  9
$PUCSNAME
  2

  9
$PUCSORG
 10
0.0
 20
0.0
 30
0.0
  9
$PUCSXDIR
 10
1.0
 20
0.0
 30
0.0
  9
$PUCSYDIR
 10
0.0
 20
1.0
 30
0.0
  9
$USERI1
 70
     0
  9
$USERI2
 70
     0
  9
$USERI3
 70
     0
  9
$USERI4
 70
     0
  9
$USERI5
 70
     0
  9
$USERR1
 40
0.0
  9
$USERR2
 40
0.0
  9
$USERR3
 40
0.0
  9
$USERR4
 40
0.0
  9
$USERR5
 40
0.0
  9
$WORLDVIEW
 70
     1
  9
$SHADEDGE
 70
     3
  9
$SHADEDIF
 70
    70
  9
$TILEMODE
 70
     1
  9
$MAXACTVP
 70
    16
  9
$PLIMCHECK
 70
     0
  9
$PEXTMIN
 10
1.0000000000000000E+020
 20
1.0000000000000000E+020
 30
1.0000000000000000E+020
  9
$PEXTMAX
 10
-1.0000000000000000E+020
 20
-1.0000000000000000E+020
 30
-1.0000000000000000E+020
  9
$PLIMMIN
 10
0.0
 20
0.0
  9
$PLIMMAX
 10
12.0
 20
9.0
  9
$UNITMODE
 70
     0
  9
$VISRETAIN
 70
     0
  9
$PLINEGEN
 70
     0
  9
$PSLTSCALE
 70
     0
  0
ENDSEC
  0
SECTION
  2
TABLES
  0
TABLE
  2
VPORT
 70
     2
  0
VPORT
  2
*ACTIVE
 70
     0
 10
0.0
 20
0.0
 11
1.0
 21
1.0
 12
14127.2827367069
 22
9073.7105500090183
 13
0.0
 23
0.0
 14
5.0
 24
5.0
 15
0.0
 25
0.0
 16
0.0
 26
0.0
 36
1.0
 17
0.0
 27
0.0
 37
0.0
 40
12428.730053126121
 41
1.5051150895140659
 42
50.0
 43
0.0
 44
0.0
 50
0.0
 51
0.0
 71
     0
 72
   100
 73
     1
 74
     0
 75
     0
 76
     0
 77
     0
 78
     2
  0
ENDTAB
  0
TABLE
  2
LTYPE
 70
     2
  0
LTYPE
  2
CONTINUOUS
 70
     0
  3
Solid line
 72
    65
 73
     0
 40
0.0
  0
LTYPE
  2
CENTER
 70
     0
  3
____ _ ____ _ ____ _ ____ _ ____ _ ____ _ ____ 
 72
    65
 73
     4
 40
2.0
 49
1.25
 49
-0.25
 49
0.25
 49
-0.25
  0
ENDTAB
  0
TABLE
  2
LAYER
 70
     6
  0
LAYER
  2
0
 70
     0
 62
     7
  6
CONTINUOUS
  0
LAYER
  2
DEFPOINTS
 70
     0
 62
     7
  6
CONTINUOUS
  0
LAYER
  2
3
 70
     0
 62
     2
  6
CONTINUOUS
  0
LAYER
  2
2
 70
     0
 62
     3
  6
CENTER
  0
LAYER
  2
1
 70
     0
 62
     4
  6
CONTINUOUS
  0
LAYER
  2
4
 70
     0
 62
     7
  6
CONTINUOUS
  0
ENDTAB
  0
TABLE
  2
STYLE
 70
     2
  0
STYLE
  2
STANDARD
 70
     0
 40
0.0
 41
1.0
 50
0.0
 71
     0
 42
52.5
  3
C:\Program Files\AutoCAD LT\simplex.shx
  4
C:\Program Files\AutoCAD LT\extfont.shx
  0
STYLE
  2
SUNPOU
 70
     0
 40
0.0
 41
1.0
 50
15.0
 71
     0
 42
5.0
  3
simplex.shx
  4
extfont.shx
  0
ENDTAB
  0
TABLE
  2
VIEW
 70
     0
  0
ENDTAB
  0
TABLE
  2
UCS
 70
     0
  0
ENDTAB
  0
TABLE
  2
APPID
 70
     1
  0
APPID
  2
ACAD
 70
     0
  0
ENDTAB
  0
TABLE
  2
DIMSTYLE
 70
     2
  0
DIMSTYLE
  2
MATSU
 70
     0
  3

  4

  5

  6
OPEN
  7
OPEN
 40
10.0
 41
2.0
 42
1.0
 43
10.0
 44
1.0
 45
0.0
 46
0.0
 47
0.0
 48
0.0
140
3.0
141
0.0
142
0.0
143
0.03937
144
1.0
145
0.0
146
1.0
147
0.5
 71
     0
 72
     0
 73
     0
 74
     0
 75
     0
 76
     0
 77
     1
 78
     8
170
     0
171
     2
172
     1
173
     1
174
     0
175
     0
176
   256
177
   256
178
   256
  0
DIMSTYLE
  2
IGA
 70
     0
  3

  4

  5

  6
OPEN
  7
OPEN
 40
2.0
 41
2.0
 42
0.5
 43
10.0
 44
1.0
 45
0.0
 46
0.0
 47
1.0
 48
1.0
140
3.0
141
0.0
142
0.0
143
0.03937
144
1.0
145
0.0
146
10.0
147
1.0
 71
     0
 72
     0
 73
     0
 74
     0
 75
     0
 76
     0
 77
     1
 78
     8
170
     0
171
     2
172
     0
173
     1
174
     0
175
     0
176
     0
177
     0
178
     0
  0
ENDTAB
  0
ENDSEC
  0
SECTION
  2
BLOCKS
  0
BLOCK
  8
0
  2
$MODEL_SPACE
 70
     0
 10
0.0
 20
0.0
 30
0.0
  3
$MODEL_SPACE
  1

  0
ENDBLK
  5
7
  8
0
  0
BLOCK
 67
     1
  8
0
  2
$PAPER_SPACE
 70
     0
 10
0.0
 20
0.0
 30
0.0
  3
$PAPER_SPACE
  1

  0
ENDBLK
  5
A
 67
     1
  8
0
  0
BLOCK
  8
0
  2
_OPEN
 70
     0
 10
0.0
 20
0.0
 30
0.0
  3
_OPEN
  1

  0
LINE
  5
194
  8
0
  6
BYBLOCK
 62
     0
 10
-1.0
 20
0.1666666666666666
 30
0.0
 11
0.0
 21
0.0
 31
0.0
  0
LINE
  5
195
  8
0
  6
BYBLOCK
 62
     0
 10
0.0
 20
0.0
 30
0.0
 11
-1.0
 21
-0.1666666666666666
 31
0.0
  0
LINE
  5
196
  8
0
  6
BYBLOCK
 62
     0
 10
0.0
 20
0.0
 30
0.0
 11
-1.0
 21
0.0
 31
0.0
  0
ENDBLK
  5
197
  8
0
  0
BLOCK
  8
0
  2
*D1
 70
     1
 10
0.0
 20
0.0
 30
0.0
  3
*D1
  1

  0
LINE
  5
FE9
  8
0
  6
BYBLOCK
 10
10232.78115664494
 20
11592.49005494341
 30
0.0
 11
10564.82410864084
 21
11592.49005494341
 31
0.0
  0
LINE
  5
FEA
  8
0
  6
BYBLOCK
 10
10232.78115664494
 20
10472.49005494341
 30
0.0
 11
10564.82410864084
 21
10472.49005494341
 31
0.0
  0
LINE
  5
FEB
  8
0
  6
BYBLOCK
 10
10524.82410864084
 20
11512.49005494341
 30
0.0
 11
10524.82410864084
 21
10552.49005494341
 31
0.0
  0
INSERT
  5
FEC
  8
0
  6
BYBLOCK
  2
_OPEN
 10
10524.82410864084
 20
11592.49005494341
 30
0.0
 41
80.0
 42
80.0
 43
80.0
 50
90.0
  0
INSERT
  5
FED
  8
0
  6
BYBLOCK
  2
_OPEN
 10
10524.82410864084
 20
10472.49005494341
 30
0.0
 41
80.0
 42
80.0
 43
80.0
 50
270.0
  0
TEXT
  5
FEE
  8
3
 10
10504.82410864084
 20
10856.037025079941
 30
0.0
 40
100.0
  1
1120
 50
90.0
 51
15.0
  7
SUNPOU
  0
POINT
  5
FEF
  8
DEFPOINTS
  6
BYBLOCK
 62
     0
 10
10192.78115664494
 20
11592.49005494341
 30
0.0
  0
POINT
  5
FF0
  8
DEFPOINTS
  6
BYBLOCK
 62
     0
 10
10192.78115664494
 20
10472.49005494341
 30
0.0
  0
POINT
  5
FF1
  8
DEFPOINTS
  6
BYBLOCK
 62
     0
 10
10524.82410864084
 20
10472.49005494341
 30
0.0
  0
ENDBLK
  5
FF2
  8
0
  0
BLOCK
  8
0
  2
*D2
 70
     1
 10
0.0
 20
0.0
 30
0.0
  3
*D2
  1

  0
LINE
  5
FF6
  8
0
  6
BYBLOCK
 10
11045.81373815912
 20
8125.610722184404
 30
0.0
 11
11045.81373815912
 21
7877.2572106239222
 31
0.0
  0
LINE
  5
FF7
  8
0
  6
BYBLOCK
 10
12165.81373815912
 20
8125.610722184404
 30
0.0
 11
12165.81373815912
 21
7877.2572106239222
 31
0.0
  0
LINE
  5
FF8
  8
0
  6
BYBLOCK
 10
11125.81373815912
 20
7917.2572106239222
 30
0.0
 11
12085.81373815912
 21
7917.2572106239222
 31
0.0
  0
INSERT
  5
FF9
  8
0
  6
BYBLOCK
  2
_OPEN
 10
11045.81373815912
 20
7917.2572106239222
 30
0.0
 41
80.0
 42
80.0
 43
80.0
 50
180.0
  0
INSERT
  5
FFA
  8
0
  6
BYBLOCK
  2
_OPEN
 10
12165.81373815912
 20
7917.2572106239222
 30
0.0
 41
80.0
 42
80.0
 43
80.0
  0
TEXT
  5
FFB
  8
3
 10
11429.36070829565
 20
7937.2572106239222
 30
0.0
 40
100.0
  1
1120
 51
15.0
  7
SUNPOU
  0
POINT
  5
FFC
  8
DEFPOINTS
  6
BYBLOCK
 62
     0
 10
11045.81373815912
 20
8165.6107221844031
 30
0.0
  0
POINT
  5
FFD
  8
DEFPOINTS
  6
BYBLOCK
 62
     0
 10
12165.81373815912
 20
8165.6107221844049
 30
0.0
  0
POINT
  5
FFE
  8
DEFPOINTS
  6
BYBLOCK
 62
     0
 10
12165.81373815912
 20
7917.2572106239222
 30
0.0
  0
ENDBLK
  5
FFF
  8
0
  0
BLOCK
  8
0
  2
*D3
 70
     1
 10
0.0
 20
0.0
 30
0.0
  3
*D3
  1

  0
LINE
  5
10BA
  8
0
  6
BYBLOCK
 10
10192.78115664494
 20
8125.610722184404
 30
0.0
 11
10192.78115664494
 21
7877.2572106239222
 31
0.0
  0
LINE
  5
10BB
  8
0
  6
BYBLOCK
 10
8732.7811566449454
 20
8125.610722184404
 30
0.0
 11
8732.7811566449454
 21
7877.2572106239222
 31
0.0
  0
LINE
  5
10BC
  8
0
  6
BYBLOCK
 10
10112.78115664494
 20
7917.2572106239222
 30
0.0
 11
8812.7811566449454
 21
7917.2572106239222
 31
0.0
  0
INSERT
  5
10BD
  8
0
  6
BYBLOCK
  2
_OPEN
 10
10192.78115664494
 20
7917.2572106239222
 30
0.0
 41
80.0
 42
80.0
 43
80.0
  0
INSERT
  5
10BE
  8
0
  6
BYBLOCK
  2
_OPEN
 10
8732.7811566449454
 20
7917.2572106239222
 30
0.0
 41
80.0
 42
80.0
 43
80.0
 50
180.0
  0
TEXT
  5
10BF
  8
3
 10
9276.8043172576654
 20
7937.2572106239222
 30
0.0
 40
100.0
  1
1460
 51
15.0
  7
SUNPOU
  0
POINT
  5
10C0
  8
DEFPOINTS
  6
BYBLOCK
 62
     0
 10
10192.78115664494
 20
8165.6107221844049
 30
0.0
  0
POINT
  5
10C1
  8
DEFPOINTS
  6
BYBLOCK
 62
     0
 10
8732.7811566449454
 20
8165.6107221844049
 30
0.0
  0
POINT
  5
10C2
  8
DEFPOINTS
  6
BYBLOCK
 62
     0
 10
8732.7811566449454
 20
7917.2572106239222
 30
0.0
  0
ENDBLK
  5
10C3
  8
0
  0
BLOCK
  8
0
  2
*D4
 70
     1
 10
0.0
 20
0.0
 30
0.0
  3
*D4
  1

  0
LINE
  5
1010
  8
0
  6
BYBLOCK
 10
6759.7485751307677
 20
8125.610722184404
 30
0.0
 11
6759.7485751307677
 21
7877.2572106239222
 31
0.0
  0
LINE
  5
1011
  8
0
  6
BYBLOCK
 10
7879.7485751307677
 20
8125.610722184404
 30
0.0
 11
7879.7485751307677
 21
7877.2572106239222
 31
0.0
  0
LINE
  5
1012
  8
0
  6
BYBLOCK
 10
6839.7485751307677
 20
7917.2572106239222
 30
0.0
 11
7799.7485751307686
 21
7917.2572106239222
 31
0.0
  0
INSERT
  5
1013
  8
0
  6
BYBLOCK
  2
_OPEN
 10
6759.7485751307677
 20
7917.2572106239222
 30
0.0
 41
80.0
 42
80.0
 43
80.0
 50
180.0
  0
INSERT
  5
1014
  8
0
  6
BYBLOCK
  2
_OPEN
 10
7879.7485751307677
 20
7917.2572106239222
 30
0.0
 41
80.0
 42
80.0
 43
80.0
  0
TEXT
  5
1015
  8
3
 10
7143.2955452672968
 20
7937.2572106239222
 30
0.0
 40
100.0
  1
1120
 51
15.0
  7
SUNPOU
  0
POINT
  5
1016
  8
DEFPOINTS
  6
BYBLOCK
 62
     0
 10
6759.7485751307677
 20
8165.6107221844049
 30
0.0
  0
POINT
  5
1017
  8
DEFPOINTS
  6
BYBLOCK
 62
     0
 10
7879.7485751307677
 20
8165.6107221844049
 30
0.0
  0
POINT
  5
1018
  8
DEFPOINTS
  6
BYBLOCK
 62
     0
 10
7879.7485751307677
 20
7917.2572106239222
 30
0.0
  0
ENDBLK
  5
1019
  8
0
  0
BLOCK
  8
0
  2
*D5
 70
     1
 10
0.0
 20
0.0
 30
0.0
  3
*D5
  1

  0
LINE
  5
101D
  8
0
  6
BYBLOCK
 10
6942.7485751307677
 20
8907.6107221844013
 30
0.0
 11
6942.7485751307677
 21
9021.5175459181028
 31
0.0
  0
LINE
  5
101E
  8
0
  6
BYBLOCK
 10
7696.7485751307677
 20
8907.6107221844013
 30
0.0
 11
7696.7485751307677
 21
9021.5175459181028
 31
0.0
  0
LINE
  5
101F
  8
0
  6
BYBLOCK
 10
7022.7485751307677
 20
8981.5175459181028
 30
0.0
 11
7616.7485751307677
 21
8981.5175459181028
 31
0.0
  0
INSERT
  5
1020
  8
0
  6
BYBLOCK
  2
_OPEN
 10
6942.7485751307677
 20
8981.5175459181028
 30
0.0
 41
80.0
 42
80.0
 43
80.0
 50
180.0
  0
INSERT
  5
1021
  8
0
  6
BYBLOCK
  2
_OPEN
 10
7696.7485751307677
 20
8981.5175459181028
 30
0.0
 41
80.0
 42
80.0
 43
80.0
  0
TEXT
  5
1022
  8
3
 10
7174.8065647807271
 20
9001.5175459181028
 30
0.0
 40
100.0
  1
754
 51
15.0
  7
SUNPOU
  0
POINT
  5
1023
  8
DEFPOINTS
  6
BYBLOCK
 62
     0
 10
6942.7485751307677
 20
8867.6107221844031
 30
0.0
  0
POINT
  5
1024
  8
DEFPOINTS
  6
BYBLOCK
 62
     0
 10
7696.7485751307677
 20
8867.6107221844031
 30
0.0
  0
POINT
  5
1025
  8
DEFPOINTS
  6
BYBLOCK
 62
     0
 10
7696.7485751307677
 20
8981.5175459181028
 30
0.0
  0
ENDBLK
  5
1026
  8
0
  0
BLOCK
  8
0
  2
*D6
 70
     1
 10
0.0
 20
0.0
 30
0.0
  3
*D6
  1

  0
LINE
  5
102A
  8
0
  6
BYBLOCK
 10
11228.81373815912
 20
8907.6107221844013
 30
0.0
 11
11228.81373815912
 21
9021.5175459181028
 31
0.0
  0
LINE
  5
102B
  8
0
  6
BYBLOCK
 10
11982.81373815912
 20
8907.6107221844013
 30
0.0
 11
11982.81373815912
 21
9021.5175459181028
 31
0.0
  0
LINE
  5
102C
  8
0
  6
BYBLOCK
 10
11308.81373815912
 20
8981.5175459181028
 30
0.0
 11
11902.81373815912
 21
8981.5175459181028
 31
0.0
  0
INSERT
  5
102D
  8
0
  6
BYBLOCK
  2
_OPEN
 10
11228.81373815912
 20
8981.5175459181028
 30
0.0
 41
80.0
 42
80.0
 43
80.0
 50
180.0
  0
INSERT
  5
102E
  8
0
  6
BYBLOCK
  2
_OPEN
 10
11982.81373815912
 20
8981.5175459181028
 30
0.0
 41
80.0
 42
80.0
 43
80.0
  0
TEXT
  5
102F
  8
3
 10
11460.871727809081
 20
9001.5175459181028
 30
0.0
 40
100.0
  1
754
 51
15.0
  7
SUNPOU
  0
POINT
  5
1030
  8
DEFPOINTS
  6
BYBLOCK
 62
     0
 10
11228.81373815912
 20
8867.6107221844031
 30
0.0
  0
POINT
  5
1031
  8
DEFPOINTS
  6
BYBLOCK
 62
     0
 10
11982.81373815912
 20
8867.6107221844031
 30
0.0
  0
POINT
  5
1032
  8
DEFPOINTS
  6
BYBLOCK
 62
     0
 10
11982.81373815912
 20
8981.5175459181028
 30
0.0
  0
ENDBLK
  5
1033
  8
0
  0
BLOCK
  8
0
  2
*D7
 70
     1
 10
0.0
 20
0.0
 30
0.0
  3
*D7
  1

  0
LINE
  5
1037
  8
0
  6
BYBLOCK
 10
6759.7485751307677
 20
9270.6107221844068
 30
0.0
 11
6759.7485751307677
 21
9482.6970060765216
 31
0.0
  0
LINE
  5
1038
  8
0
  6
BYBLOCK
 10
7319.7485751307677
 20
9330.0160075835356
 30
0.0
 11
7319.7485751307677
 21
9482.6970060765216
 31
0.0
  0
LINE
  5
1039
  8
0
  6
BYBLOCK
 10
6839.7485751307677
 20
9442.6970060765216
 30
0.0
 11
7239.7485751307677
 21
9442.6970060765216
 31
0.0
  0
INSERT
  5
103A
  8
0
  6
BYBLOCK
  2
_OPEN
 10
6759.7485751307677
 20
9442.6970060765216
 30
0.0
 41
80.0
 42
80.0
 43
80.0
 50
180.0
  0
INSERT
  5
103B
  8
0
  6
BYBLOCK
  2
_OPEN
 10
7319.7485751307677
 20
9442.6970060765216
 30
0.0
 41
80.0
 42
80.0
 43
80.0
  0
TEXT
  5
103C
  8
3
 10
6900.1606393187358
 20
9462.6970060765216
 30
0.0
 40
100.0
  1
560
 51
15.0
  7
SUNPOU
  0
POINT
  5
103D
  8
DEFPOINTS
  6
BYBLOCK
 62
     0
 10
6759.7485751307677
 20
9230.6107221844049
 30
0.0
  0
POINT
  5
103E
  8
DEFPOINTS
  6
BYBLOCK
 62
     0
 10
7319.7485751307677
 20
9290.0160075835356
 30
0.0
  0
POINT
  5
103F
  8
DEFPOINTS
  6
BYBLOCK
 62
     0
 10
7319.7485751307677
 20
9442.6970060765216
 30
0.0
  0
ENDBLK
  5
1040
  8
0
  0
BLOCK
  8
0
  2
*D8
 70
     1
 10
0.0
 20
0.0
 30
0.0
  3
*D8
  1

  0
LINE
  5
1044
  8
0
  6
BYBLOCK
 10
7319.7485751307677
 20
9330.0160075835356
 30
0.0
 11
7319.7485751307677
 21
9482.6970060765216
 31
0.0
  0
LINE
  5
1045
  8
0
  6
BYBLOCK
 10
7879.7485751307677
 20
9270.6107221844068
 30
0.0
 11
7879.7485751307677
 21
9482.6970060765216
 31
0.0
  0
LINE
  5
1046
  8
0
  6
BYBLOCK
 10
7399.7485751307686
 20
9442.6970060765216
 30
0.0
 11
7799.7485751307686
 21
9442.6970060765216
 31
0.0
  0
INSERT
  5
1047
  8
0
  6
BYBLOCK
  2
_OPEN
 10
7319.7485751307677
 20
9442.6970060765216
 30
0.0
 41
80.0
 42
80.0
 43
80.0
 50
180.0
  0
INSERT
  5
1048
  8
0
  6
BYBLOCK
  2
_OPEN
 10
7879.7485751307677
 20
9442.6970060765216
 30
0.0
 41
80.0
 42
80.0
 43
80.0
  0
TEXT
  5
1049
  8
3
 10
7460.1606393187349
 20
9462.6970060765216
 30
0.0
 40
100.0
  1
560
 51
15.0
  7
SUNPOU
  0
POINT
  5
104A
  8
DEFPOINTS
  6
BYBLOCK
 62
     0
 10
7319.7485751307677
 20
9290.0160075835356
 30
0.0
  0
POINT
  5
104B
  8
DEFPOINTS
  6
BYBLOCK
 62
     0
 10
7879.7485751307677
 20
9230.6107221844049
 30
0.0
  0
POINT
  5
104C
  8
DEFPOINTS
  6
BYBLOCK
 62
     0
 10
7879.7485751307677
 20
9442.6970060765216
 30
0.0
  0
ENDBLK
  5
104D
  8
0
  0
BLOCK
  8
0
  2
*D9
 70
     1
 10
0.0
 20
0.0
 30
0.0
  3
*D9
  1

  0
LINE
  5
10AF
  8
0
  6
BYBLOCK
 10
10112.78115664494
 20
9270.6107221844068
 30
0.0
 11
10112.78115664494
 21
9482.6970060765216
 31
0.0
  0
LINE
  5
10B0
  8
0
  6
BYBLOCK
 10
8812.7811566449454
 20
9270.6107221844068
 30
0.0
 11
8812.7811566449454
 21
9482.6970060765216
 31
0.0
  0
LINE
  5
10B1
  8
0
  6
BYBLOCK
 10
10032.78115664494
 20
9442.6970060765216
 30
0.0
 11
8892.7811566449454
 21
9442.6970060765216
 31
0.0
  0
INSERT
  5
10B2
  8
0
  6
BYBLOCK
  2
_OPEN
 10
10112.78115664494
 20
9442.6970060765216
 30
0.0
 41
80.0
 42
80.0
 43
80.0
  0
INSERT
  5
10B3
  8
0
  6
BYBLOCK
  2
_OPEN
 10
8812.7811566449454
 20
9442.6970060765216
 30
0.0
 41
80.0
 42
80.0
 43
80.0
 50
180.0
  0
TEXT
  5
10B4
  8
3
 10
9276.8043172576654
 20
9462.6970060765216
 30
0.0
 40
100.0
  1
1300
 51
15.0
  7
SUNPOU
  0
POINT
  5
10B5
  8
DEFPOINTS
  6
BYBLOCK
 62
     0
 10
10112.78115664494
 20
9230.6107221844049
 30
0.0
  0
POINT
  5
10B6
  8
DEFPOINTS
  6
BYBLOCK
 62
     0
 10
8812.7811566449454
 20
9230.6107221844049
 30
0.0
  0
POINT
  5
10B7
  8
DEFPOINTS
  6
BYBLOCK
 62
     0
 10
8812.7811566449454
 20
9442.6970060765216
 30
0.0
  0
ENDBLK
  5
10B8
  8
0
  0
BLOCK
  8
0
  2
*D10
 70
     1
 10
0.0
 20
0.0
 30
0.0
  3
*D10
  1

  0
LINE
  5
105E
  8
0
  6
BYBLOCK
 10
11045.81373815912
 20
9270.6107221844068
 30
0.0
 11
11045.81373815912
 21
9482.6970060765216
 31
0.0
  0
LINE
  5
105F
  8
0
  6
BYBLOCK
 10
11605.81373815912
 20
9330.0160075835356
 30
0.0
 11
11605.81373815912
 21
9482.6970060765216
 31
0.0
  0
LINE
  5
1060
  8
0
  6
BYBLOCK
 10
11125.81373815912
 20
9442.6970060765216
 30
0.0
 11
11525.81373815912
 21
9442.6970060765216
 31
0.0
  0
INSERT
  5
1061
  8
0
  6
BYBLOCK
  2
_OPEN
 10
11045.81373815912
 20
9442.6970060765216
 30
0.0
 41
80.0
 42
80.0
 43
80.0
 50
180.0
  0
INSERT
  5
1062
  8
0
  6
BYBLOCK
  2
_OPEN
 10
11605.81373815912
 20
9442.6970060765216
 30
0.0
 41
80.0
 42
80.0
 43
80.0
  0
TEXT
  5
1063
  8
3
 10
11186.22580234708
 20
9462.6970060765216
 30
0.0
 40
100.0
  1
560
 51
15.0
  7
SUNPOU
  0
POINT
  5
1064
  8
DEFPOINTS
  6
BYBLOCK
 62
     0
 10
11045.81373815912
 20
9230.6107221844049
 30
0.0
  0
POINT
  5
1065
  8
DEFPOINTS
  6
BYBLOCK
 62
     0
 10
11605.81373815912
 20
9290.0160075835356
 30
0.0
  0
POINT
  5
1066
  8
DEFPOINTS
  6
BYBLOCK
 62
     0
 10
11605.81373815912
 20
9442.6970060765216
 30
0.0
  0
ENDBLK
  5
1067
  8
0
  0
BLOCK
  8
0
  2
*D11
 70
     1
 10
0.0
 20
0.0
 30
0.0
  3
*D11
  1

  0
LINE
  5
106B
  8
0
  6
BYBLOCK
 10
11605.81373815912
 20
9330.0160075835356
 30
0.0
 11
11605.81373815912
 21
9482.6970060765216
 31
0.0
  0
LINE
  5
106C
  8
0
  6
BYBLOCK
 10
12165.81373815912
 20
9270.6107221844068
 30
0.0
 11
12165.81373815912
 21
9482.6970060765216
 31
0.0
  0
LINE
  5
106D
  8
0
  6
BYBLOCK
 10
11685.81373815912
 20
9442.6970060765216
 30
0.0
 11
12085.81373815912
 21
9442.6970060765216
 31
0.0
  0
INSERT
  5
106E
  8
0
  6
BYBLOCK
  2
_OPEN
 10
11605.81373815912
 20
9442.6970060765216
 30
0.0
 41
80.0
 42
80.0
 43
80.0
 50
180.0
  0
INSERT
  5
106F
  8
0
  6
BYBLOCK
  2
_OPEN
 10
12165.81373815912
 20
9442.6970060765216
 30
0.0
 41
80.0
 42
80.0
 43
80.0
  0
TEXT
  5
1070
  8
3
 10
11746.225802347089
 20
9462.6970060765216
 30
0.0
 40
100.0
  1
560
 51
15.0
  7
SUNPOU
  0
POINT
  5
1071
  8
DEFPOINTS
  6
BYBLOCK
 62
     0
 10
11605.81373815912
 20
9290.0160075835356
 30
0.0
  0
POINT
  5
1072
  8
DEFPOINTS
  6
BYBLOCK
 62
     0
 10
12165.81373815912
 20
9230.6107221844049
 30
0.0
  0
POINT
  5
1073
  8
DEFPOINTS
  6
BYBLOCK
 62
     0
 10
12165.81373815912
 20
9442.6970060765216
 30
0.0
  0
ENDBLK
  5
1074
  8
0
  0
BLOCK
  8
0
  2
*D12
 70
     1
 10
0.0
 20
0.0
 30
0.0
  3
*D12
  1

  0
LINE
  5
1078
  8
0
  6
BYBLOCK
 10
12022.81373815912
 20
8867.6107221844031
 30
0.0
 11
12482.203003337219
 21
8867.6107221844031
 31
0.0
  0
LINE
  5
1079
  8
0
  6
BYBLOCK
 10
12022.81373815912
 20
8283.6107221844031
 30
0.0
 11
12482.203003337219
 21
8283.6107221844031
 31
0.0
  0
LINE
  5
107A
  8
0
  6
BYBLOCK
 10
12442.203003337219
 20
8787.6107221844031
 30
0.0
 11
12442.203003337219
 21
8363.6107221844068
 31
0.0
  0
INSERT
  5
107B
  8
0
  6
BYBLOCK
  2
_OPEN
 10
12442.203003337219
 20
8867.6107221844031
 30
0.0
 41
80.0
 42
80.0
 43
80.0
 50
90.0
  0
INSERT
  5
107C
  8
0
  6
BYBLOCK
  2
_OPEN
 10
12442.203003337219
 20
8283.6107221844031
 30
0.0
 41
80.0
 42
80.0
 43
80.0
 50
270.0
  0
TEXT
  5
107D
  8
3
 10
12422.203003337219
 20
8437.6406242873982
 30
0.0
 40
100.0
  1
584
 50
90.0
 51
15.0
  7
SUNPOU
  0
POINT
  5
107E
  8
DEFPOINTS
  6
BYBLOCK
 62
     0
 10
11982.81373815912
 20
8867.6107221844031
 30
0.0
  0
POINT
  5
107F
  8
DEFPOINTS
  6
BYBLOCK
 62
     0
 10
11982.81373815912
 20
8283.6107221844031
 30
0.0
  0
POINT
  5
1080
  8
DEFPOINTS
  6
BYBLOCK
 62
     0
 10
12442.203003337219
 20
8283.6107221844031
 30
0.0
  0
ENDBLK
  5
1081
  8
0
  0
BLOCK
  8
0
  2
*D13
 70
     1
 10
0.0
 20
0.0
 30
0.0
  3
*D13
  1

  0
LINE
  5
1085
  8
0
  6
BYBLOCK
 10
7736.7485751307677
 20
8867.6107221844031
 30
0.0
 11
8162.1826372376399
 21
8867.6107221844031
 31
0.0
  0
LINE
  5
1086
  8
0
  6
BYBLOCK
 10
7736.7485751307677
 20
8283.6107221844013
 30
0.0
 11
8162.1826372376399
 21
8283.6107221844013
 31
0.0
  0
LINE
  5
1087
  8
0
  6
BYBLOCK
 10
8122.182637237639
 20
8787.6107221844031
 30
0.0
 11
8122.182637237639
 21
8363.6107221844013
 31
0.0
  0
INSERT
  5
1088
  8
0
  6
BYBLOCK
  2
_OPEN
 10
8122.182637237639
 20
8867.6107221844031
 30
0.0
 41
80.0
 42
80.0
 43
80.0
 50
90.0
  0
INSERT
  5
1089
  8
0
  6
BYBLOCK
  2
_OPEN
 10
8122.182637237639
 20
8283.6107221844013
 30
0.0
 41
80.0
 42
80.0
 43
80.0
 50
270.0
  0
TEXT
  5
108A
  8
3
 10
8102.1826372376372
 20
8437.6406242873982
 30
0.0
 40
100.0
  1
584
 50
90.0
 51
15.0
  7
SUNPOU
  0
POINT
  5
108B
  8
DEFPOINTS
  6
BYBLOCK
 62
     0
 10
7696.7485751307677
 20
8867.6107221844031
 30
0.0
  0
POINT
  5
108C
  8
DEFPOINTS
  6
BYBLOCK
 62
     0
 10
7696.7485751307686
 20
8283.6107221844013
 30
0.0
  0
POINT
  5
108D
  8
DEFPOINTS
  6
BYBLOCK
 62
     0
 10
8122.182637237639
 20
8283.6107221844013
 30
0.0
  0
ENDBLK
  5
108E
  8
0
  0
BLOCK
  8
0
  2
*D14
 70
     1
 10
0.0
 20
0.0
 30
0.0
  3
*D14
  1

  0
LINE
  5
10A2
  8
0
  6
BYBLOCK
 10
10232.78115664494
 20
8575.6107221844049
 30
0.0
 11
10440.96684580695
 21
8575.6107221844049
 31
0.0
  0
LINE
  5
10A3
  8
0
  6
BYBLOCK
 10
10232.78115664494
 20
8165.6107221844049
 30
0.0
 11
10440.96684580695
 21
8165.6107221844049
 31
0.0
  0
LINE
  5
10A4
  8
0
  6
BYBLOCK
 10
10400.96684580695
 20
8655.6107221844031
 30
0.0
 11
10400.96684580695
 21
8735.6107221844049
 31
0.0
  0
LINE
  5
10A5
  8
0
  6
BYBLOCK
 10
10400.96684580695
 20
8085.6107221844049
 30
0.0
 11
10400.96684580695
 21
8005.6107221844049
 31
0.0
  0
LINE
  5
10A6
  8
0
  6
BYBLOCK
 10
10400.96684580695
 20
8575.6107221844049
 30
0.0
 11
10400.96684580695
 21
8165.6107221844049
 31
0.0
  0
INSERT
  5
10A7
  8
0
  6
BYBLOCK
  2
_OPEN
 10
10400.96684580695
 20
8575.6107221844049
 30
0.0
 41
80.0
 42
80.0
 43
80.0
 50
270.0
  0
INSERT
  5
10A8
  8
0
  6
BYBLOCK
  2
_OPEN
 10
10400.96684580695
 20
8165.6107221844049
 30
0.0
 41
80.0
 42
80.0
 43
80.0
 50
90.0
  0
TEXT
  5
10A9
  8
3
 10
10380.96684580695
 20
8238.6326730931032
 30
0.0
 40
100.0
  1
410
 50
90.0
 51
15.0
  7
SUNPOU
  0
POINT
  5
10AA
  8
DEFPOINTS
  6
BYBLOCK
 62
     0
 10
10192.78115664494
 20
8575.6107221844049
 30
0.0
  0
POINT
  5
10AB
  8
DEFPOINTS
  6
BYBLOCK
 62
     0
 10
10192.78115664494
 20
8165.6107221844049
 30
0.0
  0
POINT
  5
10AC
  8
DEFPOINTS
  6
BYBLOCK
 62
     0
 10
10400.96684580695
 20
8165.6107221844049
 30
0.0
  0
ENDBLK
  5
10AD
  8
0
  0
ENDSEC
  0
SECTION
  2
ENTITIES
  0
LINE
  5
570
  8
4
  6
CONTINUOUS
 10
12819.74395831865
 20
6226.5815883283894
 30
0.0
 11
12819.74395831865
 21
5426.5815883283894
 31
0.0
  0
LINE
  5
571
  8
4
  6
CONTINUOUS
 10
10019.743958318641
 20
6226.5815883283894
 30
0.0
 11
10019.743958318641
 21
5426.5815883283894
 31
0.0
  0
LINE
  5
572
  8
4
  6
CONTINUOUS
 10
8019.7439583186488
 20
6226.5815883283894
 30
0.0
 11
8019.7439583186488
 21
5426.5815883283894
 31
0.0
  0
LINE
  5
575
  8
4
  6
CONTINUOUS
 10
8019.7439583186488
 20
5426.5815883283894
 30
0.0
 11
12819.74395831865
 21
5426.5815883283894
 31
0.0
  0
LINE
  5
576
  8
4
  6
CONTINUOUS
 10
8019.7439583186488
 20
5826.5815883283894
 30
0.0
 11
12819.74395831865
 21
5826.5815883283894
 31
0.0
  0
TEXT
  5
577
  8
4
  6
CONTINUOUS
 10
8173.7522813186479
 20
5952.7536913283893
 30
0.0
 40
200.0
  1
機器名称
  0
TEXT
  5
578
  8
4
  6
CONTINUOUS
 10
8164.7763823186488
 20
5513.1622153283897
 30
0.0
 40
200.0
  1
機器型番
  0
TEXT
  5
579
  8
4
  6
CONTINUOUS
 10
10130.45894031864
 20
5916.8686643283891
 30
0.0
 40
200.0
  1
ミツヤファンユニット
  0
TEXT
  5
57A
  8
4
  6
CONTINUOUS
 10
10166.36194031864
 20
5495.2199253283879
 30
0.0
 40
200.0
  1
MFU#2505-5
  0
TEXT
  5
57C
  8
4
  6
CONTINUOUS
 10
8208.057998318649
 20
13760.29695332839
 30
0.0
 40
200.0
  1
天井吊ベット・床置ベット
  0
TEXT
  5
57D
  8
4
  6
CONTINUOUS
 10
6684.4143313186487
 20
14362.105493328379
 30
0.0
 40
250.0
  1
ベルト駆動式消音ボックス付き多翼ファン
  0
LINE
  5
57E
  8
4
  6
CONTINUOUS
 10
6419.7439583186488
 20
14104.216605328391
 30
0.0
 11
12819.74395831865
 21
14104.216605328391
 31
0.0
  0
LINE
  5
57F
  8
4
  6
CONTINUOUS
 10
6419.7439583186488
 20
14904.216605328391
 30
0.0
 11
12819.74395831865
 21
14904.216605328391
 31
0.0
  0
LINE
  5
580
  8
4
  6
CONTINUOUS
 10
8019.7439583186488
 20
6226.5815883283894
 30
0.0
 11
12819.74395831865
 21
6226.5815883283894
 31
0.0
  0
LINE
  5
581
  8
4
  6
CONTINUOUS
 10
6419.7439583186488
 20
14904.216605328391
 30
0.0
 11
6419.7439583186488
 21
14104.216605328391
 31
0.0
  0
TEXT
  5
582
  8
4
  6
CONTINUOUS
 10
6545.6791553186486
 20
13755.85949832838
 30
0.0
 40
200.0
  1
左回転右吐出
  0
TEXT
  5
583
  8
4
  6
CONTINUOUS
 10
11295.62219531864
 20
15050.82591432839
 30
0.0
 40
224.0
  1
No.
  0
TEXT
  5
584
  8
4
  6
CONTINUOUS
 10
11151.26717431864
 20
13760.29695332839
 30
0.0
 40
200.0
  1
縮尺：1/40
  0
LINE
  5
585
  8
4
  6
CONTINUOUS
 10
12819.74395831865
 20
14904.216605328391
 30
0.0
 11
12819.74395831865
 21
14104.216605328391
 31
0.0
  0
LINE
  5
586
  8
4
  6
CONTINUOUS
 10
11182.213647318649
 20
14951.63592132839
 30
0.0
 11
11182.213647318649
 21
15373.190634328381
 31
0.0
  0
LINE
  5
587
  8
4
  6
CONTINUOUS
 10
11182.213647318649
 20
15373.190634328381
 30
0.0
 11
12819.74395831865
 21
15373.190634328381
 31
0.0
  0
LINE
  5
588
  8
4
  6
CONTINUOUS
 10
12819.74395831865
 20
15373.190634328381
 30
0.0
 11
12819.74395831865
 21
14951.63592132839
 31
0.0
  0
LINE
  5
589
  8
4
  6
CONTINUOUS
 10
12819.74395831865
 20
14951.63592132839
 30
0.0
 11
11182.213647318649
 21
14951.63592132839
 31
0.0
  0
LINE
  5
F79
  8
1
 10
10192.78115664494
 20
8165.6107221844049
 30
0.0
 11
8732.7811566449454
 21
8165.6107221844049
 31
0.0
  0
LINE
  5
F7A
  8
1
 10
8732.7811566449454
 20
8165.6107221844049
 30
0.0
 11
8732.7811566449454
 21
8240.6107221844031
 31
0.0
  0
LINE
  5
F7B
  8
1
 10
8732.7811566449454
 20
8240.6107221844031
 30
0.0
 11
10192.78115664494
 21
8240.6107221844031
 31
0.0
  0
LINE
  5
F7C
  8
1
 10
10192.78115664494
 20
8240.6107221844031
 30
0.0
 11
10192.78115664494
 21
8165.6107221844049
 31
0.0
  0
LINE
  5
F7D
  8
1
 10
8812.7811566449454
 20
8240.6107221844031
 30
0.0
 11
8812.7811566449454
 21
9230.6107221844049
 31
0.0
  0
LINE
  5
F7E
  8
1
 10
8812.7811566449454
 20
9230.6107221844049
 30
0.0
 11
10112.78115664494
 21
9230.6107221844049
 31
0.0
  0
LINE
  5
F7F
  8
1
 10
10112.78115664494
 20
9230.6107221844049
 30
0.0
 11
10112.78115664494
 21
8240.6107221844031
 31
0.0
  0
LINE
  5
F80
  8
2
 10
10192.78115664494
 20
8575.6107221844049
 30
0.0
 11
8732.7811566449454
 21
8575.6107221844049
 31
0.0
  0
LINE
  5
F81
  8
1
 10
10142.78115664494
 20
8897.6107221844031
 30
0.0
 11
10112.78115664494
 21
8897.6107221844031
 31
0.0
  0
LINE
  5
F82
  8
1
 10
10142.78115664494
 20
8253.6107221844031
 30
0.0
 11
10112.78115664494
 21
8253.6107221844031
 31
0.0
  0
LINE
  5
F83
  8
1
 10
10142.78115664494
 20
8897.6107221844031
 30
0.0
 11
10142.78115664494
 21
8253.6107221844031
 31
0.0
  0
LINE
  5
F84
  8
1
 10
8782.7811566449473
 20
8253.6107221844031
 30
0.0
 11
8782.7811566449454
 21
8897.6107221844031
 31
0.0
  0
LINE
  5
F85
  8
1
 10
8812.7811566449454
 20
8897.6107221844031
 30
0.0
 11
8782.7811566449454
 21
8897.6107221844031
 31
0.0
  0
LINE
  5
F87
  8
1
 10
8812.7811566449454
 20
8253.6107221844031
 30
0.0
 11
8782.7811566449454
 21
8253.6107221844031
 31
0.0
  0
LINE
  5
F88
  8
1
 10
7879.7485751307677
 20
8240.6107221844031
 30
0.0
 11
6759.7485751307677
 21
8240.6107221844031
 31
0.0
  0
LINE
  5
F89
  8
1
 10
6759.7485751307677
 20
8165.6107221844049
 30
0.0
 11
7879.7485751307677
 21
8165.6107221844031
 31
0.0
  0
LINE
  5
F8A
  8
1
 10
7879.7485751307677
 20
9230.6107221844049
 30
0.0
 11
6759.7485751307677
 21
9230.6107221844049
 31
0.0
  0
LINE
  5
F8B
  8
1
 10
7879.7485751307677
 20
8165.6107221844049
 30
0.0
 11
7879.7485751307677
 21
9230.6107221844049
 31
0.0
  0
LINE
  5
F8C
  8
1
 10
6759.7485751307677
 20
8165.6107221844049
 30
0.0
 11
6759.7485751307677
 21
9230.6107221844049
 31
0.0
  0
LINE
  5
F8D
  8
1
 10
6744.7485751307677
 20
8245.6107221844031
 30
0.0
 11
6744.7485751307677
 21
9225.6107221844031
 31
0.0
  0
LINE
  5
F8E
  8
1
 10
7894.7485751307677
 20
8245.6107221844049
 30
0.0
 11
7894.7485751307686
 21
9225.6107221844068
 31
0.0
  0
LINE
  5
F8F
  8
1
 10
7894.7485751307677
 20
9225.6107221844031
 30
0.0
 11
7879.7485751307677
 21
9225.6107221844031
 31
0.0
  0
LINE
  5
F90
  8
1
 10
7894.7485751307659
 20
8245.6107221844049
 30
0.0
 11
7879.7485751307677
 21
8245.6107221844031
 31
0.0
  0
LINE
  5
F91
  8
1
 10
6759.7485751307677
 20
9225.6107221844031
 30
0.0
 11
6744.7485751307677
 21
9225.6107221844031
 31
0.0
  0
LINE
  5
F92
  8
1
 10
6759.7485751307668
 20
8245.6107221844013
 30
0.0
 11
6744.7485751307677
 21
8245.6107221844031
 31
0.0
  0
LINE
  5
F93
  8
2
 10
7319.7485751307677
 20
8165.6107221844049
 30
0.0
 11
7319.7485751307677
 21
8974.3350029906178
 31
0.0
  0
LINE
  5
F95
  8
1
 10
6942.7485751307704
 20
8283.6107221844031
 30
0.0
 11
6942.7485751307677
 21
8867.6107221844031
 31
0.0
  0
LINE
  5
F96
  8
1
 10
7696.7485751307686
 20
8283.6107221844013
 30
0.0
 11
7696.7485751307677
 21
8867.6107221844031
 31
0.0
  0
LINE
  5
F97
  8
1
 10
6942.7485751307677
 20
8867.6107221844031
 30
0.0
 11
7696.7485751307686
 21
8867.6107221844031
 31
0.0
  0
LINE
  5
F98
  8
1
 10
6942.7485751307677
 20
8283.6107221844031
 30
0.0
 11
7696.7485751307686
 21
8283.6107221844031
 31
0.0
  0
LINE
  5
F99
  8
1
 10
6912.7485751307686
 20
8253.6107221844068
 30
0.0
 11
6912.7485751307686
 21
8897.6107221844031
 31
0.0
  0
LINE
  5
F9A
  8
1
 10
7726.7485751307686
 20
8253.6107221844031
 30
0.0
 11
7726.7485751307686
 21
8897.6107221844031
 31
0.0
  0
LINE
  5
F9B
  8
1
 10
6912.7485751307686
 20
8897.6107221844031
 30
0.0
 11
7726.7485751307686
 21
8897.6107221844013
 31
0.0
  0
LINE
  5
F9C
  8
1
 10
6912.7485751307686
 20
8253.6107221844068
 30
0.0
 11
7726.7485751307686
 21
8253.6107221844031
 31
0.0
  0
LINE
  5
F9D
  8
1
 10
6942.7485751307704
 20
8283.6107221844031
 30
0.0
 11
7696.7485751307677
 21
8867.6107221844031
 31
0.0
  0
LINE
  5
F9E
  8
1
 10
6942.7485751307677
 20
8867.6107221844031
 30
0.0
 11
7696.7485751307686
 21
8283.6107221844031
 31
0.0
  0
LINE
  5
FA1
  8
2
 10
7319.7485751307677
 20
9156.7701489150732
 30
0.0
 11
7319.7485751307677
 21
9290.0160075835356
 31
0.0
  0
LINE
  5
FA3
  8
1
 10
11982.81373815912
 20
8867.6107221844031
 30
0.0
 11
11228.81373815912
 21
8283.6107221844031
 31
0.0
  0
LINE
  5
FA4
  8
1
 10
11982.81373815912
 20
8283.6107221844031
 30
0.0
 11
11228.81373815912
 21
8867.6107221844031
 31
0.0
  0
LINE
  5
FA5
  8
1
 10
12012.81373815912
 20
8897.6107221844031
 30
0.0
 11
11198.81373815912
 21
8897.6107221844013
 31
0.0
  0
LINE
  5
FA6
  8
1
 10
12012.81373815912
 20
8253.6107221844068
 30
0.0
 11
11198.81373815912
 21
8253.6107221844031
 31
0.0
  0
LINE
  5
FA7
  8
1
 10
11982.81373815912
 20
8867.6107221844031
 30
0.0
 11
11228.81373815912
 21
8867.6107221844031
 31
0.0
  0
LINE
  5
FA8
  8
1
 10
11982.81373815912
 20
8283.6107221844031
 30
0.0
 11
11228.81373815912
 21
8283.6107221844031
 31
0.0
  0
LINE
  5
FA9
  8
1
 10
12165.81373815912
 20
8165.6107221844049
 30
0.0
 11
11045.81373815912
 21
8165.6107221844031
 31
0.0
  0
LINE
  5
FAA
  8
1
 10
11045.81373815912
 20
8240.6107221844031
 30
0.0
 11
12165.81373815912
 21
8240.6107221844031
 31
0.0
  0
LINE
  5
FAB
  8
1
 10
11045.81373815912
 20
9230.6107221844049
 30
0.0
 11
12165.81373815912
 21
9230.6107221844049
 31
0.0
  0
LINE
  5
FAC
  8
2
 10
11605.81373815912
 20
8165.6107221844049
 30
0.0
 11
11605.81373815912
 21
8974.3350029906178
 31
0.0
  0
LINE
  5
FAD
  8
1
 10
12012.81373815912
 20
8253.6107221844068
 30
0.0
 11
12012.81373815912
 21
8897.6107221844031
 31
0.0
  0
LINE
  5
FAE
  8
1
 10
12180.81373815912
 20
8245.6107221844031
 30
0.0
 11
12180.81373815912
 21
9225.6107221844031
 31
0.0
  0
LINE
  5
FAF
  8
1
 10
12165.81373815912
 20
8165.6107221844049
 30
0.0
 11
12165.81373815912
 21
9230.6107221844049
 31
0.0
  0
LINE
  5
FB0
  8
1
 10
12165.81373815912
 20
8245.6107221844013
 30
0.0
 11
12180.81373815912
 21
8245.6107221844031
 31
0.0
  0
LINE
  5
FB1
  8
1
 10
11982.81373815912
 20
8283.6107221844031
 30
0.0
 11
11982.81373815912
 21
8867.6107221844031
 31
0.0
  0
LINE
  5
FB2
  8
1
 10
12165.81373815912
 20
9225.6107221844031
 30
0.0
 11
12180.81373815912
 21
9225.6107221844031
 31
0.0
  0
LINE
  5
FB3
  8
2
 10
11605.81373815912
 20
9156.7701489150732
 30
0.0
 11
11605.81373815912
 21
9290.0160075835356
 31
0.0
  0
LINE
  5
FB4
  8
1
 10
11198.81373815912
 20
8253.6107221844031
 30
0.0
 11
11198.81373815912
 21
8897.6107221844031
 31
0.0
  0
LINE
  5
FB5
  8
1
 10
11030.81373815912
 20
8245.6107221844049
 30
0.0
 11
11030.81373815912
 21
9225.6107221844068
 31
0.0
  0
LINE
  5
FB6
  8
1
 10
11045.81373815912
 20
8165.6107221844049
 30
0.0
 11
11045.81373815912
 21
9230.6107221844049
 31
0.0
  0
LINE
  5
FB7
  8
1
 10
11228.81373815912
 20
8283.6107221844013
 30
0.0
 11
11228.81373815912
 21
8867.6107221844031
 31
0.0
  0
LINE
  5
FB8
  8
1
 10
11030.81373815912
 20
8245.6107221844049
 30
0.0
 11
11045.81373815912
 21
8245.6107221844031
 31
0.0
  0
LINE
  5
FB9
  8
1
 10
11030.81373815912
 20
9225.6107221844031
 30
0.0
 11
11045.81373815912
 21
9225.6107221844031
 31
0.0
  0
LINE
  5
FBA
  8
1
 10
8732.7811566449454
 20
10472.49005494341
 30
0.0
 11
10192.78115664494
 21
10472.49005494341
 31
0.0
  0
LINE
  5
FBB
  8
1
 10
10192.78115664494
 20
10472.49005494341
 30
0.0
 11
10192.78115664494
 21
10512.49005494341
 31
0.0
  0
LINE
  5
FBC
  8
1
 10
10192.78115664494
 20
11592.49005494341
 30
0.0
 11
8732.7811566449454
 21
11592.49005494341
 31
0.0
  0
LINE
  5
FBD
  8
1
 10
8732.7811566449454
 20
11592.49005494341
 30
0.0
 11
8732.7811566449454
 21
11552.49005494341
 31
0.0
  0
LINE
  5
FBE
  8
1
 10
8732.7811566449454
 20
10512.49005494341
 30
0.0
 11
8812.7811566449454
 21
10512.49005494341
 31
0.0
  0
LINE
  5
FBF
  8
1
 10
10192.78115664494
 20
11552.49005494341
 30
0.0
 11
10112.78115664494
 21
11552.49005494341
 31
0.0
  0
LINE
  5
FC0
  8
1
 10
8812.7811566449454
 20
11607.49005494341
 30
0.0
 11
8812.7811566449454
 21
10457.49005494341
 31
0.0
  0
LINE
  5
FC1
  8
1
 10
10112.78115664494
 20
10457.49005494341
 30
0.0
 11
10112.78115664494
 21
11607.49005494341
 31
0.0
  0
LINE
  5
FC2
  8
1
 10
10192.78115664494
 20
11552.49005494341
 30
0.0
 11
10192.78115664494
 21
11592.49005494341
 31
0.0
  0
LINE
  5
FC3
  8
1
 10
8732.7811566449454
 20
10512.49005494341
 30
0.0
 11
8732.7811566449454
 21
10472.49005494341
 31
0.0
  0
LINE
  5
FC4
  8
1
 10
10112.78115664494
 20
11607.490054943421
 30
0.0
 11
8812.7811566449454
 21
11607.49005494341
 31
0.0
  0
LINE
  5
FC5
  8
1
 10
8812.7811566449454
 20
10457.49005494341
 30
0.0
 11
10112.78115664494
 21
10457.49005494341
 31
0.0
  0
LINE
  5
FC6
  8
1
 10
8812.7811566449454
 20
11552.49005494341
 30
0.0
 11
8732.7811566449454
 21
11552.49005494341
 31
0.0
  0
LINE
  5
FC7
  8
1
 10
10112.78115664494
 20
10512.49005494341
 30
0.0
 11
10192.78115664494
 21
10512.49005494341
 31
0.0
  0
LINE
  5
FC8
  8
2
 10
8732.7811566449454
 20
11032.490054943421
 30
0.0
 11
10192.78115664494
 21
11032.490054943421
 31
0.0
  0
LINE
  5
FC9
  8
1
 10
8782.7811566449454
 20
11439.49005494341
 30
0.0
 11
8812.7811566449473
 21
11439.490054943421
 31
0.0
  0
LINE
  5
FCA
  8
1
 10
8782.7811566449454
 20
10625.49005494341
 30
0.0
 11
8812.7811566449473
 21
10625.490054943421
 31
0.0
  0
LINE
  5
FCB
  8
1
 10
10142.78115664494
 20
10625.49005494341
 30
0.0
 11
10142.78115664494
 21
11439.49005494341
 31
0.0
  0
LINE
  5
FCC
  8
1
 10
8782.7811566449454
 20
11439.49005494341
 30
0.0
 11
8782.7811566449454
 21
10625.49005494341
 31
0.0
  0
LINE
  5
FCD
  8
1
 10
10112.78115664494
 20
11439.49005494341
 30
0.0
 11
10142.78115664494
 21
11439.49005494341
 31
0.0
  0
LINE
  5
FCE
  8
1
 10
10112.78115664494
 20
10625.490054943421
 30
0.0
 11
10142.78115664494
 21
10625.49005494341
 31
0.0
  0
ARC
  5
FD4
  8
4
 10
9737.7811566449454
 20
8763.6107221844068
 30
0.0
 40
372.0
 50
180.0
 51
265.37434942047747
  0
ARC
  5
FD5
  8
4
 10
9677.7811566449473
 20
8763.6107221844068
 30
0.0
 40
312.0
 50
90.0
 51
180.0
  0
ARC
  5
FD9
  8
4
 10
9684.7811566449454
 20
8816.6107221844049
 30
0.0
 40
259.0
 50
0.0
 51
90.0
  0
ARC
  5
FDA
  8
4
 10
9730.7811566449454
 20
8816.6107221844049
 30
0.0
 40
213.0
 50
350.54230945832307
 51
0.0
  0
LINE
  5
FDB
  8
4
 10
10012.78115664494
 20
8344.6107221844031
 30
0.0
 11
10012.78115664494
 21
8806.6107221844068
 31
0.0
  0
LINE
  5
FDD
  8
4
 10
9707.7811566449454
 20
8392.8223728528756
 30
0.0
 11
10012.78115664494
 21
8369.6107221844031
 31
0.0
  0
LINE
  5
FDE
  8
4
 10
9940.8858924316501
 20
8781.6107221844049
 30
0.0
 11
10012.78115664494
 21
8781.6107221844049
 31
0.0
  0
LINE
  5
FE5
  8
4
 10
10012.78115664494
 20
8781.6107221844049
 30
0.0
 11
10112.78115664494
 21
8781.6107221844049
 31
0.0
  0
LINE
  5
FE6
  8
4
 10
10012.78115664494
 20
8369.6107221844031
 30
0.0
 11
10112.78115664494
 21
8369.6107221844031
 31
0.0
  0
DIMENSION
  5
FF3
  8
3
  2
*D1
 10
10524.82410864084
 20
10472.49005494341
 30
0.0
 11
10454.82410864084
 21
11032.490054943421
 31
0.0
 70
     0
 13
10192.78115664494
 23
11592.49005494341
 33
0.0
 14
10192.78115664494
 24
10472.49005494341
 34
0.0
 50
90.0
1001
ACAD
1000
DSTYLE
1002
{
1070
   140
1040
2.5
1070
    40
1040
40.0
1070
     7
1000
_OPEN
1070
     6
1000
_OPEN
1002
}
  0
DIMENSION
  5
1000
  8
3
  2
*D2
 10
12165.81373815912
 20
7917.2572106239222
 30
0.0
 11
11605.81373815912
 21
7987.2572106239222
 31
0.0
 70
     0
 13
11045.81373815912
 23
8165.6107221844031
 33
0.0
 14
12165.81373815912
 24
8165.6107221844049
 34
0.0
1001
ACAD
1000
DSTYLE
1002
{
1070
   140
1040
2.5
1070
    40
1040
40.0
1070
     7
1000
_OPEN
1070
     6
1000
_OPEN
1002
}
  0
DIMENSION
  5
100D
  8
3
  2
*D3
 10
8732.7811566449454
 20
7917.2572106239222
 30
0.0
 11
9462.7811566449454
 21
7987.2572106239222
 31
0.0
 70
     0
 13
10192.78115664494
 23
8165.6107221844049
 33
0.0
 14
8732.7811566449454
 24
8165.6107221844049
 34
0.0
1001
ACAD
1000
DSTYLE
1002
{
1070
   140
1040
2.5
1070
    40
1040
40.0
1070
     7
1000
_OPEN
1070
     6
1000
_OPEN
1002
}
  0
DIMENSION
  5
101A
  8
3
  2
*D4
 10
7879.7485751307677
 20
7917.2572106239222
 30
0.0
 11
7319.7485751307677
 21
7987.2572106239222
 31
0.0
 70
     0
 13
6759.7485751307677
 23
8165.6107221844049
 33
0.0
 14
7879.7485751307677
 24
8165.6107221844049
 34
0.0
1001
ACAD
1000
DSTYLE
1002
{
1070
   140
1040
2.5
1070
    40
1040
40.0
1070
     7
1000
_OPEN
1070
     6
1000
_OPEN
1002
}
  0
DIMENSION
  5
1027
  8
3
  2
*D5
 10
7696.7485751307677
 20
8981.5175459181028
 30
0.0
 11
7319.7485751307677
 21
9051.5175459181028
 31
0.0
 70
     0
 13
6942.7485751307677
 23
8867.6107221844031
 33
0.0
 14
7696.7485751307677
 24
8867.6107221844031
 34
0.0
1001
ACAD
1000
DSTYLE
1002
{
1070
   140
1040
2.5
1070
    40
1040
40.0
1070
     7
1000
_OPEN
1070
     6
1000
_OPEN
1002
}
  0
DIMENSION
  5
1034
  8
3
  2
*D6
 10
11982.81373815912
 20
8981.5175459181028
 30
0.0
 11
11605.81373815912
 21
9051.5175459181028
 31
0.0
 70
     0
 13
11228.81373815912
 23
8867.6107221844031
 33
0.0
 14
11982.81373815912
 24
8867.6107221844031
 34
0.0
1001
ACAD
1000
DSTYLE
1002
{
1070
   140
1040
2.5
1070
    40
1040
40.0
1070
     7
1000
_OPEN
1070
     6
1000
_OPEN
1002
}
  0
DIMENSION
  5
1041
  8
3
  2
*D7
 10
7319.7485751307677
 20
9442.6970060765216
 30
0.0
 11
7039.7485751307686
 21
9512.6970060765216
 31
0.0
 70
     0
 13
6759.7485751307677
 23
9230.6107221844049
 33
0.0
 14
7319.7485751307677
 24
9290.0160075835356
 34
0.0
1001
ACAD
1000
DSTYLE
1002
{
1070
   140
1040
2.5
1070
    40
1040
40.0
1070
     7
1000
_OPEN
1070
     6
1000
_OPEN
1002
}
  0
DIMENSION
  5
104E
  8
3
  2
*D8
 10
7879.7485751307677
 20
9442.6970060765216
 30
0.0
 11
7599.7485751307686
 21
9512.6970060765216
 31
0.0
 70
     0
 13
7319.7485751307677
 23
9290.0160075835356
 33
0.0
 14
7879.7485751307677
 24
9230.6107221844049
 34
0.0
1001
ACAD
1000
DSTYLE
1002
{
1070
   140
1040
2.5
1070
    40
1040
40.0
1070
     7
1000
_OPEN
1070
     6
1000
_OPEN
1002
}
  0
DIMENSION
  5
105B
  8
3
  2
*D9
 10
8812.7811566449454
 20
9442.6970060765216
 30
0.0
 11
9462.7811566449454
 21
9512.6970060765216
 31
0.0
 70
     0
 13
10112.78115664494
 23
9230.6107221844049
 33
0.0
 14
8812.7811566449454
 24
9230.6107221844049
 34
0.0
1001
ACAD
1000
DSTYLE
1002
{
1070
   140
1040
2.5
1070
    40
1040
40.0
1070
     7
1000
_OPEN
1070
     6
1000
_OPEN
1002
}
  0
DIMENSION
  5
1068
  8
3
  2
*D10
 10
11605.81373815912
 20
9442.6970060765216
 30
0.0
 11
11325.81373815912
 21
9512.6970060765216
 31
0.0
 70
     0
 13
11045.81373815912
 23
9230.6107221844049
 33
0.0
 14
11605.81373815912
 24
9290.0160075835356
 34
0.0
1001
ACAD
1000
DSTYLE
1002
{
1070
   140
1040
2.5
1070
    40
1040
40.0
1070
     7
1000
_OPEN
1070
     6
1000
_OPEN
1002
}
  0
DIMENSION
  5
1075
  8
3
  2
*D11
 10
12165.81373815912
 20
9442.6970060765216
 30
0.0
 11
11885.81373815912
 21
9512.6970060765216
 31
0.0
 70
     0
 13
11605.81373815912
 23
9290.0160075835356
 33
0.0
 14
12165.81373815912
 24
9230.6107221844049
 34
0.0
1001
ACAD
1000
DSTYLE
1002
{
1070
   140
1040
2.5
1070
    40
1040
40.0
1070
     7
1000
_OPEN
1070
     6
1000
_OPEN
1002
}
  0
DIMENSION
  5
1082
  8
3
  2
*D12
 10
12442.203003337219
 20
8283.6107221844031
 30
0.0
 11
12372.203003337219
 21
8575.6107221844031
 31
0.0
 70
     0
 13
11982.81373815912
 23
8867.6107221844031
 33
0.0
 14
11982.81373815912
 24
8283.6107221844031
 34
0.0
 50
90.0
1001
ACAD
1000
DSTYLE
1002
{
1070
   140
1040
2.5
1070
    40
1040
40.0
1070
     7
1000
_OPEN
1070
     6
1000
_OPEN
1002
}
  0
DIMENSION
  5
108F
  8
3
  2
*D13
 10
8122.182637237639
 20
8283.6107221844013
 30
0.0
 11
8052.1826372376381
 21
8575.6107221844031
 31
0.0
 70
     0
 13
7696.7485751307677
 23
8867.6107221844031
 33
0.0
 14
7696.7485751307686
 24
8283.6107221844013
 34
0.0
 50
90.0
1001
ACAD
1000
DSTYLE
1002
{
1070
   140
1040
2.5
1070
    40
1040
40.0
1070
     7
1000
_OPEN
1070
     6
1000
_OPEN
1002
}
  0
DIMENSION
  5
109E
  8
3
  2
*D14
 10
10400.96684580695
 20
8165.6107221844049
 30
0.0
 11
10330.96684580695
 21
8370.6107221844049
 31
0.0
 70
     0
 13
10192.78115664494
 23
8575.6107221844049
 33
0.0
 14
10192.78115664494
 24
8165.6107221844049
 34
0.0
 50
270.0
1001
ACAD
1000
DSTYLE
1002
{
1070
   140
1040
2.5
1070
    40
1040
40.0
1070
     7
1000
_OPEN
1070
     6
1000
_OPEN
1002
}
  0
ENDSEC
  0
EOF
