  0
SECTION
  2
HEADER
  9
$ACADVER
  1
AC1024
  9
$ACADMAINTVER
 70
   181
  9
$DWGCODEPAGE
  3
ANSI_932
  9
$LASTSAVEDBY
  1
reiko.miyawaki
  9
$INSBASE
 10
0.0
 20
0.0
 30
0.0
  9
$EXTMIN
 10
6418.870533429759
 20
5425.445665564628
 30
-0.0000000349181948
  9
$EXTMAX
 10
12820.52648503286
 20
15374.12902532849
 30
0.0000000814935746
  9
$LIMMIN
 10
0.0
 20
0.0
  9
$LIMMAX
 10
297.0
 20
210.0
  9
$ORTHOMODE
 70
     1
  9
$REGENMODE
 70
     1
  9
$FILLMODE
 70
     1
  9
$QTEXTMODE
 70
     0
  9
$MIRRTEXT
 70
     0
  9
$LTSCALE
 40
5.0
  9
$ATTMODE
 70
     1
  9
$TEXTSIZE
 40
52.5
  9
$TRACEWID
 40
0.05
  9
$TEXTSTYLE
  7
STANDARD
  9
$CLAYER
  8
1
  9
$CELTYPE
  6
BYLAYER
  9
$CECOLOR
 62
   256
  9
$CELTSCALE
 40
10.0
  9
$DISPSILH
 70
     0
  9
$DIMSCALE
 40
10.0
  9
$DIMASZ
 40
2.0
  9
$DIMEXO
 40
1.0
  9
$DIMDLI
 40
10.0
  9
$DIMRND
 40
0.0
  9
$DIMDLE
 40
0.0
  9
$DIMEXE
 40
1.0
  9
$DIMTP
 40
0.0
  9
$DIMTM
 40
0.0
  9
$DIMTXT
 40
3.0
  9
$DIMCEN
 40
0.0
  9
$DIMTSZ
 40
0.0
  9
$DIMTOL
 70
     0
  9
$DIMLIM
 70
     0
  9
$DIMTIH
 70
     0
  9
$DIMTOH
 70
     0
  9
$DIMSE1
 70
     0
  9
$DIMSE2
 70
     0
  9
$DIMTAD
 70
     1
  9
$DIMZIN
 70
     8
  9
$DIMBLK
  1

  9
$DIMASO
 70
     1
  9
$DIMSHO
 70
     1
  9
$DIMPOST
  1

  9
$DIMAPOST
  1

  9
$DIMALT
 70
     0
  9
$DIMALTD
 70
     2
  9
$DIMALTF
 40
0.03937
  9
$DIMLFAC
 40
1.0
  9
$DIMTOFL
 70
     1
  9
$DIMTVP
 40
0.0
  9
$DIMTIX
 70
     0
  9
$DIMSOXD
 70
     0
  9
$DIMSAH
 70
     1
  9
$DIMBLK1
  1
OPEN
  9
$DIMBLK2
  1
OPEN
  9
$DIMSTYLE
  2
MATSU
  9
$DIMCLRD
 70
   256
  9
$DIMCLRE
 70
   256
  9
$DIMCLRT
 70
   256
  9
$DIMTFAC
 40
1.0
  9
$DIMGAP
 40
0.5
  9
$DIMJUST
 70
     0
  9
$DIMSD1
 70
     0
  9
$DIMSD2
 70
     0
  9
$DIMTOLJ
 70
     1
  9
$DIMTZIN
 70
     8
  9
$DIMALTZ
 70
     0
  9
$DIMALTTZ
 70
     0
  9
$DIMUPT
 70
     0
  9
$DIMDEC
 70
     4
  9
$DIMTDEC
 70
     4
  9
$DIMALTU
 70
     2
  9
$DIMALTTD
 70
     2
  9
$DIMTXSTY
  7
SUNPOU
  9
$DIMAUNIT
 70
     0
  9
$DIMADEC
 70
     0
  9
$DIMALTRND
 40
0.0
  9
$DIMAZIN
 70
     0
  9
$DIMDSEP
 70
    46
  9
$DIMATFIT
 70
     3
  9
$DIMFRAC
 70
     0
  9
$DIMLDRBLK
  1
OPEN
  9
$DIMLUNIT
 70
     2
  9
$DIMLWD
 70
    -2
  9
$DIMLWE
 70
    -2
  9
$DIMTMOVE
 70
     0
  9
$DIMFXL
 40
1.0
  9
$DIMFXLON
 70
     0
  9
$DIMJOGANG
 40
0.7853981633974483
  9
$DIMTFILL
 70
     0
  9
$DIMTFILLCLR
 70
     0
  9
$DIMARCSYM
 70
     0
  9
$DIMLTYPE
  6

  9
$DIMLTEX1
  6

  9
$DIMLTEX2
  6

  9
$DIMTXTDIRECTION
 70
     0
  9
$LUNITS
 70
     2
  9
$LUPREC
 70
     3
  9
$SKETCHINC
 40
0.1
  9
$FILLETRAD
 40
5.0
  9
$AUNITS
 70
     0
  9
$AUPREC
 70
     2
  9
$MENU
  1
acad
  9
$ELEVATION
 40
0.0
  9
$PELEVATION
 40
0.0
  9
$THICKNESS
 40
0.0
  9
$LIMCHECK
 70
     0
  9
$CHAMFERA
 40
0.0
  9
$CHAMFERB
 40
0.0
  9
$CHAMFERC
 40
20.0
  9
$CHAMFERD
 40
0.0
  9
$SKPOLY
 70
     0
  9
$TDCREATE
 40
2451997.453800232
  9
$TDUCREATE
 40
2451997.078800232
  9
$TDUPDATE
 40
2459696.542576215
  9
$TDUUPDATE
 40
2459696.167576215
  9
$TDINDWG
 40
0.0375075116
  9
$TDUSRTIMER
 40
0.0375075116
  9
$USRTIMER
 70
     1
  9
$ANGBASE
 50
0.0
  9
$ANGDIR
 70
     0
  9
$PDMODE
 70
     0
  9
$PDSIZE
 40
1.0
  9
$PLINEWID
 40
0.0
  9
$SPLFRAME
 70
     0
  9
$SPLINETYPE
 70
     6
  9
$SPLINESEGS
 70
     8
  9
$HANDSEED
  5
110C
  9
$SURFTAB1
 70
     6
  9
$SURFTAB2
 70
     6
  9
$SURFTYPE
 70
     6
  9
$SURFU
 70
     6
  9
$SURFV
 70
     6
  9
$UCSBASE
  2

  9
$UCSNAME
  2

  9
$UCSORG
 10
0.0
 20
0.0
 30
0.0
  9
$UCSXDIR
 10
1.0
 20
0.0
 30
0.0
  9
$UCSYDIR
 10
0.0
 20
1.0
 30
0.0
  9
$UCSORTHOREF
  2

  9
$UCSORTHOVIEW
 70
     0
  9
$UCSORGTOP
 10
0.0
 20
0.0
 30
0.0
  9
$UCSORGBOTTOM
 10
0.0
 20
0.0
 30
0.0
  9
$UCSORGLEFT
 10
0.0
 20
0.0
 30
0.0
  9
$UCSORGRIGHT
 10
0.0
 20
0.0
 30
0.0
  9
$UCSORGFRONT
 10
0.0
 20
0.0
 30
0.0
  9
$UCSORGBACK
 10
0.0
 20
0.0
 30
0.0
  9
$PUCSBASE
  2

  9
$PUCSNAME
  2

  9
$PUCSORG
 10
0.0
 20
0.0
 30
0.0
  9
$PUCSXDIR
 10
1.0
 20
0.0
 30
0.0
  9
$PUCSYDIR
 10
0.0
 20
1.0
 30
0.0
  9
$PUCSORTHOREF
  2

  9
$PUCSORTHOVIEW
 70
     0
  9
$PUCSORGTOP
 10
0.0
 20
0.0
 30
0.0
  9
$PUCSORGBOTTOM
 10
0.0
 20
0.0
 30
0.0
  9
$PUCSORGLEFT
 10
0.0
 20
0.0
 30
0.0
  9
$PUCSORGRIGHT
 10
0.0
 20
0.0
 30
0.0
  9
$PUCSORGFRONT
 10
0.0
 20
0.0
 30
0.0
  9
$PUCSORGBACK
 10
0.0
 20
0.0
 30
0.0
  9
$USERI1
 70
     0
  9
$USERI2
 70
     0
  9
$USERI3
 70
     0
  9
$USERI4
 70
     0
  9
$USERI5
 70
     0
  9
$USERR1
 40
0.0
  9
$USERR2
 40
0.0
  9
$USERR3
 40
0.0
  9
$USERR4
 40
0.0
  9
$USERR5
 40
0.0
  9
$WORLDVIEW
 70
     1
  9
$SHADEDGE
 70
     3
  9
$SHADEDIF
 70
    70
  9
$TILEMODE
 70
     1
  9
$MAXACTVP
 70
    16
  9
$PINSBASE
 10
0.0
 20
0.0
 30
0.0
  9
$PLIMCHECK
 70
     0
  9
$PEXTMIN
 10
1.000000000000000E+20
 20
1.000000000000000E+20
 30
1.000000000000000E+20
  9
$PEXTMAX
 10
-1.000000000000000E+20
 20
-1.000000000000000E+20
 30
-1.000000000000000E+20
  9
$PLIMMIN
 10
0.0
 20
0.0
  9
$PLIMMAX
 10
12.0
 20
9.0
  9
$UNITMODE
 70
     0
  9
$VISRETAIN
 70
     0
  9
$PLINEGEN
 70
     0
  9
$PSLTSCALE
 70
     0
  9
$TREEDEPTH
 70
  3020
  9
$CMLSTYLE
  2
STANDARD
  9
$CMLJUST
 70
     0
  9
$CMLSCALE
 40
20.0
  9
$PROXYGRAPHICS
 70
     1
  9
$MEASUREMENT
 70
     1
  9
$CELWEIGHT
370
    -1
  9
$ENDCAPS
280
     0
  9
$JOINSTYLE
280
     0
  9
$LWDISPLAY
290
     0
  9
$INSUNITS
 70
     0
  9
$HYPERLINKBASE
  1

  9
$STYLESHEET
  1

  9
$XEDIT
290
     1
  9
$CEPSNTYPE
380
     0
  9
$PSTYLEMODE
290
     1
  9
$FINGERPRINTGUID
  2
{A276ECD2-75B9-11D5-A85E-0080AD788799}
  9
$VERSIONGUID
  2
{27608A50-0611-478A-9566-A2936059B051}
  9
$EXTNAMES
290
     1
  9
$PSVPSCALE
 40
0.0
  9
$OLESTARTUP
290
     0
  9
$SORTENTS
280
   127
  9
$INDEXCTL
280
     0
  9
$HIDETEXT
280
     0
  9
$XCLIPFRAME
280
     2
  9
$HALOGAP
280
     0
  9
$OBSCOLOR
 70
   257
  9
$OBSLTYPE
280
     0
  9
$INTERSECTIONDISPLAY
280
     0
  9
$INTERSECTIONCOLOR
 70
   257
  9
$DIMASSOC
280
     1
  9
$PROJECTNAME
  1

  9
$CAMERADISPLAY
290
     0
  9
$LENSLENGTH
 40
50.0
  9
$CAMERAHEIGHT
 40
0.0
  9
$STEPSPERSEC
 40
2.0
  9
$STEPSIZE
 40
6.0
  9
$3DDWFPREC
 40
2.0
  9
$PSOLWIDTH
 40
0.25
  9
$PSOLHEIGHT
 40
4.0
  9
$LOFTANG1
 40
1.570796326794896
  9
$LOFTANG2
 40
1.570796326794896
  9
$LOFTMAG1
 40
0.0
  9
$LOFTMAG2
 40
0.0
  9
$LOFTPARAM
 70
     7
  9
$LOFTNORMALS
280
     1
  9
$LATITUDE
 40
37.795
  9
$LONGITUDE
 40
-122.394
  9
$NORTHDIRECTION
 40
0.0
  9
$TIMEZONE
 70
 -8000
  9
$LIGHTGLYPHDISPLAY
280
     1
  9
$TILEMODELIGHTSYNCH
280
     1
  9
$CMATERIAL
347
EE0
  9
$SOLIDHIST
280
     0
  9
$SHOWHIST
280
     1
  9
$DWFFRAME
280
     2
  9
$DGNFRAME
280
     0
  9
$REALWORLDSCALE
290
     1
  9
$INTERFERECOLOR
 62
     1
  9
$INTERFEREOBJVS
345
F02
  9
$INTERFEREVPVS
346
EFF
  9
$CSHADOW
280
     0
  9
$SHADOWPLANELOCATION
 40
0.0
  0
ENDSEC
  0
SECTION
  2
CLASSES
  0
CLASS
  1
ACDBDICTIONARYWDFLT
  2
AcDbDictionaryWithDefault
  3
ObjectDBX Classes
 90
        0
 91
        1
280
     0
281
     0
  0
CLASS
  1
DICTIONARYVAR
  2
AcDbDictionaryVar
  3
ObjectDBX Classes
 90
        0
 91
       10
280
     0
281
     0
  0
CLASS
  1
MATERIAL
  2
AcDbMaterial
  3
ObjectDBX Classes
 90
     1153
 91
        3
280
     0
281
     0
  0
CLASS
  1
VISUALSTYLE
  2
AcDbVisualStyle
  3
ObjectDBX Classes
 90
     4095
 91
       24
280
     0
281
     0
  0
CLASS
  1
TABLESTYLE
  2
AcDbTableStyle
  3
ObjectDBX Classes
 90
     4095
 91
        1
280
     0
281
     0
  0
CLASS
  1
SCALE
  2
AcDbScale
  3
ObjectDBX Classes
 90
     1153
 91
       17
280
     0
281
     0
  0
CLASS
  1
MLEADERSTYLE
  2
AcDbMLeaderStyle
  3
ACDB_MLEADERSTYLE_CLASS
 90
     4095
 91
        1
280
     0
281
     0
  0
CLASS
  1
ACDBSECTIONVIEWSTYLE
  2
AcDbSectionViewStyle
  3
ObjectDBX Classes
 90
     1025
 91
        1
280
     0
281
     0
  0
CLASS
  1
ACDBDETAILVIEWSTYLE
  2
AcDbDetailViewStyle
  3
ObjectDBX Classes
 90
     1025
 91
        1
280
     0
281
     0
  0
CLASS
  1
CELLSTYLEMAP
  2
AcDbCellStyleMap
  3
ObjectDBX Classes
 90
     1152
 91
        1
280
     0
281
     0
  0
ENDSEC
  0
SECTION
  2
TABLES
  0
TABLE
  2
VPORT
  5
12
330
0
100
AcDbSymbolTable
 70
     1
  0
VPORT
  5
EDD
330
12
100
AcDbSymbolTableRecord
100
AcDbViewportTableRecord
  2
*Active
 70
     0
 10
0.0
 20
0.0
 11
1.0
 21
1.0
 12
8840.468372049853
 22
10063.48664797809
 13
0.0
 23
0.0
 14
5.0
 24
5.0
 15
0.0
 25
0.0
 16
0.0
 26
0.0
 36
1.0
 17
0.0
 27
0.0
 37
0.0
 40
6769.947987690525
 41
1.385333333333333
 42
50.0
 43
0.0
 44
0.0
 50
0.0
 51
0.0
 71
     0
 72
   100
 73
     1
 74
     0
 75
     0
 76
     0
 77
     0
 78
     2
281
     0
 65
     1
110
0.0
120
0.0
130
0.0
111
1.0
121
0.0
131
0.0
112
0.0
122
1.0
132
0.0
 79
     0
146
0.0
348
EFE
 60
     3
 61
     5
292
     1
282
     1
141
0.0
142
0.0
 63
   250
421
  3355443
1001
ACAD_NAV_VCDISPLAY
1070
     3
  0
ENDTAB
  0
TABLE
  2
LTYPE
  5
E
330
0
100
AcDbSymbolTable
 70
     2
  0
LTYPE
  5
F
330
E
100
AcDbSymbolTableRecord
100
AcDbLinetypeTableRecord
  2
BYBLOCK
 70
     0
  3

 72
    65
 73
     0
 40
0.0
  0
LTYPE
  5
6
330
E
100
AcDbSymbolTableRecord
100
AcDbLinetypeTableRecord
  2
BYLAYER
 70
     0
  3

 72
    65
 73
     0
 40
0.0
  0
LTYPE
  5
5
330
E
100
AcDbSymbolTableRecord
100
AcDbLinetypeTableRecord
  2
CONTINUOUS
 70
     0
  3
Solid line
 72
    65
 73
     0
 40
0.0
  0
LTYPE
  5
41
330
E
100
AcDbSymbolTableRecord
100
AcDbLinetypeTableRecord
  2
CENTER
 70
     0
  3
____ _ ____ _ ____ _ ____ _ ____ _ ____ _ ____ 
 72
    65
 73
     4
 40
2.0
 49
1.25
 74
     0
 49
-0.25
 74
     0
 49
0.25
 74
     0
 49
-0.25
 74
     0
  0
ENDTAB
  0
TABLE
  2
LAYER
  5
B
102
{ACAD_XDICTIONARY
360
104A
102
}
330
0
100
AcDbSymbolTable
 70
     6
  0
LAYER
  5
4
102
{ACAD_XDICTIONARY
360
103D
102
}
330
B
100
AcDbSymbolTableRecord
100
AcDbLayerTableRecord
  2
0
 70
     0
 62
     7
  6
CONTINUOUS
370
    -3
390
8AB
347
EF0
  0
LAYER
  5
3E
330
B
100
AcDbSymbolTableRecord
100
AcDbLayerTableRecord
  2
DEFPOINTS
 70
     0
 62
     7
  6
CONTINUOUS
290
     0
370
    -3
390
8AB
347
EF0
  0
LAYER
  5
442
102
{ACAD_XDICTIONARY
360
103F
102
}
330
B
100
AcDbSymbolTableRecord
100
AcDbLayerTableRecord
  2
3
 70
     0
 62
     2
  6
CONTINUOUS
370
    -3
390
8AB
347
EF0
  0
LAYER
  5
443
102
{ACAD_XDICTIONARY
360
1041
102
}
330
B
100
AcDbSymbolTableRecord
100
AcDbLayerTableRecord
  2
2
 70
     0
 62
     3
  6
CENTER
370
    -3
390
8AB
347
EF0
  0
LAYER
  5
444
102
{ACAD_XDICTIONARY
360
1043
102
}
330
B
100
AcDbSymbolTableRecord
100
AcDbLayerTableRecord
  2
1
 70
     0
 62
     4
  6
CONTINUOUS
370
    -3
390
8AB
347
EF0
  0
LAYER
  5
445
102
{ACAD_XDICTIONARY
360
1045
102
}
330
B
100
AcDbSymbolTableRecord
100
AcDbLayerTableRecord
  2
4
 70
     0
 62
     7
  6
CONTINUOUS
370
    -3
390
8AB
347
EF0
  0
ENDTAB
  0
TABLE
  2
STYLE
  5
C
330
0
100
AcDbSymbolTable
 70
     2
  0
STYLE
  5
D
330
C
100
AcDbSymbolTableRecord
100
AcDbTextStyleTableRecord
  2
STANDARD
 70
     0
 40
0.0
 41
1.0
 50
0.0
 71
     0
 42
52.5
  3
C:\Program Files\AutoCAD LT\simplex.shx
  4
C:\Program Files\AutoCAD LT\extfont.shx
  0
STYLE
  5
1C
330
C
100
AcDbSymbolTableRecord
100
AcDbTextStyleTableRecord
  2
SUNPOU
 70
     0
 40
0.0
 41
1.0
 50
15.0
 71
     0
 42
5.0
  3
simplex.shx
  4
extfont.shx
  0
ENDTAB
  0
TABLE
  2
VIEW
  5
10
330
0
100
AcDbSymbolTable
 70
     1
  0
ENDTAB
  0
TABLE
  2
UCS
  5
11
330
0
100
AcDbSymbolTable
 70
     0
  0
ENDTAB
  0
TABLE
  2
APPID
  5
14
330
0
100
AcDbSymbolTable
 70
     3
  0
APPID
  5
15
330
14
100
AcDbSymbolTableRecord
100
AcDbRegAppTableRecord
  2
ACAD
 70
     0
  0
APPID
  5
F31
330
14
100
AcDbSymbolTableRecord
100
AcDbRegAppTableRecord
  2
ACAD_EXEMPT_FROM_CAD_STANDARDS
 70
     0
  0
APPID
  5
102E
330
14
100
AcDbSymbolTableRecord
100
AcDbRegAppTableRecord
  2
ACAD_NAV_VCDISPLAY
 70
     0
  0
ENDTAB
  0
TABLE
  2
DIMSTYLE
  5
16
330
0
100
AcDbSymbolTable
 70
     2
100
AcDbDimStyleTable
 71
     2
340
446
340
1F
  0
DIMSTYLE
105
1F
330
16
100
AcDbSymbolTableRecord
100
AcDbDimStyleTableRecord
  2
MATSU
 70
     0
 40
10.0
 41
2.0
 42
1.0
 43
10.0
 44
1.0
 73
     0
 74
     0
 77
     1
 78
     8
140
3.0
141
0.0
143
0.03937
147
0.5
172
     1
173
     1
176
   256
177
   256
178
   256
284
     8
340
1C
341
192
343
192
344
192
  0
DIMSTYLE
105
446
102
{ACAD_REACTORS
330
55E
330
560
330
562
330
564
330
565
330
566
330
567
330
568
330
569
330
56B
330
56C
330
56E
330
56F
330
7F9
330
F89
330
FDF
330
561
102
}
330
16
100
AcDbSymbolTableRecord
100
AcDbDimStyleTableRecord
  2
IGA
 70
     0
 40
2.0
 41
2.0
 42
0.5
 43
10.0
 44
1.0
 47
1.0
 48
1.0
 73
     0
 74
     0
 77
     1
 78
     8
140
3.0
141
0.0
143
0.03937
146
10.0
147
1.0
173
     1
271
     1
272
     0
279
     2
284
     8
340
D
341
192
343
192
344
192
  0
ENDTAB
  0
TABLE
  2
BLOCK_RECORD
  5
1
330
0
100
AcDbSymbolTable
 70
    20
  0
BLOCK_RECORD
  5
2
102
{ACAD_XDICTIONARY
360
8D9
102
}
330
1
100
AcDbSymbolTableRecord
100
AcDbBlockTableRecord
  2
*MODEL_SPACE
340
8AE
 70
     0
280
     1
281
     0
  0
BLOCK_RECORD
  5
8
102
{ACAD_XDICTIONARY
360
8DB
102
}
330
1
100
AcDbSymbolTableRecord
100
AcDbBlockTableRecord
  2
*PAPER_SPACE
340
8AF
 70
     0
280
     1
281
     0
  0
BLOCK_RECORD
  5
192
330
1
100
AcDbSymbolTableRecord
100
AcDbBlockTableRecord
  2
_OPEN
340
0
102
{BLKREFS
331
E68
331
E78
331
E79
331
E81
331
E82
331
E8A
331
E8B
331
E9C
331
E9D
331
EA5
331
EA6
331
EBF
331
EC0
331
F44
331
F45
331
FB4
331
FB5
331
FBD
331
FBE
331
FCF
331
FD0
331
1028
331
1029
331
1079
331
107A
331
10B5
331
10B6
331
10BD
331
10BE
331
D7F
331
D80
331
DB6
331
DB7
331
E67
102
}
 70
     0
280
     1
281
     0
  0
BLOCK_RECORD
  5
58A
330
1
100
AcDbSymbolTableRecord
100
AcDbBlockTableRecord
  2
*D1
340
0
 70
     0
280
     1
281
     0
  0
BLOCK_RECORD
  5
5A4
330
1
100
AcDbSymbolTableRecord
100
AcDbBlockTableRecord
  2
*D3
340
0
 70
     0
280
     1
281
     0
  0
BLOCK_RECORD
  5
5B0
330
1
100
AcDbSymbolTableRecord
100
AcDbBlockTableRecord
  2
*D4
340
0
 70
     0
280
     1
281
     0
  0
BLOCK_RECORD
  5
5BE
330
1
100
AcDbSymbolTableRecord
100
AcDbBlockTableRecord
  2
*D5
340
0
 70
     0
280
     1
281
     0
  0
BLOCK_RECORD
  5
5C9
330
1
100
AcDbSymbolTableRecord
100
AcDbBlockTableRecord
  2
*D6
340
0
 70
     0
280
     1
281
     0
  0
BLOCK_RECORD
  5
5D5
330
1
100
AcDbSymbolTableRecord
100
AcDbBlockTableRecord
  2
*D7
340
0
 70
     0
280
     1
281
     0
  0
BLOCK_RECORD
  5
5E3
330
1
100
AcDbSymbolTableRecord
100
AcDbBlockTableRecord
  2
*D8
340
0
 70
     0
280
     1
281
     0
  0
BLOCK_RECORD
  5
5EF
330
1
100
AcDbSymbolTableRecord
100
AcDbBlockTableRecord
  2
*D9
340
0
 70
     0
280
     1
281
     0
  0
BLOCK_RECORD
  5
5FB
330
1
100
AcDbSymbolTableRecord
100
AcDbBlockTableRecord
  2
*D10
340
0
 70
     0
280
     1
281
     0
  0
BLOCK_RECORD
  5
607
330
1
100
AcDbSymbolTableRecord
100
AcDbBlockTableRecord
  2
*D11
340
0
 70
     0
280
     1
281
     0
  0
BLOCK_RECORD
  5
613
330
1
100
AcDbSymbolTableRecord
100
AcDbBlockTableRecord
  2
*D12
340
0
 70
     0
280
     1
281
     0
  0
BLOCK_RECORD
  5
61F
330
1
100
AcDbSymbolTableRecord
100
AcDbBlockTableRecord
  2
*D13
340
0
 70
     0
280
     1
281
     0
  0
BLOCK_RECORD
  5
639
330
1
100
AcDbSymbolTableRecord
100
AcDbBlockTableRecord
  2
*D15
340
0
 70
     0
280
     1
281
     0
  0
BLOCK_RECORD
  5
647
330
1
100
AcDbSymbolTableRecord
100
AcDbBlockTableRecord
  2
*D16
340
0
 70
     0
280
     1
281
     0
  0
BLOCK_RECORD
  5
7ED
330
1
100
AcDbSymbolTableRecord
100
AcDbBlockTableRecord
  2
*D17
340
0
 70
     0
280
     1
281
     0
  0
BLOCK_RECORD
  5
F8A
330
1
100
AcDbSymbolTableRecord
100
AcDbBlockTableRecord
  2
*D18
340
0
 70
     0
280
     1
281
     0
  0
BLOCK_RECORD
  5
FE0
330
1
100
AcDbSymbolTableRecord
100
AcDbBlockTableRecord
  2
*D19
340
0
 70
     0
280
     1
281
     0
  0
ENDTAB
  0
ENDSEC
  0
SECTION
  2
BLOCKS
  0
BLOCK
  5
3
330
2
100
AcDbEntity
  8
0
100
AcDbBlockBegin
  2
*MODEL_SPACE
 70
     0
 10
0.0
 20
0.0
 30
0.0
  3
*MODEL_SPACE
  1

  0
ENDBLK
  5
7
330
2
100
AcDbEntity
  8
0
100
AcDbBlockEnd
  0
BLOCK
  5
9
330
8
100
AcDbEntity
 67
     1
  8
0
100
AcDbBlockBegin
  2
*PAPER_SPACE
 70
     0
 10
0.0
 20
0.0
 30
0.0
  3
*PAPER_SPACE
  1

  0
ENDBLK
  5
A
330
8
100
AcDbEntity
 67
     1
  8
0
100
AcDbBlockEnd
  0
BLOCK
  5
193
330
192
100
AcDbEntity
  8
0
 48
20.0
100
AcDbBlockBegin
  2
_OPEN
 70
     0
 10
0.0
 20
0.0
 30
0.0
  3
_OPEN
  1

  0
LINE
  5
194
330
192
100
AcDbEntity
  8
0
  6
ByBlock
 62
     0
 48
20.0
100
AcDbLine
 10
-1.0
 20
0.1666666666666666
 30
0.0
 11
0.0
 21
0.0
 31
0.0
  0
LINE
  5
195
330
192
100
AcDbEntity
  8
0
  6
ByBlock
 62
     0
 48
20.0
100
AcDbLine
 10
0.0
 20
0.0
 30
0.0
 11
-1.0
 21
-0.1666666666666666
 31
0.0
  0
LINE
  5
196
330
192
100
AcDbEntity
  8
0
  6
ByBlock
 62
     0
 48
20.0
100
AcDbLine
 10
0.0
 20
0.0
 30
0.0
 11
-1.0
 21
0.0
 31
0.0
  0
ENDBLK
  5
197
330
192
100
AcDbEntity
  8
0
 48
20.0
100
AcDbBlockEnd
  0
BLOCK
  5
85F
330
58A
100
AcDbEntity
  8
0
 48
10.0
100
AcDbBlockBegin
  2
*D1
 70
     1
 10
0.0
 20
0.0
 30
0.0
  3
*D1
  1

  0
LINE
  5
E64
330
58A
100
AcDbEntity
  8
3
  6
Continuous
 62
     0
440
 16777216
 48
10.0
100
AcDbLine
 10
7325.885714318648
 20
8606.676835328388
 30
0.0
 11
7325.885714318648
 21
8271.692312328388
 31
0.0
  0
LINE
  5
E65
330
58A
100
AcDbEntity
  8
3
  6
Continuous
 62
     0
440
 16777216
 48
10.0
100
AcDbLine
 10
8165.885714318648
 20
8606.676835328391
 30
0.0
 11
8165.885714318648
 21
8271.692312328388
 31
0.0
  0
LINE
  5
E66
330
58A
100
AcDbEntity
  8
3
  6
Continuous
 62
     0
440
 16777216
 48
10.0
100
AcDbLine
 10
7405.885714318649
 20
8311.692312328387
 30
0.0
 11
8085.885714318647
 21
8311.692312328387
 31
0.0
  0
INSERT
  5
E67
330
58A
100
AcDbEntity
  8
3
  6
Continuous
 62
     0
440
 16777216
 48
10.0
100
AcDbBlockReference
  2
_OPEN
 10
7325.885714318648
 20
8311.692312328387
 30
0.0
 41
80.0
 42
80.0
 43
80.0
 50
180.0
  0
INSERT
  5
E68
330
58A
100
AcDbEntity
  8
3
  6
Continuous
 62
     0
440
 16777216
 48
10.0
100
AcDbBlockReference
  2
_OPEN
 10
8165.885714318648
 20
8311.692312328387
 30
0.0
 41
80.0
 42
80.0
 43
80.0
  0
MTEXT
  5
E69
330
58A
100
AcDbEntity
  8
3
  6
Continuous
 62
     0
440
 16777216
 48
10.0
100
AcDbMText
 10
7733.475298318648
 20
8411.692312328389
 30
0.0
 40
120.0
 41
0.0
 46
0.0
 71
     5
 72
     5
  1
\A1;840
 73
     1
 44
1.0
  0
POINT
  5
E6A
330
58A
100
AcDbEntity
  8
DEFPOINTS
  6
Continuous
 62
     0
440
 16777216
 48
10.0
100
AcDbPoint
 10
7325.885714318648
 20
8626.676835328387
 30
0.0
  0
POINT
  5
E6B
330
58A
100
AcDbEntity
  8
DEFPOINTS
  6
Continuous
 62
     0
440
 16777216
 48
10.0
100
AcDbPoint
 10
8165.885714318648
 20
8626.676835328389
 30
0.0
  0
POINT
  5
E6C
330
58A
100
AcDbEntity
  8
DEFPOINTS
  6
Continuous
 62
     0
440
 16777216
 48
10.0
100
AcDbPoint
 10
8165.885714318648
 20
8311.692312328387
 30
0.0
  0
ENDBLK
  5
869
330
58A
100
AcDbEntity
  8
0
 48
10.0
100
AcDbBlockEnd
  0
BLOCK
  5
D7A
330
5A4
100
AcDbEntity
  8
0
 48
10.0
100
AcDbBlockBegin
  2
*D3
 70
     1
 10
0.0
 20
0.0
 30
0.0
  3
*D3
  1

  0
LINE
  5
D7B
330
5A4
100
AcDbEntity
  8
0
  6
ByBlock
 62
     0
440
 16777216
 48
10.0
100
AcDbLine
 10
7513.885714318648
 20
9348.676835328388
 30
0.0
 11
7219.709890051419
 21
9348.676835328388
 31
0.0
  0
LINE
  5
D7C
330
5A4
100
AcDbEntity
  8
0
  6
ByBlock
 62
     0
440
 16777216
 48
10.0
100
AcDbLine
 10
7513.885714318648
 20
8784.676835328388
 30
0.0
 11
7219.709890051419
 21
8784.676835328388
 31
0.0
  0
LINE
  5
D7D
330
5A4
100
AcDbEntity
  8
0
  6
ByBlock
 62
     0
440
 16777216
 48
10.0
100
AcDbLine
 10
7259.709890051418
 20
9268.67683532839
 30
0.0
 11
7259.709890051418
 21
8864.67683532839
 31
0.0
  0
MTEXT
  5
D7E
330
5A4
100
AcDbEntity
  8
0
  6
ByBlock
 62
     0
440
 16777216
 48
10.0
100
AcDbMText
 10
7159.709890051418
 20
9061.819692471246
 30
0.0
 40
120.0
 41
0.0
 46
0.0
 71
     5
 72
     5
  1
\A1;564
 11
0.0
 21
1.0
 31
0.0
 73
     1
 44
1.0
  0
INSERT
  5
D7F
330
5A4
100
AcDbEntity
  8
0
  6
ByBlock
 62
     0
440
 16777216
 48
10.0
100
AcDbBlockReference
  2
_OPEN
 10
7259.709890051418
 20
9348.676835328388
 30
0.0
 41
80.0
 42
80.0
 43
80.0
 50
90.0
  0
INSERT
  5
D80
330
5A4
100
AcDbEntity
  8
0
  6
ByBlock
 62
     0
440
 16777216
 48
10.0
100
AcDbBlockReference
  2
_OPEN
 10
7259.709890051418
 20
8784.676835328388
 30
0.0
 41
80.0
 42
80.0
 43
80.0
 50
270.0
  0
POINT
  5
D81
330
5A4
100
AcDbEntity
  8
DEFPOINTS
  6
ByBlock
 62
     0
440
 16777216
 48
10.0
100
AcDbPoint
 10
7533.885714318649
 20
9348.676835328388
 30
0.0
  0
POINT
  5
D82
330
5A4
100
AcDbEntity
  8
DEFPOINTS
  6
ByBlock
 62
     0
440
 16777216
 48
10.0
100
AcDbPoint
 10
7533.885714318649
 20
8784.676835328388
 30
0.0
  0
POINT
  5
D83
330
5A4
100
AcDbEntity
  8
DEFPOINTS
  6
ByBlock
 62
     0
440
 16777216
 48
10.0
100
AcDbPoint
 10
7259.709890051418
 20
8784.676835328388
 30
0.0
  0
ENDBLK
  5
D84
330
5A4
100
AcDbEntity
  8
0
 48
10.0
100
AcDbBlockEnd
  0
BLOCK
  5
DD2
330
5B0
100
AcDbEntity
  8
0
 48
10.0
100
AcDbBlockBegin
  2
*D4
 70
     1
 10
0.0
 20
0.0
 30
0.0
  3
*D4
  1

  0
LINE
  5
10B1
330
5B0
100
AcDbEntity
  8
3
  6
Continuous
 62
     0
440
 16777216
 48
10.0
370
    -2
100
AcDbLine
 10
7325.88571431865
 20
9671.676835328391
 30
0.0
 11
7325.88571431865
 21
9895.374345952069
 31
0.0
  0
LINE
  5
10B2
330
5B0
100
AcDbEntity
  8
3
  6
Continuous
 62
     0
440
 16777216
 48
10.0
370
    -2
100
AcDbLine
 10
7745.885714318649
 20
9682.537277102532
 30
0.0
 11
7745.885714318649
 21
9895.374345952069
 31
0.0
  0
LINE
  5
10B3
330
5B0
100
AcDbEntity
  8
3
  6
Continuous
 62
     0
440
 16777216
 48
10.0
370
    -2
100
AcDbLine
 10
7405.88571431865
 20
9855.374345952069
 30
0.0
 11
7665.885714318649
 21
9855.374345952069
 31
0.0
  0
MTEXT
  5
10B4
330
5B0
100
AcDbEntity
  8
3
  6
Continuous
 62
     0
440
 16777216
 48
10.0
100
AcDbMText
 10
7528.385714318649
 20
9960.926714461912
 30
0.0
 40
120.0
 41
0.0
 46
0.0
 71
     5
 72
     1
  1
\A1;420
 73
     1
 44
1.0
  0
INSERT
  5
10B5
330
5B0
100
AcDbEntity
  8
3
  6
Continuous
 62
     0
440
 16777216
 48
10.0
370
    -2
100
AcDbBlockReference
  2
_OPEN
 10
7325.88571431865
 20
9855.374345952069
 30
0.0
 41
80.0
 42
80.0
 43
80.0
 50
180.0
  0
INSERT
  5
10B6
330
5B0
100
AcDbEntity
  8
3
  6
Continuous
 62
     0
440
 16777216
 48
10.0
370
    -2
100
AcDbBlockReference
  2
_OPEN
 10
7745.885714318649
 20
9855.374345952069
 30
0.0
 41
80.0
 42
80.0
 43
80.0
  0
POINT
  5
10B7
330
5B0
100
AcDbEntity
  8
DEFPOINTS
  6
Continuous
 62
     0
440
 16777216
 48
10.0
100
AcDbPoint
 10
7325.88571431865
 20
9651.676835328389
 30
0.0
  0
POINT
  5
10B8
330
5B0
100
AcDbEntity
  8
DEFPOINTS
  6
Continuous
 62
     0
440
 16777216
 48
10.0
100
AcDbPoint
 10
7745.885714318649
 20
9662.537277102533
 30
0.0
  0
POINT
  5
10B9
330
5B0
100
AcDbEntity
  8
DEFPOINTS
  6
Continuous
 62
     0
440
 16777216
 48
10.0
100
AcDbPoint
 10
7745.885714318649
 20
9855.374345952069
 30
0.0
  0
ENDBLK
  5
DDC
330
5B0
100
AcDbEntity
  8
0
 48
10.0
100
AcDbBlockEnd
  0
BLOCK
  5
DDD
330
5BE
100
AcDbEntity
  8
0
 48
10.0
100
AcDbBlockBegin
  2
*D5
 70
     1
 10
0.0
 20
0.0
 30
0.0
  3
*D5
  1

  0
LINE
  5
1076
330
5BE
100
AcDbEntity
  8
3
  6
Continuous
 62
     0
440
 16777216
 48
10.0
370
    -2
100
AcDbLine
 10
8165.885714318649
 20
9671.676835328391
 30
0.0
 11
8165.885714318649
 21
9895.716079328389
 31
0.0
  0
LINE
  5
1077
330
5BE
100
AcDbEntity
  8
3
  6
Continuous
 62
     0
440
 16777216
 48
10.0
370
    -2
100
AcDbLine
 10
7825.885714318649
 20
9855.71607932839
 30
0.0
 11
8085.885714318647
 21
9855.71607932839
 31
0.0
  0
MTEXT
  5
1078
330
5BE
100
AcDbEntity
  8
3
  6
Continuous
 62
     0
440
 16777216
 48
10.0
100
AcDbMText
 10
7954.993615318648
 20
9943.428941404526
 30
0.0
 40
120.0
 41
0.0
 46
0.0
 71
     5
 72
     1
  1
\A1;420
 73
     1
 44
1.0
  0
INSERT
  5
1079
330
5BE
100
AcDbEntity
  8
3
  6
Continuous
 62
     0
440
 16777216
 48
10.0
370
    -2
100
AcDbBlockReference
  2
_OPEN
 10
7745.885714318649
 20
9855.71607932839
 30
0.0
 41
80.0
 42
80.0
 43
80.0
 50
180.0
  0
INSERT
  5
107A
330
5BE
100
AcDbEntity
  8
3
  6
Continuous
 62
     0
440
 16777216
 48
10.0
370
    -2
100
AcDbBlockReference
  2
_OPEN
 10
8165.885714318649
 20
9855.71607932839
 30
0.0
 41
80.0
 42
80.0
 43
80.0
  0
POINT
  5
107B
330
5BE
100
AcDbEntity
  8
DEFPOINTS
  6
Continuous
 62
     0
440
 16777216
 48
10.0
100
AcDbPoint
 10
7745.885714318649
 20
9662.537277102533
 30
0.0
  0
POINT
  5
107C
330
5BE
100
AcDbEntity
  8
DEFPOINTS
  6
Continuous
 62
     0
440
 16777216
 48
10.0
100
AcDbPoint
 10
8165.885714318649
 20
9651.676835328393
 30
0.0
  0
POINT
  5
107D
330
5BE
100
AcDbEntity
  8
DEFPOINTS
  6
Continuous
 62
     0
440
 16777216
 48
10.0
100
AcDbPoint
 10
8165.885714318649
 20
9855.71607932839
 30
0.0
  0
ENDBLK
  5
DE6
330
5BE
100
AcDbEntity
  8
0
 48
10.0
100
AcDbBlockEnd
  0
BLOCK
  5
68C
330
5C9
100
AcDbEntity
  8
0
 48
10.0
100
AcDbBlockBegin
  2
*D6
 70
     1
 10
0.0
 20
0.0
 30
0.0
  3
*D6
  1

  0
LINE
  5
E75
330
5C9
100
AcDbEntity
  8
3
  6
Continuous
 62
     0
440
 16777216
 48
10.0
100
AcDbLine
 10
9060.882057318648
 20
8606.676835328391
 30
0.0
 11
9060.882057318648
 21
8310.60521732839
 31
0.0
  0
LINE
  5
E76
330
5C9
100
AcDbEntity
  8
3
  6
Continuous
 62
     0
440
 16777216
 48
10.0
100
AcDbLine
 10
10500.88205731865
 20
8606.676835328391
 30
0.0
 11
10500.88205731865
 21
8310.60521732839
 31
0.0
  0
LINE
  5
E77
330
5C9
100
AcDbEntity
  8
3
  6
Continuous
 62
     0
440
 16777216
 48
10.0
100
AcDbLine
 10
9140.88205731865
 20
8350.605217328391
 30
0.0
 11
10420.88205731865
 21
8350.605217328391
 31
0.0
  0
INSERT
  5
E78
330
5C9
100
AcDbEntity
  8
3
  6
Continuous
 62
     0
440
 16777216
 48
10.0
100
AcDbBlockReference
  2
_OPEN
 10
9060.882057318648
 20
8350.605217328391
 30
0.0
 41
80.0
 42
80.0
 43
80.0
 50
180.0
  0
INSERT
  5
E79
330
5C9
100
AcDbEntity
  8
3
  6
Continuous
 62
     0
440
 16777216
 48
10.0
100
AcDbBlockReference
  2
_OPEN
 10
10500.88205731865
 20
8350.605217328391
 30
0.0
 41
80.0
 42
80.0
 43
80.0
  0
MTEXT
  5
E7A
330
5C9
100
AcDbEntity
  8
3
  6
Continuous
 62
     0
440
 16777216
 48
10.0
100
AcDbMText
 10
9767.857839318651
 20
8450.605217328391
 30
0.0
 40
120.0
 41
0.0
 46
0.0
 71
     5
 72
     5
  1
\A1;1440
 73
     1
 44
1.0
  0
POINT
  5
E7B
330
5C9
100
AcDbEntity
  8
DEFPOINTS
  6
Continuous
 62
     0
440
 16777216
 48
10.0
100
AcDbPoint
 10
9060.882057318648
 20
8626.676835328389
 30
0.0
  0
POINT
  5
E7C
330
5C9
100
AcDbEntity
  8
DEFPOINTS
  6
Continuous
 62
     0
440
 16777216
 48
10.0
100
AcDbPoint
 10
10500.88205731865
 20
8626.676835328389
 30
0.0
  0
POINT
  5
E7D
330
5C9
100
AcDbEntity
  8
DEFPOINTS
  6
Continuous
 62
     0
440
 16777216
 48
10.0
100
AcDbPoint
 10
10500.88205731865
 20
8350.605217328391
 30
0.0
  0
ENDBLK
  5
696
330
5C9
100
AcDbEntity
  8
0
 48
10.0
100
AcDbBlockEnd
  0
BLOCK
  5
DB1
330
5D5
100
AcDbEntity
  8
0
 48
10.0
100
AcDbBlockBegin
  2
*D7
 70
     1
 10
0.0
 20
0.0
 30
0.0
  3
*D7
  1

  0
LINE
  5
DB2
330
5D5
100
AcDbEntity
  8
0
  6
ByBlock
 62
     0
440
 16777216
 48
10.0
100
AcDbLine
 10
10622.48376331865
 20
9066.67683532839
 30
0.0
 11
10808.98182931865
 21
9066.67683532839
 31
0.0
  0
LINE
  5
DB3
330
5D5
100
AcDbEntity
  8
0
  6
ByBlock
 62
     0
440
 16777216
 48
10.0
100
AcDbLine
 10
10520.88205731865
 20
8626.676835328389
 30
0.0
 11
10808.98182931865
 21
8626.676835328389
 31
0.0
  0
LINE
  5
DB4
330
5D5
100
AcDbEntity
  8
0
  6
ByBlock
 62
     0
440
 16777216
 48
10.0
100
AcDbLine
 10
10768.98182931865
 20
8986.67683532839
 30
0.0
 11
10768.98182931865
 21
8706.676835328391
 31
0.0
  0
MTEXT
  5
DB5
330
5D5
100
AcDbEntity
  8
0
  6
ByBlock
 62
     0
440
 16777216
 48
10.0
100
AcDbMText
 10
10662.86237300763
 20
8856.676835328391
 30
0.0
 40
120.0
 41
0.0
 46
0.0
 71
     5
 72
     5
  1
\A1;440
 11
0.0
 21
1.0
 31
0.0
 73
     1
 44
1.0
  0
INSERT
  5
DB6
330
5D5
100
AcDbEntity
  8
0
  6
ByBlock
 62
     0
440
 16777216
 48
10.0
100
AcDbBlockReference
  2
_OPEN
 10
10768.98182931865
 20
9066.67683532839
 30
0.0
 41
80.0
 42
80.0
 43
80.0
 50
90.0
  0
INSERT
  5
DB7
330
5D5
100
AcDbEntity
  8
0
  6
ByBlock
 62
     0
440
 16777216
 48
10.0
100
AcDbBlockReference
  2
_OPEN
 10
10768.98182931865
 20
8626.676835328389
 30
0.0
 41
80.0
 42
80.0
 43
80.0
 50
270.0
  0
POINT
  5
DB8
330
5D5
100
AcDbEntity
  8
DEFPOINTS
  6
ByBlock
 62
     0
440
 16777216
 48
10.0
100
AcDbPoint
 10
10602.48376331865
 20
9066.67683532839
 30
0.0
  0
POINT
  5
DB9
330
5D5
100
AcDbEntity
  8
DEFPOINTS
  6
ByBlock
 62
     0
440
 16777216
 48
10.0
100
AcDbPoint
 10
10500.88205731865
 20
8626.676835328389
 30
0.0
  0
POINT
  5
DBA
330
5D5
100
AcDbEntity
  8
DEFPOINTS
  6
ByBlock
 62
     0
440
 16777216
 48
10.0
100
AcDbPoint
 10
10768.98182931865
 20
8626.676835328389
 30
0.0
  0
ENDBLK
  5
DBB
330
5D5
100
AcDbEntity
  8
0
 48
10.0
100
AcDbBlockEnd
  0
BLOCK
  5
7E2
330
5E3
100
AcDbEntity
  8
0
 48
10.0
100
AcDbBlockBegin
  2
*D8
 70
     1
 10
0.0
 20
0.0
 30
0.0
  3
*D8
  1

  0
LINE
  5
E7E
330
5E3
100
AcDbEntity
  8
3
  6
Continuous
 62
     0
440
 16777216
 48
10.0
100
AcDbLine
 10
9120.882057318651
 20
9656.67683532839
 30
0.0
 11
8654.683963414333
 21
9656.67683532839
 31
0.0
  0
LINE
  5
E7F
330
5E3
100
AcDbEntity
  8
3
  6
Continuous
 62
     0
440
 16777216
 48
10.0
100
AcDbLine
 10
9040.882057318651
 20
8626.676835328389
 30
0.0
 11
8654.683963414333
 21
8626.676835328389
 31
0.0
  0
LINE
  5
E80
330
5E3
100
AcDbEntity
  8
3
  6
Continuous
 62
     0
440
 16777216
 48
10.0
100
AcDbLine
 10
8694.683963414334
 20
9576.67683532839
 30
0.0
 11
8694.683963414334
 21
8706.676835328391
 31
0.0
  0
INSERT
  5
E81
330
5E3
100
AcDbEntity
  8
3
  6
Continuous
 62
     0
440
 16777216
 48
10.0
100
AcDbBlockReference
  2
_OPEN
 10
8694.683963414334
 20
9656.67683532839
 30
0.0
 41
80.0
 42
80.0
 43
80.0
 50
90.0
  0
INSERT
  5
E82
330
5E3
100
AcDbEntity
  8
3
  6
Continuous
 62
     0
440
 16777216
 48
10.0
100
AcDbBlockReference
  2
_OPEN
 10
8694.683963414334
 20
8626.676835328389
 30
0.0
 41
80.0
 42
80.0
 43
80.0
 50
270.0
  0
MTEXT
  5
E83
330
5E3
100
AcDbEntity
  8
3
  6
Continuous
 62
     0
440
 16777216
 48
10.0
100
AcDbMText
 10
8594.683963414333
 20
9139.573567328389
 30
0.0
 40
120.0
 41
0.0
 46
0.0
 71
     5
 72
     5
  1
\A1;1030
 11
0.0000000000000001
 21
1.0
 31
0.0
 73
     1
 44
1.0
  0
POINT
  5
E84
330
5E3
100
AcDbEntity
  8
DEFPOINTS
  6
Continuous
 62
     0
440
 16777216
 48
10.0
100
AcDbPoint
 10
9140.88205731865
 20
9656.67683532839
 30
0.0
  0
POINT
  5
E85
330
5E3
100
AcDbEntity
  8
DEFPOINTS
  6
Continuous
 62
     0
440
 16777216
 48
10.0
100
AcDbPoint
 10
9060.882057318648
 20
8626.676835328389
 30
0.0
  0
POINT
  5
E86
330
5E3
100
AcDbEntity
  8
DEFPOINTS
  6
Continuous
 62
     0
440
 16777216
 48
10.0
100
AcDbPoint
 10
8694.683963414334
 20
8626.676835328389
 30
0.0
  0
ENDBLK
  5
7EC
330
5E3
100
AcDbEntity
  8
0
 48
10.0
100
AcDbBlockEnd
  0
BLOCK
  5
7D7
330
5EF
100
AcDbEntity
  8
0
 48
10.0
100
AcDbBlockBegin
  2
*D9
 70
     1
 10
0.0
 20
0.0
 30
0.0
  3
*D9
  1

  0
LINE
  5
E87
330
5EF
100
AcDbEntity
  8
3
  6
Continuous
 62
     0
440
 16777216
 48
10.0
100
AcDbLine
 10
9140.88205731865
 20
9676.67683532839
 30
0.0
 11
9140.88205731865
 21
9895.716079328389
 31
0.0
  0
LINE
  5
E88
330
5EF
100
AcDbEntity
  8
3
  6
Continuous
 62
     0
440
 16777216
 48
10.0
100
AcDbLine
 10
10420.88205731865
 20
9676.67683532839
 30
0.0
 11
10420.88205731865
 21
9895.716079328389
 31
0.0
  0
LINE
  5
E89
330
5EF
100
AcDbEntity
  8
3
  6
Continuous
 62
     0
440
 16777216
 48
10.0
100
AcDbLine
 10
9220.88205731865
 20
9855.71607932839
 30
0.0
 11
10340.88205731865
 21
9855.71607932839
 31
0.0
  0
INSERT
  5
E8A
330
5EF
100
AcDbEntity
  8
3
  6
Continuous
 62
     0
440
 16777216
 48
10.0
100
AcDbBlockReference
  2
_OPEN
 10
9140.88205731865
 20
9855.71607932839
 30
0.0
 41
80.0
 42
80.0
 43
80.0
 50
180.0
  0
INSERT
  5
E8B
330
5EF
100
AcDbEntity
  8
3
  6
Continuous
 62
     0
440
 16777216
 48
10.0
100
AcDbBlockReference
  2
_OPEN
 10
10420.88205731865
 20
9855.71607932839
 30
0.0
 41
80.0
 42
80.0
 43
80.0
  0
MTEXT
  5
E8C
330
5EF
100
AcDbEntity
  8
3
  6
Continuous
 62
     0
440
 16777216
 48
10.0
100
AcDbMText
 10
9772.14938031865
 20
9955.716079328389
 30
0.0
 40
120.0
 41
0.0
 46
0.0
 71
     5
 72
     5
  1
\A1;1280
 73
     1
 44
1.0
  0
POINT
  5
E8D
330
5EF
100
AcDbEntity
  8
DEFPOINTS
  6
Continuous
 62
     0
440
 16777216
 48
10.0
100
AcDbPoint
 10
9140.88205731865
 20
9656.67683532839
 30
0.0
  0
POINT
  5
E8E
330
5EF
100
AcDbEntity
  8
DEFPOINTS
  6
Continuous
 62
     0
440
 16777216
 48
10.0
100
AcDbPoint
 10
10420.88205731865
 20
9656.67683532839
 30
0.0
  0
POINT
  5
E8F
330
5EF
100
AcDbEntity
  8
DEFPOINTS
  6
Continuous
 62
     0
440
 16777216
 48
10.0
100
AcDbPoint
 10
10420.88205731865
 20
9855.71607932839
 30
0.0
  0
ENDBLK
  5
7E1
330
5EF
100
AcDbEntity
  8
0
 48
10.0
100
AcDbBlockEnd
  0
BLOCK
  5
D59
330
5FB
100
AcDbEntity
  8
0
 48
10.0
100
AcDbBlockBegin
  2
*D10
 70
     1
 10
0.0
 20
0.0
 30
0.0
  3
*D10
  1

  0
LINE
  5
F41
330
5FB
100
AcDbEntity
  8
3
  6
Continuous
 62
     0
440
 16777216
 48
10.0
370
    -2
100
AcDbLine
 10
9140.88205731865
 20
11534.79829932839
 30
0.0
 11
9140.88205731865
 21
11205.63036232839
 31
0.0
  0
LINE
  5
F42
330
5FB
100
AcDbEntity
  8
3
  6
Continuous
 62
     0
440
 16777216
 48
10.0
370
    -2
100
AcDbLine
 10
10420.88205731865
 20
11534.79829932839
 30
0.0
 11
10420.88205731865
 21
11205.63036232839
 31
0.0
  0
LINE
  5
F43
330
5FB
100
AcDbEntity
  8
3
  6
Continuous
 62
     0
440
 16777216
 48
10.0
370
    -2
100
AcDbLine
 10
9220.88205731865
 20
11245.63036232839
 30
0.0
 11
10340.88205731865
 21
11245.63036232839
 31
0.0
  0
INSERT
  5
F44
330
5FB
100
AcDbEntity
  8
3
  6
Continuous
 62
     0
440
 16777216
 48
10.0
370
    -2
100
AcDbBlockReference
  2
_OPEN
 10
9140.88205731865
 20
11245.63036232839
 30
0.0
 41
80.0
 42
80.0
 43
80.0
 50
180.0
  0
INSERT
  5
F45
330
5FB
100
AcDbEntity
  8
3
  6
Continuous
 62
     0
440
 16777216
 48
10.0
370
    -2
100
AcDbBlockReference
  2
_OPEN
 10
10420.88205731865
 20
11245.63036232839
 30
0.0
 41
80.0
 42
80.0
 43
80.0
  0
MTEXT
  5
F46
330
5FB
100
AcDbEntity
  8
3
  6
Continuous
 62
     0
440
 16777216
 48
10.0
100
AcDbMText
 10
9807.159505318649
 20
11345.63036232839
 30
0.0
 40
120.0
 41
0.0
 46
0.0
 71
     5
 72
     1
  1
\A1;1280
 73
     1
 44
1.0
  0
POINT
  5
F47
330
5FB
100
AcDbEntity
  8
DEFPOINTS
  6
Continuous
 62
     0
440
 16777216
 48
10.0
100
AcDbPoint
 10
9140.88205731865
 20
11554.79829932839
 30
0.0
  0
POINT
  5
F48
330
5FB
100
AcDbEntity
  8
DEFPOINTS
  6
Continuous
 62
     0
440
 16777216
 48
10.0
100
AcDbPoint
 10
10420.88205731865
 20
11554.79829932839
 30
0.0
  0
POINT
  5
F49
330
5FB
100
AcDbEntity
  8
DEFPOINTS
  6
Continuous
 62
     0
440
 16777216
 48
10.0
100
AcDbPoint
 10
10420.88205731865
 20
11245.63036232839
 30
0.0
  0
ENDBLK
  5
D63
330
5FB
100
AcDbEntity
  8
0
 48
10.0
100
AcDbBlockEnd
  0
BLOCK
  5
D64
330
607
100
AcDbEntity
  8
0
 48
10.0
100
AcDbBlockBegin
  2
*D11
 70
     1
 10
0.0
 20
0.0
 30
0.0
  3
*D11
  1

  0
LINE
  5
E99
330
607
100
AcDbEntity
  8
3
  6
Continuous
 62
     0
440
 16777216
 48
10.0
100
AcDbLine
 10
10520.88205731865
 20
12394.87595832271
 30
0.0
 11
10886.15802331865
 21
12394.87595832271
 31
0.0
  0
LINE
  5
E9A
330
607
100
AcDbEntity
  8
3
  6
Continuous
 62
     0
440
 16777216
 48
10.0
100
AcDbLine
 10
10520.88205731865
 20
11554.79829932839
 30
0.0
 11
10886.15802331865
 21
11554.79829932839
 31
0.0
  0
LINE
  5
E9B
330
607
100
AcDbEntity
  8
3
  6
Continuous
 62
     0
440
 16777216
 48
10.0
100
AcDbLine
 10
10846.15802331865
 20
12314.87595832271
 30
0.0
 11
10846.15802331865
 21
11634.79829932839
 31
0.0
  0
INSERT
  5
E9C
330
607
100
AcDbEntity
  8
3
  6
Continuous
 62
     0
440
 16777216
 48
10.0
100
AcDbBlockReference
  2
_OPEN
 10
10846.15802331865
 20
12394.87595832271
 30
0.0
 41
80.0
 42
80.0
 43
80.0
 50
90.0
  0
INSERT
  5
E9D
330
607
100
AcDbEntity
  8
3
  6
Continuous
 62
     0
440
 16777216
 48
10.0
100
AcDbBlockReference
  2
_OPEN
 10
10846.15802331865
 20
11554.79829932839
 30
0.0
 41
80.0
 42
80.0
 43
80.0
 50
270.0
  0
MTEXT
  5
E9E
330
607
100
AcDbEntity
  8
3
  6
Continuous
 62
     0
440
 16777216
 48
10.0
100
AcDbMText
 10
10746.15802331865
 20
11948.91890532839
 30
0.0
 40
120.0
 41
0.0
 46
0.0
 71
     5
 72
     5
  1
\A1;840
 11
0.0000000000000001
 21
1.0
 31
0.0
 73
     1
 44
1.0
  0
POINT
  5
E9F
330
607
100
AcDbEntity
  8
DEFPOINTS
  6
Continuous
 62
     0
440
 16777216
 48
10.0
100
AcDbPoint
 10
10500.88205731865
 20
12394.87595832271
 30
0.0
  0
POINT
  5
EA0
330
607
100
AcDbEntity
  8
DEFPOINTS
  6
Continuous
 62
     0
440
 16777216
 48
10.0
100
AcDbPoint
 10
10500.88205731865
 20
11554.79829932839
 30
0.0
  0
POINT
  5
EA1
330
607
100
AcDbEntity
  8
DEFPOINTS
  6
Continuous
 62
     0
440
 16777216
 48
10.0
100
AcDbPoint
 10
10846.15802331865
 20
11554.79829932839
 30
0.0
  0
ENDBLK
  5
D6E
330
607
100
AcDbEntity
  8
0
 48
10.0
100
AcDbBlockEnd
  0
BLOCK
  5
6D0
330
613
100
AcDbEntity
  8
0
 48
10.0
100
AcDbBlockBegin
  2
*D12
 70
     1
 10
0.0
 20
0.0
 30
0.0
  3
*D12
  1

  0
LINE
  5
EA2
330
613
100
AcDbEntity
  8
3
  6
Continuous
 62
     0
440
 16777216
 48
10.0
100
AcDbLine
 10
11420.96751431865
 20
8606.676835328391
 30
0.0
 11
11420.96751431865
 21
8269.225090328388
 31
0.0
  0
LINE
  5
EA3
330
613
100
AcDbEntity
  8
3
  6
Continuous
 62
     0
440
 16777216
 48
10.0
100
AcDbLine
 10
12260.96751431865
 20
8606.676835328391
 30
0.0
 11
12260.96751431865
 21
8269.225090328388
 31
0.0
  0
LINE
  5
EA4
330
613
100
AcDbEntity
  8
3
  6
Continuous
 62
     0
440
 16777216
 48
10.0
100
AcDbLine
 10
11500.96751431865
 20
8309.225090328389
 30
0.0
 11
12180.96751431865
 21
8309.225090328389
 31
0.0
  0
INSERT
  5
EA5
330
613
100
AcDbEntity
  8
3
  6
Continuous
 62
     0
440
 16777216
 48
10.0
100
AcDbBlockReference
  2
_OPEN
 10
11420.96751431865
 20
8309.225090328389
 30
0.0
 41
80.0
 42
80.0
 43
80.0
 50
180.0
  0
INSERT
  5
EA6
330
613
100
AcDbEntity
  8
3
  6
Continuous
 62
     0
440
 16777216
 48
10.0
100
AcDbBlockReference
  2
_OPEN
 10
12260.96751431865
 20
8309.225090328389
 30
0.0
 41
80.0
 42
80.0
 43
80.0
  0
MTEXT
  5
EA7
330
613
100
AcDbEntity
  8
3
  6
Continuous
 62
     0
440
 16777216
 48
10.0
100
AcDbMText
 10
11870.47900531865
 20
8409.225090328389
 30
0.0
 40
120.0
 41
0.0
 46
0.0
 71
     5
 72
     5
  1
\A1;840
 73
     1
 44
1.0
  0
POINT
  5
EA8
330
613
100
AcDbEntity
  8
DEFPOINTS
  6
Continuous
 62
     0
440
 16777216
 48
10.0
100
AcDbPoint
 10
11420.96751431865
 20
8626.676835328389
 30
0.0
  0
POINT
  5
EA9
330
613
100
AcDbEntity
  8
DEFPOINTS
  6
Continuous
 62
     0
440
 16777216
 48
10.0
100
AcDbPoint
 10
12260.96751431865
 20
8626.676835328389
 30
0.0
  0
POINT
  5
EAA
330
613
100
AcDbEntity
  8
DEFPOINTS
  6
Continuous
 62
     0
440
 16777216
 48
10.0
100
AcDbPoint
 10
12260.96751431865
 20
8309.225090328389
 30
0.0
  0
ENDBLK
  5
6DA
330
613
100
AcDbEntity
  8
0
 48
10.0
100
AcDbBlockEnd
  0
BLOCK
  5
7A8
330
61F
100
AcDbEntity
  8
0
 48
10.0
100
AcDbBlockBegin
  2
*D13
 70
     1
 10
0.0
 20
0.0
 30
0.0
  3
*D13
  1

  0
LINE
  5
10BA
330
61F
100
AcDbEntity
  8
3
  6
Continuous
 62
     0
440
 16777216
 48
10.0
370
    -2
100
AcDbLine
 10
11608.96751431865
 20
9348.676835328388
 30
0.0
 11
11300.80251759414
 21
9348.676835328388
 31
0.0
  0
LINE
  5
10BB
330
61F
100
AcDbEntity
  8
3
  6
Continuous
 62
     0
440
 16777216
 48
10.0
370
    -2
100
AcDbLine
 10
11608.96751431865
 20
8784.676835328388
 30
0.0
 11
11300.80251759414
 21
8784.676835328388
 31
0.0
  0
LINE
  5
10BC
330
61F
100
AcDbEntity
  8
3
  6
Continuous
 62
     0
440
 16777216
 48
10.0
370
    -2
100
AcDbLine
 10
11340.80251759414
 20
9268.67683532839
 30
0.0
 11
11340.80251759414
 21
8864.67683532839
 31
0.0
  0
INSERT
  5
10BD
330
61F
100
AcDbEntity
  8
3
  6
Continuous
 62
     0
440
 16777216
 48
10.0
370
    -2
100
AcDbBlockReference
  2
_OPEN
 10
11340.80251759414
 20
9348.676835328388
 30
0.0
 41
80.0
 42
80.0
 43
80.0
 50
90.0
  0
INSERT
  5
10BE
330
61F
100
AcDbEntity
  8
3
  6
Continuous
 62
     0
440
 16777216
 48
10.0
370
    -2
100
AcDbBlockReference
  2
_OPEN
 10
11340.80251759414
 20
8784.676835328388
 30
0.0
 41
80.0
 42
80.0
 43
80.0
 50
270.0
  0
MTEXT
  5
10BF
330
61F
100
AcDbEntity
  8
3
  6
Continuous
 62
     0
440
 16777216
 48
10.0
100
AcDbMText
 10
11240.80251759414
 20
9071.533978185533
 30
0.0
 40
120.0
 41
0.0
 46
0.0
 71
     5
 72
     1
  1
\A1;564
 11
0.0000000000000001
 21
1.0
 31
0.0
 73
     1
 44
1.0
  0
POINT
  5
10C0
330
61F
100
AcDbEntity
  8
DEFPOINTS
  6
Continuous
 62
     0
440
 16777216
 48
10.0
100
AcDbPoint
 10
11628.96751431865
 20
9348.676835328388
 30
0.0
  0
POINT
  5
10C1
330
61F
100
AcDbEntity
  8
DEFPOINTS
  6
Continuous
 62
     0
440
 16777216
 48
10.0
100
AcDbPoint
 10
11628.96751431865
 20
8784.676835328388
 30
0.0
  0
POINT
  5
10C2
330
61F
100
AcDbEntity
  8
DEFPOINTS
  6
Continuous
 62
     0
440
 16777216
 48
10.0
100
AcDbPoint
 10
11340.80251759414
 20
8784.676835328388
 30
0.0
  0
ENDBLK
  5
7B2
330
61F
100
AcDbEntity
  8
0
 48
10.0
100
AcDbBlockEnd
  0
BLOCK
  5
DFC
330
639
100
AcDbEntity
  8
0
 48
10.0
100
AcDbBlockBegin
  2
*D15
 70
     1
 10
0.0
 20
0.0
 30
0.0
  3
*D15
  1

  0
LINE
  5
FCB
330
639
100
AcDbEntity
  8
3
  6
Continuous
 62
     0
440
 16777216
 48
10.0
370
    -2
100
AcDbLine
 10
11420.96751431865
 20
9676.676835328393
 30
0.0
 11
11420.96751431865
 21
9888.605882328389
 31
0.0
  0
LINE
  5
FCC
330
639
100
AcDbEntity
  8
3
  6
Continuous
 62
     0
440
 16777216
 48
10.0
370
    -2
100
AcDbLine
 10
11840.96751431865
 20
9694.207146519493
 30
0.0
 11
11840.96751431865
 21
9888.605882328389
 31
0.0
  0
LINE
  5
FCD
330
639
100
AcDbEntity
  8
3
  6
Continuous
 62
     0
440
 16777216
 48
10.0
370
    -2
100
AcDbLine
 10
11500.96751431865
 20
9848.60588232839
 30
0.0
 11
11760.96751431865
 21
9848.60588232839
 31
0.0
  0
MTEXT
  5
FCE
330
639
100
AcDbEntity
  8
3
  6
Continuous
 62
     0
440
 16777216
 48
10.0
100
AcDbMText
 10
11618.46751431865
 20
9949.188526922952
 30
0.0
 40
120.0
 41
0.0
 46
0.0
 71
     5
 72
     1
  1
\A1;420
 73
     1
 44
1.0
  0
INSERT
  5
FCF
330
639
100
AcDbEntity
  8
3
  6
Continuous
 62
     0
440
 16777216
 48
10.0
370
    -2
100
AcDbBlockReference
  2
_OPEN
 10
11420.96751431865
 20
9848.60588232839
 30
0.0
 41
80.0
 42
80.0
 43
80.0
 50
180.0
  0
INSERT
  5
FD0
330
639
100
AcDbEntity
  8
3
  6
Continuous
 62
     0
440
 16777216
 48
10.0
370
    -2
100
AcDbBlockReference
  2
_OPEN
 10
11840.96751431865
 20
9848.60588232839
 30
0.0
 41
80.0
 42
80.0
 43
80.0
  0
POINT
  5
FD1
330
639
100
AcDbEntity
  8
DEFPOINTS
  6
Continuous
 62
     0
440
 16777216
 48
10.0
100
AcDbPoint
 10
11420.96751431865
 20
9656.676835328392
 30
0.0
  0
POINT
  5
FD2
330
639
100
AcDbEntity
  8
DEFPOINTS
  6
Continuous
 62
     0
440
 16777216
 48
10.0
100
AcDbPoint
 10
11840.96751431865
 20
9674.207146519494
 30
0.0
  0
POINT
  5
FD3
330
639
100
AcDbEntity
  8
DEFPOINTS
  6
Continuous
 62
     0
440
 16777216
 48
10.0
100
AcDbPoint
 10
11840.96751431865
 20
9848.60588232839
 30
0.0
  0
ENDBLK
  5
E06
330
639
100
AcDbEntity
  8
0
 48
10.0
100
AcDbBlockEnd
  0
BLOCK
  5
E07
330
647
100
AcDbEntity
  8
0
 48
10.0
100
AcDbBlockBegin
  2
*D16
 70
     1
 10
0.0
 20
0.0
 30
0.0
  3
*D16
  1

  0
LINE
  5
FBA
330
647
100
AcDbEntity
  8
3
  6
Continuous
 62
     0
440
 16777216
 48
10.0
370
    -2
100
AcDbLine
 10
12260.96751431865
 20
9676.67683532839
 30
0.0
 11
12260.96751431865
 21
9888.605882328389
 31
0.0
  0
LINE
  5
FBB
330
647
100
AcDbEntity
  8
3
  6
Continuous
 62
     0
440
 16777216
 48
10.0
370
    -2
100
AcDbLine
 10
11920.96751431865
 20
9848.60588232839
 30
0.0
 11
12180.96751431865
 21
9848.60588232839
 31
0.0
  0
MTEXT
  5
FBC
330
647
100
AcDbEntity
  8
3
  6
Continuous
 62
     0
440
 16777216
 48
10.0
100
AcDbMText
 10
12091.28886231865
 20
9948.60588232839
 30
0.0
 40
120.0
 41
0.0
 46
0.0
 71
     5
 72
     1
  1
\A1;420
 73
     1
 44
1.0
  0
INSERT
  5
FBD
330
647
100
AcDbEntity
  8
3
  6
Continuous
 62
     0
440
 16777216
 48
10.0
370
    -2
100
AcDbBlockReference
  2
_OPEN
 10
11840.96751431865
 20
9848.60588232839
 30
0.0
 41
80.0
 42
80.0
 43
80.0
 50
180.0
  0
INSERT
  5
FBE
330
647
100
AcDbEntity
  8
3
  6
Continuous
 62
     0
440
 16777216
 48
10.0
370
    -2
100
AcDbBlockReference
  2
_OPEN
 10
12260.96751431865
 20
9848.60588232839
 30
0.0
 41
80.0
 42
80.0
 43
80.0
  0
POINT
  5
FBF
330
647
100
AcDbEntity
  8
DEFPOINTS
  6
Continuous
 62
     0
440
 16777216
 48
10.0
100
AcDbPoint
 10
11840.96751431865
 20
9674.207146519494
 30
0.0
  0
POINT
  5
FC0
330
647
100
AcDbEntity
  8
DEFPOINTS
  6
Continuous
 62
     0
440
 16777216
 48
10.0
100
AcDbPoint
 10
12260.96751431865
 20
9656.67683532839
 30
0.0
  0
POINT
  5
FC1
330
647
100
AcDbEntity
  8
DEFPOINTS
  6
Continuous
 62
     0
440
 16777216
 48
10.0
100
AcDbPoint
 10
12260.96751431865
 20
9848.60588232839
 30
0.0
  0
ENDBLK
  5
E10
330
647
100
AcDbEntity
  8
0
 48
10.0
100
AcDbBlockEnd
  0
BLOCK
  5
805
330
7ED
100
AcDbEntity
  8
0
 48
10.0
100
AcDbBlockBegin
  2
*D17
 70
     1
 10
0.0
 20
0.0
 30
0.0
  3
*D17
  1

  0
LINE
  5
EBC
330
7ED
100
AcDbEntity
  8
3
  6
Continuous
 62
     0
440
 16777216
 48
10.0
100
AcDbLine
 10
9040.882057318651
 20
8626.676835328389
 30
0.0
 11
8873.475344679807
 21
8626.676835328389
 31
0.0
  0
LINE
  5
EBD
330
7ED
100
AcDbEntity
  8
3
  6
Continuous
 62
     0
440
 16777216
 48
10.0
100
AcDbLine
 10
8956.539887318649
 20
9066.67683532839
 30
0.0
 11
8873.475344679807
 21
9066.67683532839
 31
0.0
  0
LINE
  5
EBE
330
7ED
100
AcDbEntity
  8
3
  6
Continuous
 62
     0
440
 16777216
 48
10.0
100
AcDbLine
 10
8913.475344679806
 20
8706.676835328391
 30
0.0
 11
8913.475344679806
 21
8986.67683532839
 31
0.0
  0
INSERT
  5
EBF
330
7ED
100
AcDbEntity
  8
3
  6
Continuous
 62
     0
440
 16777216
 48
10.0
100
AcDbBlockReference
  2
_OPEN
 10
8913.475344679806
 20
8626.676835328389
 30
0.0
 41
80.0
 42
80.0
 43
80.0
 50
270.0
  0
INSERT
  5
EC0
330
7ED
100
AcDbEntity
  8
3
  6
Continuous
 62
     0
440
 16777216
 48
10.0
100
AcDbBlockReference
  2
_OPEN
 10
8913.475344679806
 20
9066.67683532839
 30
0.0
 41
80.0
 42
80.0
 43
80.0
 50
90.0
  0
MTEXT
  5
EC1
330
7ED
100
AcDbEntity
  8
3
  6
Continuous
 62
     0
440
 16777216
 48
10.0
100
AcDbMText
 10
8813.475344679805
 20
8846.676835328391
 30
0.0
 40
120.0
 41
0.0
 46
0.0
 71
     5
 72
     5
  1
\A1;440
 11
0.0000000000000001
 21
1.0
 31
0.0
 73
     1
 44
1.0
  0
POINT
  5
EC2
330
7ED
100
AcDbEntity
  8
DEFPOINTS
  6
Continuous
 62
     0
440
 16777216
 48
10.0
100
AcDbPoint
 10
9060.882057318648
 20
8626.676835328389
 30
0.0
  0
POINT
  5
EC3
330
7ED
100
AcDbEntity
  8
DEFPOINTS
  6
Continuous
 62
     0
440
 16777216
 48
10.0
100
AcDbPoint
 10
8976.539887318649
 20
9066.67683532839
 30
0.0
  0
POINT
  5
EC4
330
7ED
100
AcDbEntity
  8
DEFPOINTS
  6
Continuous
 62
     0
440
 16777216
 48
10.0
100
AcDbPoint
 10
8913.475344679806
 20
9066.67683532839
 30
0.0
  0
ENDBLK
  5
811
330
7ED
100
AcDbEntity
  8
0
 48
10.0
100
AcDbBlockEnd
  0
BLOCK
  5
F8B
330
F8A
100
AcDbEntity
  8
0
 48
10.0
100
AcDbBlockBegin
  2
*D18
 70
     1
 10
0.0
 20
0.0
 30
0.0
  3
*D18
  1

  0
LINE
  5
FB1
330
F8A
100
AcDbEntity
  8
3
  6
Continuous
 62
     0
440
 16777216
 48
10.0
370
    -2
100
AcDbLine
 10
7533.885714318649
 20
9368.67683532839
 30
0.0
 11
7533.885714318649
 21
9476.713696791124
 31
0.0
  0
LINE
  5
FB2
330
F8A
100
AcDbEntity
  8
3
  6
Continuous
 62
     0
440
 16777216
 48
10.0
370
    -2
100
AcDbLine
 10
7957.885714318648
 20
9368.67683532839
 30
0.0
 11
7957.885714318648
 21
9476.713696791124
 31
0.0
  0
LINE
  5
FB3
330
F8A
100
AcDbEntity
  8
3
  6
Continuous
 62
     0
440
 16777216
 48
10.0
370
    -2
100
AcDbLine
 10
7613.885714318648
 20
9436.713696791125
 30
0.0
 11
7877.885714318648
 21
9436.713696791125
 31
0.0
  0
INSERT
  5
FB4
330
F8A
100
AcDbEntity
  8
3
  6
Continuous
 62
     0
440
 16777216
 48
10.0
370
    -2
100
AcDbBlockReference
  2
_OPEN
 10
7533.885714318649
 20
9436.713696791125
 30
0.0
 41
80.0
 42
80.0
 43
80.0
 50
180.0
  0
INSERT
  5
FB5
330
F8A
100
AcDbEntity
  8
3
  6
Continuous
 62
     0
440
 16777216
 48
10.0
370
    -2
100
AcDbBlockReference
  2
_OPEN
 10
7957.885714318648
 20
9436.713696791125
 30
0.0
 41
80.0
 42
80.0
 43
80.0
  0
MTEXT
  5
FB6
330
F8A
100
AcDbEntity
  8
3
  6
Continuous
 62
     0
440
 16777216
 48
10.0
100
AcDbMText
 10
7745.885714318649
 20
9536.713696791125
 30
0.0
 40
120.0
 41
0.0
 46
0.0
 71
     5
 72
     1
  1
\A1;424
 73
     1
 44
1.0
 90
        3
 63
     9
421
 13158600
 45
1.1
441
        0
  0
POINT
  5
FB7
330
F8A
100
AcDbEntity
  8
DEFPOINTS
  6
Continuous
 62
     0
440
 16777216
 48
10.0
100
AcDbPoint
 10
7533.885714318649
 20
9348.676835328388
 30
0.0
  0
POINT
  5
FB8
330
F8A
100
AcDbEntity
  8
DEFPOINTS
  6
Continuous
 62
     0
440
 16777216
 48
10.0
100
AcDbPoint
 10
7957.885714318648
 20
9348.676835328388
 30
0.0
  0
POINT
  5
FB9
330
F8A
100
AcDbEntity
  8
DEFPOINTS
  6
Continuous
 62
     0
440
 16777216
 48
10.0
100
AcDbPoint
 10
7957.885714318648
 20
9436.713696791125
 30
0.0
  0
ENDBLK
  5
F8C
330
F8A
100
AcDbEntity
  8
0
 48
10.0
100
AcDbBlockEnd
  0
BLOCK
  5
FE1
330
FE0
100
AcDbEntity
  8
0
 48
10.0
100
AcDbBlockBegin
  2
*D19
 70
     1
 10
0.0
 20
0.0
 30
0.0
  3
*D19
  1

  0
LINE
  5
1025
330
FE0
100
AcDbEntity
  8
3
  6
Continuous
 62
     0
440
 16777216
 48
10.0
370
    -2
100
AcDbLine
 10
11628.96751431865
 20
9368.67683532839
 30
0.0
 11
11628.96751431865
 21
9483.262665013397
 31
0.0
  0
LINE
  5
1026
330
FE0
100
AcDbEntity
  8
3
  6
Continuous
 62
     0
440
 16777216
 48
10.0
370
    -2
100
AcDbLine
 10
12052.96751431865
 20
9368.67683532839
 30
0.0
 11
12052.96751431865
 21
9483.262665013397
 31
0.0
  0
LINE
  5
1027
330
FE0
100
AcDbEntity
  8
3
  6
Continuous
 62
     0
440
 16777216
 48
10.0
370
    -2
100
AcDbLine
 10
11708.96751431865
 20
9443.262665013397
 30
0.0
 11
11972.96751431865
 21
9443.262665013397
 31
0.0
  0
INSERT
  5
1028
330
FE0
100
AcDbEntity
  8
3
  6
Continuous
 62
     0
440
 16777216
 48
10.0
370
    -2
100
AcDbBlockReference
  2
_OPEN
 10
11628.96751431865
 20
9443.262665013397
 30
0.0
 41
80.0
 42
80.0
 43
80.0
 50
180.0
  0
INSERT
  5
1029
330
FE0
100
AcDbEntity
  8
3
  6
Continuous
 62
     0
440
 16777216
 48
10.0
370
    -2
100
AcDbBlockReference
  2
_OPEN
 10
12052.96751431865
 20
9443.262665013397
 30
0.0
 41
80.0
 42
80.0
 43
80.0
  0
MTEXT
  5
102A
330
FE0
100
AcDbEntity
  8
3
  6
Continuous
 62
     0
440
 16777216
 48
10.0
100
AcDbMText
 10
11840.96751431865
 20
9543.262665013397
 30
0.0
 40
120.0
 41
0.0
 46
0.0
 71
     5
 72
     1
  1
\A1;424
 73
     1
 44
1.0
 90
        3
 63
     9
421
 13158600
 45
1.1
441
        0
  0
POINT
  5
102B
330
FE0
100
AcDbEntity
  8
DEFPOINTS
  6
Continuous
 62
     0
440
 16777216
 48
10.0
100
AcDbPoint
 10
11628.96751431865
 20
9348.676835328388
 30
0.0
  0
POINT
  5
102C
330
FE0
100
AcDbEntity
  8
DEFPOINTS
  6
Continuous
 62
     0
440
 16777216
 48
10.0
100
AcDbPoint
 10
12052.96751431865
 20
9348.676835328388
 30
0.0
  0
POINT
  5
102D
330
FE0
100
AcDbEntity
  8
DEFPOINTS
  6
Continuous
 62
     0
440
 16777216
 48
10.0
100
AcDbPoint
 10
12052.96751431865
 20
9443.262665013397
 30
0.0
  0
ENDBLK
  5
FE2
330
FE0
100
AcDbEntity
  8
0
 48
10.0
100
AcDbBlockEnd
  0
ENDSEC
  0
SECTION
  2
ENTITIES
  0
LINE
  5
4FE
330
2
100
AcDbEntity
  8
1
  6
Continuous
 48
10.0
100
AcDbLine
 10
8165.885714318649
 20
9651.676835328393
 30
0.0
 11
7325.88571431865
 21
9651.676835328393
 31
0.0
  0
LINE
  5
500
330
2
100
AcDbEntity
  8
1
  6
Continuous
 48
10.0
100
AcDbLine
 10
8165.885714318649
 20
8701.676835328392
 30
0.0
 11
7325.885714318648
 21
8701.676835328393
 31
0.0
  0
LINE
  5
501
330
2
100
AcDbEntity
  8
1
  6
Continuous
 48
10.0
100
AcDbLine
 10
7325.885714318648
 20
8626.676835328392
 30
0.0
 11
8165.885714318648
 21
8626.676835328389
 31
0.0
  0
LINE
  5
502
330
2
100
AcDbEntity
  8
1
  6
Continuous
 48
10.0
100
AcDbLine
 10
7533.885714318649
 20
9348.676835328388
 30
0.0
 11
7957.885714318648
 21
8784.676835328388
 31
0.0
  0
LINE
  5
503
330
2
100
AcDbEntity
  8
1
  6
Continuous
 48
10.0
100
AcDbLine
 10
7533.885714318649
 20
8784.676835328388
 30
0.0
 11
7957.885714318648
 21
9348.676835328388
 31
0.0
  0
LWPOLYLINE
  5
505
330
2
100
AcDbEntity
  8
1
  6
Continuous
 48
10.0
100
AcDbPolyline
 90
        4
 70
     1
 43
0.0
 10
7508.885714318648
 20
8759.67683532839
 10
7982.885714318648
 20
8759.67683532839
 10
7982.885714318648
 20
9373.676835328389
 10
7508.885714318648
 20
9373.676835328389
  0
LWPOLYLINE
  5
50B
330
2
100
AcDbEntity
  8
1
  6
Continuous
 48
10.0
100
AcDbPolyline
 90
        4
 70
     1
 43
0.0
 10
7533.885714318649
 20
8784.676835328388
 10
7957.885714318648
 20
8784.676835328388
 10
7957.885714318648
 20
9348.676835328388
 10
7533.885714318649
 20
9348.676835328388
  0
LINE
  5
511
330
2
100
AcDbEntity
  8
1
  6
Continuous
 48
10.0
100
AcDbLine
 10
7325.88571431865
 20
9651.676835328395
 30
0.0
 11
7325.885714318649
 21
8701.67683532839
 31
0.0
  0
LINE
  5
512
330
2
100
AcDbEntity
  8
1
  6
Continuous
 48
10.0
100
AcDbLine
 10
7325.885714318649
 20
8701.67683532839
 30
0.0
 11
7325.885714318649
 21
8626.676835328389
 31
0.0
  0
LINE
  5
513
330
2
100
AcDbEntity
  8
1
  6
Continuous
 48
10.0
100
AcDbLine
 10
10445.88205731864
 20
12211.79829932839
 30
0.0
 11
10445.88205731864
 21
11737.79829932839
 31
0.0
  0
LINE
  5
514
330
2
100
AcDbEntity
  8
1
  6
Continuous
 48
10.0
100
AcDbLine
 10
9115.88205731865
 20
12211.79829932839
 30
0.0
 11
9115.88205731865
 21
11737.79829932839
 31
0.0
  0
LINE
  5
515
330
2
100
AcDbEntity
  8
1
  6
Continuous
 48
10.0
100
AcDbLine
 10
9140.88205731865
 20
12394.87595832271
 30
0.0
 11
9140.88205731865
 21
11554.79829932839
 31
0.0
  0
LINE
  5
516
330
2
100
AcDbEntity
  8
1
  6
Continuous
 48
10.0
100
AcDbLine
 10
10420.88205731865
 20
11554.79829932839
 30
0.0
 11
10420.88205731864
 21
12394.87595832271
 31
0.0
  0
LINE
  5
517
330
2
100
AcDbEntity
  8
1
  6
Continuous
 48
10.0
100
AcDbLine
 10
10445.88205731865
 20
9373.676835328389
 30
0.0
 11
10445.88205731865
 21
8759.67683532839
 31
0.0
  0
LINE
  5
518
330
2
100
AcDbEntity
  8
1
  6
Continuous
 48
10.0
100
AcDbLine
 10
9115.88205731865
 20
9373.676835328389
 30
0.0
 11
9115.88205731865
 21
8759.67683532839
 31
0.0
  0
LINE
  5
51A
330
2
100
AcDbEntity
  8
1
  6
Continuous
 48
10.0
100
AcDbLine
 10
8165.885714318649
 20
8701.67683532839
 30
0.0
 11
8165.885714318649
 21
9651.676835328395
 31
0.0
  0
LINE
  5
51B
330
2
100
AcDbEntity
  8
1
  6
Continuous
 48
10.0
100
AcDbLine
 10
9140.88205731865
 20
9656.67683532839
 30
0.0
 11
9140.88205731865
 21
8701.67683532839
 31
0.0
  0
LINE
  5
51C
330
2
100
AcDbEntity
  8
1
  6
Continuous
 48
10.0
100
AcDbLine
 10
10420.88205731865
 20
8701.67683532839
 30
0.0
 11
10420.88205731865
 21
9656.67683532839
 31
0.0
  0
LINE
  5
51D
330
2
100
AcDbEntity
  8
1
  6
Continuous
 48
10.0
100
AcDbLine
 10
9135.882057318649
 20
8701.67683532839
 30
0.0
 11
10425.88205731865
 21
8701.67683532839
 31
0.0
  0
LINE
  5
51E
330
2
100
AcDbEntity
  8
1
  6
Continuous
 48
10.0
100
AcDbLine
 10
10500.88205731865
 20
8701.67683532839
 30
0.0
 11
9060.882057318648
 21
8701.67683532839
 31
0.0
  0
LINE
  5
51F
330
2
100
AcDbEntity
  8
1
  6
Continuous
 48
10.0
100
AcDbLine
 10
9060.882057318648
 20
8626.676835328389
 30
0.0
 11
10500.88205731865
 21
8626.676835328389
 31
0.0
  0
LINE
  5
520
330
2
100
AcDbEntity
  8
1
  6
Continuous
 48
10.0
100
AcDbLine
 10
8165.885714318649
 20
8626.676835328389
 30
0.0
 11
8165.885714318649
 21
8701.67683532839
 31
0.0
  0
LINE
  5
521
330
2
100
AcDbEntity
  8
1
  6
Continuous
 48
10.0
100
AcDbLine
 10
9115.88205731865
 20
8759.67683532839
 30
0.0
 11
9140.88205731865
 21
8759.67683532839
 31
0.0
  0
LINE
  5
522
330
2
100
AcDbEntity
  8
1
  6
Continuous
 48
10.0
100
AcDbLine
 10
9060.882057318648
 20
8701.67683532839
 30
0.0
 11
9060.882057318648
 21
8626.676835328389
 31
0.0
  0
LINE
  5
523
330
2
100
AcDbEntity
  8
1
  6
Continuous
 48
10.0
100
AcDbLine
 10
10445.88205731865
 20
8759.67683532839
 30
0.0
 11
10420.88205731865
 21
8759.67683532839
 31
0.0
  0
LINE
  5
524
330
2
100
AcDbEntity
  8
1
  6
Continuous
 48
10.0
100
AcDbLine
 10
10500.88205731865
 20
8626.676835328389
 30
0.0
 11
10500.88205731865
 21
8701.67683532839
 31
0.0
  0
LINE
  5
526
330
2
100
AcDbEntity
  8
1
  6
Continuous
 48
10.0
100
AcDbLine
 10
9140.88205731865
 20
11554.79829932839
 30
0.0
 11
10420.88205731865
 21
11554.79829932839
 31
0.0
  0
ARC
  5
527
330
2
100
AcDbEntity
  8
1
  6
Continuous
 48
10.0
100
AcDbCircle
 10
9602.88205731865
 20
9246.67683532839
 30
0.0
 40
310.759447
100
AcDbArc
 50
5.826341999999999
 51
97.30575999999999
  0
ARC
  5
528
330
2
100
AcDbEntity
  8
1
  6
Continuous
 48
10.0
100
AcDbCircle
 10
9553.88205731865
 20
9241.676835328389
 30
0.0
 40
360.013889
100
AcDbArc
 50
274.301056
 51
5.826341999999999
  0
LINE
  5
529
330
2
100
AcDbEntity
  8
1
  6
Continuous
 48
10.0
100
AcDbLine
 10
10420.88205731865
 20
9656.67683532839
 30
0.0
 11
9140.88205731865
 21
9656.67683532839
 31
0.0
  0
LINE
  5
52A
330
2
100
AcDbEntity
  8
1
  6
Continuous
 48
10.0
100
AcDbLine
 10
9326.487871318647
 20
8880.67683532839
 30
0.0
 11
9140.88205731865
 21
8880.67683532839
 31
0.0
  0
LINE
  5
52B
330
2
100
AcDbEntity
  8
1
  6
Continuous
 48
10.0
100
AcDbLine
 10
9326.487871318647
 20
9280.676835328391
 30
0.0
 11
9140.88205731865
 21
9280.676835328391
 31
0.0
  0
LINE
  5
52C
330
2
100
AcDbEntity
  8
1
  6
Continuous
 48
10.0
100
AcDbLine
 10
9115.88205731865
 20
9373.676835328389
 30
0.0
 11
9140.88205731865
 21
9373.676835328389
 31
0.0
  0
ARC
  5
52D
330
2
100
AcDbEntity
  8
1
  6
Continuous
 48
10.0
100
AcDbCircle
 10
9597.882057318649
 20
9285.67683532839
 30
0.0
 40
271.440241
100
AcDbArc
 50
97.30575999999999
 51
181.055463
  0
LINE
  5
52E
330
2
100
AcDbEntity
  8
1
  6
Continuous
 48
10.0
100
AcDbLine
 10
9280.882057318649
 20
8880.67683532839
 30
0.0
 11
9580.88205731865
 21
8882.676835328389
 31
0.0
  0
LINE
  5
52F
330
2
100
AcDbEntity
  8
1
  6
Continuous
 48
10.0
100
AcDbLine
 10
9280.882057318649
 20
9280.676835328391
 30
0.0
 11
9280.882057318649
 21
8880.67683532839
 31
0.0
  0
LINE
  5
530
330
2
100
AcDbEntity
  8
1
  6
Continuous
 48
10.0
100
AcDbLine
 10
9115.88205731865
 20
11737.79829932839
 30
0.0
 11
9140.88205731865
 21
11737.79829932839
 31
0.0
  0
LINE
  5
531
330
2
100
AcDbEntity
  8
1
  6
Continuous
 48
10.0
100
AcDbLine
 10
9060.882057318648
 20
11594.79829932839
 30
0.0
 11
9060.882057318648
 21
11554.79829932839
 31
0.0
  0
LINE
  5
532
330
2
100
AcDbEntity
  8
1
  6
Continuous
 48
10.0
100
AcDbLine
 10
9140.882057318652
 20
11594.79829932839
 30
0.0
 11
9060.882057318648
 21
11594.79829932839
 31
0.0
  0
LINE
  5
534
330
2
100
AcDbEntity
  8
1
  6
Continuous
 48
10.0
100
AcDbLine
 10
10445.88205731865
 20
9373.676835328389
 30
0.0
 11
10420.88205731865
 21
9373.676835328389
 31
0.0
  0
LINE
  5
535
330
2
100
AcDbEntity
  8
1
  6
Continuous
 48
10.0
100
AcDbLine
 10
10445.88205731865
 20
11737.79829932839
 30
0.0
 11
10420.88205731865
 21
11737.79829932839
 31
0.0
  0
LINE
  5
536
330
2
100
AcDbEntity
  8
1
  6
Continuous
 48
10.0
100
AcDbLine
 10
10500.88205731865
 20
11554.79829932839
 30
0.0
 11
9060.882057318648
 21
11554.79829932839
 31
0.0
  0
LINE
  5
537
330
2
100
AcDbEntity
  8
1
  6
Continuous
 48
10.0
100
AcDbLine
 10
10420.88205731865
 20
11594.79829932839
 30
0.0
 11
10500.88205731865
 21
11594.79829932839
 31
0.0
  0
LINE
  5
538
330
2
100
AcDbEntity
  8
1
  6
Continuous
 48
10.0
100
AcDbLine
 10
10500.88205731865
 20
11594.79829932839
 30
0.0
 11
10500.88205731865
 21
11554.79829932839
 31
0.0
  0
LINE
  5
539
330
2
100
AcDbEntity
  8
1
  6
Continuous
 48
10.0
100
AcDbLine
 10
12052.96751431865
 20
9348.676835328388
 30
0.0
 11
11628.96751431865
 21
8784.676835328388
 31
0.0
  0
LINE
  5
53A
330
2
100
AcDbEntity
  8
1
  6
Continuous
 48
10.0
100
AcDbLine
 10
11628.96751431865
 20
9348.676835328388
 30
0.0
 11
12052.96751431865
 21
8784.676835328388
 31
0.0
  0
LINE
  5
53B
330
2
100
AcDbEntity
  8
1
  6
Continuous
 48
10.0
100
AcDbLine
 10
12260.96751431865
 20
8701.67683532839
 30
0.0
 11
12260.96751431865
 21
9656.67683532839
 31
0.0
  0
LINE
  5
53C
330
2
100
AcDbEntity
  8
1
  6
Continuous
 48
10.0
100
AcDbLine
 10
11420.96751431865
 20
9656.676835328392
 30
0.0
 11
11420.96751431865
 21
8701.67683532839
 31
0.0
  0
LWPOLYLINE
  5
53D
330
2
100
AcDbEntity
  8
1
  6
Continuous
 48
10.0
100
AcDbPolyline
 90
        4
 70
     1
 43
0.0
 10
11628.96751431865
 20
8784.676835328388
 10
12052.96751431865
 20
8784.676835328388
 10
12052.96751431865
 20
9348.676835328388
 10
11628.96751431865
 20
9348.676835328388
  0
LWPOLYLINE
  5
543
330
2
100
AcDbEntity
  8
1
  6
Continuous
 48
10.0
100
AcDbPolyline
 90
        4
 70
     1
 43
0.0
 10
11603.96751431865
 20
8759.67683532839
 10
12077.96751431865
 20
8759.67683532839
 10
12077.96751431865
 20
9373.676835328389
 10
11603.96751431865
 20
9373.676835328389
  0
LINE
  5
54B
330
2
100
AcDbEntity
  8
1
  6
Continuous
 48
10.0
100
AcDbLine
 10
11420.96751431865
 20
8626.676835328389
 30
0.0
 11
12260.96751431865
 21
8626.676835328389
 31
0.0
  0
LINE
  5
54C
330
2
100
AcDbEntity
  8
1
  6
Continuous
 48
10.0
100
AcDbLine
 10
12260.96751431865
 20
8701.67683532839
 30
0.0
 11
11420.96751431865
 21
8701.67683532839
 31
0.0
  0
LINE
  5
54D
330
2
100
AcDbEntity
  8
1
  6
Continuous
 48
10.0
100
AcDbLine
 10
11420.96751431865
 20
8701.67683532839
 30
0.0
 11
12260.96751431865
 21
8701.67683532839
 31
0.0
  0
LINE
  5
54E
330
2
100
AcDbEntity
  8
1
  6
Continuous
 48
10.0
100
AcDbLine
 10
11420.96751431865
 20
8701.67683532839
 30
0.0
 11
11420.96751431865
 21
8626.676835328389
 31
0.0
  0
LINE
  5
54F
330
2
100
AcDbEntity
  8
1
  6
Continuous
 48
10.0
100
AcDbLine
 10
12260.96751431865
 20
8626.676835328389
 30
0.0
 11
12260.96751431865
 21
8701.67683532839
 31
0.0
  0
LINE
  5
550
330
2
100
AcDbEntity
  8
1
  6
Continuous
 48
10.0
100
AcDbLine
 10
12260.96751431865
 20
9656.67683532839
 30
0.0
 11
11420.96751431865
 21
9656.676835328392
 31
0.0
  0
LINE
  5
552
330
2
100
AcDbEntity
  8
1
  6
Continuous
 48
10.0
100
AcDbLine
 10
10420.88205731865
 20
12394.87595832271
 30
0.0
 11
9140.88205731865
 21
12394.87595832271
 31
0.0
  0
LINE
  5
553
330
2
100
AcDbEntity
  8
1
  6
Continuous
 48
10.0
100
AcDbLine
 10
9060.882057318648
 20
12394.87595832271
 30
0.0
 11
9060.882057318648
 21
12354.87595832271
 31
0.0
  0
LINE
  5
554
330
2
100
AcDbEntity
  8
1
  6
Continuous
 48
10.0
100
AcDbLine
 10
9115.88205731865
 20
12211.79829932839
 30
0.0
 11
9140.88205731865
 21
12211.79829932839
 31
0.0
  0
LINE
  5
555
330
2
100
AcDbEntity
  8
1
  6
Continuous
 48
10.0
100
AcDbLine
 10
9140.882057318652
 20
12354.87595832271
 30
0.0
 11
9060.882057318648
 21
12354.87595832271
 31
0.0
  0
LINE
  5
557
330
2
100
AcDbEntity
  8
1
  6
Continuous
 48
10.0
100
AcDbLine
 10
10500.88205731865
 20
12394.87595832271
 30
0.0
 11
10500.88205731865
 21
12354.87595832271
 31
0.0
  0
LINE
  5
558
330
2
100
AcDbEntity
  8
1
  6
Continuous
 48
10.0
100
AcDbLine
 10
10445.88205731865
 20
12211.79829932839
 30
0.0
 11
10420.88205731865
 21
12211.79829932839
 31
0.0
  0
LINE
  5
559
330
2
100
AcDbEntity
  8
1
  6
Continuous
 48
10.0
100
AcDbLine
 10
10420.88205731865
 20
12354.87595832271
 30
0.0
 11
10500.88205731865
 21
12354.87595832271
 31
0.0
  0
LINE
  5
55A
330
2
100
AcDbEntity
  8
1
  6
Continuous
 48
10.0
100
AcDbLine
 10
9060.882057318648
 20
12394.87595832271
 30
0.0
 11
10500.88205731865
 21
12394.87595832271
 31
0.0
  0
LINE
  5
55B
330
2
100
AcDbEntity
  8
2
  6
CENTER
 48
10.0
100
AcDbLine
 10
9039.746125318648
 20
11974.79829932839
 30
0.0
 11
9199.804229318649
 21
11974.79829932839
 31
0.0
  0
LINE
  5
55C
330
2
100
AcDbEntity
  8
2
  6
CENTER
 48
10.0
100
AcDbLine
 10
10511.43505331865
 20
11974.79829932839
 30
0.0
 11
10328.53212930973
 21
11974.79829932839
 31
0.0
  0
LINE
  5
55D
330
2
100
AcDbEntity
  8
2
  6
CENTER
 48
10.0
100
AcDbLine
 10
7745.885714318649
 20
9666.469587459047
 30
0.0
 11
7745.885714318649
 21
8586.581738328389
 31
0.0
  0
DIMENSION
  5
55E
330
2
100
AcDbEntity
  8
3
  6
Continuous
 48
10.0
100
AcDbDimension
280
     0
  2
*D1
 10
8165.885714318648
 20
8311.692312328387
 30
0.0
 11
7733.475298318648
 21
8311.692312328387
 31
0.0
 70
   160
 71
     5
 42
-1.0
 73
     0
 74
     0
 75
     0
  3
IGA
100
AcDbAlignedDimension
 13
7325.885714318648
 23
8626.676835328387
 33
0.0
 14
8165.885714318648
 24
8626.676835328389
 34
0.0
100
AcDbRotatedDimension
1001
ACAD
1000
DSTYLE
1002
{
1070
   287
1070
     3
1070
   287
1070
     3
1070
   287
1070
     3
1070
    40
1040
40.0
1070
   143
1040
0.039
1070
   172
1070
     1
1070
   271
1070
     0
1070
   279
1070
     0
1070
   288
1070
     1
1002
}
  0
DIMENSION
  5
560
330
2
100
AcDbEntity
  8
3
  6
Continuous
 48
10.0
100
AcDbDimension
280
     0
  2
*D3
 10
7259.709890051418
 20
8784.676835328388
 30
0.0
 11
7259.709890051418
 21
9061.819692471246
 31
0.0
 70
   160
 71
     5
 42
-1.0
 73
     0
 74
     0
 75
     0
  3
IGA
100
AcDbAlignedDimension
 13
7533.885714318649
 23
9348.676835328388
 33
0.0
 14
7533.885714318649
 24
8784.676835328388
 34
0.0
 50
90.0
100
AcDbRotatedDimension
1001
ACAD
1000
DSTYLE
1002
{
1070
   288
1070
     1
1070
   172
1070
     1
1070
    40
1040
40.0
1070
   271
1070
     0
1070
   143
1040
0.039
1002
}
  0
DIMENSION
  5
561
330
2
100
AcDbEntity
  8
3
  6
Continuous
 48
10.0
100
AcDbDimension
280
     0
  2
*D4
 10
7745.885714318649
 20
9855.374345952069
 30
0.0
 11
7528.385714318649
 21
9960.926714461912
 31
0.0
 70
   160
 71
     5
 42
419.9999999999991
 73
     0
 74
     0
 75
     0
  3
IGA
100
AcDbAlignedDimension
 13
7325.88571431865
 23
9651.676835328389
 33
0.0
 14
7745.885714318649
 24
9662.537277102533
 34
0.0
100
AcDbRotatedDimension
1001
ACAD
1000
DSTYLE
1002
{
1070
    40
1040
40.0
1070
   143
1040
0.039
1070
   172
1070
     1
1070
   271
1070
     0
1070
   288
1070
     1
1002
}
  0
DIMENSION
  5
562
330
2
100
AcDbEntity
  8
3
  6
Continuous
 48
10.0
100
AcDbDimension
280
     0
  2
*D5
 10
8165.885714318649
 20
9855.71607932839
 30
0.0
 11
7954.993615318648
 21
9843.428941404527
 31
0.0
 70
   160
 71
     5
 42
420.0
 73
     0
 74
     0
 75
     0
  3
IGA
100
AcDbAlignedDimension
 13
7745.885714318649
 23
9662.537277102533
 33
0.0
 14
8165.885714318649
 24
9651.676835328393
 34
0.0
100
AcDbRotatedDimension
1001
ACAD
1000
DSTYLE
1002
{
1070
    40
1040
40.0
1070
    75
1070
     1
1070
   143
1040
0.039
1070
   172
1070
     1
1070
   271
1070
     0
1070
   279
1070
     1
1070
   288
1070
     1
1002
}
  0
LINE
  5
563
330
2
100
AcDbEntity
  8
2
  6
CENTER
 48
10.0
100
AcDbLine
 10
8976.539887318649
 20
9066.67683532839
 30
0.0
 11
10602.48376331865
 21
9066.67683532839
 31
0.0
  0
DIMENSION
  5
564
330
2
100
AcDbEntity
  8
3
  6
Continuous
 48
10.0
100
AcDbDimension
280
     0
  2
*D6
 10
10500.88205731865
 20
8350.605217328391
 30
0.0
 11
9767.857839318651
 21
8350.605217328391
 31
0.0
 70
   160
  1
<>
 71
     5
 42
-1.0
 73
     0
 74
     0
 75
     0
  3
IGA
100
AcDbAlignedDimension
 13
9060.882057318648
 23
8626.676835328389
 33
0.0
 14
10500.88205731865
 24
8626.676835328389
 34
0.0
100
AcDbRotatedDimension
1001
ACAD
1000
DSTYLE
1002
{
1070
   287
1070
     3
1070
   287
1070
     3
1070
   287
1070
     3
1070
    40
1040
40.0
1070
   143
1040
0.039
1070
   172
1070
     1
1070
   271
1070
     0
1070
   279
1070
     0
1070
   288
1070
     1
1002
}
  0
DIMENSION
  5
565
330
2
100
AcDbEntity
  8
3
  6
Continuous
 48
10.0
100
AcDbDimension
280
     0
  2
*D7
 10
10768.98182931865
 20
8626.676835328389
 30
0.0
 11
10662.86237300763
 21
8856.676835328391
 31
0.0
 70
   160
 71
     5
 42
-1.0
 73
     0
 74
     0
 75
     0
  3
IGA
100
AcDbAlignedDimension
 13
10602.48376331865
 23
9066.67683532839
 33
0.0
 14
10500.88205731865
 24
8626.676835328389
 34
0.0
 50
90.0
100
AcDbRotatedDimension
1001
ACAD
1000
DSTYLE
1002
{
1070
   288
1070
     1
1070
   172
1070
     1
1070
    40
1040
40.0
1070
   271
1070
     0
1070
   143
1040
0.039
1002
}
  0
DIMENSION
  5
566
330
2
100
AcDbEntity
  8
3
  6
Continuous
 48
10.0
100
AcDbDimension
280
     0
  2
*D8
 10
8694.683963414334
 20
8626.676835328389
 30
0.0
 11
8694.683963414332
 21
9139.573567328389
 31
0.0
 70
   160
 71
     5
 42
-1.0
 73
     0
 74
     0
 75
     0
  3
IGA
100
AcDbAlignedDimension
 13
9140.88205731865
 23
9656.67683532839
 33
0.0
 14
9060.882057318648
 24
8626.676835328389
 34
0.0
 50
90.0
100
AcDbRotatedDimension
1001
ACAD
1000
DSTYLE
1002
{
1070
   287
1070
     3
1070
   287
1070
     3
1070
   287
1070
     3
1070
    40
1040
40.0
1070
   143
1040
0.039
1070
   172
1070
     1
1070
   271
1070
     0
1070
   279
1070
     0
1070
   288
1070
     1
1002
}
  0
DIMENSION
  5
567
330
2
100
AcDbEntity
  8
3
  6
Continuous
 48
10.0
100
AcDbDimension
280
     0
  2
*D9
 10
10420.88205731865
 20
9855.71607932839
 30
0.0
 11
9772.14938031865
 21
9855.71607932839
 31
0.0
 70
   160
  1
<>
 71
     5
 42
-1.0
 73
     0
 74
     0
 75
     0
  3
IGA
100
AcDbAlignedDimension
 13
9140.88205731865
 23
9656.67683532839
 33
0.0
 14
10420.88205731865
 24
9656.67683532839
 34
0.0
100
AcDbRotatedDimension
1001
ACAD
1000
DSTYLE
1002
{
1070
   287
1070
     3
1070
   287
1070
     3
1070
   287
1070
     3
1070
    40
1040
40.0
1070
   143
1040
0.039
1070
   172
1070
     1
1070
   271
1070
     0
1070
   279
1070
     0
1070
   288
1070
     1
1002
}
  0
DIMENSION
  5
568
330
2
100
AcDbEntity
  8
3
  6
Continuous
 48
10.0
100
AcDbDimension
280
     0
  2
*D10
 10
10420.88205731865
 20
11245.63036232839
 30
0.0
 11
9807.159505318649
 21
11245.63036232839
 31
0.0
 70
   160
 71
     5
 42
1280.0
 73
     0
 74
     0
 75
     0
  3
IGA
100
AcDbAlignedDimension
 13
9140.88205731865
 23
11554.79829932839
 33
0.0
 14
10420.88205731865
 24
11554.79829932839
 34
0.0
100
AcDbRotatedDimension
1001
ACAD
1000
DSTYLE
1002
{
1070
   287
1070
     3
1070
   287
1070
     3
1070
   287
1070
     3
1070
    40
1040
40.0
1070
   143
1040
0.039
1070
   172
1070
     1
1070
   271
1070
     0
1070
   279
1070
     0
1070
   288
1070
     1
1002
}
  0
DIMENSION
  5
569
330
2
100
AcDbEntity
  8
3
  6
Continuous
 48
10.0
100
AcDbDimension
280
     0
  2
*D11
 10
10846.15802331865
 20
11554.79829932839
 30
0.0
 11
10846.15802331865
 21
11948.91890532839
 31
0.0
 70
   160
 71
     5
 42
-1.0
 73
     0
 74
     0
 75
     0
  3
IGA
100
AcDbAlignedDimension
 13
10500.88205731865
 23
12394.87595832271
 33
0.0
 14
10500.88205731865
 24
11554.79829932839
 34
0.0
 50
90.0
100
AcDbRotatedDimension
1001
ACAD
1000
DSTYLE
1002
{
1070
   287
1070
     3
1070
   287
1070
     3
1070
   287
1070
     3
1070
    40
1040
40.0
1070
   143
1040
0.039
1070
   172
1070
     1
1070
   271
1070
     0
1070
   279
1070
     0
1070
   288
1070
     1
1002
}
  0
LINE
  5
56A
330
2
100
AcDbEntity
  8
2
  6
CENTER
 48
10.0
100
AcDbLine
 10
11840.96751431865
 20
9673.436968603626
 30
0.0
 11
11840.96751431865
 21
8562.91683819232
 31
0.0
  0
DIMENSION
  5
56B
330
2
100
AcDbEntity
  8
3
  6
Continuous
 48
10.0
100
AcDbDimension
280
     0
  2
*D12
 10
12260.96751431865
 20
8309.225090328389
 30
0.0
 11
11870.47900531865
 21
8309.225090328389
 31
0.0
 70
   160
 71
     5
 42
-1.0
 73
     0
 74
     0
 75
     0
  3
IGA
100
AcDbAlignedDimension
 13
11420.96751431865
 23
8626.676835328389
 33
0.0
 14
12260.96751431865
 24
8626.676835328389
 34
0.0
100
AcDbRotatedDimension
1001
ACAD
1000
DSTYLE
1002
{
1070
   287
1070
     3
1070
   287
1070
     3
1070
   287
1070
     3
1070
    40
1040
40.0
1070
   143
1040
0.039
1070
   172
1070
     1
1070
   271
1070
     0
1070
   279
1070
     0
1070
   288
1070
     1
1002
}
  0
DIMENSION
  5
56C
330
2
100
AcDbEntity
  8
3
  6
Continuous
 48
10.0
100
AcDbDimension
280
     0
  2
*D13
 10
11340.80251759414
 20
8784.676835328388
 30
0.0
 11
11340.80251759414
 21
9071.533978185533
 31
0.0
 70
   160
 71
     5
 42
564.0
 73
     0
 74
     0
 75
     0
  3
IGA
100
AcDbAlignedDimension
 13
11628.96751431865
 23
9348.676835328388
 33
0.0
 14
11628.96751431865
 24
8784.676835328388
 34
0.0
 50
90.0
100
AcDbRotatedDimension
1001
ACAD
1000
DSTYLE
1002
{
1070
    40
1040
40.0
1070
   143
1040
0.039
1070
   172
1070
     1
1070
   271
1070
     0
1070
   279
1070
     0
1070
   288
1070
     1
1002
}
  0
DIMENSION
  5
56E
330
2
100
AcDbEntity
  8
3
  6
Continuous
 48
10.0
100
AcDbDimension
280
     0
  2
*D15
 10
11840.96751431865
 20
9848.60588232839
 30
0.0
 11
11618.46751431865
 21
9949.188526922952
 31
0.0
 70
   160
 71
     5
 42
420.0
 73
     0
 74
     0
 75
     0
  3
IGA
100
AcDbAlignedDimension
 13
11420.96751431865
 23
9656.676835328392
 33
0.0
 14
11840.96751431865
 24
9674.207146519494
 34
0.0
100
AcDbRotatedDimension
1001
ACAD
1000
DSTYLE
1002
{
1070
   288
1070
     1
1070
   172
1070
     1
1070
    40
1040
40.0
1070
   271
1070
     0
1070
   143
1040
0.039
1002
}
  0
DIMENSION
  5
56F
330
2
100
AcDbEntity
  8
3
  6
Continuous
 48
10.0
100
AcDbDimension
280
     0
  2
*D16
 10
12260.96751431865
 20
9848.60588232839
 30
0.0
 11
12091.28886231865
 21
9848.60588232839
 31
0.0
 70
   160
 71
     5
 42
420.0
 73
     0
 74
     0
 75
     0
  3
IGA
100
AcDbAlignedDimension
 13
11840.96751431865
 23
9674.207146519494
 33
0.0
 14
12260.96751431865
 24
9656.67683532839
 34
0.0
100
AcDbRotatedDimension
1001
ACAD
1000
DSTYLE
1002
{
1070
   287
1070
     4
1070
   287
1070
     4
1070
   287
1070
     4
1070
    40
1040
40.0
1070
    75
1070
     1
1070
   143
1040
0.039
1070
   172
1070
     1
1070
   271
1070
     0
1070
   279
1070
     1
1070
   288
1070
     1
1002
}
  0
LINE
  5
570
330
2
100
AcDbEntity
  8
4
  6
Continuous
 48
10.0
100
AcDbLine
 10
12819.74395831865
 20
6226.581588328389
 30
0.0
 11
12819.74395831865
 21
5426.581588328389
 31
0.0
  0
LINE
  5
571
330
2
100
AcDbEntity
  8
4
  6
Continuous
 48
10.0
100
AcDbLine
 10
10019.74395831865
 20
6226.581588328389
 30
0.0
 11
10019.74395831865
 21
5426.581588328389
 31
0.0
  0
LINE
  5
572
330
2
100
AcDbEntity
  8
4
  6
Continuous
 48
10.0
100
AcDbLine
 10
8019.743958318649
 20
6226.581588328389
 30
0.0
 11
8019.743958318649
 21
5426.581588328389
 31
0.0
  0
LINE
  5
575
330
2
100
AcDbEntity
  8
4
  6
Continuous
 48
10.0
100
AcDbLine
 10
8019.743958318649
 20
5426.581588328389
 30
0.0
 11
12819.74395831865
 21
5426.581588328389
 31
0.0
  0
LINE
  5
576
330
2
100
AcDbEntity
  8
4
  6
Continuous
 48
10.0
100
AcDbLine
 10
8019.743958318649
 20
5826.581588328389
 30
0.0
 11
12819.74395831865
 21
5826.581588328389
 31
0.0
  0
TEXT
  5
577
330
2
100
AcDbEntity
  8
4
  6
Continuous
 48
10.0
100
AcDbText
 10
8173.752281318648
 20
5952.753691328389
 30
0.0
 40
200.0
  1
機器名称
100
AcDbText
  0
TEXT
  5
578
330
2
100
AcDbEntity
  8
4
  6
Continuous
 48
10.0
100
AcDbText
 10
8164.776382318649
 20
5513.16221532839
 30
0.0
 40
200.0
  1
機器型番
100
AcDbText
  0
TEXT
  5
579
330
2
100
AcDbEntity
  8
4
  6
Continuous
 48
10.0
100
AcDbText
 10
10130.45894031865
 20
5916.868664328389
 30
0.0
 40
200.0
  1
ミツヤファンユニット
100
AcDbText
  0
TEXT
  5
57A
330
2
100
AcDbEntity
  8
4
  6
Continuous
 48
10.0
100
AcDbText
 10
10166.36194031865
 20
5495.219925328388
 30
0.0
 40
200.0
  1
MFU#2504-4
100
AcDbText
  0
TEXT
  5
57C
330
2
100
AcDbEntity
  8
4
  6
Continuous
 48
10.0
100
AcDbText
 10
8208.057998318649
 20
13760.29695332839
 30
0.0
 40
200.0
  1
天井吊りベット
100
AcDbText
  0
TEXT
  5
57D
330
2
100
AcDbEntity
  8
4
  6
Continuous
 48
10.0
100
AcDbText
 10
6684.414331318649
 20
14362.10549332839
 30
0.0
 40
250.0
  1
ベルト駆動式消音ボックス付き多翼ファン
100
AcDbText
  0
LINE
  5
57E
330
2
100
AcDbEntity
  8
4
  6
Continuous
 48
10.0
100
AcDbLine
 10
6419.743958318649
 20
14104.21660532839
 30
0.0
 11
12819.74395831865
 21
14104.21660532839
 31
0.0
  0
LINE
  5
57F
330
2
100
AcDbEntity
  8
4
  6
Continuous
 48
10.0
100
AcDbLine
 10
6419.743958318649
 20
14904.21660532839
 30
0.0
 11
12819.74395831865
 21
14904.21660532839
 31
0.0
  0
LINE
  5
580
330
2
100
AcDbEntity
  8
4
  6
Continuous
 48
10.0
100
AcDbLine
 10
8019.743958318649
 20
6226.581588328389
 30
0.0
 11
12819.74395831865
 21
6226.581588328389
 31
0.0
  0
LINE
  5
581
330
2
100
AcDbEntity
  8
4
  6
Continuous
 48
10.0
100
AcDbLine
 10
6419.743958318649
 20
14904.21660532839
 30
0.0
 11
6419.743958318649
 21
14104.21660532839
 31
0.0
  0
TEXT
  5
582
330
2
100
AcDbEntity
  8
4
  6
Continuous
 48
10.0
100
AcDbText
 10
6545.679155318649
 20
13755.85949832839
 30
0.0
 40
200.0
  1
右回転左吐出
100
AcDbText
  0
TEXT
  5
583
330
2
100
AcDbEntity
  8
4
  6
Continuous
 48
10.0
100
AcDbText
 10
11295.62219531865
 20
15050.82591432839
 30
0.0
 40
224.0
  1
No.
100
AcDbText
  0
TEXT
  5
584
330
2
100
AcDbEntity
  8
4
  6
Continuous
 48
10.0
100
AcDbText
 10
11151.26717431865
 20
13760.29695332839
 30
0.0
 40
200.0
  1
縮尺：1/40
100
AcDbText
  0
LINE
  5
585
330
2
100
AcDbEntity
  8
4
  6
Continuous
 48
10.0
100
AcDbLine
 10
12819.74395831865
 20
14904.21660532839
 30
0.0
 11
12819.74395831865
 21
14104.21660532839
 31
0.0
  0
LINE
  5
586
330
2
100
AcDbEntity
  8
4
  6
Continuous
 48
10.0
100
AcDbLine
 10
11182.21364731865
 20
14951.63592132839
 30
0.0
 11
11182.21364731865
 21
15373.19063432839
 31
0.0
  0
LINE
  5
587
330
2
100
AcDbEntity
  8
4
  6
Continuous
 48
10.0
100
AcDbLine
 10
11182.21364731865
 20
15373.19063432839
 30
0.0
 11
12819.74395831865
 21
15373.19063432839
 31
0.0
  0
LINE
  5
588
330
2
100
AcDbEntity
  8
4
  6
Continuous
 48
10.0
100
AcDbLine
 10
12819.74395831865
 20
15373.19063432839
 30
0.0
 11
12819.74395831865
 21
14951.63592132839
 31
0.0
  0
LINE
  5
589
330
2
100
AcDbEntity
  8
4
  6
Continuous
 48
10.0
100
AcDbLine
 10
12819.74395831865
 20
14951.63592132839
 30
0.0
 11
11182.21364731865
 21
14951.63592132839
 31
0.0
  0
DIMENSION
  5
7F9
330
2
100
AcDbEntity
  8
3
  6
Continuous
 48
10.0
100
AcDbDimension
280
     0
  2
*D17
 10
8913.475344679806
 20
9066.67683532839
 30
0.0
 11
8813.475344679805
 21
8846.676835328391
 31
0.0
 70
    32
 71
     5
 42
-1.0
 73
     0
 74
     0
 75
     0
  3
IGA
100
AcDbAlignedDimension
 13
9060.882057318648
 23
8626.676835328389
 33
0.0
 14
8976.539887318649
 24
9066.67683532839
 34
0.0
 50
90.0
100
AcDbRotatedDimension
1001
ACAD
1000
DSTYLE
1002
{
1070
   287
1070
     3
1070
   287
1070
     3
1070
   287
1070
     3
1070
    40
1040
40.0
1070
   143
1040
0.039
1070
   172
1070
     1
1070
   271
1070
     0
1070
   279
1070
     0
1070
   288
1070
     1
1002
}
  0
DIMENSION
  5
F89
330
2
100
AcDbEntity
  8
3
  6
Continuous
 48
10.0
100
AcDbDimension
280
     0
  2
*D18
 10
7957.885714318648
 20
9436.713696791125
 30
0.0
 11
7745.885714318649
 21
9536.713696791125
 31
0.0
 70
    32
 71
     5
 42
424.0
 73
     0
 74
     0
 75
     0
  3
IGA
100
AcDbAlignedDimension
 13
7533.885714318649
 23
9348.676835328388
 33
0.0
 14
7957.885714318648
 24
9348.676835328388
 34
0.0
100
AcDbRotatedDimension
1001
ACAD
1000
DSTYLE
1002
{
1070
    40
1040
40.0
1070
    69
1070
     1
1070
   143
1040
0.039
1070
   172
1070
     1
1070
   271
1070
     0
1070
   288
1070
     1
1002
}
  0
DIMENSION
  5
FDF
330
2
100
AcDbEntity
  8
3
  6
Continuous
 48
10.0
100
AcDbDimension
280
     0
  2
*D19
 10
12052.96751431865
 20
9443.262665013397
 30
0.0
 11
11840.96751431865
 21
9543.262665013397
 31
0.0
 70
    32
 71
     5
 42
424.0
 73
     0
 74
     0
 75
     0
  3
IGA
100
AcDbAlignedDimension
 13
11628.96751431865
 23
9348.676835328388
 33
0.0
 14
12052.96751431865
 24
9348.676835328388
 34
0.0
100
AcDbRotatedDimension
1001
ACAD
1000
DSTYLE
1002
{
1070
    69
1070
     1
1070
   290
1070
     0
1070
    76
1070
     0
1070
    40
1040
40.0
1070
    75
1070
     0
1070
   143
1040
0.039
1070
   172
1070
     1
1070
   271
1070
     0
1070
   279
1070
     1
1070
   288
1070
     1
1002
}
  0
ENDSEC
  0
SECTION
  2
OBJECTS
  0
DICTIONARY
  5
1A
330
0
100
AcDbDictionary
281
     1
  3
ACAD_CIP_PREVIOUS_PRODUCT_INFO
350
F30
  3
ACAD_COLOR
350
F11
  3
ACAD_DETAILVIEWSTYLE
350
F2A
  3
ACAD_GROUP
350
18
  3
ACAD_LAYOUT
350
8AC
  3
ACAD_MATERIAL
350
EDF
  3
ACAD_MLEADERSTYLE
350
F26
  3
ACAD_MLINESTYLE
350
19
  3
ACAD_PLOTSETTINGS
350
8AD
  3
ACAD_PLOTSTYLENAME
350
8AA
  3
ACAD_SCALELIST
350
F14
  3
ACAD_SECTIONVIEWSTYLE
350
F28
  3
ACAD_TABLESTYLE
350
F12
  3
ACAD_VISUALSTYLE
350
EF8
  3
ACDB_RECOMPOSE_DATA
350
10CF
  3
AcDbVariableDictionary
350
EC7
  3
AcDsDecomposeData
350
10D5
  0
DICTIONARY
  5
104A
330
B
100
AcDbDictionary
280
     1
281
     1
  3
ACAD_LAYERSTATES
360
104B
  0
DICTIONARY
  5
103D
330
4
100
AcDbDictionary
280
     1
281
     1
  3
ADSK_XREC_LAYER_RECONCILED
360
103E
  0
DICTIONARY
  5
103F
330
442
100
AcDbDictionary
280
     1
281
     1
  3
ADSK_XREC_LAYER_RECONCILED
360
1040
  0
DICTIONARY
  5
1041
330
443
100
AcDbDictionary
280
     1
281
     1
  3
ADSK_XREC_LAYER_RECONCILED
360
1042
  0
DICTIONARY
  5
1043
330
444
100
AcDbDictionary
280
     1
281
     1
  3
ADSK_XREC_LAYER_RECONCILED
360
1044
  0
DICTIONARY
  5
1045
330
445
100
AcDbDictionary
280
     1
281
     1
  3
ADSK_XREC_LAYER_RECONCILED
360
1046
  0
DICTIONARY
  5
8D9
330
2
100
AcDbDictionary
280
     1
281
     1
  3
ACAD_LAYOUTSELFREF
360
E48
  0
DICTIONARY
  5
8DB
330
8
100
AcDbDictionary
280
     1
281
     1
  3
ACAD_LAYOUTSELFREF
360
E49
  0
XRECORD
  5
F30
102
{ACAD_REACTORS
330
1A
102
}
330
1A
100
AcDbXrecord
280
     1
300
ACDLT
300
2015
300
INVLTS_F_S
  0
DICTIONARY
  5
F11
102
{ACAD_REACTORS
330
1A
102
}
330
1A
100
AcDbDictionary
281
     1
  0
DICTIONARY
  5
F2A
102
{ACAD_REACTORS
330
1A
102
}
330
1A
100
AcDbDictionary
281
     1
  3
Metric50
350
F2B
  0
DICTIONARY
  5
18
102
{ACAD_REACTORS
330
1A
102
}
330
1A
100
AcDbDictionary
281
     1
  0
DICTIONARY
  5
8AC
102
{ACAD_REACTORS
330
1A
102
}
330
1A
100
AcDbDictionary
281
     1
  3
Model
350
8AE
  3
ﾚｲｱｳﾄ1
350
8AF
  0
DICTIONARY
  5
EDF
102
{ACAD_REACTORS
330
1A
102
}
330
1A
100
AcDbDictionary
281
     1
  3
ByBlock
350
EE8
  3
ByLayer
350
EE0
  3
Global
350
EF0
  0
DICTIONARY
  5
F26
102
{ACAD_REACTORS
330
1A
102
}
330
1A
100
AcDbDictionary
281
     1
  3
Standard
350
F27
  0
DICTIONARY
  5
19
102
{ACAD_REACTORS
330
1A
102
}
330
1A
100
AcDbDictionary
281
     1
  3
STANDARD
350
1E
  0
DICTIONARY
  5
8AD
102
{ACAD_REACTORS
330
1A
102
}
330
1A
100
AcDbDictionary
281
     1
  0
ACDBDICTIONARYWDFLT
  5
8AA
102
{ACAD_REACTORS
330
1A
102
}
330
1A
100
AcDbDictionary
281
     1
  3
Normal
350
8AB
100
AcDbDictionaryWithDefault
340
8AB
  0
DICTIONARY
  5
F14
102
{ACAD_REACTORS
330
1A
102
}
330
1A
100
AcDbDictionary
281
     1
  3
A0
350
F15
  3
A1
350
F16
  3
A2
350
F17
  3
A3
350
F18
  3
A4
350
F19
  3
A5
350
F1A
  3
A6
350
F1B
  3
A7
350
F1C
  3
A8
350
F1D
  3
A9
350
F1E
  3
B0
350
F1F
  3
B1
350
F20
  3
B2
350
F21
  3
B3
350
F22
  3
B4
350
F23
  3
B5
350
F24
  3
B6
350
F25
  0
DICTIONARY
  5
F28
102
{ACAD_REACTORS
330
1A
102
}
330
1A
100
AcDbDictionary
281
     1
  3
Metric50
350
F29
  0
DICTIONARY
  5
F12
102
{ACAD_REACTORS
330
1A
102
}
330
1A
100
AcDbDictionary
281
     1
  3
Standard
350
F13
  0
DICTIONARY
  5
EF8
102
{ACAD_REACTORS
330
1A
102
}
330
1A
100
AcDbDictionary
281
     1
  3
2dWireframe
350
EFE
  3
Basic
350
EFD
  3
Brighten
350
F04
  3
ColorChange
350
F08
  3
Conceptual
350
F01
  3
Dim
350
F03
  3
EdgeColorOff
350
F10
  3
Facepattern
350
F07
  3
Flat
350
EF9
  3
FlatWithEdges
350
EFA
  3
Gouraud
350
EFB
  3
GouraudWithEdges
350
EFC
  3
Hidden
350
F00
  3
JitterOff
350
F0E
  3
Linepattern
350
F06
  3
OverhangOff
350
F0F
  3
Realistic
350
F02
  3
Shaded
350
F0D
  3
Shaded with edges
350
F0C
  3
Shades of Gray
350
F09
  3
Sketchy
350
F0A
  3
Thicken
350
F05
  3
Wireframe
350
EFF
  3
X-Ray
350
F0B
  0
XRECORD
  5
10CF
102
{ACAD_REACTORS
330
1A
102
}
330
1A
100
AcDbXrecord
280
     1
 90
        1
330
F13
  0
DICTIONARY
  5
EC7
102
{ACAD_REACTORS
330
1A
102
}
330
1A
100
AcDbDictionary
281
     1
  3
CANNOSCALE
350
105A
  3
CMLEADERSTYLE
350
1056
  3
CTABLESTYLE
350
1055
  3
CVIEWDETAILSTYLE
350
1057
  3
CVIEWSECTIONSTYLE
350
1058
  3
DIMASSOC
350
EC8
  3
LAYEREVAL
350
105C
  3
LAYERNOTIFY
350
105D
  3
LIGHTINGUNITS
350
105B
  3
MSLTSCALE
350
1059
  0
DICTIONARY
  5
10D5
102
{ACAD_REACTORS
330
1A
102
}
330
1A
100
AcDbDictionary
281
     1
  3
AcDsRecords
350
10D7
  3
AcDsSchemas
350
10D6
1001
ACAD
1070
     2
  0
DICTIONARY
  5
104B
102
{ACAD_REACTORS
330
104A
102
}
330
104A
100
AcDbDictionary
281
     1
  0
XRECORD
  5
103E
102
{ACAD_REACTORS
330
103D
102
}
330
103D
100
AcDbXrecord
280
     1
290
     1
  0
XRECORD
  5
1040
102
{ACAD_REACTORS
330
103F
102
}
330
103F
100
AcDbXrecord
280
     1
290
     1
  0
XRECORD
  5
1042
102
{ACAD_REACTORS
330
1041
102
}
330
1041
100
AcDbXrecord
280
     1
290
     1
  0
XRECORD
  5
1044
102
{ACAD_REACTORS
330
1043
102
}
330
1043
100
AcDbXrecord
280
     1
290
     1
  0
XRECORD
  5
1046
102
{ACAD_REACTORS
330
1045
102
}
330
1045
100
AcDbXrecord
280
     1
290
     1
  0
XRECORD
  5
E48
102
{ACAD_REACTORS
330
8D9
102
}
330
8D9
100
AcDbXrecord
280
     1
340
2
  0
XRECORD
  5
E49
102
{ACAD_REACTORS
330
8DB
102
}
330
8DB
100
AcDbXrecord
280
     1
340
8
  0
ACDBDETAILVIEWSTYLE
  5
F2B
102
{ACAD_XDICTIONARY
360
1052
102
}
102
{ACAD_REACTORS
330
F2A
102
}
330
F2A
100
AcDbModelDocViewStyle
 70
     0
  3
Metric50
290
     0
100
AcDbDetailViewStyle
 70
     0
 71
     0
 90
        3
 71
     1
340
D
 62
   256
 40
5.0
340
0
 62
   256
 40
5.0
300

 40
0.0
280
     1
 71
     2
340
5
 90
       25
 62
   256
 71
     3
340
D
 62
   256
 40
5.0
 90
        0
 40
15.0
 90
        1
300
%<\AcVar ViewDetailId>% (%<\AcVar ViewScale \f "%sn">%)
 71
     4
340
5
 90
       25
 62
   256
340
5
 90
       25
 62
   256
280
     0
  0
LAYOUT
  5
8AE
102
{ACAD_REACTORS
330
8AC
102
}
330
8AC
100
AcDbPlotSettings
  1

  2
EPSON LP-9300
  4

  6

 40
0.0
 41
0.0
 42
0.0
 43
0.0
 44
0.0
 45
0.0
 46
0.0
 47
0.0
 48
0.0
 49
0.0
140
0.0
141
0.0
142
1.0
143
1.0
 70
  1712
 72
     0
 73
     0
 74
     0
  7

 75
     0
147
1.0
 76
     0
 77
     2
 78
   300
148
0.0
149
0.0
100
AcDbLayout
  1
Model
 70
     1
 71
     0
 10
0.0
 20
0.0
 11
12.0
 21
9.0
 12
0.0
 22
0.0
 32
0.0
 14
0.0
 24
0.0
 34
0.0
 15
0.0
 25
0.0
 35
0.0
146
0.0
 13
0.0
 23
0.0
 33
0.0
 16
1.0
 26
0.0
 36
0.0
 17
0.0
 27
1.0
 37
0.0
 76
     0
330
2
331
EDD
  0
LAYOUT
  5
8AF
102
{ACAD_REACTORS
330
8AC
102
}
330
8AC
100
AcDbPlotSettings
  1

  2
EPSON LP-9300
  4

  6

 40
0.0
 41
0.0
 42
0.0
 43
0.0
 44
0.0
 45
0.0
 46
0.0
 47
0.0
 48
0.0
 49
0.0
140
0.0
141
0.0
142
1.0
143
1.0
 70
   688
 72
     0
 73
     0
 74
     5
  7

 75
    16
147
1.0
 76
     0
 77
     2
 78
   300
148
0.0
149
0.0
100
AcDbLayout
  1
ﾚｲｱｳﾄ1
 70
     0
 71
     1
 10
0.0
 20
0.0
 11
12.0
 21
9.0
 12
0.0
 22
0.0
 32
0.0
 14
1.000000000000000E+20
 24
1.000000000000000E+20
 34
1.000000000000000E+20
 15
-1.000000000000000E+20
 25
-1.000000000000000E+20
 35
-1.000000000000000E+20
146
0.0
 13
0.0
 23
0.0
 33
0.0
 16
1.0
 26
0.0
 36
0.0
 17
0.0
 27
1.0
 37
0.0
 76
     0
330
8
  0
MATERIAL
  5
EE8
102
{ACAD_XDICTIONARY
360
EE9
102
}
102
{ACAD_REACTORS
330
EDF
102
}
330
EDF
100
AcDbMaterial
  1
ByBlock
 72
     0
 43
0.0208333333333333
 43
0.0
 43
0.0
 43
0.0
 43
0.0
 43
0.0208333333333333
 43
0.0
 43
0.0
 43
0.0
 43
0.0
 43
1.0
 43
0.0
 43
0.0
 43
0.0
 43
0.0
 43
1.0
 77
     0
 47
0.0208333333333333
 47
0.0
 47
0.0
 47
0.0
 47
0.0
 47
0.0208333333333333
 47
0.0
 47
0.0
 47
0.0
 47
0.0
 47
1.0
 47
0.0
 47
0.0
 47
0.0
 47
0.0
 47
1.0
171
     0
 49
0.0208333333333333
 49
0.0
 49
0.0
 49
0.0
 49
0.0
 49
0.0208333333333333
 49
0.0
 49
0.0
 49
0.0
 49
0.0
 49
1.0
 49
0.0
 49
0.0
 49
0.0
 49
0.0
 49
1.0
175
     0
142
0.0208333333333333
142
0.0
142
0.0
142
0.0
142
0.0
142
0.0208333333333333
142
0.0
142
0.0
142
0.0
142
0.0
142
1.0
142
0.0
142
0.0
142
0.0
142
0.0
142
1.0
179
     0
144
0.0208333333333333
144
0.0
144
0.0
144
0.0
144
0.0
144
0.0208333333333333
144
0.0
144
0.0
144
0.0
144
0.0
144
1.0
144
0.0
144
0.0
144
0.0
144
0.0
144
1.0
147
0.0208333333333333
147
0.0
147
0.0
147
0.0
147
0.0
147
0.0208333333333333
147
0.0
147
0.0
147
0.0
147
0.0
147
1.0
147
0.0
147
0.0
147
0.0
147
0.0
147
1.0
  0
MATERIAL
  5
EE0
102
{ACAD_XDICTIONARY
360
EE1
102
}
102
{ACAD_REACTORS
330
EDF
102
}
330
EDF
100
AcDbMaterial
  1
ByLayer
 72
     0
 43
0.0208333333333333
 43
0.0
 43
0.0
 43
0.0
 43
0.0
 43
0.0208333333333333
 43
0.0
 43
0.0
 43
0.0
 43
0.0
 43
1.0
 43
0.0
 43
0.0
 43
0.0
 43
0.0
 43
1.0
 77
     0
 47
0.0208333333333333
 47
0.0
 47
0.0
 47
0.0
 47
0.0
 47
0.0208333333333333
 47
0.0
 47
0.0
 47
0.0
 47
0.0
 47
1.0
 47
0.0
 47
0.0
 47
0.0
 47
0.0
 47
1.0
171
     0
 49
0.0208333333333333
 49
0.0
 49
0.0
 49
0.0
 49
0.0
 49
0.0208333333333333
 49
0.0
 49
0.0
 49
0.0
 49
0.0
 49
1.0
 49
0.0
 49
0.0
 49
0.0
 49
0.0
 49
1.0
175
     0
142
0.0208333333333333
142
0.0
142
0.0
142
0.0
142
0.0
142
0.0208333333333333
142
0.0
142
0.0
142
0.0
142
0.0
142
1.0
142
0.0
142
0.0
142
0.0
142
0.0
142
1.0
179
     0
144
0.0208333333333333
144
0.0
144
0.0
144
0.0
144
0.0
144
0.0208333333333333
144
0.0
144
0.0
144
0.0
144
0.0
144
1.0
144
0.0
144
0.0
144
0.0
144
0.0
144
1.0
147
0.0208333333333333
147
0.0
147
0.0
147
0.0
147
0.0
147
0.0208333333333333
147
0.0
147
0.0
147
0.0
147
0.0
147
1.0
147
0.0
147
0.0
147
0.0
147
0.0
147
1.0
  0
MATERIAL
  5
EF0
102
{ACAD_XDICTIONARY
360
EF1
102
}
102
{ACAD_REACTORS
330
EDF
102
}
330
EDF
100
AcDbMaterial
  1
Global
 72
     0
 43
0.0208333333333333
 43
0.0
 43
0.0
 43
0.0
 43
0.0
 43
0.0208333333333333
 43
0.0
 43
0.0
 43
0.0
 43
0.0
 43
1.0
 43
0.0
 43
0.0
 43
0.0
 43
0.0
 43
1.0
 77
     0
 47
0.0208333333333333
 47
0.0
 47
0.0
 47
0.0
 47
0.0
 47
0.0208333333333333
 47
0.0
 47
0.0
 47
0.0
 47
0.0
 47
1.0
 47
0.0
 47
0.0
 47
0.0
 47
0.0
 47
1.0
171
     0
 49
0.0208333333333333
 49
0.0
 49
0.0
 49
0.0
 49
0.0
 49
0.0208333333333333
 49
0.0
 49
0.0
 49
0.0
 49
0.0
 49
1.0
 49
0.0
 49
0.0
 49
0.0
 49
0.0
 49
1.0
175
     0
142
0.0208333333333333
142
0.0
142
0.0
142
0.0
142
0.0
142
0.0208333333333333
142
0.0
142
0.0
142
0.0
142
0.0
142
1.0
142
0.0
142
0.0
142
0.0
142
0.0
142
1.0
179
     0
144
0.0208333333333333
144
0.0
144
0.0
144
0.0
144
0.0
144
0.0208333333333333
144
0.0
144
0.0
144
0.0
144
0.0
144
1.0
144
0.0
144
0.0
144
0.0
144
0.0
144
1.0
147
0.0208333333333333
147
0.0
147
0.0
147
0.0
147
0.0
147
0.0208333333333333
147
0.0
147
0.0
147
0.0
147
0.0
147
1.0
147
0.0
147
0.0
147
0.0
147
0.0
147
1.0
  0
MLEADERSTYLE
  5
F27
102
{ACAD_XDICTIONARY
360
1108
102
}
102
{ACAD_REACTORS
330
F26
102
}
330
F26
100
AcDbMLeaderStyle
179
     2
170
     2
171
     1
172
     0
 90
        2
 40
0.0
 41
0.0
173
     1
 91
-1056964608
340
F
 92
       -2
290
     1
 42
2.0
291
     1
 43
0.36
  3
Standard
 44
4.0
300

342
D
174
     1
178
     6
175
     1
176
     0
 93
-1056964608
 45
4.0
292
     0
297
     0
 46
4.0
 94
-1056964608
 47
1.0
 49
1.0
140
1.0
293
     1
141
0.0
294
     1
177
     0
142
1.0
295
     0
296
     0
143
0.125
271
     0
272
     9
273
     9
  0
MLINESTYLE
  5
1E
102
{ACAD_REACTORS
330
19
102
}
330
19
100
AcDbMlineStyle
  2
STANDARD
 70
     0
  3

 62
     0
 51
90.0
 52
90.0
 71
     2
 49
0.5
 62
   256
  6
BYLAYER
 49
-0.5
 62
   256
  6
BYLAYER
  0
ACDBPLACEHOLDER
  5
8AB
102
{ACAD_REACTORS
330
8AA
102
}
330
8AA
  0
SCALE
  5
F15
102
{ACAD_REACTORS
330
F14
102
}
330
F14
100
AcDbScale
 70
     0
300
1:1
140
1.0
141
1.0
290
     1
  0
SCALE
  5
F16
102
{ACAD_REACTORS
330
F14
102
}
330
F14
100
AcDbScale
 70
     0
300
1:2
140
1.0
141
2.0
290
     0
  0
SCALE
  5
F17
102
{ACAD_REACTORS
330
F14
102
}
330
F14
100
AcDbScale
 70
     0
300
1:4
140
1.0
141
4.0
290
     0
  0
SCALE
  5
F18
102
{ACAD_REACTORS
330
F14
102
}
330
F14
100
AcDbScale
 70
     0
300
1:5
140
1.0
141
5.0
290
     0
  0
SCALE
  5
F19
102
{ACAD_REACTORS
330
F14
102
}
330
F14
100
AcDbScale
 70
     0
300
1:8
140
1.0
141
8.0
290
     0
  0
SCALE
  5
F1A
102
{ACAD_REACTORS
330
F14
102
}
330
F14
100
AcDbScale
 70
     0
300
1:10
140
1.0
141
10.0
290
     0
  0
SCALE
  5
F1B
102
{ACAD_REACTORS
330
F14
102
}
330
F14
100
AcDbScale
 70
     0
300
1:16
140
1.0
141
16.0
290
     0
  0
SCALE
  5
F1C
102
{ACAD_REACTORS
330
F14
102
}
330
F14
100
AcDbScale
 70
     0
300
1:20
140
1.0
141
20.0
290
     0
  0
SCALE
  5
F1D
102
{ACAD_REACTORS
330
F14
102
}
330
F14
100
AcDbScale
 70
     0
300
1:30
140
1.0
141
30.0
290
     0
  0
SCALE
  5
F1E
102
{ACAD_REACTORS
330
F14
102
}
330
F14
100
AcDbScale
 70
     0
300
1:40
140
1.0
141
40.0
290
     0
  0
SCALE
  5
F1F
102
{ACAD_REACTORS
330
F14
102
}
330
F14
100
AcDbScale
 70
     0
300
1:50
140
1.0
141
50.0
290
     0
  0
SCALE
  5
F20
102
{ACAD_REACTORS
330
F14
102
}
330
F14
100
AcDbScale
 70
     0
300
1:100
140
1.0
141
100.0
290
     0
  0
SCALE
  5
F21
102
{ACAD_REACTORS
330
F14
102
}
330
F14
100
AcDbScale
 70
     0
300
2:1
140
2.0
141
1.0
290
     0
  0
SCALE
  5
F22
102
{ACAD_REACTORS
330
F14
102
}
330
F14
100
AcDbScale
 70
     0
300
4:1
140
4.0
141
1.0
290
     0
  0
SCALE
  5
F23
102
{ACAD_REACTORS
330
F14
102
}
330
F14
100
AcDbScale
 70
     0
300
8:1
140
8.0
141
1.0
290
     0
  0
SCALE
  5
F24
102
{ACAD_REACTORS
330
F14
102
}
330
F14
100
AcDbScale
 70
     0
300
10:1
140
10.0
141
1.0
290
     0
  0
SCALE
  5
F25
102
{ACAD_REACTORS
330
F14
102
}
330
F14
100
AcDbScale
 70
     0
300
100:1
140
100.0
141
1.0
290
     0
  0
ACDBSECTIONVIEWSTYLE
  5
F29
102
{ACAD_XDICTIONARY
360
1050
102
}
102
{ACAD_REACTORS
330
F28
102
}
330
F28
100
AcDbModelDocViewStyle
 70
     0
  3
Metric50
290
     0
100
AcDbSectionViewStyle
 70
     0
 71
     0
 90
      102
 71
     1
340
D
 62
   256
 40
5.0
340
0
340
0
 62
   256
 40
5.0
300
I, O, Q, S, X, Z
 40
10.0
 90
        0
 40
2.5
 90
        0
 71
     2
340
5
 90
       25
 62
   256
340
5
 90
       50
 62
   256
 40
5.0
 40
2.5
 40
5.0
 71
     3
340
D
 62
   256
 40
5.0
 90
        0
 40
15.0
 90
        1
300
%<\AcVar ViewSectionStartId>%-%<\AcVar ViewSectionEndId>% (%<\AcVar ViewScale \f "%sn">%)
 71
     4
 62
   256
 62
   257
300
ANSI31
 40
1.0
 90
        0
290
     0
290
     0
 90
        6
 40
0.0
 40
1.570796326794896
 40
0.2617993877991494
 40
1.308996938995747
 40
-0.2617993877991494
 40
1.832595714594046
  0
TABLESTYLE
  5
F13
102
{ACAD_XDICTIONARY
360
10CD
102
}
102
{ACAD_REACTORS
330
F12
102
}
330
F12
100
AcDbTableStyle
280
     0
  3
Standard
 70
     0
 71
     0
 40
1.5
 41
1.5
280
     0
281
     0
  7
STANDARD
140
4.5
170
     2
 62
     0
 63
     7
283
     0
 90
      512
 91
        0
  1

274
    -2
284
     1
 64
     0
275
    -2
285
     1
 65
     0
276
    -2
286
     1
 66
     0
277
    -2
287
     1
 67
     0
278
    -2
288
     1
 68
     0
279
    -2
289
     1
 69
     0
  7
STANDARD
140
6.0
170
     5
 62
     0
 63
     7
283
     0
 90
      512
 91
        0
  1

274
    -2
284
     1
 64
     0
275
    -2
285
     1
 65
     0
276
    -2
286
     1
 66
     0
277
    -2
287
     1
 67
     0
278
    -2
288
     1
 68
     0
279
    -2
289
     1
 69
     0
  7
STANDARD
140
4.5
170
     5
 62
     0
 63
     7
283
     0
 90
      512
 91
        0
  1

274
    -2
284
     1
 64
     0
275
    -2
285
     1
 65
     0
276
    -2
286
     1
 66
     0
277
    -2
287
     1
 67
     0
278
    -2
288
     1
 68
     0
279
    -2
289
     1
 69
     0
  0
VISUALSTYLE
  5
EFE
102
{ACAD_XDICTIONARY
360
10E2
102
}
102
{ACAD_REACTORS
330
EF8
102
}
330
EF8
100
AcDbVisualStyle
  2
2dWireframe
 70
     4
177
     2
291
     0
 71
     0
176
     1
 72
     2
176
     1
 73
     0
176
     1
 90
        0
176
     1
 40
0.6
176
     1
 41
30.0
176
     1
 63
     7
421
 16777215
176
     1
 74
     1
176
     1
 91
        4
176
     1
 64
     7
176
     1
 65
   257
176
     1
 75
     1
176
     1
175
     1
176
     1
 42
1.0
176
     1
 92
        0
176
     1
 66
   257
176
     1
 43
1.0
176
     1
 76
     1
176
     1
 77
     6
176
     1
 78
     2
176
     1
 67
     7
176
     1
 79
     5
176
     1
170
     0
176
     1
171
     0
176
     1
290
     0
176
     1
 93
        1
176
     1
 44
0.0
176
     1
173
     0
176
     1
1001
ACAD
1000
AcDbSavedByObjectVersion
1070
     0
  0
VISUALSTYLE
  5
EFD
102
{ACAD_XDICTIONARY
360
10E0
102
}
102
{ACAD_REACTORS
330
EF8
102
}
330
EF8
100
AcDbVisualStyle
  2
Basic
 70
     7
177
     2
291
     1
 71
     1
176
     1
 72
     0
176
     1
 73
     1
176
     1
 90
        0
176
     1
 40
0.6
176
     1
 41
30.0
176
     1
 63
     7
421
 16777215
176
     1
 74
     0
176
     1
 91
        4
176
     1
 64
     7
176
     1
 65
   257
176
     1
 75
     1
176
     1
175
     1
176
     1
 42
1.0
176
     1
 92
        8
176
     1
 66
     7
176
     1
 43
1.0
176
     1
 76
     1
176
     1
 77
     6
176
     1
 78
     2
176
     1
 67
     7
176
     1
 79
     5
176
     1
170
     0
176
     1
171
     0
176
     1
290
     0
176
     1
 93
        1
176
     1
 44
0.0
176
     1
173
     0
176
     1
1001
ACAD
1000
AcDbSavedByObjectVersion
1070
     0
  0
VISUALSTYLE
  5
F04
102
{ACAD_XDICTIONARY
360
10EE
102
}
102
{ACAD_REACTORS
330
EF8
102
}
330
EF8
100
AcDbVisualStyle
  2
Brighten
 70
    12
177
     2
291
     1
 71
     2
176
     1
 72
     2
176
     1
 73
     0
176
     1
 90
        0
176
     1
 40
0.6
176
     1
 41
30.0
176
     1
 63
     7
421
 16777215
176
     1
 74
     1
176
     1
 91
        4
176
     1
 64
     7
176
     1
 65
   257
176
     1
 75
     1
176
     1
175
     1
176
     1
 42
1.0
176
     1
 92
        8
176
     1
 66
     7
176
     1
 43
1.0
176
     1
 76
     1
176
     1
 77
     6
176
     1
 78
     2
176
     1
 67
     7
176
     1
 79
     5
176
     1
170
     0
176
     1
171
     0
176
     1
290
     0
176
     1
 93
        1
176
     1
 44
50.0
176
     1
173
     0
176
     1
1001
ACAD
1000
AcDbSavedByObjectVersion
1070
     0
  0
VISUALSTYLE
  5
F08
102
{ACAD_XDICTIONARY
360
10F6
102
}
102
{ACAD_REACTORS
330
EF8
102
}
330
EF8
100
AcDbVisualStyle
  2
ColorChange
 70
    16
177
     2
291
     1
 71
     2
176
     1
 72
     2
176
     1
 73
     3
176
     1
 90
        0
176
     1
 40
0.6
176
     1
 41
30.0
176
     1
 63
     8
421
  8421504
176
     1
 74
     1
176
     1
 91
        4
176
     1
 64
     7
176
     1
 65
   257
176
     1
 75
     1
176
     1
175
     1
176
     1
 42
1.0
176
     1
 92
        8
176
     1
 66
     8
424
  8421504
176
     1
 43
1.0
176
     1
 76
     1
176
     1
 77
     6
176
     1
 78
     2
176
     1
 67
     7
176
     1
 79
     5
176
     1
170
     0
176
     1
171
     0
176
     1
290
     0
176
     1
 93
        1
176
     1
 44
0.0
176
     1
173
     0
176
     1
1001
ACAD
1000
AcDbSavedByObjectVersion
1070
     0
  0
VISUALSTYLE
  5
F01
102
{ACAD_XDICTIONARY
360
10E8
102
}
102
{ACAD_REACTORS
330
EF8
102
}
330
EF8
100
AcDbVisualStyle
  2
Conceptual
 70
     9
177
     2
291
     0
 71
     3
176
     1
 72
     2
176
     1
 73
     0
176
     1
 90
        0
176
     1
 40
0.6
176
     1
 41
30.0
176
     1
 63
     7
421
 16777215
176
     1
 74
     2
176
     1
 91
        2
176
     1
 64
     7
176
     1
 65
   257
176
     1
 75
     1
176
     1
175
     1
176
     1
 42
179.0
176
     1
 92
        8
176
     1
 66
     7
176
     1
 43
1.0
176
     1
 76
     1
176
     1
 77
     6
176
     1
 78
     2
176
     1
 67
     7
176
     1
 79
     3
176
     1
170
     0
176
     1
171
     0
176
     1
290
     0
176
     1
 93
        1
176
     1
 44
0.0
176
     1
173
     0
176
     1
1001
ACAD
1000
AcDbSavedByObjectVersion
1070
     0
  0
VISUALSTYLE
  5
F03
102
{ACAD_XDICTIONARY
360
10EC
102
}
102
{ACAD_REACTORS
330
EF8
102
}
330
EF8
100
AcDbVisualStyle
  2
Dim
 70
    11
177
     2
291
     1
 71
     2
176
     1
 72
     2
176
     1
 73
     0
176
     1
 90
        0
176
     1
 40
0.6
176
     1
 41
30.0
176
     1
 63
     7
421
 16777215
176
     1
 74
     1
176
     1
 91
        4
176
     1
 64
     7
176
     1
 65
   257
176
     1
 75
     1
176
     1
175
     1
176
     1
 42
1.0
176
     1
 92
        8
176
     1
 66
     7
176
     1
 43
1.0
176
     1
 76
     1
176
     1
 77
     6
176
     1
 78
     2
176
     1
 67
     7
176
     1
 79
     5
176
     1
170
     0
176
     1
171
     0
176
     1
290
     0
176
     1
 93
        1
176
     1
 44
-50.0
176
     1
173
     0
176
     1
1001
ACAD
1000
AcDbSavedByObjectVersion
1070
     0
  0
VISUALSTYLE
  5
F10
102
{ACAD_XDICTIONARY
360
1106
102
}
102
{ACAD_REACTORS
330
EF8
102
}
330
EF8
100
AcDbVisualStyle
  2
EdgeColorOff
 70
    22
177
     2
291
     1
 71
     2
176
     0
 72
     2
176
     0
 73
     0
176
     0
 90
        0
176
     0
 40
0.6
176
     0
 41
30.0
176
     0
 63
     7
421
 16777215
176
     0
 74
     1
176
     0
 91
        4
176
     0
 64
     7
176
     0
 65
   257
176
     0
 75
     1
176
     0
175
     1
176
     0
 42
1.0
176
     0
 92
        8
176
     2
 66
     7
176
     0
 43
1.0
176
     0
 76
     1
176
     0
 77
     6
176
     0
 78
     2
176
     0
 67
     7
176
     0
 79
     5
176
     0
170
     0
176
     0
171
     0
176
     0
290
     0
176
     0
 93
        1
176
     0
 44
0.0
176
     0
173
     0
176
     0
1001
ACAD
1000
AcDbSavedByObjectVersion
1070
     0
  0
VISUALSTYLE
  5
F07
102
{ACAD_XDICTIONARY
360
10F4
102
}
102
{ACAD_REACTORS
330
EF8
102
}
330
EF8
100
AcDbVisualStyle
  2
Facepattern
 70
    15
177
     2
291
     1
 71
     2
176
     1
 72
     2
176
     1
 73
     0
176
     1
 90
        0
176
     1
 40
0.6
176
     1
 41
30.0
176
     1
 63
     7
421
 16777215
176
     1
 74
     1
176
     1
 91
        4
176
     1
 64
     7
176
     1
 65
   257
176
     1
 75
     1
176
     1
175
     1
176
     1
 42
1.0
176
     1
 92
        8
176
     1
 66
     7
176
     1
 43
1.0
176
     1
 76
     1
176
     1
 77
     6
176
     1
 78
     2
176
     1
 67
     7
176
     1
 79
     5
176
     1
170
     0
176
     1
171
     0
176
     1
290
     0
176
     1
 93
        1
176
     1
 44
0.0
176
     1
173
     0
176
     1
1001
ACAD
1000
AcDbSavedByObjectVersion
1070
     0
  0
VISUALSTYLE
  5
EF9
102
{ACAD_XDICTIONARY
360
10D8
102
}
102
{ACAD_REACTORS
330
EF8
102
}
330
EF8
100
AcDbVisualStyle
  2
Flat
 70
     0
177
     2
291
     1
 71
     2
176
     1
 72
     1
176
     1
 73
     1
176
     1
 90
        2
176
     1
 40
0.6
176
     1
 41
30.0
176
     1
 63
     7
421
 16777215
176
     1
 74
     0
176
     1
 91
        0
176
     1
 64
     7
176
     1
 65
   257
176
     1
 75
     1
176
     1
175
     1
176
     1
 42
1.0
176
     1
 92
        8
176
     1
 66
     7
176
     1
 43
1.0
176
     1
 76
     1
176
     1
 77
     6
176
     1
 78
     2
176
     1
 67
     7
176
     1
 79
     5
176
     1
170
     0
176
     1
171
     0
176
     1
290
     0
176
     1
 93
       13
176
     1
 44
0.0
176
     1
173
     0
176
     1
1001
ACAD
1000
AcDbSavedByObjectVersion
1070
     0
  0
VISUALSTYLE
  5
EFA
102
{ACAD_XDICTIONARY
360
10DA
102
}
102
{ACAD_REACTORS
330
EF8
102
}
330
EF8
100
AcDbVisualStyle
  2
FlatWithEdges
 70
     1
177
     2
291
     1
 71
     2
176
     1
 72
     1
176
     1
 73
     1
176
     1
 90
        2
176
     1
 40
0.6
176
     1
 41
30.0
176
     1
 63
     7
421
 16777215
176
     1
 74
     1
176
     1
 91
        0
176
     1
 64
     7
176
     1
 65
   257
176
     1
 75
     1
176
     1
175
     1
176
     1
 42
1.0
176
     1
 92
        0
176
     1
 66
   257
176
     1
 43
1.0
176
     1
 76
     1
176
     1
 77
     6
176
     1
 78
     2
176
     1
 67
     7
176
     1
 79
     5
176
     1
170
     0
176
     1
171
     0
176
     1
290
     0
176
     1
 93
       13
176
     1
 44
0.0
176
     1
173
     0
176
     1
1001
ACAD
1000
AcDbSavedByObjectVersion
1070
     0
  0
VISUALSTYLE
  5
EFB
102
{ACAD_XDICTIONARY
360
10DC
102
}
102
{ACAD_REACTORS
330
EF8
102
}
330
EF8
100
AcDbVisualStyle
  2
Gouraud
 70
     2
177
     2
291
     1
 71
     2
176
     1
 72
     2
176
     1
 73
     1
176
     1
 90
        2
176
     1
 40
0.6
176
     1
 41
30.0
176
     1
 63
     7
421
 16777215
176
     1
 74
     0
176
     1
 91
        0
176
     1
 64
     7
176
     1
 65
   257
176
     1
 75
     1
176
     1
175
     1
176
     1
 42
1.0
176
     1
 92
        0
176
     1
 66
     7
176
     1
 43
1.0
176
     1
 76
     1
176
     1
 77
     6
176
     1
 78
     2
176
     1
 67
     7
176
     1
 79
     5
176
     1
170
     0
176
     1
171
     0
176
     1
290
     0
176
     1
 93
       13
176
     1
 44
0.0
176
     1
173
     0
176
     1
1001
ACAD
1000
AcDbSavedByObjectVersion
1070
     0
  0
VISUALSTYLE
  5
EFC
102
{ACAD_XDICTIONARY
360
10DE
102
}
102
{ACAD_REACTORS
330
EF8
102
}
330
EF8
100
AcDbVisualStyle
  2
GouraudWithEdges
 70
     3
177
     2
291
     1
 71
     2
176
     1
 72
     2
176
     1
 73
     1
176
     1
 90
        2
176
     1
 40
0.6
176
     1
 41
30.0
176
     1
 63
     7
421
 16777215
176
     1
 74
     1
176
     1
 91
        0
176
     1
 64
     7
176
     1
 65
   257
176
     1
 75
     1
176
     1
175
     1
176
     1
 42
1.0
176
     1
 92
        0
176
     1
 66
   257
176
     1
 43
1.0
176
     1
 76
     1
176
     1
 77
     6
176
     1
 78
     2
176
     1
 67
     7
176
     1
 79
     5
176
     1
170
     0
176
     1
171
     0
176
     1
290
     0
176
     1
 93
       13
176
     1
 44
0.0
176
     1
173
     0
176
     1
1001
ACAD
1000
AcDbSavedByObjectVersion
1070
     0
  0
VISUALSTYLE
  5
F00
102
{ACAD_XDICTIONARY
360
10E6
102
}
102
{ACAD_REACTORS
330
EF8
102
}
330
EF8
100
AcDbVisualStyle
  2
Hidden
 70
     6
177
     2
291
     0
 71
     1
176
     1
 72
     2
176
     1
 73
     2
176
     1
 90
        0
176
     1
 40
0.6
176
     1
 41
30.0
176
     1
 63
     7
421
 16777215
176
     1
 74
     2
176
     1
 91
        2
176
     1
 64
     7
176
     1
 65
   257
176
     1
 75
     2
176
     1
175
     1
176
     1
 42
40.0
176
     1
 92
        0
176
     1
 66
   257
176
     1
 43
1.0
176
     1
 76
     1
176
     1
 77
     6
176
     1
 78
     2
176
     1
 67
     7
176
     1
 79
     3
176
     1
170
     0
176
     1
171
     0
176
     1
290
     0
176
     1
 93
        1
176
     1
 44
0.0
176
     1
173
     0
176
     1
1001
ACAD
1000
AcDbSavedByObjectVersion
1070
     0
  0
VISUALSTYLE
  5
F0E
102
{ACAD_XDICTIONARY
360
1102
102
}
102
{ACAD_REACTORS
330
EF8
102
}
330
EF8
100
AcDbVisualStyle
  2
JitterOff
 70
    20
177
     2
291
     1
 71
     2
176
     0
 72
     2
176
     0
 73
     0
176
     0
 90
        0
176
     0
 40
0.6
176
     0
 41
30.0
176
     0
 63
     7
421
 16777215
176
     0
 74
     1
176
     0
 91
        4
176
     0
 64
     7
176
     0
 65
   257
176
     0
 75
     1
176
     0
175
     1
176
     0
 42
1.0
176
     0
 92
       10
176
     2
 66
     7
176
     0
 43
1.0
176
     0
 76
     1
176
     0
 77
     6
176
     0
 78
     2
176
     0
 67
     7
176
     0
 79
     5
176
     0
170
     0
176
     0
171
     0
176
     0
290
     0
176
     0
 93
        1
176
     0
 44
0.0
176
     0
173
     0
176
     0
1001
ACAD
1000
AcDbSavedByObjectVersion
1070
     0
  0
VISUALSTYLE
  5
F06
102
{ACAD_XDICTIONARY
360
10F2
102
}
102
{ACAD_REACTORS
330
EF8
102
}
330
EF8
100
AcDbVisualStyle
  2
Linepattern
 70
    14
177
     2
291
     1
 71
     2
176
     1
 72
     2
176
     1
 73
     0
176
     1
 90
        0
176
     1
 40
0.6
176
     1
 41
30.0
176
     1
 63
     7
421
 16777215
176
     1
 74
     1
176
     1
 91
        4
176
     1
 64
     7
176
     1
 65
   257
176
     1
 75
     7
176
     1
175
     7
176
     1
 42
1.0
176
     1
 92
        8
176
     1
 66
     7
176
     1
 43
1.0
176
     1
 76
     1
176
     1
 77
     6
176
     1
 78
     2
176
     1
 67
     7
176
     1
 79
     5
176
     1
170
     0
176
     1
171
     0
176
     1
290
     0
176
     1
 93
        1
176
     1
 44
0.0
176
     1
173
     0
176
     1
1001
ACAD
1000
AcDbSavedByObjectVersion
1070
     0
  0
VISUALSTYLE
  5
F0F
102
{ACAD_XDICTIONARY
360
1104
102
}
102
{ACAD_REACTORS
330
EF8
102
}
330
EF8
100
AcDbVisualStyle
  2
OverhangOff
 70
    21
177
     2
291
     1
 71
     2
176
     0
 72
     2
176
     0
 73
     0
176
     0
 90
        0
176
     0
 40
0.6
176
     0
 41
30.0
176
     0
 63
     7
421
 16777215
176
     0
 74
     1
176
     0
 91
        4
176
     0
 64
     7
176
     0
 65
   257
176
     0
 75
     1
176
     0
175
     1
176
     0
 42
1.0
176
     0
 92
        9
176
     2
 66
     7
176
     0
 43
1.0
176
     0
 76
     1
176
     0
 77
     6
176
     0
 78
     2
176
     0
 67
     7
176
     0
 79
     5
176
     0
170
     0
176
     0
171
     0
176
     0
290
     0
176
     0
 93
        1
176
     0
 44
0.0
176
     0
173
     0
176
     0
1001
ACAD
1000
AcDbSavedByObjectVersion
1070
     0
  0
VISUALSTYLE
  5
F02
102
{ACAD_XDICTIONARY
360
10EA
102
}
102
{ACAD_REACTORS
330
EF8
102
}
330
EF8
100
AcDbVisualStyle
  2
Realistic
 70
     8
177
     2
291
     0
 71
     2
176
     1
 72
     3
176
     1
 73
     0
176
     1
 90
        2
176
     1
 40
0.6
176
     1
 41
30.0
176
     1
 63
     7
421
 16777215
176
     1
 74
     0
176
     1
 91
        0
176
     1
 64
     7
176
     1
 65
   257
176
     1
 75
     1
176
     1
175
     1
176
     1
 42
1.0
176
     1
 92
        8
176
     1
 66
   257
176
     1
 43
1.0
176
     1
 76
     1
176
     1
 77
     6
176
     1
 78
     2
176
     1
 67
     7
176
     1
 79
     3
176
     1
170
     0
176
     1
171
     0
176
     1
290
     0
176
     1
 93
       13
176
     1
 44
0.0
176
     1
173
     0
176
     1
1001
ACAD
1000
AcDbSavedByObjectVersion
1070
     0
  0
VISUALSTYLE
  5
F0D
102
{ACAD_XDICTIONARY
360
1100
102
}
102
{ACAD_REACTORS
330
EF8
102
}
330
EF8
100
AcDbVisualStyle
  2
Shaded
 70
    27
177
     2
291
     0
 71
     2
176
     1
 72
     2
176
     1
 73
     1
176
     1
 90
        2
176
     1
 40
0.6
176
     1
 41
30.0
176
     1
 63
     7
421
 16777215
176
     1
 74
     0
176
     1
 91
        4
176
     1
 64
     7
176
     1
 65
   257
176
     1
 75
     1
176
     1
175
     1
176
     1
 42
1.0
176
     1
 92
        8
176
     1
 66
   257
176
     1
 43
1.0
176
     1
 76
     1
176
     1
 77
     6
176
     1
 78
     2
176
     1
 67
     8
425
  7895160
176
     1
 79
     3
176
     1
170
     0
176
     1
171
     0
176
     1
290
     0
176
     1
 93
        5
176
     1
 44
0.0
176
     1
173
     0
176
     1
1001
ACAD
1000
AcDbSavedByObjectVersion
1070
     0
  0
VISUALSTYLE
  5
F0C
102
{ACAD_XDICTIONARY
360
10FE
102
}
102
{ACAD_REACTORS
330
EF8
102
}
330
EF8
100
AcDbVisualStyle
  2
Shaded with edges
 70
    26
177
     2
291
     0
 71
     2
176
     1
 72
     2
176
     1
 73
     1
176
     1
 90
        2
176
     1
 40
0.6
176
     1
 41
30.0
176
     1
 63
     7
421
 16777215
176
     1
 74
     1
176
     1
 91
       10
176
     1
 64
     7
176
     1
 65
   257
176
     1
 75
     2
176
     1
175
     1
176
     1
 42
1.0
176
     1
 92
        8
176
     1
 66
   257
176
     1
 43
1.0
176
     1
 76
     1
176
     1
 77
     6
176
     1
 78
     2
176
     1
 67
     7
176
     1
 79
     3
176
     1
170
     0
176
     1
171
     0
176
     1
290
     0
176
     1
 93
        5
176
     1
 44
0.0
176
     1
173
     0
176
     1
1001
ACAD
1000
AcDbSavedByObjectVersion
1070
     0
  0
VISUALSTYLE
  5
F09
102
{ACAD_XDICTIONARY
360
10F8
102
}
102
{ACAD_REACTORS
330
EF8
102
}
330
EF8
100
AcDbVisualStyle
  2
Shades of Gray
 70
    23
177
     2
291
     0
 71
     2
176
     1
 72
     2
176
     1
 73
     3
176
     1
 90
        0
176
     1
 40
0.6
176
     1
 41
30.0
176
     1
 63
     7
421
 16777215
176
     1
 74
     2
176
     1
 91
        2
176
     1
 64
     7
176
     1
 65
     7
176
     1
 75
     1
176
     1
175
     1
176
     1
 42
40.0
176
     1
 92
        8
176
     1
 66
     7
176
     1
 43
1.0
176
     1
 76
     1
176
     1
 77
     6
176
     1
 78
     2
176
     1
 67
     7
176
     1
 79
     3
176
     1
170
     0
176
     1
171
     0
176
     1
290
     0
176
     1
 93
        1
176
     1
 44
0.0
176
     1
173
     0
176
     1
1001
ACAD
1000
AcDbSavedByObjectVersion
1070
     0
  0
VISUALSTYLE
  5
F0A
102
{ACAD_XDICTIONARY
360
10FA
102
}
102
{ACAD_REACTORS
330
EF8
102
}
330
EF8
100
AcDbVisualStyle
  2
Sketchy
 70
    24
177
     2
291
     0
 71
     1
176
     1
 72
     2
176
     1
 73
     2
176
     1
 90
        0
176
     1
 40
0.6
176
     1
 41
30.0
176
     1
 63
     7
421
 16777215
176
     1
 74
     2
176
     1
 91
        2
176
     1
 64
     7
176
     1
 65
     7
176
     1
 75
     1
176
     1
175
     1
176
     1
 42
40.0
176
     1
 92
       11
176
     1
 66
     7
176
     1
 43
1.0
176
     1
 76
     1
176
     1
 77
     6
176
     1
 78
     2
176
     1
 67
     7
176
     1
 79
     6
176
     1
170
     0
176
     1
171
     0
176
     1
290
     0
176
     1
 93
        1
176
     1
 44
0.0
176
     1
173
     0
176
     1
1001
ACAD
1000
AcDbSavedByObjectVersion
1070
     0
  0
VISUALSTYLE
  5
F05
102
{ACAD_XDICTIONARY
360
10F0
102
}
102
{ACAD_REACTORS
330
EF8
102
}
330
EF8
100
AcDbVisualStyle
  2
Thicken
 70
    13
177
     2
291
     1
 71
     2
176
     1
 72
     2
176
     1
 73
     0
176
     1
 90
        0
176
     1
 40
0.6
176
     1
 41
30.0
176
     1
 63
     7
421
 16777215
176
     1
 74
     1
176
     1
 91
        4
176
     1
 64
     7
176
     1
 65
   257
176
     1
 75
     1
176
     1
175
     1
176
     1
 42
1.0
176
     1
 92
       12
176
     1
 66
     7
176
     1
 43
1.0
176
     1
 76
     1
176
     1
 77
     6
176
     1
 78
     2
176
     1
 67
     7
176
     1
 79
     5
176
     1
170
     0
176
     1
171
     0
176
     1
290
     0
176
     1
 93
        1
176
     1
 44
0.0
176
     1
173
     0
176
     1
1001
ACAD
1000
AcDbSavedByObjectVersion
1070
     0
  0
VISUALSTYLE
  5
EFF
102
{ACAD_XDICTIONARY
360
10E4
102
}
102
{ACAD_REACTORS
330
EF8
102
}
330
EF8
100
AcDbVisualStyle
  2
Wireframe
 70
     5
177
     2
291
     0
 71
     0
176
     1
 72
     2
176
     1
 73
     0
176
     1
 90
        0
176
     1
 40
0.6
176
     1
 41
30.0
176
     1
 63
     7
421
 16777215
176
     1
 74
     1
176
     1
 91
        4
176
     1
 64
     7
176
     1
 65
   257
176
     1
 75
     1
176
     1
175
     1
176
     1
 42
1.0
176
     1
 92
        0
176
     1
 66
   257
176
     1
 43
1.0
176
     1
 76
     1
176
     1
 77
     6
176
     1
 78
     2
176
     1
 67
     7
176
     1
 79
     3
176
     1
170
     0
176
     1
171
     0
176
     1
290
     0
176
     1
 93
        1
176
     1
 44
0.0
176
     1
173
     0
176
     1
1001
ACAD
1000
AcDbSavedByObjectVersion
1070
     0
  0
VISUALSTYLE
  5
F0B
102
{ACAD_XDICTIONARY
360
10FC
102
}
102
{ACAD_REACTORS
330
EF8
102
}
330
EF8
100
AcDbVisualStyle
  2
X-Ray
 70
    25
177
     2
291
     0
 71
     2
176
     1
 72
     2
176
     1
 73
     1
176
     1
 90
        1
176
     1
 40
0.5
176
     1
 41
30.0
176
     1
 63
     7
421
 16777215
176
     1
 74
     1
176
     1
 91
        0
176
     1
 64
     7
176
     1
 65
   257
176
     1
 75
     1
176
     1
175
     1
176
     1
 42
1.0
176
     1
 92
        8
176
     1
 66
     7
176
     1
 43
1.0
176
     1
 76
     1
176
     1
 77
     6
176
     1
 78
     2
176
     1
 67
     7
176
     1
 79
     3
176
     1
170
     0
176
     1
171
     0
176
     1
290
     0
176
     1
 93
       13
176
     1
 44
0.0
176
     1
173
     0
176
     1
1001
ACAD
1000
AcDbSavedByObjectVersion
1070
     0
  0
DICTIONARYVAR
  5
105A
102
{ACAD_REACTORS
330
EC7
102
}
330
EC7
100
DictionaryVariables
280
     0
  1
1:1
  0
DICTIONARYVAR
  5
1056
102
{ACAD_REACTORS
330
EC7
102
}
330
EC7
100
DictionaryVariables
280
     0
  1
STANDARD
  0
DICTIONARYVAR
  5
1055
102
{ACAD_REACTORS
330
EC7
102
}
330
EC7
100
DictionaryVariables
280
     0
  1
STANDARD
  0
DICTIONARYVAR
  5
1057
102
{ACAD_REACTORS
330
EC7
102
}
330
EC7
100
DictionaryVariables
280
     0
  1
Metric50
  0
DICTIONARYVAR
  5
1058
102
{ACAD_REACTORS
330
EC7
102
}
330
EC7
100
DictionaryVariables
280
     0
  1
Metric50
  0
DICTIONARYVAR
  5
EC8
102
{ACAD_REACTORS
330
EC7
102
}
330
EC7
100
DictionaryVariables
280
     0
  1
1
  0
DICTIONARYVAR
  5
105C
102
{ACAD_REACTORS
330
EC7
102
}
330
EC7
100
DictionaryVariables
280
     0
  1
1
  0
DICTIONARYVAR
  5
105D
102
{ACAD_REACTORS
330
EC7
102
}
330
EC7
100
DictionaryVariables
280
     0
  1
15
  0
DICTIONARYVAR
  5
105B
102
{ACAD_REACTORS
330
EC7
102
}
330
EC7
100
DictionaryVariables
280
     0
  1
0
  0
DICTIONARYVAR
  5
1059
102
{ACAD_REACTORS
330
EC7
102
}
330
EC7
100
DictionaryVariables
280
     0
  1
0
  0
DICTIONARY
  5
10D7
102
{ACAD_REACTORS
330
10D5
102
}
330
10D5
100
AcDbDictionary
281
     1
  0
DICTIONARY
  5
10D6
102
{ACAD_REACTORS
330
10D5
102
}
330
10D5
100
AcDbDictionary
281
     1
  3
140688255717120
350
10D0
  3
140688255717136
350
10D1
  3
140688255717152
350
10D2
  3
140688255717168
350
10D3
  3
140688255717184
350
10D4
  0
DICTIONARY
  5
1052
330
F2B
100
AcDbDictionary
280
     1
281
     1
  3
ACAD_XREC_ROUNDTRIP
360
110B
  0
DICTIONARY
  5
EE9
330
EE8
100
AcDbDictionary
280
     1
281
     1
  3
BUMPTILE
360
EEB
  3
DIFFUSETILE
360
EEA
  3
OPACITYTILE
360
EEE
  3
REFLECTIONTILE
360
EED
  3
REFRACTIONTILE
360
EEF
  3
SPECULARTILE
360
EEC
  0
DICTIONARY
  5
EE1
330
EE0
100
AcDbDictionary
280
     1
281
     1
  3
BUMPTILE
360
EE3
  3
DIFFUSETILE
360
EE2
  3
OPACITYTILE
360
EE6
  3
REFLECTIONTILE
360
EE5
  3
REFRACTIONTILE
360
EE7
  3
SPECULARTILE
360
EE4
  0
DICTIONARY
  5
EF1
330
EF0
100
AcDbDictionary
280
     1
281
     1
  3
BUMPTILE
360
EF3
  3
DIFFUSETILE
360
EF2
  3
OPACITYTILE
360
EF6
  3
REFLECTIONTILE
360
EF5
  3
REFRACTIONTILE
360
EF7
  3
SPECULARTILE
360
EF4
  0
DICTIONARY
  5
1108
330
F27
100
AcDbDictionary
280
     1
281
     1
  3
ACAD_XREC_ROUNDTRIP
360
1109
  0
DICTIONARY
  5
1050
330
F29
100
AcDbDictionary
280
     1
281
     1
  3
ACAD_XREC_ROUNDTRIP
360
110A
  0
DICTIONARY
  5
10CD
330
F13
100
AcDbDictionary
280
     1
281
     1
  3
ACAD_ROUNDTRIP_2008_TABLESTYLE_CELLSTYLEMAP
360
10CE
  0
DICTIONARY
  5
10E2
330
EFE
100
AcDbDictionary
280
     1
281
     1
  3
ACAD_XREC_ROUNDTRIP
360
10E3
  0
DICTIONARY
  5
10E0
330
EFD
100
AcDbDictionary
280
     1
281
     1
  3
ACAD_XREC_ROUNDTRIP
360
10E1
  0
DICTIONARY
  5
10EE
330
F04
100
AcDbDictionary
280
     1
281
     1
  3
ACAD_XREC_ROUNDTRIP
360
10EF
  0
DICTIONARY
  5
10F6
330
F08
100
AcDbDictionary
280
     1
281
     1
  3
ACAD_XREC_ROUNDTRIP
360
10F7
  0
DICTIONARY
  5
10E8
330
F01
100
AcDbDictionary
280
     1
281
     1
  3
ACAD_XREC_ROUNDTRIP
360
10E9
  0
DICTIONARY
  5
10EC
330
F03
100
AcDbDictionary
280
     1
281
     1
  3
ACAD_XREC_ROUNDTRIP
360
10ED
  0
DICTIONARY
  5
1106
330
F10
100
AcDbDictionary
280
     1
281
     1
  3
ACAD_XREC_ROUNDTRIP
360
1107
  0
DICTIONARY
  5
10F4
330
F07
100
AcDbDictionary
280
     1
281
     1
  3
ACAD_XREC_ROUNDTRIP
360
10F5
  0
DICTIONARY
  5
10D8
330
EF9
100
AcDbDictionary
280
     1
281
     1
  3
ACAD_XREC_ROUNDTRIP
360
10D9
  0
DICTIONARY
  5
10DA
330
EFA
100
AcDbDictionary
280
     1
281
     1
  3
ACAD_XREC_ROUNDTRIP
360
10DB
  0
DICTIONARY
  5
10DC
330
EFB
100
AcDbDictionary
280
     1
281
     1
  3
ACAD_XREC_ROUNDTRIP
360
10DD
  0
DICTIONARY
  5
10DE
330
EFC
100
AcDbDictionary
280
     1
281
     1
  3
ACAD_XREC_ROUNDTRIP
360
10DF
  0
DICTIONARY
  5
10E6
330
F00
100
AcDbDictionary
280
     1
281
     1
  3
ACAD_XREC_ROUNDTRIP
360
10E7
  0
DICTIONARY
  5
1102
330
F0E
100
AcDbDictionary
280
     1
281
     1
  3
ACAD_XREC_ROUNDTRIP
360
1103
  0
DICTIONARY
  5
10F2
330
F06
100
AcDbDictionary
280
     1
281
     1
  3
ACAD_XREC_ROUNDTRIP
360
10F3
  0
DICTIONARY
  5
1104
330
F0F
100
AcDbDictionary
280
     1
281
     1
  3
ACAD_XREC_ROUNDTRIP
360
1105
  0
DICTIONARY
  5
10EA
330
F02
100
AcDbDictionary
280
     1
281
     1
  3
ACAD_XREC_ROUNDTRIP
360
10EB
  0
DICTIONARY
  5
1100
330
F0D
100
AcDbDictionary
280
     1
281
     1
  3
ACAD_XREC_ROUNDTRIP
360
1101
  0
DICTIONARY
  5
10FE
330
F0C
100
AcDbDictionary
280
     1
281
     1
  3
ACAD_XREC_ROUNDTRIP
360
10FF
  0
DICTIONARY
  5
10F8
330
F09
100
AcDbDictionary
280
     1
281
     1
  3
ACAD_XREC_ROUNDTRIP
360
10F9
  0
DICTIONARY
  5
10FA
330
F0A
100
AcDbDictionary
280
     1
281
     1
  3
ACAD_XREC_ROUNDTRIP
360
10FB
  0
DICTIONARY
  5
10F0
330
F05
100
AcDbDictionary
280
     1
281
     1
  3
ACAD_XREC_ROUNDTRIP
360
10F1
  0
DICTIONARY
  5
10E4
330
EFF
100
AcDbDictionary
280
     1
281
     1
  3
ACAD_XREC_ROUNDTRIP
360
10E5
  0
DICTIONARY
  5
10FC
330
F0B
100
AcDbDictionary
280
     1
281
     1
  3
ACAD_XREC_ROUNDTRIP
360
10FD
  0
XRECORD
  5
10D0
102
{ACAD_REACTORS
330
10D6
102
}
330
10D6
100
AcDbXrecord
280
     1
  1
AcDb_Thumbnail_Schema
102
{ATTRRECORD
341
10D1
  2
AcDbDs::TreatedAsObjectData
280
     1
291
     1
102
ATTRRECORD}
102
{ATTRRECORD
341
10D2
  2
AcDbDs::Legacy
280
     1
291
     1
102
ATTRRECORD}
  2
AcDbDs::ID
280
    10
 91
        8
102
{ATTRRECORD
341
10D3
  2
AcDs:Indexable
280
     1
291
     1
102
ATTRRECORD}
102
{ATTRRECORD
341
10D4
  2
AcDbDs::HandleAttribute
280
     7
282
     1
102
ATTRRECORD}
  2
Thumbnail_Data
280
    15
 91
        0
  0
XRECORD
  5
10D1
102
{ACAD_REACTORS
330
10D6
102
}
330
10D6
100
AcDbXrecord
280
     1
  1
AcDbDs::TreatedAsObjectDataSchema
  2
AcDbDs::TreatedAsObjectData
280
     1
 91
        0
  0
XRECORD
  5
10D2
102
{ACAD_REACTORS
330
10D6
102
}
330
10D6
100
AcDbXrecord
280
     1
  1
AcDbDs::LegacySchema
  2
AcDbDs::Legacy
280
     1
 91
        0
  0
XRECORD
  5
10D3
102
{ACAD_REACTORS
330
10D6
102
}
330
10D6
100
AcDbXrecord
280
     1
  1
AcDbDs::IndexedPropertySchema
  2
AcDs:Indexable
280
     1
 91
        0
  0
XRECORD
  5
10D4
102
{ACAD_REACTORS
330
10D6
102
}
330
10D6
100
AcDbXrecord
280
     1
  1
AcDbDs::HandleAttributeSchema
  2
AcDbDs::HandleAttribute
280
     7
 91
        1
284
     1
  0
XRECORD
  5
110B
102
{ACAD_REACTORS
330
1052
102
}
330
1052
100
AcDbXrecord
280
     1
102
DISPLAYNAME
  1
Metric50
102
FLAGS
 90
        0
  0
XRECORD
  5
EEB
102
{ACAD_REACTORS
330
EE9
102
}
330
EE9
100
AcDbXrecord
280
     1
270
     1
271
     1
  0
XRECORD
  5
EEA
102
{ACAD_REACTORS
330
EE9
102
}
330
EE9
100
AcDbXrecord
280
     1
270
     1
271
     1
  0
XRECORD
  5
EEE
102
{ACAD_REACTORS
330
EE9
102
}
330
EE9
100
AcDbXrecord
280
     1
270
     1
271
     1
  0
XRECORD
  5
EED
102
{ACAD_REACTORS
330
EE9
102
}
330
EE9
100
AcDbXrecord
280
     1
270
     1
271
     1
  0
XRECORD
  5
EEF
102
{ACAD_REACTORS
330
EE9
102
}
330
EE9
100
AcDbXrecord
280
     1
270
     1
271
     1
  0
XRECORD
  5
EEC
102
{ACAD_REACTORS
330
EE9
102
}
330
EE9
100
AcDbXrecord
280
     1
270
     1
271
     1
  0
XRECORD
  5
EE3
102
{ACAD_REACTORS
330
EE1
102
}
330
EE1
100
AcDbXrecord
280
     1
270
     1
271
     1
  0
XRECORD
  5
EE2
102
{ACAD_REACTORS
330
EE1
102
}
330
EE1
100
AcDbXrecord
280
     1
270
     1
271
     1
  0
XRECORD
  5
EE6
102
{ACAD_REACTORS
330
EE1
102
}
330
EE1
100
AcDbXrecord
280
     1
270
     1
271
     1
  0
XRECORD
  5
EE5
102
{ACAD_REACTORS
330
EE1
102
}
330
EE1
100
AcDbXrecord
280
     1
270
     1
271
     1
  0
XRECORD
  5
EE7
102
{ACAD_REACTORS
330
EE1
102
}
330
EE1
100
AcDbXrecord
280
     1
270
     1
271
     1
  0
XRECORD
  5
EE4
102
{ACAD_REACTORS
330
EE1
102
}
330
EE1
100
AcDbXrecord
280
     1
270
     1
271
     1
  0
XRECORD
  5
EF3
102
{ACAD_REACTORS
330
EF1
102
}
330
EF1
100
AcDbXrecord
280
     1
270
     1
271
     1
  0
XRECORD
  5
EF2
102
{ACAD_REACTORS
330
EF1
102
}
330
EF1
100
AcDbXrecord
280
     1
270
     1
271
     1
  0
XRECORD
  5
EF6
102
{ACAD_REACTORS
330
EF1
102
}
330
EF1
100
AcDbXrecord
280
     1
270
     1
271
     1
  0
XRECORD
  5
EF5
102
{ACAD_REACTORS
330
EF1
102
}
330
EF1
100
AcDbXrecord
280
     1
270
     1
271
     1
  0
XRECORD
  5
EF7
102
{ACAD_REACTORS
330
EF1
102
}
330
EF1
100
AcDbXrecord
280
     1
270
     1
271
     1
  0
XRECORD
  5
EF4
102
{ACAD_REACTORS
330
EF1
102
}
330
EF1
100
AcDbXrecord
280
     1
270
     1
271
     1
  0
XRECORD
  5
1109
102
{ACAD_REACTORS
330
1108
102
}
330
1108
100
AcDbXrecord
280
     1
102
ACAD_ROUNDTRIP_2012_MLEADER_STYLE
298
     1
  0
XRECORD
  5
110A
102
{ACAD_REACTORS
330
1050
102
}
330
1050
100
AcDbXrecord
280
     1
102
DISPLAYNAME
  1
Metric50
102
FLAGS
 90
        0
  0
CELLSTYLEMAP
  5
10CE
102
{ACAD_REACTORS
330
10CD
102
}
330
10CD
100
AcDbCellStyleMap
 90
        3
300
CELLSTYLE
  1
TABLEFORMAT_BEGIN
 90
        5
170
     1
 91
        0
 92
    32768
 62
   257
 93
        1
300
CONTENTFORMAT
  1
CONTENTFORMAT_BEGIN
 90
        0
 91
        0
 92
      512
 93
        0
300

 40
0.0
140
1.0
 94
        5
 62
     0
340
D
144
6.0
309
CONTENTFORMAT_END
171
     1
301
MARGIN
  1
CELLMARGIN_BEGIN
 40
1.5
 40
1.5
 40
1.5
 40
1.5
 40
4.5
 40
4.5
309
CELLMARGIN_END
 94
        6
 95
        1
302
GRIDFORMAT
  1
GRIDFORMAT_BEGIN
 90
        0
 91
        1
 62
     0
 92
       -2
340
0
 93
        0
 40
1.125
309
GRIDFORMAT_END
 95
        2
302
GRIDFORMAT
  1
GRIDFORMAT_BEGIN
 90
        0
 91
        1
 62
     0
 92
       -2
340
0
 93
        0
 40
1.125
309
GRIDFORMAT_END
 95
        4
302
GRIDFORMAT
  1
GRIDFORMAT_BEGIN
 90
        0
 91
        1
 62
     0
 92
       -2
340
0
 93
        0
 40
1.125
309
GRIDFORMAT_END
 95
        8
302
GRIDFORMAT
  1
GRIDFORMAT_BEGIN
 90
        0
 91
        1
 62
     0
 92
       -2
340
0
 93
        0
 40
1.125
309
GRIDFORMAT_END
 95
       16
302
GRIDFORMAT
  1
GRIDFORMAT_BEGIN
 90
        0
 91
        1
 62
     0
 92
       -2
340
0
 93
        0
 40
1.125
309
GRIDFORMAT_END
 95
       32
302
GRIDFORMAT
  1
GRIDFORMAT_BEGIN
 90
        0
 91
        1
 62
     0
 92
       -2
340
0
 93
        0
 40
1.125
309
GRIDFORMAT_END
309
TABLEFORMAT_END
  1
CELLSTYLE_BEGIN
 90
        1
 91
        1
300
_TITLE
309
CELLSTYLE_END
300
CELLSTYLE
  1
TABLEFORMAT_BEGIN
 90
        5
170
     1
 91
        0
 92
        0
 62
   257
 93
        1
300
CONTENTFORMAT
  1
CONTENTFORMAT_BEGIN
 90
        0
 91
        0
 92
      512
 93
        0
300

 40
0.0
140
1.0
 94
        5
 62
     0
340
D
144
4.5
309
CONTENTFORMAT_END
171
     1
301
MARGIN
  1
CELLMARGIN_BEGIN
 40
1.5
 40
1.5
 40
1.5
 40
1.5
 40
4.5
 40
4.5
309
CELLMARGIN_END
 94
        6
 95
        1
302
GRIDFORMAT
  1
GRIDFORMAT_BEGIN
 90
        0
 91
        1
 62
     0
 92
       -2
340
0
 93
        0
 40
1.125
309
GRIDFORMAT_END
 95
        2
302
GRIDFORMAT
  1
GRIDFORMAT_BEGIN
 90
        0
 91
        1
 62
     0
 92
       -2
340
0
 93
        0
 40
1.125
309
GRIDFORMAT_END
 95
        4
302
GRIDFORMAT
  1
GRIDFORMAT_BEGIN
 90
        0
 91
        1
 62
     0
 92
       -2
340
0
 93
        0
 40
1.125
309
GRIDFORMAT_END
 95
        8
302
GRIDFORMAT
  1
GRIDFORMAT_BEGIN
 90
        0
 91
        1
 62
     0
 92
       -2
340
0
 93
        0
 40
1.125
309
GRIDFORMAT_END
 95
       16
302
GRIDFORMAT
  1
GRIDFORMAT_BEGIN
 90
        0
 91
        1
 62
     0
 92
       -2
340
0
 93
        0
 40
1.125
309
GRIDFORMAT_END
 95
       32
302
GRIDFORMAT
  1
GRIDFORMAT_BEGIN
 90
        0
 91
        1
 62
     0
 92
       -2
340
0
 93
        0
 40
1.125
309
GRIDFORMAT_END
309
TABLEFORMAT_END
  1
CELLSTYLE_BEGIN
 90
        2
 91
        1
300
_HEADER
309
CELLSTYLE_END
300
CELLSTYLE
  1
TABLEFORMAT_BEGIN
 90
        5
170
     1
 91
        0
 92
        0
 62
   257
 93
        1
300
CONTENTFORMAT
  1
CONTENTFORMAT_BEGIN
 90
        0
 91
        0
 92
      512
 93
        0
300

 40
0.0
140
1.0
 94
        2
 62
     0
340
D
144
4.5
309
CONTENTFORMAT_END
171
     1
301
MARGIN
  1
CELLMARGIN_BEGIN
 40
1.5
 40
1.5
 40
1.5
 40
1.5
 40
4.5
 40
4.5
309
CELLMARGIN_END
 94
        6
 95
        1
302
GRIDFORMAT
  1
GRIDFORMAT_BEGIN
 90
        0
 91
        1
 62
     0
 92
       -2
340
0
 93
        0
 40
1.125
309
GRIDFORMAT_END
 95
        2
302
GRIDFORMAT
  1
GRIDFORMAT_BEGIN
 90
        0
 91
        1
 62
     0
 92
       -2
340
0
 93
        0
 40
1.125
309
GRIDFORMAT_END
 95
        4
302
GRIDFORMAT
  1
GRIDFORMAT_BEGIN
 90
        0
 91
        1
 62
     0
 92
       -2
340
0
 93
        0
 40
1.125
309
GRIDFORMAT_END
 95
        8
302
GRIDFORMAT
  1
GRIDFORMAT_BEGIN
 90
        0
 91
        1
 62
     0
 92
       -2
340
0
 93
        0
 40
1.125
309
GRIDFORMAT_END
 95
       16
302
GRIDFORMAT
  1
GRIDFORMAT_BEGIN
 90
        0
 91
        1
 62
     0
 92
       -2
340
0
 93
        0
 40
1.125
309
GRIDFORMAT_END
 95
       32
302
GRIDFORMAT
  1
GRIDFORMAT_BEGIN
 90
        0
 91
        1
 62
     0
 92
       -2
340
0
 93
        0
 40
1.125
309
GRIDFORMAT_END
309
TABLEFORMAT_END
  1
CELLSTYLE_BEGIN
 90
        3
 91
        2
300
_DATA
309
CELLSTYLE_END
  0
XRECORD
  5
10E3
102
{ACAD_REACTORS
330
10E2
102
}
330
10E2
100
AcDbXrecord
280
     1
102
RTVSPost2010Prop28
280
     1
102
RTVSPost2010PropOp28
 70
     1
102
RTVSPost2010Prop29
280
     1
102
RTVSPost2010PropOp29
 70
     1
102
RTVSPost2010Prop30
280
     0
102
RTVSPost2010PropOp30
 70
     1
102
RTVSPost2010Prop31
280
     0
102
RTVSPost2010PropOp31
 70
     1
102
RTVSPost2010Prop32
280
     0
102
RTVSPost2010PropOp32
 70
     1
102
RTVSPost2010Prop33
280
     0
102
RTVSPost2010PropOp33
 70
     1
102
RTVSPost2010Prop34
280
     0
102
RTVSPost2010PropOp34
 70
     1
102
RTVSPost2010Prop35
280
     0
102
RTVSPost2010PropOp35
 70
     1
102
RTVSPost2010Prop36
280
     0
102
RTVSPost2010PropOp36
 70
     1
102
RTVSPost2010Prop37
 90
       50
102
RTVSPost2010PropOp37
 70
     1
102
RTVSPost2010Prop38
140
0.0
102
RTVSPost2010PropOp38
 70
     1
102
RTVSPost2010Prop39
140
1.0
102
RTVSPost2010PropOp39
 70
     1
102
RTVSPost2010Prop40
 90
        0
102
RTVSPost2010PropOp40
 70
     1
102
RTVSPost2010Prop41ColorIndex
 90
       18
102
RTVSPost2010Prop41ColorRGB
 90
        0
102
RTVSPost2010PropOp41
 70
     1
102
RTVSPost2010Prop42
 90
       50
102
RTVSPost2010PropOp42
 70
     1
102
RTVSPost2010Prop43
 90
        3
102
RTVSPost2010PropOp43
 70
     1
102
RTVSPost2010Prop44ColorIndex
 90
        5
102
RTVSPost2010Prop44ColorRGB
 90
      255
102
RTVSPost2010PropOp44
 70
     1
102
RTVSPost2010Prop45
280
     0
102
RTVSPost2010PropOp45
 70
     1
102
RTVSPost2010Prop46
 90
       50
102
RTVSPost2010PropOp46
 70
     1
102
RTVSPost2010Prop47
 90
       50
102
RTVSPost2010PropOp47
 70
     1
102
RTVSPost2010Prop48
 90
       50
102
RTVSPost2010PropOp48
 70
     1
102
RTVSPost2010Prop49
280
     0
102
RTVSPost2010PropOp49
 70
     1
102
RTVSPost2010Prop50
 90
       50
102
RTVSPost2010PropOp50
 70
     1
102
RTVSPost2010Prop51ColorIndex
 90
      256
102
RTVSPost2010Prop51ColorRGB
 90
-16777216
102
RTVSPost2010PropOp51
 70
     0
102
RTVSPost2010Prop52
140
1.0
102
RTVSPost2010PropOp52
 70
     0
102
RTVSPost2010Prop53
 90
        2
102
RTVSPost2010PropOp53
 70
     1
102
RTVSPost2010Prop54
  1
strokes_ogs.tif
102
RTVSPost2010PropOp54
 70
     1
102
RTVSPost2010Prop55
280
     0
102
RTVSPost2010PropOp55
 70
     1
102
RTVSPost2010Prop56
140
1.0
102
RTVSPost2010PropOp56
 70
     1
102
RTVSPost2010Prop57
140
1.0
102
RTVSPost2010PropOp57
 70
     1
  0
XRECORD
  5
10E1
102
{ACAD_REACTORS
330
10E0
102
}
330
10E0
100
AcDbXrecord
280
     1
102
RTVSPost2010Prop28
280
     0
102
RTVSPost2010PropOp28
 70
     1
102
RTVSPost2010Prop29
280
     1
102
RTVSPost2010PropOp29
 70
     1
102
RTVSPost2010Prop30
280
     1
102
RTVSPost2010PropOp30
 70
     1
102
RTVSPost2010Prop31
280
     0
102
RTVSPost2010PropOp31
 70
     1
102
RTVSPost2010Prop32
280
     0
102
RTVSPost2010PropOp32
 70
     1
102
RTVSPost2010Prop33
280
     0
102
RTVSPost2010PropOp33
 70
     1
102
RTVSPost2010Prop34
280
     0
102
RTVSPost2010PropOp34
 70
     1
102
RTVSPost2010Prop35
280
     0
102
RTVSPost2010PropOp35
 70
     1
102
RTVSPost2010Prop36
280
     0
102
RTVSPost2010PropOp36
 70
     1
102
RTVSPost2010Prop37
 90
       50
102
RTVSPost2010PropOp37
 70
     1
102
RTVSPost2010Prop38
140
0.0
102
RTVSPost2010PropOp38
 70
     1
102
RTVSPost2010Prop39
140
1.0
102
RTVSPost2010PropOp39
 70
     1
102
RTVSPost2010Prop40
 90
        0
102
RTVSPost2010PropOp40
 70
     1
102
RTVSPost2010Prop41ColorIndex
 90
       18
102
RTVSPost2010Prop41ColorRGB
 90
        0
102
RTVSPost2010PropOp41
 70
     1
102
RTVSPost2010Prop42
 90
       50
102
RTVSPost2010PropOp42
 70
     1
102
RTVSPost2010Prop43
 90
        3
102
RTVSPost2010PropOp43
 70
     1
102
RTVSPost2010Prop44ColorIndex
 90
        5
102
RTVSPost2010Prop44ColorRGB
 90
      255
102
RTVSPost2010PropOp44
 70
     1
102
RTVSPost2010Prop45
280
     0
102
RTVSPost2010PropOp45
 70
     1
102
RTVSPost2010Prop46
 90
       50
102
RTVSPost2010PropOp46
 70
     1
102
RTVSPost2010Prop47
 90
       50
102
RTVSPost2010PropOp47
 70
     1
102
RTVSPost2010Prop48
 90
       50
102
RTVSPost2010PropOp48
 70
     1
102
RTVSPost2010Prop49
280
     0
102
RTVSPost2010PropOp49
 70
     1
102
RTVSPost2010Prop50
 90
       50
102
RTVSPost2010PropOp50
 70
     1
102
RTVSPost2010Prop51ColorIndex
 90
      256
102
RTVSPost2010Prop51ColorRGB
 90
-16777216
102
RTVSPost2010PropOp51
 70
     0
102
RTVSPost2010Prop52
140
1.0
102
RTVSPost2010PropOp52
 70
     0
102
RTVSPost2010Prop53
 90
        2
102
RTVSPost2010PropOp53
 70
     1
102
RTVSPost2010Prop54
  1
strokes_ogs.tif
102
RTVSPost2010PropOp54
 70
     1
102
RTVSPost2010Prop55
280
     0
102
RTVSPost2010PropOp55
 70
     1
102
RTVSPost2010Prop56
140
1.0
102
RTVSPost2010PropOp56
 70
     1
102
RTVSPost2010Prop57
140
1.0
102
RTVSPost2010PropOp57
 70
     1
  0
XRECORD
  5
10EF
102
{ACAD_REACTORS
330
10EE
102
}
330
10EE
100
AcDbXrecord
280
     1
102
RTVSPost2010Prop28
280
     0
102
RTVSPost2010PropOp28
 70
     1
102
RTVSPost2010Prop29
280
     1
102
RTVSPost2010PropOp29
 70
     1
102
RTVSPost2010Prop30
280
     1
102
RTVSPost2010PropOp30
 70
     1
102
RTVSPost2010Prop31
280
     0
102
RTVSPost2010PropOp31
 70
     1
102
RTVSPost2010Prop32
280
     0
102
RTVSPost2010PropOp32
 70
     1
102
RTVSPost2010Prop33
280
     0
102
RTVSPost2010PropOp33
 70
     1
102
RTVSPost2010Prop34
280
     0
102
RTVSPost2010PropOp34
 70
     1
102
RTVSPost2010Prop35
280
     0
102
RTVSPost2010PropOp35
 70
     1
102
RTVSPost2010Prop36
280
     0
102
RTVSPost2010PropOp36
 70
     1
102
RTVSPost2010Prop37
 90
       50
102
RTVSPost2010PropOp37
 70
     1
102
RTVSPost2010Prop38
140
0.0
102
RTVSPost2010PropOp38
 70
     1
102
RTVSPost2010Prop39
140
1.0
102
RTVSPost2010PropOp39
 70
     1
102
RTVSPost2010Prop40
 90
        0
102
RTVSPost2010PropOp40
 70
     1
102
RTVSPost2010Prop41ColorIndex
 90
       18
102
RTVSPost2010Prop41ColorRGB
 90
        0
102
RTVSPost2010PropOp41
 70
     1
102
RTVSPost2010Prop42
 90
       50
102
RTVSPost2010PropOp42
 70
     1
102
RTVSPost2010Prop43
 90
        3
102
RTVSPost2010PropOp43
 70
     1
102
RTVSPost2010Prop44ColorIndex
 90
        5
102
RTVSPost2010Prop44ColorRGB
 90
      255
102
RTVSPost2010PropOp44
 70
     1
102
RTVSPost2010Prop45
280
     0
102
RTVSPost2010PropOp45
 70
     1
102
RTVSPost2010Prop46
 90
       50
102
RTVSPost2010PropOp46
 70
     1
102
RTVSPost2010Prop47
 90
       50
102
RTVSPost2010PropOp47
 70
     1
102
RTVSPost2010Prop48
 90
       50
102
RTVSPost2010PropOp48
 70
     1
102
RTVSPost2010Prop49
280
     0
102
RTVSPost2010PropOp49
 70
     1
102
RTVSPost2010Prop50
 90
       50
102
RTVSPost2010PropOp50
 70
     1
102
RTVSPost2010Prop51ColorIndex
 90
      256
102
RTVSPost2010Prop51ColorRGB
 90
-16777216
102
RTVSPost2010PropOp51
 70
     0
102
RTVSPost2010Prop52
140
1.0
102
RTVSPost2010PropOp52
 70
     0
102
RTVSPost2010Prop53
 90
        2
102
RTVSPost2010PropOp53
 70
     1
102
RTVSPost2010Prop54
  1
strokes_ogs.tif
102
RTVSPost2010PropOp54
 70
     1
102
RTVSPost2010Prop55
280
     0
102
RTVSPost2010PropOp55
 70
     1
102
RTVSPost2010Prop56
140
1.0
102
RTVSPost2010PropOp56
 70
     1
102
RTVSPost2010Prop57
140
1.0
102
RTVSPost2010PropOp57
 70
     1
  0
XRECORD
  5
10F7
102
{ACAD_REACTORS
330
10F6
102
}
330
10F6
100
AcDbXrecord
280
     1
102
RTVSPost2010Prop28
280
     0
102
RTVSPost2010PropOp28
 70
     1
102
RTVSPost2010Prop29
280
     1
102
RTVSPost2010PropOp29
 70
     1
102
RTVSPost2010Prop30
280
     1
102
RTVSPost2010PropOp30
 70
     1
102
RTVSPost2010Prop31
280
     0
102
RTVSPost2010PropOp31
 70
     1
102
RTVSPost2010Prop32
280
     0
102
RTVSPost2010PropOp32
 70
     1
102
RTVSPost2010Prop33
280
     0
102
RTVSPost2010PropOp33
 70
     1
102
RTVSPost2010Prop34
280
     0
102
RTVSPost2010PropOp34
 70
     1
102
RTVSPost2010Prop35
280
     0
102
RTVSPost2010PropOp35
 70
     1
102
RTVSPost2010Prop36
280
     0
102
RTVSPost2010PropOp36
 70
     1
102
RTVSPost2010Prop37
 90
       50
102
RTVSPost2010PropOp37
 70
     1
102
RTVSPost2010Prop38
140
0.0
102
RTVSPost2010PropOp38
 70
     1
102
RTVSPost2010Prop39
140
1.0
102
RTVSPost2010PropOp39
 70
     1
102
RTVSPost2010Prop40
 90
        0
102
RTVSPost2010PropOp40
 70
     1
102
RTVSPost2010Prop41ColorIndex
 90
       18
102
RTVSPost2010Prop41ColorRGB
 90
        0
102
RTVSPost2010PropOp41
 70
     1
102
RTVSPost2010Prop42
 90
       50
102
RTVSPost2010PropOp42
 70
     1
102
RTVSPost2010Prop43
 90
        3
102
RTVSPost2010PropOp43
 70
     1
102
RTVSPost2010Prop44ColorIndex
 90
        5
102
RTVSPost2010Prop44ColorRGB
 90
      255
102
RTVSPost2010PropOp44
 70
     1
102
RTVSPost2010Prop45
280
     0
102
RTVSPost2010PropOp45
 70
     1
102
RTVSPost2010Prop46
 90
       50
102
RTVSPost2010PropOp46
 70
     1
102
RTVSPost2010Prop47
 90
       50
102
RTVSPost2010PropOp47
 70
     1
102
RTVSPost2010Prop48
 90
       50
102
RTVSPost2010PropOp48
 70
     1
102
RTVSPost2010Prop49
280
     0
102
RTVSPost2010PropOp49
 70
     1
102
RTVSPost2010Prop50
 90
       50
102
RTVSPost2010PropOp50
 70
     1
102
RTVSPost2010Prop51ColorIndex
 90
      256
102
RTVSPost2010Prop51ColorRGB
 90
-16777216
102
RTVSPost2010PropOp51
 70
     0
102
RTVSPost2010Prop52
140
1.0
102
RTVSPost2010PropOp52
 70
     0
102
RTVSPost2010Prop53
 90
        2
102
RTVSPost2010PropOp53
 70
     1
102
RTVSPost2010Prop54
  1
strokes_ogs.tif
102
RTVSPost2010PropOp54
 70
     1
102
RTVSPost2010Prop55
280
     0
102
RTVSPost2010PropOp55
 70
     1
102
RTVSPost2010Prop56
140
1.0
102
RTVSPost2010PropOp56
 70
     1
102
RTVSPost2010Prop57
140
1.0
102
RTVSPost2010PropOp57
 70
     1
  0
XRECORD
  5
10E9
102
{ACAD_REACTORS
330
10E8
102
}
330
10E8
100
AcDbXrecord
280
     1
102
RTVSPost2010Prop28
280
     0
102
RTVSPost2010PropOp28
 70
     1
102
RTVSPost2010Prop29
280
     1
102
RTVSPost2010PropOp29
 70
     1
102
RTVSPost2010Prop30
280
     1
102
RTVSPost2010PropOp30
 70
     1
102
RTVSPost2010Prop31
280
     0
102
RTVSPost2010PropOp31
 70
     1
102
RTVSPost2010Prop32
280
     0
102
RTVSPost2010PropOp32
 70
     1
102
RTVSPost2010Prop33
280
     0
102
RTVSPost2010PropOp33
 70
     1
102
RTVSPost2010Prop34
280
     0
102
RTVSPost2010PropOp34
 70
     1
102
RTVSPost2010Prop35
280
     0
102
RTVSPost2010PropOp35
 70
     1
102
RTVSPost2010Prop36
280
     0
102
RTVSPost2010PropOp36
 70
     1
102
RTVSPost2010Prop37
 90
       50
102
RTVSPost2010PropOp37
 70
     1
102
RTVSPost2010Prop38
140
0.0
102
RTVSPost2010PropOp38
 70
     1
102
RTVSPost2010Prop39
140
1.0
102
RTVSPost2010PropOp39
 70
     1
102
RTVSPost2010Prop40
 90
        0
102
RTVSPost2010PropOp40
 70
     1
102
RTVSPost2010Prop41ColorIndex
 90
       18
102
RTVSPost2010Prop41ColorRGB
 90
        0
102
RTVSPost2010PropOp41
 70
     1
102
RTVSPost2010Prop42
 90
       50
102
RTVSPost2010PropOp42
 70
     1
102
RTVSPost2010Prop43
 90
        3
102
RTVSPost2010PropOp43
 70
     1
102
RTVSPost2010Prop44ColorIndex
 90
        5
102
RTVSPost2010Prop44ColorRGB
 90
      255
102
RTVSPost2010PropOp44
 70
     1
102
RTVSPost2010Prop45
280
     0
102
RTVSPost2010PropOp45
 70
     1
102
RTVSPost2010Prop46
 90
       50
102
RTVSPost2010PropOp46
 70
     1
102
RTVSPost2010Prop47
 90
       50
102
RTVSPost2010PropOp47
 70
     1
102
RTVSPost2010Prop48
 90
       50
102
RTVSPost2010PropOp48
 70
     1
102
RTVSPost2010Prop49
280
     0
102
RTVSPost2010PropOp49
 70
     1
102
RTVSPost2010Prop50
 90
       50
102
RTVSPost2010PropOp50
 70
     1
102
RTVSPost2010Prop51ColorIndex
 90
      256
102
RTVSPost2010Prop51ColorRGB
 90
-16777216
102
RTVSPost2010PropOp51
 70
     0
102
RTVSPost2010Prop52
140
1.0
102
RTVSPost2010PropOp52
 70
     0
102
RTVSPost2010Prop53
 90
        2
102
RTVSPost2010PropOp53
 70
     1
102
RTVSPost2010Prop54
  1
strokes_ogs.tif
102
RTVSPost2010PropOp54
 70
     1
102
RTVSPost2010Prop55
280
     0
102
RTVSPost2010PropOp55
 70
     1
102
RTVSPost2010Prop56
140
1.0
102
RTVSPost2010PropOp56
 70
     1
102
RTVSPost2010Prop57
140
1.0
102
RTVSPost2010PropOp57
 70
     1
  0
XRECORD
  5
10ED
102
{ACAD_REACTORS
330
10EC
102
}
330
10EC
100
AcDbXrecord
280
     1
102
RTVSPost2010Prop28
280
     0
102
RTVSPost2010PropOp28
 70
     1
102
RTVSPost2010Prop29
280
     1
102
RTVSPost2010PropOp29
 70
     1
102
RTVSPost2010Prop30
280
     1
102
RTVSPost2010PropOp30
 70
     1
102
RTVSPost2010Prop31
280
     0
102
RTVSPost2010PropOp31
 70
     1
102
RTVSPost2010Prop32
280
     0
102
RTVSPost2010PropOp32
 70
     1
102
RTVSPost2010Prop33
280
     0
102
RTVSPost2010PropOp33
 70
     1
102
RTVSPost2010Prop34
280
     0
102
RTVSPost2010PropOp34
 70
     1
102
RTVSPost2010Prop35
280
     0
102
RTVSPost2010PropOp35
 70
     1
102
RTVSPost2010Prop36
280
     0
102
RTVSPost2010PropOp36
 70
     1
102
RTVSPost2010Prop37
 90
       50
102
RTVSPost2010PropOp37
 70
     1
102
RTVSPost2010Prop38
140
0.0
102
RTVSPost2010PropOp38
 70
     1
102
RTVSPost2010Prop39
140
1.0
102
RTVSPost2010PropOp39
 70
     1
102
RTVSPost2010Prop40
 90
        0
102
RTVSPost2010PropOp40
 70
     1
102
RTVSPost2010Prop41ColorIndex
 90
       18
102
RTVSPost2010Prop41ColorRGB
 90
        0
102
RTVSPost2010PropOp41
 70
     1
102
RTVSPost2010Prop42
 90
       50
102
RTVSPost2010PropOp42
 70
     1
102
RTVSPost2010Prop43
 90
        3
102
RTVSPost2010PropOp43
 70
     1
102
RTVSPost2010Prop44ColorIndex
 90
        5
102
RTVSPost2010Prop44ColorRGB
 90
      255
102
RTVSPost2010PropOp44
 70
     1
102
RTVSPost2010Prop45
280
     0
102
RTVSPost2010PropOp45
 70
     1
102
RTVSPost2010Prop46
 90
       50
102
RTVSPost2010PropOp46
 70
     1
102
RTVSPost2010Prop47
 90
       50
102
RTVSPost2010PropOp47
 70
     1
102
RTVSPost2010Prop48
 90
       50
102
RTVSPost2010PropOp48
 70
     1
102
RTVSPost2010Prop49
280
     0
102
RTVSPost2010PropOp49
 70
     1
102
RTVSPost2010Prop50
 90
       50
102
RTVSPost2010PropOp50
 70
     1
102
RTVSPost2010Prop51ColorIndex
 90
      256
102
RTVSPost2010Prop51ColorRGB
 90
-16777216
102
RTVSPost2010PropOp51
 70
     0
102
RTVSPost2010Prop52
140
1.0
102
RTVSPost2010PropOp52
 70
     0
102
RTVSPost2010Prop53
 90
        2
102
RTVSPost2010PropOp53
 70
     1
102
RTVSPost2010Prop54
  1
strokes_ogs.tif
102
RTVSPost2010PropOp54
 70
     1
102
RTVSPost2010Prop55
280
     0
102
RTVSPost2010PropOp55
 70
     1
102
RTVSPost2010Prop56
140
1.0
102
RTVSPost2010PropOp56
 70
     1
102
RTVSPost2010Prop57
140
1.0
102
RTVSPost2010PropOp57
 70
     1
  0
XRECORD
  5
1107
102
{ACAD_REACTORS
330
1106
102
}
330
1106
100
AcDbXrecord
280
     1
102
RTVSPost2010Prop28
280
     0
102
RTVSPost2010PropOp28
 70
     0
102
RTVSPost2010Prop29
280
     1
102
RTVSPost2010PropOp29
 70
     0
102
RTVSPost2010Prop30
280
     1
102
RTVSPost2010PropOp30
 70
     0
102
RTVSPost2010Prop31
280
     0
102
RTVSPost2010PropOp31
 70
     0
102
RTVSPost2010Prop32
280
     0
102
RTVSPost2010PropOp32
 70
     0
102
RTVSPost2010Prop33
280
     0
102
RTVSPost2010PropOp33
 70
     0
102
RTVSPost2010Prop34
280
     0
102
RTVSPost2010PropOp34
 70
     0
102
RTVSPost2010Prop35
280
     0
102
RTVSPost2010PropOp35
 70
     0
102
RTVSPost2010Prop36
280
     0
102
RTVSPost2010PropOp36
 70
     0
102
RTVSPost2010Prop37
 90
       50
102
RTVSPost2010PropOp37
 70
     0
102
RTVSPost2010Prop38
140
0.0
102
RTVSPost2010PropOp38
 70
     0
102
RTVSPost2010Prop39
140
1.0
102
RTVSPost2010PropOp39
 70
     0
102
RTVSPost2010Prop40
 90
        0
102
RTVSPost2010PropOp40
 70
     0
102
RTVSPost2010Prop41ColorIndex
 90
       18
102
RTVSPost2010Prop41ColorRGB
 90
        0
102
RTVSPost2010PropOp41
 70
     0
102
RTVSPost2010Prop42
 90
       50
102
RTVSPost2010PropOp42
 70
     0
102
RTVSPost2010Prop43
 90
        3
102
RTVSPost2010PropOp43
 70
     0
102
RTVSPost2010Prop44ColorIndex
 90
        5
102
RTVSPost2010Prop44ColorRGB
 90
      255
102
RTVSPost2010PropOp44
 70
     0
102
RTVSPost2010Prop45
280
     0
102
RTVSPost2010PropOp45
 70
     0
102
RTVSPost2010Prop46
 90
       50
102
RTVSPost2010PropOp46
 70
     0
102
RTVSPost2010Prop47
 90
       50
102
RTVSPost2010PropOp47
 70
     0
102
RTVSPost2010Prop48
 90
       50
102
RTVSPost2010PropOp48
 70
     0
102
RTVSPost2010Prop49
280
     0
102
RTVSPost2010PropOp49
 70
     0
102
RTVSPost2010Prop50
 90
       50
102
RTVSPost2010PropOp50
 70
     0
102
RTVSPost2010Prop51ColorIndex
 90
      256
102
RTVSPost2010Prop51ColorRGB
 90
-16777216
102
RTVSPost2010PropOp51
 70
     0
102
RTVSPost2010Prop52
140
1.0
102
RTVSPost2010PropOp52
 70
     0
102
RTVSPost2010Prop53
 90
        2
102
RTVSPost2010PropOp53
 70
     0
102
RTVSPost2010Prop54
  1
strokes_ogs.tif
102
RTVSPost2010PropOp54
 70
     0
102
RTVSPost2010Prop55
280
     0
102
RTVSPost2010PropOp55
 70
     0
102
RTVSPost2010Prop56
140
1.0
102
RTVSPost2010PropOp56
 70
     0
102
RTVSPost2010Prop57
140
1.0
102
RTVSPost2010PropOp57
 70
     0
  0
XRECORD
  5
10F5
102
{ACAD_REACTORS
330
10F4
102
}
330
10F4
100
AcDbXrecord
280
     1
102
RTVSPost2010Prop28
280
     0
102
RTVSPost2010PropOp28
 70
     1
102
RTVSPost2010Prop29
280
     1
102
RTVSPost2010PropOp29
 70
     1
102
RTVSPost2010Prop30
280
     1
102
RTVSPost2010PropOp30
 70
     1
102
RTVSPost2010Prop31
280
     0
102
RTVSPost2010PropOp31
 70
     1
102
RTVSPost2010Prop32
280
     0
102
RTVSPost2010PropOp32
 70
     1
102
RTVSPost2010Prop33
280
     0
102
RTVSPost2010PropOp33
 70
     1
102
RTVSPost2010Prop34
280
     0
102
RTVSPost2010PropOp34
 70
     1
102
RTVSPost2010Prop35
280
     0
102
RTVSPost2010PropOp35
 70
     1
102
RTVSPost2010Prop36
280
     0
102
RTVSPost2010PropOp36
 70
     1
102
RTVSPost2010Prop37
 90
       50
102
RTVSPost2010PropOp37
 70
     1
102
RTVSPost2010Prop38
140
0.0
102
RTVSPost2010PropOp38
 70
     1
102
RTVSPost2010Prop39
140
1.0
102
RTVSPost2010PropOp39
 70
     1
102
RTVSPost2010Prop40
 90
        0
102
RTVSPost2010PropOp40
 70
     1
102
RTVSPost2010Prop41ColorIndex
 90
       18
102
RTVSPost2010Prop41ColorRGB
 90
        0
102
RTVSPost2010PropOp41
 70
     1
102
RTVSPost2010Prop42
 90
       50
102
RTVSPost2010PropOp42
 70
     1
102
RTVSPost2010Prop43
 90
        3
102
RTVSPost2010PropOp43
 70
     1
102
RTVSPost2010Prop44ColorIndex
 90
        5
102
RTVSPost2010Prop44ColorRGB
 90
      255
102
RTVSPost2010PropOp44
 70
     1
102
RTVSPost2010Prop45
280
     0
102
RTVSPost2010PropOp45
 70
     1
102
RTVSPost2010Prop46
 90
       50
102
RTVSPost2010PropOp46
 70
     1
102
RTVSPost2010Prop47
 90
       50
102
RTVSPost2010PropOp47
 70
     1
102
RTVSPost2010Prop48
 90
       50
102
RTVSPost2010PropOp48
 70
     1
102
RTVSPost2010Prop49
280
     0
102
RTVSPost2010PropOp49
 70
     1
102
RTVSPost2010Prop50
 90
       50
102
RTVSPost2010PropOp50
 70
     1
102
RTVSPost2010Prop51ColorIndex
 90
      256
102
RTVSPost2010Prop51ColorRGB
 90
-16777216
102
RTVSPost2010PropOp51
 70
     0
102
RTVSPost2010Prop52
140
1.0
102
RTVSPost2010PropOp52
 70
     0
102
RTVSPost2010Prop53
 90
        2
102
RTVSPost2010PropOp53
 70
     1
102
RTVSPost2010Prop54
  1
strokes_ogs.tif
102
RTVSPost2010PropOp54
 70
     1
102
RTVSPost2010Prop55
280
     0
102
RTVSPost2010PropOp55
 70
     1
102
RTVSPost2010Prop56
140
1.0
102
RTVSPost2010PropOp56
 70
     1
102
RTVSPost2010Prop57
140
1.0
102
RTVSPost2010PropOp57
 70
     1
  0
XRECORD
  5
10D9
102
{ACAD_REACTORS
330
10D8
102
}
330
10D8
100
AcDbXrecord
280
     1
102
RTVSPost2010Prop28
280
     0
102
RTVSPost2010PropOp28
 70
     1
102
RTVSPost2010Prop29
280
     1
102
RTVSPost2010PropOp29
 70
     1
102
RTVSPost2010Prop30
280
     1
102
RTVSPost2010PropOp30
 70
     1
102
RTVSPost2010Prop31
280
     0
102
RTVSPost2010PropOp31
 70
     1
102
RTVSPost2010Prop32
280
     0
102
RTVSPost2010PropOp32
 70
     1
102
RTVSPost2010Prop33
280
     0
102
RTVSPost2010PropOp33
 70
     1
102
RTVSPost2010Prop34
280
     0
102
RTVSPost2010PropOp34
 70
     1
102
RTVSPost2010Prop35
280
     0
102
RTVSPost2010PropOp35
 70
     1
102
RTVSPost2010Prop36
280
     0
102
RTVSPost2010PropOp36
 70
     1
102
RTVSPost2010Prop37
 90
       50
102
RTVSPost2010PropOp37
 70
     1
102
RTVSPost2010Prop38
140
0.0
102
RTVSPost2010PropOp38
 70
     1
102
RTVSPost2010Prop39
140
1.0
102
RTVSPost2010PropOp39
 70
     1
102
RTVSPost2010Prop40
 90
        0
102
RTVSPost2010PropOp40
 70
     1
102
RTVSPost2010Prop41ColorIndex
 90
       18
102
RTVSPost2010Prop41ColorRGB
 90
        0
102
RTVSPost2010PropOp41
 70
     1
102
RTVSPost2010Prop42
 90
       50
102
RTVSPost2010PropOp42
 70
     1
102
RTVSPost2010Prop43
 90
        3
102
RTVSPost2010PropOp43
 70
     1
102
RTVSPost2010Prop44ColorIndex
 90
        5
102
RTVSPost2010Prop44ColorRGB
 90
      255
102
RTVSPost2010PropOp44
 70
     1
102
RTVSPost2010Prop45
280
     0
102
RTVSPost2010PropOp45
 70
     1
102
RTVSPost2010Prop46
 90
       50
102
RTVSPost2010PropOp46
 70
     1
102
RTVSPost2010Prop47
 90
       50
102
RTVSPost2010PropOp47
 70
     1
102
RTVSPost2010Prop48
 90
       50
102
RTVSPost2010PropOp48
 70
     1
102
RTVSPost2010Prop49
280
     0
102
RTVSPost2010PropOp49
 70
     1
102
RTVSPost2010Prop50
 90
       50
102
RTVSPost2010PropOp50
 70
     1
102
RTVSPost2010Prop51ColorIndex
 90
      256
102
RTVSPost2010Prop51ColorRGB
 90
-16777216
102
RTVSPost2010PropOp51
 70
     0
102
RTVSPost2010Prop52
140
1.0
102
RTVSPost2010PropOp52
 70
     0
102
RTVSPost2010Prop53
 90
        2
102
RTVSPost2010PropOp53
 70
     1
102
RTVSPost2010Prop54
  1
strokes_ogs.tif
102
RTVSPost2010PropOp54
 70
     1
102
RTVSPost2010Prop55
280
     0
102
RTVSPost2010PropOp55
 70
     1
102
RTVSPost2010Prop56
140
1.0
102
RTVSPost2010PropOp56
 70
     1
102
RTVSPost2010Prop57
140
1.0
102
RTVSPost2010PropOp57
 70
     1
  0
XRECORD
  5
10DB
102
{ACAD_REACTORS
330
10DA
102
}
330
10DA
100
AcDbXrecord
280
     1
102
RTVSPost2010Prop28
280
     0
102
RTVSPost2010PropOp28
 70
     1
102
RTVSPost2010Prop29
280
     1
102
RTVSPost2010PropOp29
 70
     1
102
RTVSPost2010Prop30
280
     1
102
RTVSPost2010PropOp30
 70
     1
102
RTVSPost2010Prop31
280
     0
102
RTVSPost2010PropOp31
 70
     1
102
RTVSPost2010Prop32
280
     0
102
RTVSPost2010PropOp32
 70
     1
102
RTVSPost2010Prop33
280
     0
102
RTVSPost2010PropOp33
 70
     1
102
RTVSPost2010Prop34
280
     0
102
RTVSPost2010PropOp34
 70
     1
102
RTVSPost2010Prop35
280
     0
102
RTVSPost2010PropOp35
 70
     1
102
RTVSPost2010Prop36
280
     0
102
RTVSPost2010PropOp36
 70
     1
102
RTVSPost2010Prop37
 90
       50
102
RTVSPost2010PropOp37
 70
     1
102
RTVSPost2010Prop38
140
0.0
102
RTVSPost2010PropOp38
 70
     1
102
RTVSPost2010Prop39
140
1.0
102
RTVSPost2010PropOp39
 70
     1
102
RTVSPost2010Prop40
 90
        0
102
RTVSPost2010PropOp40
 70
     1
102
RTVSPost2010Prop41ColorIndex
 90
       18
102
RTVSPost2010Prop41ColorRGB
 90
        0
102
RTVSPost2010PropOp41
 70
     1
102
RTVSPost2010Prop42
 90
       50
102
RTVSPost2010PropOp42
 70
     1
102
RTVSPost2010Prop43
 90
        3
102
RTVSPost2010PropOp43
 70
     1
102
RTVSPost2010Prop44ColorIndex
 90
        5
102
RTVSPost2010Prop44ColorRGB
 90
      255
102
RTVSPost2010PropOp44
 70
     1
102
RTVSPost2010Prop45
280
     0
102
RTVSPost2010PropOp45
 70
     1
102
RTVSPost2010Prop46
 90
       50
102
RTVSPost2010PropOp46
 70
     1
102
RTVSPost2010Prop47
 90
       50
102
RTVSPost2010PropOp47
 70
     1
102
RTVSPost2010Prop48
 90
       50
102
RTVSPost2010PropOp48
 70
     1
102
RTVSPost2010Prop49
280
     0
102
RTVSPost2010PropOp49
 70
     1
102
RTVSPost2010Prop50
 90
       50
102
RTVSPost2010PropOp50
 70
     1
102
RTVSPost2010Prop51ColorIndex
 90
      256
102
RTVSPost2010Prop51ColorRGB
 90
-16777216
102
RTVSPost2010PropOp51
 70
     0
102
RTVSPost2010Prop52
140
1.0
102
RTVSPost2010PropOp52
 70
     0
102
RTVSPost2010Prop53
 90
        2
102
RTVSPost2010PropOp53
 70
     1
102
RTVSPost2010Prop54
  1
strokes_ogs.tif
102
RTVSPost2010PropOp54
 70
     1
102
RTVSPost2010Prop55
280
     0
102
RTVSPost2010PropOp55
 70
     1
102
RTVSPost2010Prop56
140
1.0
102
RTVSPost2010PropOp56
 70
     1
102
RTVSPost2010Prop57
140
1.0
102
RTVSPost2010PropOp57
 70
     1
  0
XRECORD
  5
10DD
102
{ACAD_REACTORS
330
10DC
102
}
330
10DC
100
AcDbXrecord
280
     1
102
RTVSPost2010Prop28
280
     0
102
RTVSPost2010PropOp28
 70
     1
102
RTVSPost2010Prop29
280
     1
102
RTVSPost2010PropOp29
 70
     1
102
RTVSPost2010Prop30
280
     1
102
RTVSPost2010PropOp30
 70
     1
102
RTVSPost2010Prop31
280
     0
102
RTVSPost2010PropOp31
 70
     1
102
RTVSPost2010Prop32
280
     0
102
RTVSPost2010PropOp32
 70
     1
102
RTVSPost2010Prop33
280
     0
102
RTVSPost2010PropOp33
 70
     1
102
RTVSPost2010Prop34
280
     0
102
RTVSPost2010PropOp34
 70
     1
102
RTVSPost2010Prop35
280
     0
102
RTVSPost2010PropOp35
 70
     1
102
RTVSPost2010Prop36
280
     0
102
RTVSPost2010PropOp36
 70
     1
102
RTVSPost2010Prop37
 90
       50
102
RTVSPost2010PropOp37
 70
     1
102
RTVSPost2010Prop38
140
0.0
102
RTVSPost2010PropOp38
 70
     1
102
RTVSPost2010Prop39
140
1.0
102
RTVSPost2010PropOp39
 70
     1
102
RTVSPost2010Prop40
 90
        0
102
RTVSPost2010PropOp40
 70
     1
102
RTVSPost2010Prop41ColorIndex
 90
       18
102
RTVSPost2010Prop41ColorRGB
 90
        0
102
RTVSPost2010PropOp41
 70
     1
102
RTVSPost2010Prop42
 90
       50
102
RTVSPost2010PropOp42
 70
     1
102
RTVSPost2010Prop43
 90
        3
102
RTVSPost2010PropOp43
 70
     1
102
RTVSPost2010Prop44ColorIndex
 90
        5
102
RTVSPost2010Prop44ColorRGB
 90
      255
102
RTVSPost2010PropOp44
 70
     1
102
RTVSPost2010Prop45
280
     0
102
RTVSPost2010PropOp45
 70
     1
102
RTVSPost2010Prop46
 90
       50
102
RTVSPost2010PropOp46
 70
     1
102
RTVSPost2010Prop47
 90
       50
102
RTVSPost2010PropOp47
 70
     1
102
RTVSPost2010Prop48
 90
       50
102
RTVSPost2010PropOp48
 70
     1
102
RTVSPost2010Prop49
280
     0
102
RTVSPost2010PropOp49
 70
     1
102
RTVSPost2010Prop50
 90
       50
102
RTVSPost2010PropOp50
 70
     1
102
RTVSPost2010Prop51ColorIndex
 90
      256
102
RTVSPost2010Prop51ColorRGB
 90
-16777216
102
RTVSPost2010PropOp51
 70
     0
102
RTVSPost2010Prop52
140
1.0
102
RTVSPost2010PropOp52
 70
     0
102
RTVSPost2010Prop53
 90
        2
102
RTVSPost2010PropOp53
 70
     1
102
RTVSPost2010Prop54
  1
strokes_ogs.tif
102
RTVSPost2010PropOp54
 70
     1
102
RTVSPost2010Prop55
280
     0
102
RTVSPost2010PropOp55
 70
     1
102
RTVSPost2010Prop56
140
1.0
102
RTVSPost2010PropOp56
 70
     1
102
RTVSPost2010Prop57
140
1.0
102
RTVSPost2010PropOp57
 70
     1
  0
XRECORD
  5
10DF
102
{ACAD_REACTORS
330
10DE
102
}
330
10DE
100
AcDbXrecord
280
     1
102
RTVSPost2010Prop28
280
     0
102
RTVSPost2010PropOp28
 70
     1
102
RTVSPost2010Prop29
280
     1
102
RTVSPost2010PropOp29
 70
     1
102
RTVSPost2010Prop30
280
     1
102
RTVSPost2010PropOp30
 70
     1
102
RTVSPost2010Prop31
280
     0
102
RTVSPost2010PropOp31
 70
     1
102
RTVSPost2010Prop32
280
     0
102
RTVSPost2010PropOp32
 70
     1
102
RTVSPost2010Prop33
280
     0
102
RTVSPost2010PropOp33
 70
     1
102
RTVSPost2010Prop34
280
     0
102
RTVSPost2010PropOp34
 70
     1
102
RTVSPost2010Prop35
280
     0
102
RTVSPost2010PropOp35
 70
     1
102
RTVSPost2010Prop36
280
     0
102
RTVSPost2010PropOp36
 70
     1
102
RTVSPost2010Prop37
 90
       50
102
RTVSPost2010PropOp37
 70
     1
102
RTVSPost2010Prop38
140
0.0
102
RTVSPost2010PropOp38
 70
     1
102
RTVSPost2010Prop39
140
1.0
102
RTVSPost2010PropOp39
 70
     1
102
RTVSPost2010Prop40
 90
        0
102
RTVSPost2010PropOp40
 70
     1
102
RTVSPost2010Prop41ColorIndex
 90
       18
102
RTVSPost2010Prop41ColorRGB
 90
        0
102
RTVSPost2010PropOp41
 70
     1
102
RTVSPost2010Prop42
 90
       50
102
RTVSPost2010PropOp42
 70
     1
102
RTVSPost2010Prop43
 90
        3
102
RTVSPost2010PropOp43
 70
     1
102
RTVSPost2010Prop44ColorIndex
 90
        5
102
RTVSPost2010Prop44ColorRGB
 90
      255
102
RTVSPost2010PropOp44
 70
     1
102
RTVSPost2010Prop45
280
     0
102
RTVSPost2010PropOp45
 70
     1
102
RTVSPost2010Prop46
 90
       50
102
RTVSPost2010PropOp46
 70
     1
102
RTVSPost2010Prop47
 90
       50
102
RTVSPost2010PropOp47
 70
     1
102
RTVSPost2010Prop48
 90
       50
102
RTVSPost2010PropOp48
 70
     1
102
RTVSPost2010Prop49
280
     0
102
RTVSPost2010PropOp49
 70
     1
102
RTVSPost2010Prop50
 90
       50
102
RTVSPost2010PropOp50
 70
     1
102
RTVSPost2010Prop51ColorIndex
 90
      256
102
RTVSPost2010Prop51ColorRGB
 90
-16777216
102
RTVSPost2010PropOp51
 70
     0
102
RTVSPost2010Prop52
140
1.0
102
RTVSPost2010PropOp52
 70
     0
102
RTVSPost2010Prop53
 90
        2
102
RTVSPost2010PropOp53
 70
     1
102
RTVSPost2010Prop54
  1
strokes_ogs.tif
102
RTVSPost2010PropOp54
 70
     1
102
RTVSPost2010Prop55
280
     0
102
RTVSPost2010PropOp55
 70
     1
102
RTVSPost2010Prop56
140
1.0
102
RTVSPost2010PropOp56
 70
     1
102
RTVSPost2010Prop57
140
1.0
102
RTVSPost2010PropOp57
 70
     1
  0
XRECORD
  5
10E7
102
{ACAD_REACTORS
330
10E6
102
}
330
10E6
100
AcDbXrecord
280
     1
102
RTVSPost2010Prop28
280
     0
102
RTVSPost2010PropOp28
 70
     1
102
RTVSPost2010Prop29
280
     1
102
RTVSPost2010PropOp29
 70
     1
102
RTVSPost2010Prop30
280
     1
102
RTVSPost2010PropOp30
 70
     1
102
RTVSPost2010Prop31
280
     0
102
RTVSPost2010PropOp31
 70
     1
102
RTVSPost2010Prop32
280
     0
102
RTVSPost2010PropOp32
 70
     1
102
RTVSPost2010Prop33
280
     0
102
RTVSPost2010PropOp33
 70
     1
102
RTVSPost2010Prop34
280
     0
102
RTVSPost2010PropOp34
 70
     1
102
RTVSPost2010Prop35
280
     0
102
RTVSPost2010PropOp35
 70
     1
102
RTVSPost2010Prop36
280
     0
102
RTVSPost2010PropOp36
 70
     1
102
RTVSPost2010Prop37
 90
       50
102
RTVSPost2010PropOp37
 70
     1
102
RTVSPost2010Prop38
140
0.0
102
RTVSPost2010PropOp38
 70
     1
102
RTVSPost2010Prop39
140
1.0
102
RTVSPost2010PropOp39
 70
     1
102
RTVSPost2010Prop40
 90
        0
102
RTVSPost2010PropOp40
 70
     1
102
RTVSPost2010Prop41ColorIndex
 90
       18
102
RTVSPost2010Prop41ColorRGB
 90
        0
102
RTVSPost2010PropOp41
 70
     1
102
RTVSPost2010Prop42
 90
       50
102
RTVSPost2010PropOp42
 70
     1
102
RTVSPost2010Prop43
 90
        3
102
RTVSPost2010PropOp43
 70
     1
102
RTVSPost2010Prop44ColorIndex
 90
        5
102
RTVSPost2010Prop44ColorRGB
 90
      255
102
RTVSPost2010PropOp44
 70
     1
102
RTVSPost2010Prop45
280
     0
102
RTVSPost2010PropOp45
 70
     1
102
RTVSPost2010Prop46
 90
       50
102
RTVSPost2010PropOp46
 70
     1
102
RTVSPost2010Prop47
 90
       50
102
RTVSPost2010PropOp47
 70
     1
102
RTVSPost2010Prop48
 90
       50
102
RTVSPost2010PropOp48
 70
     1
102
RTVSPost2010Prop49
280
     0
102
RTVSPost2010PropOp49
 70
     1
102
RTVSPost2010Prop50
 90
       50
102
RTVSPost2010PropOp50
 70
     1
102
RTVSPost2010Prop51ColorIndex
 90
      256
102
RTVSPost2010Prop51ColorRGB
 90
-16777216
102
RTVSPost2010PropOp51
 70
     0
102
RTVSPost2010Prop52
140
1.0
102
RTVSPost2010PropOp52
 70
     0
102
RTVSPost2010Prop53
 90
        2
102
RTVSPost2010PropOp53
 70
     1
102
RTVSPost2010Prop54
  1
strokes_ogs.tif
102
RTVSPost2010PropOp54
 70
     1
102
RTVSPost2010Prop55
280
     0
102
RTVSPost2010PropOp55
 70
     1
102
RTVSPost2010Prop56
140
1.0
102
RTVSPost2010PropOp56
 70
     1
102
RTVSPost2010Prop57
140
1.0
102
RTVSPost2010PropOp57
 70
     1
  0
XRECORD
  5
1103
102
{ACAD_REACTORS
330
1102
102
}
330
1102
100
AcDbXrecord
280
     1
102
RTVSPost2010Prop28
280
     0
102
RTVSPost2010PropOp28
 70
     0
102
RTVSPost2010Prop29
280
     1
102
RTVSPost2010PropOp29
 70
     0
102
RTVSPost2010Prop30
280
     1
102
RTVSPost2010PropOp30
 70
     0
102
RTVSPost2010Prop31
280
     0
102
RTVSPost2010PropOp31
 70
     0
102
RTVSPost2010Prop32
280
     0
102
RTVSPost2010PropOp32
 70
     0
102
RTVSPost2010Prop33
280
     0
102
RTVSPost2010PropOp33
 70
     0
102
RTVSPost2010Prop34
280
     0
102
RTVSPost2010PropOp34
 70
     0
102
RTVSPost2010Prop35
280
     0
102
RTVSPost2010PropOp35
 70
     0
102
RTVSPost2010Prop36
280
     0
102
RTVSPost2010PropOp36
 70
     0
102
RTVSPost2010Prop37
 90
       50
102
RTVSPost2010PropOp37
 70
     0
102
RTVSPost2010Prop38
140
0.0
102
RTVSPost2010PropOp38
 70
     0
102
RTVSPost2010Prop39
140
1.0
102
RTVSPost2010PropOp39
 70
     0
102
RTVSPost2010Prop40
 90
        0
102
RTVSPost2010PropOp40
 70
     0
102
RTVSPost2010Prop41ColorIndex
 90
       18
102
RTVSPost2010Prop41ColorRGB
 90
        0
102
RTVSPost2010PropOp41
 70
     0
102
RTVSPost2010Prop42
 90
       50
102
RTVSPost2010PropOp42
 70
     0
102
RTVSPost2010Prop43
 90
        3
102
RTVSPost2010PropOp43
 70
     0
102
RTVSPost2010Prop44ColorIndex
 90
        5
102
RTVSPost2010Prop44ColorRGB
 90
      255
102
RTVSPost2010PropOp44
 70
     0
102
RTVSPost2010Prop45
280
     0
102
RTVSPost2010PropOp45
 70
     0
102
RTVSPost2010Prop46
 90
       50
102
RTVSPost2010PropOp46
 70
     0
102
RTVSPost2010Prop47
 90
       50
102
RTVSPost2010PropOp47
 70
     0
102
RTVSPost2010Prop48
 90
       50
102
RTVSPost2010PropOp48
 70
     0
102
RTVSPost2010Prop49
280
     0
102
RTVSPost2010PropOp49
 70
     0
102
RTVSPost2010Prop50
 90
       50
102
RTVSPost2010PropOp50
 70
     0
102
RTVSPost2010Prop51ColorIndex
 90
      256
102
RTVSPost2010Prop51ColorRGB
 90
-16777216
102
RTVSPost2010PropOp51
 70
     0
102
RTVSPost2010Prop52
140
1.0
102
RTVSPost2010PropOp52
 70
     0
102
RTVSPost2010Prop53
 90
        2
102
RTVSPost2010PropOp53
 70
     0
102
RTVSPost2010Prop54
  1
strokes_ogs.tif
102
RTVSPost2010PropOp54
 70
     0
102
RTVSPost2010Prop55
280
     0
102
RTVSPost2010PropOp55
 70
     0
102
RTVSPost2010Prop56
140
1.0
102
RTVSPost2010PropOp56
 70
     0
102
RTVSPost2010Prop57
140
1.0
102
RTVSPost2010PropOp57
 70
     0
  0
XRECORD
  5
10F3
102
{ACAD_REACTORS
330
10F2
102
}
330
10F2
100
AcDbXrecord
280
     1
102
RTVSPost2010Prop28
280
     0
102
RTVSPost2010PropOp28
 70
     1
102
RTVSPost2010Prop29
280
     1
102
RTVSPost2010PropOp29
 70
     1
102
RTVSPost2010Prop30
280
     1
102
RTVSPost2010PropOp30
 70
     1
102
RTVSPost2010Prop31
280
     0
102
RTVSPost2010PropOp31
 70
     1
102
RTVSPost2010Prop32
280
     0
102
RTVSPost2010PropOp32
 70
     1
102
RTVSPost2010Prop33
280
     0
102
RTVSPost2010PropOp33
 70
     1
102
RTVSPost2010Prop34
280
     0
102
RTVSPost2010PropOp34
 70
     1
102
RTVSPost2010Prop35
280
     0
102
RTVSPost2010PropOp35
 70
     1
102
RTVSPost2010Prop36
280
     0
102
RTVSPost2010PropOp36
 70
     1
102
RTVSPost2010Prop37
 90
       50
102
RTVSPost2010PropOp37
 70
     1
102
RTVSPost2010Prop38
140
0.0
102
RTVSPost2010PropOp38
 70
     1
102
RTVSPost2010Prop39
140
1.0
102
RTVSPost2010PropOp39
 70
     1
102
RTVSPost2010Prop40
 90
        0
102
RTVSPost2010PropOp40
 70
     1
102
RTVSPost2010Prop41ColorIndex
 90
       18
102
RTVSPost2010Prop41ColorRGB
 90
        0
102
RTVSPost2010PropOp41
 70
     1
102
RTVSPost2010Prop42
 90
       50
102
RTVSPost2010PropOp42
 70
     1
102
RTVSPost2010Prop43
 90
        3
102
RTVSPost2010PropOp43
 70
     1
102
RTVSPost2010Prop44ColorIndex
 90
        5
102
RTVSPost2010Prop44ColorRGB
 90
      255
102
RTVSPost2010PropOp44
 70
     1
102
RTVSPost2010Prop45
280
     0
102
RTVSPost2010PropOp45
 70
     1
102
RTVSPost2010Prop46
 90
       50
102
RTVSPost2010PropOp46
 70
     1
102
RTVSPost2010Prop47
 90
       50
102
RTVSPost2010PropOp47
 70
     1
102
RTVSPost2010Prop48
 90
       50
102
RTVSPost2010PropOp48
 70
     1
102
RTVSPost2010Prop49
280
     0
102
RTVSPost2010PropOp49
 70
     1
102
RTVSPost2010Prop50
 90
       50
102
RTVSPost2010PropOp50
 70
     1
102
RTVSPost2010Prop51ColorIndex
 90
      256
102
RTVSPost2010Prop51ColorRGB
 90
-16777216
102
RTVSPost2010PropOp51
 70
     0
102
RTVSPost2010Prop52
140
1.0
102
RTVSPost2010PropOp52
 70
     0
102
RTVSPost2010Prop53
 90
        2
102
RTVSPost2010PropOp53
 70
     1
102
RTVSPost2010Prop54
  1
strokes_ogs.tif
102
RTVSPost2010PropOp54
 70
     1
102
RTVSPost2010Prop55
280
     0
102
RTVSPost2010PropOp55
 70
     1
102
RTVSPost2010Prop56
140
1.0
102
RTVSPost2010PropOp56
 70
     1
102
RTVSPost2010Prop57
140
1.0
102
RTVSPost2010PropOp57
 70
     1
  0
XRECORD
  5
1105
102
{ACAD_REACTORS
330
1104
102
}
330
1104
100
AcDbXrecord
280
     1
102
RTVSPost2010Prop28
280
     0
102
RTVSPost2010PropOp28
 70
     0
102
RTVSPost2010Prop29
280
     1
102
RTVSPost2010PropOp29
 70
     0
102
RTVSPost2010Prop30
280
     1
102
RTVSPost2010PropOp30
 70
     0
102
RTVSPost2010Prop31
280
     0
102
RTVSPost2010PropOp31
 70
     0
102
RTVSPost2010Prop32
280
     0
102
RTVSPost2010PropOp32
 70
     0
102
RTVSPost2010Prop33
280
     0
102
RTVSPost2010PropOp33
 70
     0
102
RTVSPost2010Prop34
280
     0
102
RTVSPost2010PropOp34
 70
     0
102
RTVSPost2010Prop35
280
     0
102
RTVSPost2010PropOp35
 70
     0
102
RTVSPost2010Prop36
280
     0
102
RTVSPost2010PropOp36
 70
     0
102
RTVSPost2010Prop37
 90
       50
102
RTVSPost2010PropOp37
 70
     0
102
RTVSPost2010Prop38
140
0.0
102
RTVSPost2010PropOp38
 70
     0
102
RTVSPost2010Prop39
140
1.0
102
RTVSPost2010PropOp39
 70
     0
102
RTVSPost2010Prop40
 90
        0
102
RTVSPost2010PropOp40
 70
     0
102
RTVSPost2010Prop41ColorIndex
 90
       18
102
RTVSPost2010Prop41ColorRGB
 90
        0
102
RTVSPost2010PropOp41
 70
     0
102
RTVSPost2010Prop42
 90
       50
102
RTVSPost2010PropOp42
 70
     0
102
RTVSPost2010Prop43
 90
        3
102
RTVSPost2010PropOp43
 70
     0
102
RTVSPost2010Prop44ColorIndex
 90
        5
102
RTVSPost2010Prop44ColorRGB
 90
      255
102
RTVSPost2010PropOp44
 70
     0
102
RTVSPost2010Prop45
280
     0
102
RTVSPost2010PropOp45
 70
     0
102
RTVSPost2010Prop46
 90
       50
102
RTVSPost2010PropOp46
 70
     0
102
RTVSPost2010Prop47
 90
       50
102
RTVSPost2010PropOp47
 70
     0
102
RTVSPost2010Prop48
 90
       50
102
RTVSPost2010PropOp48
 70
     0
102
RTVSPost2010Prop49
280
     0
102
RTVSPost2010PropOp49
 70
     0
102
RTVSPost2010Prop50
 90
       50
102
RTVSPost2010PropOp50
 70
     0
102
RTVSPost2010Prop51ColorIndex
 90
      256
102
RTVSPost2010Prop51ColorRGB
 90
-16777216
102
RTVSPost2010PropOp51
 70
     0
102
RTVSPost2010Prop52
140
1.0
102
RTVSPost2010PropOp52
 70
     0
102
RTVSPost2010Prop53
 90
        2
102
RTVSPost2010PropOp53
 70
     0
102
RTVSPost2010Prop54
  1
strokes_ogs.tif
102
RTVSPost2010PropOp54
 70
     0
102
RTVSPost2010Prop55
280
     0
102
RTVSPost2010PropOp55
 70
     0
102
RTVSPost2010Prop56
140
1.0
102
RTVSPost2010PropOp56
 70
     0
102
RTVSPost2010Prop57
140
1.0
102
RTVSPost2010PropOp57
 70
     0
  0
XRECORD
  5
10EB
102
{ACAD_REACTORS
330
10EA
102
}
330
10EA
100
AcDbXrecord
280
     1
102
RTVSPost2010Prop28
280
     0
102
RTVSPost2010PropOp28
 70
     1
102
RTVSPost2010Prop29
280
     1
102
RTVSPost2010PropOp29
 70
     1
102
RTVSPost2010Prop30
280
     1
102
RTVSPost2010PropOp30
 70
     1
102
RTVSPost2010Prop31
280
     0
102
RTVSPost2010PropOp31
 70
     1
102
RTVSPost2010Prop32
280
     0
102
RTVSPost2010PropOp32
 70
     1
102
RTVSPost2010Prop33
280
     0
102
RTVSPost2010PropOp33
 70
     1
102
RTVSPost2010Prop34
280
     0
102
RTVSPost2010PropOp34
 70
     1
102
RTVSPost2010Prop35
280
     0
102
RTVSPost2010PropOp35
 70
     1
102
RTVSPost2010Prop36
280
     0
102
RTVSPost2010PropOp36
 70
     1
102
RTVSPost2010Prop37
 90
       50
102
RTVSPost2010PropOp37
 70
     1
102
RTVSPost2010Prop38
140
0.0
102
RTVSPost2010PropOp38
 70
     1
102
RTVSPost2010Prop39
140
1.0
102
RTVSPost2010PropOp39
 70
     1
102
RTVSPost2010Prop40
 90
        0
102
RTVSPost2010PropOp40
 70
     1
102
RTVSPost2010Prop41ColorIndex
 90
       18
102
RTVSPost2010Prop41ColorRGB
 90
        0
102
RTVSPost2010PropOp41
 70
     1
102
RTVSPost2010Prop42
 90
       50
102
RTVSPost2010PropOp42
 70
     1
102
RTVSPost2010Prop43
 90
        3
102
RTVSPost2010PropOp43
 70
     1
102
RTVSPost2010Prop44ColorIndex
 90
        5
102
RTVSPost2010Prop44ColorRGB
 90
      255
102
RTVSPost2010PropOp44
 70
     1
102
RTVSPost2010Prop45
280
     0
102
RTVSPost2010PropOp45
 70
     1
102
RTVSPost2010Prop46
 90
       50
102
RTVSPost2010PropOp46
 70
     1
102
RTVSPost2010Prop47
 90
       50
102
RTVSPost2010PropOp47
 70
     1
102
RTVSPost2010Prop48
 90
       50
102
RTVSPost2010PropOp48
 70
     1
102
RTVSPost2010Prop49
280
     0
102
RTVSPost2010PropOp49
 70
     1
102
RTVSPost2010Prop50
 90
       50
102
RTVSPost2010PropOp50
 70
     1
102
RTVSPost2010Prop51ColorIndex
 90
      256
102
RTVSPost2010Prop51ColorRGB
 90
-16777216
102
RTVSPost2010PropOp51
 70
     0
102
RTVSPost2010Prop52
140
1.0
102
RTVSPost2010PropOp52
 70
     0
102
RTVSPost2010Prop53
 90
        2
102
RTVSPost2010PropOp53
 70
     1
102
RTVSPost2010Prop54
  1
strokes_ogs.tif
102
RTVSPost2010PropOp54
 70
     1
102
RTVSPost2010Prop55
280
     0
102
RTVSPost2010PropOp55
 70
     1
102
RTVSPost2010Prop56
140
1.0
102
RTVSPost2010PropOp56
 70
     1
102
RTVSPost2010Prop57
140
1.0
102
RTVSPost2010PropOp57
 70
     1
  0
XRECORD
  5
1101
102
{ACAD_REACTORS
330
1100
102
}
330
1100
100
AcDbXrecord
280
     1
102
RTVSPost2010Prop28
280
     0
102
RTVSPost2010PropOp28
 70
     1
102
RTVSPost2010Prop29
280
     1
102
RTVSPost2010PropOp29
 70
     1
102
RTVSPost2010Prop30
280
     1
102
RTVSPost2010PropOp30
 70
     1
102
RTVSPost2010Prop31
280
     0
102
RTVSPost2010PropOp31
 70
     1
102
RTVSPost2010Prop32
280
     0
102
RTVSPost2010PropOp32
 70
     1
102
RTVSPost2010Prop33
280
     0
102
RTVSPost2010PropOp33
 70
     1
102
RTVSPost2010Prop34
280
     0
102
RTVSPost2010PropOp34
 70
     1
102
RTVSPost2010Prop35
280
     0
102
RTVSPost2010PropOp35
 70
     1
102
RTVSPost2010Prop36
280
     0
102
RTVSPost2010PropOp36
 70
     1
102
RTVSPost2010Prop37
 90
       50
102
RTVSPost2010PropOp37
 70
     1
102
RTVSPost2010Prop38
140
0.0
102
RTVSPost2010PropOp38
 70
     1
102
RTVSPost2010Prop39
140
1.0
102
RTVSPost2010PropOp39
 70
     1
102
RTVSPost2010Prop40
 90
        0
102
RTVSPost2010PropOp40
 70
     1
102
RTVSPost2010Prop41ColorIndex
 90
       18
102
RTVSPost2010Prop41ColorRGB
 90
        0
102
RTVSPost2010PropOp41
 70
     1
102
RTVSPost2010Prop42
 90
       50
102
RTVSPost2010PropOp42
 70
     1
102
RTVSPost2010Prop43
 90
        3
102
RTVSPost2010PropOp43
 70
     1
102
RTVSPost2010Prop44ColorIndex
 90
        5
102
RTVSPost2010Prop44ColorRGB
 90
      255
102
RTVSPost2010PropOp44
 70
     1
102
RTVSPost2010Prop45
280
     0
102
RTVSPost2010PropOp45
 70
     1
102
RTVSPost2010Prop46
 90
       50
102
RTVSPost2010PropOp46
 70
     1
102
RTVSPost2010Prop47
 90
       50
102
RTVSPost2010PropOp47
 70
     1
102
RTVSPost2010Prop48
 90
       50
102
RTVSPost2010PropOp48
 70
     1
102
RTVSPost2010Prop49
280
     0
102
RTVSPost2010PropOp49
 70
     1
102
RTVSPost2010Prop50
 90
       50
102
RTVSPost2010PropOp50
 70
     1
102
RTVSPost2010Prop51ColorIndex
 90
      256
102
RTVSPost2010Prop51ColorRGB
 90
-16777216
102
RTVSPost2010PropOp51
 70
     0
102
RTVSPost2010Prop52
140
1.0
102
RTVSPost2010PropOp52
 70
     0
102
RTVSPost2010Prop53
 90
        2
102
RTVSPost2010PropOp53
 70
     1
102
RTVSPost2010Prop54
  1
strokes_ogs.tif
102
RTVSPost2010PropOp54
 70
     1
102
RTVSPost2010Prop55
280
     0
102
RTVSPost2010PropOp55
 70
     1
102
RTVSPost2010Prop56
140
1.0
102
RTVSPost2010PropOp56
 70
     1
102
RTVSPost2010Prop57
140
1.0
102
RTVSPost2010PropOp57
 70
     1
  0
XRECORD
  5
10FF
102
{ACAD_REACTORS
330
10FE
102
}
330
10FE
100
AcDbXrecord
280
     1
102
RTVSPost2010Prop28
280
     0
102
RTVSPost2010PropOp28
 70
     1
102
RTVSPost2010Prop29
280
     1
102
RTVSPost2010PropOp29
 70
     1
102
RTVSPost2010Prop30
280
     1
102
RTVSPost2010PropOp30
 70
     1
102
RTVSPost2010Prop31
280
     0
102
RTVSPost2010PropOp31
 70
     1
102
RTVSPost2010Prop32
280
     0
102
RTVSPost2010PropOp32
 70
     1
102
RTVSPost2010Prop33
280
     0
102
RTVSPost2010PropOp33
 70
     1
102
RTVSPost2010Prop34
280
     0
102
RTVSPost2010PropOp34
 70
     1
102
RTVSPost2010Prop35
280
     0
102
RTVSPost2010PropOp35
 70
     1
102
RTVSPost2010Prop36
280
     0
102
RTVSPost2010PropOp36
 70
     1
102
RTVSPost2010Prop37
 90
       50
102
RTVSPost2010PropOp37
 70
     1
102
RTVSPost2010Prop38
140
0.0
102
RTVSPost2010PropOp38
 70
     1
102
RTVSPost2010Prop39
140
1.0
102
RTVSPost2010PropOp39
 70
     1
102
RTVSPost2010Prop40
 90
        0
102
RTVSPost2010PropOp40
 70
     1
102
RTVSPost2010Prop41ColorIndex
 90
       18
102
RTVSPost2010Prop41ColorRGB
 90
        0
102
RTVSPost2010PropOp41
 70
     1
102
RTVSPost2010Prop42
 90
       50
102
RTVSPost2010PropOp42
 70
     1
102
RTVSPost2010Prop43
 90
        3
102
RTVSPost2010PropOp43
 70
     1
102
RTVSPost2010Prop44ColorIndex
 90
        5
102
RTVSPost2010Prop44ColorRGB
 90
      255
102
RTVSPost2010PropOp44
 70
     1
102
RTVSPost2010Prop45
280
     0
102
RTVSPost2010PropOp45
 70
     1
102
RTVSPost2010Prop46
 90
       50
102
RTVSPost2010PropOp46
 70
     1
102
RTVSPost2010Prop47
 90
       50
102
RTVSPost2010PropOp47
 70
     1
102
RTVSPost2010Prop48
 90
       50
102
RTVSPost2010PropOp48
 70
     1
102
RTVSPost2010Prop49
280
     0
102
RTVSPost2010PropOp49
 70
     1
102
RTVSPost2010Prop50
 90
       50
102
RTVSPost2010PropOp50
 70
     1
102
RTVSPost2010Prop51ColorIndex
 90
      256
102
RTVSPost2010Prop51ColorRGB
 90
-16777216
102
RTVSPost2010PropOp51
 70
     0
102
RTVSPost2010Prop52
140
1.0
102
RTVSPost2010PropOp52
 70
     0
102
RTVSPost2010Prop53
 90
        2
102
RTVSPost2010PropOp53
 70
     1
102
RTVSPost2010Prop54
  1
strokes_ogs.tif
102
RTVSPost2010PropOp54
 70
     1
102
RTVSPost2010Prop55
280
     0
102
RTVSPost2010PropOp55
 70
     1
102
RTVSPost2010Prop56
140
1.0
102
RTVSPost2010PropOp56
 70
     1
102
RTVSPost2010Prop57
140
1.0
102
RTVSPost2010PropOp57
 70
     1
  0
XRECORD
  5
10F9
102
{ACAD_REACTORS
330
10F8
102
}
330
10F8
100
AcDbXrecord
280
     1
102
RTVSPost2010Prop28
280
     0
102
RTVSPost2010PropOp28
 70
     1
102
RTVSPost2010Prop29
280
     1
102
RTVSPost2010PropOp29
 70
     1
102
RTVSPost2010Prop30
280
     1
102
RTVSPost2010PropOp30
 70
     1
102
RTVSPost2010Prop31
280
     0
102
RTVSPost2010PropOp31
 70
     1
102
RTVSPost2010Prop32
280
     0
102
RTVSPost2010PropOp32
 70
     1
102
RTVSPost2010Prop33
280
     0
102
RTVSPost2010PropOp33
 70
     1
102
RTVSPost2010Prop34
280
     0
102
RTVSPost2010PropOp34
 70
     1
102
RTVSPost2010Prop35
280
     0
102
RTVSPost2010PropOp35
 70
     1
102
RTVSPost2010Prop36
280
     0
102
RTVSPost2010PropOp36
 70
     1
102
RTVSPost2010Prop37
 90
       50
102
RTVSPost2010PropOp37
 70
     1
102
RTVSPost2010Prop38
140
0.0
102
RTVSPost2010PropOp38
 70
     1
102
RTVSPost2010Prop39
140
1.0
102
RTVSPost2010PropOp39
 70
     1
102
RTVSPost2010Prop40
 90
        0
102
RTVSPost2010PropOp40
 70
     1
102
RTVSPost2010Prop41ColorIndex
 90
       18
102
RTVSPost2010Prop41ColorRGB
 90
        0
102
RTVSPost2010PropOp41
 70
     1
102
RTVSPost2010Prop42
 90
       50
102
RTVSPost2010PropOp42
 70
     1
102
RTVSPost2010Prop43
 90
        3
102
RTVSPost2010PropOp43
 70
     1
102
RTVSPost2010Prop44ColorIndex
 90
        5
102
RTVSPost2010Prop44ColorRGB
 90
      255
102
RTVSPost2010PropOp44
 70
     1
102
RTVSPost2010Prop45
280
     0
102
RTVSPost2010PropOp45
 70
     1
102
RTVSPost2010Prop46
 90
       50
102
RTVSPost2010PropOp46
 70
     1
102
RTVSPost2010Prop47
 90
       50
102
RTVSPost2010PropOp47
 70
     1
102
RTVSPost2010Prop48
 90
       50
102
RTVSPost2010PropOp48
 70
     1
102
RTVSPost2010Prop49
280
     0
102
RTVSPost2010PropOp49
 70
     1
102
RTVSPost2010Prop50
 90
       50
102
RTVSPost2010PropOp50
 70
     1
102
RTVSPost2010Prop51ColorIndex
 90
      256
102
RTVSPost2010Prop51ColorRGB
 90
-16777216
102
RTVSPost2010PropOp51
 70
     0
102
RTVSPost2010Prop52
140
1.0
102
RTVSPost2010PropOp52
 70
     0
102
RTVSPost2010Prop53
 90
        2
102
RTVSPost2010PropOp53
 70
     1
102
RTVSPost2010Prop54
  1
strokes_ogs.tif
102
RTVSPost2010PropOp54
 70
     1
102
RTVSPost2010Prop55
280
     0
102
RTVSPost2010PropOp55
 70
     1
102
RTVSPost2010Prop56
140
1.0
102
RTVSPost2010PropOp56
 70
     1
102
RTVSPost2010Prop57
140
1.0
102
RTVSPost2010PropOp57
 70
     1
  0
XRECORD
  5
10FB
102
{ACAD_REACTORS
330
10FA
102
}
330
10FA
100
AcDbXrecord
280
     1
102
RTVSPost2010Prop28
280
     0
102
RTVSPost2010PropOp28
 70
     1
102
RTVSPost2010Prop29
280
     1
102
RTVSPost2010PropOp29
 70
     1
102
RTVSPost2010Prop30
280
     1
102
RTVSPost2010PropOp30
 70
     1
102
RTVSPost2010Prop31
280
     0
102
RTVSPost2010PropOp31
 70
     1
102
RTVSPost2010Prop32
280
     0
102
RTVSPost2010PropOp32
 70
     1
102
RTVSPost2010Prop33
280
     0
102
RTVSPost2010PropOp33
 70
     1
102
RTVSPost2010Prop34
280
     0
102
RTVSPost2010PropOp34
 70
     1
102
RTVSPost2010Prop35
280
     0
102
RTVSPost2010PropOp35
 70
     1
102
RTVSPost2010Prop36
280
     0
102
RTVSPost2010PropOp36
 70
     1
102
RTVSPost2010Prop37
 90
       50
102
RTVSPost2010PropOp37
 70
     1
102
RTVSPost2010Prop38
140
0.0
102
RTVSPost2010PropOp38
 70
     1
102
RTVSPost2010Prop39
140
1.0
102
RTVSPost2010PropOp39
 70
     1
102
RTVSPost2010Prop40
 90
        0
102
RTVSPost2010PropOp40
 70
     1
102
RTVSPost2010Prop41ColorIndex
 90
       18
102
RTVSPost2010Prop41ColorRGB
 90
        0
102
RTVSPost2010PropOp41
 70
     1
102
RTVSPost2010Prop42
 90
       50
102
RTVSPost2010PropOp42
 70
     1
102
RTVSPost2010Prop43
 90
        3
102
RTVSPost2010PropOp43
 70
     1
102
RTVSPost2010Prop44ColorIndex
 90
        5
102
RTVSPost2010Prop44ColorRGB
 90
      255
102
RTVSPost2010PropOp44
 70
     1
102
RTVSPost2010Prop45
280
     0
102
RTVSPost2010PropOp45
 70
     1
102
RTVSPost2010Prop46
 90
       50
102
RTVSPost2010PropOp46
 70
     1
102
RTVSPost2010Prop47
 90
       50
102
RTVSPost2010PropOp47
 70
     1
102
RTVSPost2010Prop48
 90
       50
102
RTVSPost2010PropOp48
 70
     1
102
RTVSPost2010Prop49
280
     0
102
RTVSPost2010PropOp49
 70
     1
102
RTVSPost2010Prop50
 90
       50
102
RTVSPost2010PropOp50
 70
     1
102
RTVSPost2010Prop51ColorIndex
 90
      256
102
RTVSPost2010Prop51ColorRGB
 90
-16777216
102
RTVSPost2010PropOp51
 70
     0
102
RTVSPost2010Prop52
140
1.0
102
RTVSPost2010PropOp52
 70
     0
102
RTVSPost2010Prop53
 90
        2
102
RTVSPost2010PropOp53
 70
     1
102
RTVSPost2010Prop54
  1
strokes_ogs.tif
102
RTVSPost2010PropOp54
 70
     1
102
RTVSPost2010Prop55
280
     0
102
RTVSPost2010PropOp55
 70
     1
102
RTVSPost2010Prop56
140
1.0
102
RTVSPost2010PropOp56
 70
     1
102
RTVSPost2010Prop57
140
1.0
102
RTVSPost2010PropOp57
 70
     1
  0
XRECORD
  5
10F1
102
{ACAD_REACTORS
330
10F0
102
}
330
10F0
100
AcDbXrecord
280
     1
102
RTVSPost2010Prop28
280
     0
102
RTVSPost2010PropOp28
 70
     1
102
RTVSPost2010Prop29
280
     1
102
RTVSPost2010PropOp29
 70
     1
102
RTVSPost2010Prop30
280
     1
102
RTVSPost2010PropOp30
 70
     1
102
RTVSPost2010Prop31
280
     0
102
RTVSPost2010PropOp31
 70
     1
102
RTVSPost2010Prop32
280
     0
102
RTVSPost2010PropOp32
 70
     1
102
RTVSPost2010Prop33
280
     0
102
RTVSPost2010PropOp33
 70
     1
102
RTVSPost2010Prop34
280
     0
102
RTVSPost2010PropOp34
 70
     1
102
RTVSPost2010Prop35
280
     0
102
RTVSPost2010PropOp35
 70
     1
102
RTVSPost2010Prop36
280
     0
102
RTVSPost2010PropOp36
 70
     1
102
RTVSPost2010Prop37
 90
       50
102
RTVSPost2010PropOp37
 70
     1
102
RTVSPost2010Prop38
140
0.0
102
RTVSPost2010PropOp38
 70
     1
102
RTVSPost2010Prop39
140
1.0
102
RTVSPost2010PropOp39
 70
     1
102
RTVSPost2010Prop40
 90
        0
102
RTVSPost2010PropOp40
 70
     1
102
RTVSPost2010Prop41ColorIndex
 90
       18
102
RTVSPost2010Prop41ColorRGB
 90
        0
102
RTVSPost2010PropOp41
 70
     1
102
RTVSPost2010Prop42
 90
       50
102
RTVSPost2010PropOp42
 70
     1
102
RTVSPost2010Prop43
 90
        3
102
RTVSPost2010PropOp43
 70
     1
102
RTVSPost2010Prop44ColorIndex
 90
        5
102
RTVSPost2010Prop44ColorRGB
 90
      255
102
RTVSPost2010PropOp44
 70
     1
102
RTVSPost2010Prop45
280
     0
102
RTVSPost2010PropOp45
 70
     1
102
RTVSPost2010Prop46
 90
       50
102
RTVSPost2010PropOp46
 70
     1
102
RTVSPost2010Prop47
 90
       50
102
RTVSPost2010PropOp47
 70
     1
102
RTVSPost2010Prop48
 90
       50
102
RTVSPost2010PropOp48
 70
     1
102
RTVSPost2010Prop49
280
     0
102
RTVSPost2010PropOp49
 70
     1
102
RTVSPost2010Prop50
 90
       50
102
RTVSPost2010PropOp50
 70
     1
102
RTVSPost2010Prop51ColorIndex
 90
      256
102
RTVSPost2010Prop51ColorRGB
 90
-16777216
102
RTVSPost2010PropOp51
 70
     0
102
RTVSPost2010Prop52
140
1.0
102
RTVSPost2010PropOp52
 70
     0
102
RTVSPost2010Prop53
 90
        2
102
RTVSPost2010PropOp53
 70
     1
102
RTVSPost2010Prop54
  1
strokes_ogs.tif
102
RTVSPost2010PropOp54
 70
     1
102
RTVSPost2010Prop55
280
     0
102
RTVSPost2010PropOp55
 70
     1
102
RTVSPost2010Prop56
140
1.0
102
RTVSPost2010PropOp56
 70
     1
102
RTVSPost2010Prop57
140
1.0
102
RTVSPost2010PropOp57
 70
     1
  0
XRECORD
  5
10E5
102
{ACAD_REACTORS
330
10E4
102
}
330
10E4
100
AcDbXrecord
280
     1
102
RTVSPost2010Prop28
280
     0
102
RTVSPost2010PropOp28
 70
     1
102
RTVSPost2010Prop29
280
     1
102
RTVSPost2010PropOp29
 70
     1
102
RTVSPost2010Prop30
280
     1
102
RTVSPost2010PropOp30
 70
     1
102
RTVSPost2010Prop31
280
     0
102
RTVSPost2010PropOp31
 70
     1
102
RTVSPost2010Prop32
280
     0
102
RTVSPost2010PropOp32
 70
     1
102
RTVSPost2010Prop33
280
     0
102
RTVSPost2010PropOp33
 70
     1
102
RTVSPost2010Prop34
280
     0
102
RTVSPost2010PropOp34
 70
     1
102
RTVSPost2010Prop35
280
     0
102
RTVSPost2010PropOp35
 70
     1
102
RTVSPost2010Prop36
280
     0
102
RTVSPost2010PropOp36
 70
     1
102
RTVSPost2010Prop37
 90
       50
102
RTVSPost2010PropOp37
 70
     1
102
RTVSPost2010Prop38
140
0.0
102
RTVSPost2010PropOp38
 70
     1
102
RTVSPost2010Prop39
140
1.0
102
RTVSPost2010PropOp39
 70
     1
102
RTVSPost2010Prop40
 90
        0
102
RTVSPost2010PropOp40
 70
     1
102
RTVSPost2010Prop41ColorIndex
 90
       18
102
RTVSPost2010Prop41ColorRGB
 90
        0
102
RTVSPost2010PropOp41
 70
     1
102
RTVSPost2010Prop42
 90
       50
102
RTVSPost2010PropOp42
 70
     1
102
RTVSPost2010Prop43
 90
        3
102
RTVSPost2010PropOp43
 70
     1
102
RTVSPost2010Prop44ColorIndex
 90
        5
102
RTVSPost2010Prop44ColorRGB
 90
      255
102
RTVSPost2010PropOp44
 70
     1
102
RTVSPost2010Prop45
280
     0
102
RTVSPost2010PropOp45
 70
     1
102
RTVSPost2010Prop46
 90
       50
102
RTVSPost2010PropOp46
 70
     1
102
RTVSPost2010Prop47
 90
       50
102
RTVSPost2010PropOp47
 70
     1
102
RTVSPost2010Prop48
 90
       50
102
RTVSPost2010PropOp48
 70
     1
102
RTVSPost2010Prop49
280
     0
102
RTVSPost2010PropOp49
 70
     1
102
RTVSPost2010Prop50
 90
       50
102
RTVSPost2010PropOp50
 70
     1
102
RTVSPost2010Prop51ColorIndex
 90
      256
102
RTVSPost2010Prop51ColorRGB
 90
-16777216
102
RTVSPost2010PropOp51
 70
     0
102
RTVSPost2010Prop52
140
1.0
102
RTVSPost2010PropOp52
 70
     0
102
RTVSPost2010Prop53
 90
        2
102
RTVSPost2010PropOp53
 70
     1
102
RTVSPost2010Prop54
  1
strokes_ogs.tif
102
RTVSPost2010PropOp54
 70
     1
102
RTVSPost2010Prop55
280
     0
102
RTVSPost2010PropOp55
 70
     1
102
RTVSPost2010Prop56
140
1.0
102
RTVSPost2010PropOp56
 70
     1
102
RTVSPost2010Prop57
140
1.0
102
RTVSPost2010PropOp57
 70
     1
  0
XRECORD
  5
10FD
102
{ACAD_REACTORS
330
10FC
102
}
330
10FC
100
AcDbXrecord
280
     1
102
RTVSPost2010Prop28
280
     0
102
RTVSPost2010PropOp28
 70
     1
102
RTVSPost2010Prop29
280
     1
102
RTVSPost2010PropOp29
 70
     1
102
RTVSPost2010Prop30
280
     1
102
RTVSPost2010PropOp30
 70
     1
102
RTVSPost2010Prop31
280
     0
102
RTVSPost2010PropOp31
 70
     1
102
RTVSPost2010Prop32
280
     0
102
RTVSPost2010PropOp32
 70
     1
102
RTVSPost2010Prop33
280
     0
102
RTVSPost2010PropOp33
 70
     1
102
RTVSPost2010Prop34
280
     0
102
RTVSPost2010PropOp34
 70
     1
102
RTVSPost2010Prop35
280
     0
102
RTVSPost2010PropOp35
 70
     1
102
RTVSPost2010Prop36
280
     0
102
RTVSPost2010PropOp36
 70
     1
102
RTVSPost2010Prop37
 90
       50
102
RTVSPost2010PropOp37
 70
     1
102
RTVSPost2010Prop38
140
0.0
102
RTVSPost2010PropOp38
 70
     1
102
RTVSPost2010Prop39
140
1.0
102
RTVSPost2010PropOp39
 70
     1
102
RTVSPost2010Prop40
 90
        0
102
RTVSPost2010PropOp40
 70
     1
102
RTVSPost2010Prop41ColorIndex
 90
       18
102
RTVSPost2010Prop41ColorRGB
 90
        0
102
RTVSPost2010PropOp41
 70
     1
102
RTVSPost2010Prop42
 90
       50
102
RTVSPost2010PropOp42
 70
     1
102
RTVSPost2010Prop43
 90
        3
102
RTVSPost2010PropOp43
 70
     1
102
RTVSPost2010Prop44ColorIndex
 90
        5
102
RTVSPost2010Prop44ColorRGB
 90
      255
102
RTVSPost2010PropOp44
 70
     1
102
RTVSPost2010Prop45
280
     0
102
RTVSPost2010PropOp45
 70
     1
102
RTVSPost2010Prop46
 90
       50
102
RTVSPost2010PropOp46
 70
     1
102
RTVSPost2010Prop47
 90
       50
102
RTVSPost2010PropOp47
 70
     1
102
RTVSPost2010Prop48
 90
       50
102
RTVSPost2010PropOp48
 70
     1
102
RTVSPost2010Prop49
280
     0
102
RTVSPost2010PropOp49
 70
     1
102
RTVSPost2010Prop50
 90
       50
102
RTVSPost2010PropOp50
 70
     1
102
RTVSPost2010Prop51ColorIndex
 90
      256
102
RTVSPost2010Prop51ColorRGB
 90
-16777216
102
RTVSPost2010PropOp51
 70
     0
102
RTVSPost2010Prop52
140
1.0
102
RTVSPost2010PropOp52
 70
     0
102
RTVSPost2010Prop53
 90
        2
102
RTVSPost2010PropOp53
 70
     1
102
RTVSPost2010Prop54
  1
strokes_ogs.tif
102
RTVSPost2010PropOp54
 70
     1
102
RTVSPost2010Prop55
280
     0
102
RTVSPost2010PropOp55
 70
     1
102
RTVSPost2010Prop56
140
1.0
102
RTVSPost2010PropOp56
 70
     1
102
RTVSPost2010Prop57
140
1.0
102
RTVSPost2010PropOp57
 70
     1
  0
ENDSEC
  0
EOF
