  0
SECTION
  2
HEADER
  9
$ACADVER
  1
AC1015
  9
$ACADMAINTVER
 70
     6
  9
$DWGCODEPAGE
  3
ANSI_932
  9
$INSBASE
 10
0.0
 20
0.0
 30
0.0
  9
$EXTMIN
 10
6419.743958318649
 20
5426.581588328389
 30
0.0
  9
$EXTMAX
 10
12819.74395831865
 20
15373.19063432838
 30
0.0
  9
$LIMMIN
 10
0.0
 20
0.0
  9
$LIMMAX
 10
297.0
 20
210.0
  9
$ORTHOMODE
 70
     1
  9
$REGENMODE
 70
     1
  9
$FILLMODE
 70
     1
  9
$QTEXTMODE
 70
     0
  9
$MIRRTEXT
 70
     0
  9
$LTSCALE
 40
20.0
  9
$ATTMODE
 70
     1
  9
$TEXTSIZE
 40
52.5
  9
$TRACEWID
 40
0.05
  9
$TEXTSTYLE
  7
STANDARD
  9
$CLAYER
  8
3
  9
$CELTYPE
  6
BYLAYER
  9
$CECOLOR
 62
   256
  9
$CELTSCALE
 40
10.0
  9
$DISPSILH
 70
     0
  9
$DIMSCALE
 40
40.0
  9
$DIMASZ
 40
2.0
  9
$DIMEXO
 40
1.0
  9
$DIMDLI
 40
10.0
  9
$DIMRND
 40
0.0
  9
$DIMDLE
 40
0.0
  9
$DIMEXE
 40
1.0
  9
$DIMTP
 40
0.0
  9
$DIMTM
 40
0.0
  9
$DIMTXT
 40
2.5
  9
$DIMCEN
 40
0.0
  9
$DIMTSZ
 40
0.0
  9
$DIMTOL
 70
     0
  9
$DIMLIM
 70
     0
  9
$DIMTIH
 70
     0
  9
$DIMTOH
 70
     0
  9
$DIMSE1
 70
     0
  9
$DIMSE2
 70
     0
  9
$DIMTAD
 70
     1
  9
$DIMZIN
 70
     8
  9
$DIMBLK
  1

  9
$DIMASO
 70
     1
  9
$DIMSHO
 70
     1
  9
$DIMPOST
  1

  9
$DIMAPOST
  1

  9
$DIMALT
 70
     0
  9
$DIMALTD
 70
     2
  9
$DIMALTF
 40
0.03937
  9
$DIMLFAC
 40
1.0
  9
$DIMTOFL
 70
     1
  9
$DIMTVP
 40
0.0
  9
$DIMTIX
 70
     0
  9
$DIMSOXD
 70
     0
  9
$DIMSAH
 70
     1
  9
$DIMBLK1
  1
OPEN
  9
$DIMBLK2
  1
OPEN
  9
$DIMSTYLE
  2
MATSU
  9
$DIMCLRD
 70
   256
  9
$DIMCLRE
 70
   256
  9
$DIMCLRT
 70
   256
  9
$DIMTFAC
 40
1.0
  9
$DIMGAP
 40
0.5
  9
$DIMJUST
 70
     0
  9
$DIMSD1
 70
     0
  9
$DIMSD2
 70
     0
  9
$DIMTOLJ
 70
     1
  9
$DIMTZIN
 70
     8
  9
$DIMALTZ
 70
     0
  9
$DIMALTTZ
 70
     0
  9
$DIMUPT
 70
     0
  9
$DIMDEC
 70
     4
  9
$DIMTDEC
 70
     4
  9
$DIMALTU
 70
     2
  9
$DIMALTTD
 70
     2
  9
$DIMTXSTY
  7
SUNPOU
  9
$DIMAUNIT
 70
     0
  9
$DIMADEC
 70
     0
  9
$DIMALTRND
 40
0.0
  9
$DIMAZIN
 70
     0
  9
$DIMDSEP
 70
    46
  9
$DIMATFIT
 70
     3
  9
$DIMFRAC
 70
     0
  9
$DIMLDRBLK
  1
OPEN
  9
$DIMLUNIT
 70
     2
  9
$DIMLWD
 70
    -2
  9
$DIMLWE
 70
    -2
  9
$DIMTMOVE
 70
     0
  9
$LUNITS
 70
     2
  9
$LUPREC
 70
     3
  9
$SKETCHINC
 40
0.1
  9
$FILLETRAD
 40
5.0
  9
$AUNITS
 70
     0
  9
$AUPREC
 70
     2
  9
$MENU
  1
acad
  9
$ELEVATION
 40
0.0
  9
$PELEVATION
 40
0.0
  9
$THICKNESS
 40
0.0
  9
$LIMCHECK
 70
     0
  9
$CHAMFERA
 40
0.0
  9
$CHAMFERB
 40
0.0
  9
$CHAMFERC
 40
20.0
  9
$CHAMFERD
 40
0.0
  9
$SKPOLY
 70
     0
  9
$TDCREATE
 40
2451997.453800232
  9
$TDUCREATE
 40
2451997.078800231
  9
$TDUPDATE
 40
2456463.574786354
  9
$TDUUPDATE
 40
2456463.199786354
  9
$TDINDWG
 40
0.0409739236
  9
$TDUSRTIMER
 40
0.0409739236
  9
$USRTIMER
 70
     1
  9
$ANGBASE
 50
0.0
  9
$ANGDIR
 70
     0
  9
$PDMODE
 70
     0
  9
$PDSIZE
 40
1.0
  9
$PLINEWID
 40
0.0
  9
$SPLFRAME
 70
     0
  9
$SPLINETYPE
 70
     6
  9
$SPLINESEGS
 70
     8
  9
$HANDSEED
  5
F88
  9
$SURFTAB1
 70
     6
  9
$SURFTAB2
 70
     6
  9
$SURFTYPE
 70
     6
  9
$SURFU
 70
     6
  9
$SURFV
 70
     6
  9
$UCSBASE
  2

  9
$UCSNAME
  2

  9
$UCSORG
 10
0.0
 20
0.0
 30
0.0
  9
$UCSXDIR
 10
1.0
 20
0.0
 30
0.0
  9
$UCSYDIR
 10
0.0
 20
1.0
 30
0.0
  9
$UCSORTHOREF
  2

  9
$UCSORTHOVIEW
 70
     0
  9
$UCSORGTOP
 10
0.0
 20
0.0
 30
0.0
  9
$UCSORGBOTTOM
 10
0.0
 20
0.0
 30
0.0
  9
$UCSORGLEFT
 10
0.0
 20
0.0
 30
0.0
  9
$UCSORGRIGHT
 10
0.0
 20
0.0
 30
0.0
  9
$UCSORGFRONT
 10
0.0
 20
0.0
 30
0.0
  9
$UCSORGBACK
 10
0.0
 20
0.0
 30
0.0
  9
$PUCSBASE
  2

  9
$PUCSNAME
  2

  9
$PUCSORG
 10
0.0
 20
0.0
 30
0.0
  9
$PUCSXDIR
 10
1.0
 20
0.0
 30
0.0
  9
$PUCSYDIR
 10
0.0
 20
1.0
 30
0.0
  9
$PUCSORTHOREF
  2

  9
$PUCSORTHOVIEW
 70
     0
  9
$PUCSORGTOP
 10
0.0
 20
0.0
 30
0.0
  9
$PUCSORGBOTTOM
 10
0.0
 20
0.0
 30
0.0
  9
$PUCSORGLEFT
 10
0.0
 20
0.0
 30
0.0
  9
$PUCSORGRIGHT
 10
0.0
 20
0.0
 30
0.0
  9
$PUCSORGFRONT
 10
0.0
 20
0.0
 30
0.0
  9
$PUCSORGBACK
 10
0.0
 20
0.0
 30
0.0
  9
$USERI1
 70
     0
  9
$USERI2
 70
     0
  9
$USERI3
 70
     0
  9
$USERI4
 70
     0
  9
$USERI5
 70
     0
  9
$USERR1
 40
0.0
  9
$USERR2
 40
0.0
  9
$USERR3
 40
0.0
  9
$USERR4
 40
0.0
  9
$USERR5
 40
0.0
  9
$WORLDVIEW
 70
     1
  9
$SHADEDGE
 70
     3
  9
$SHADEDIF
 70
    70
  9
$TILEMODE
 70
     1
  9
$MAXACTVP
 70
    16
  9
$PINSBASE
 10
0.0
 20
0.0
 30
0.0
  9
$PLIMCHECK
 70
     0
  9
$PEXTMIN
 10
1.000000000000000E+20
 20
1.000000000000000E+20
 30
1.000000000000000E+20
  9
$PEXTMAX
 10
-1.000000000000000E+20
 20
-1.000000000000000E+20
 30
-1.000000000000000E+20
  9
$PLIMMIN
 10
0.0
 20
0.0
  9
$PLIMMAX
 10
12.0
 20
9.0
  9
$UNITMODE
 70
     0
  9
$VISRETAIN
 70
     0
  9
$PLINEGEN
 70
     0
  9
$PSLTSCALE
 70
     0
  9
$TREEDEPTH
 70
  3020
  9
$CMLSTYLE
  2
STANDARD
  9
$CMLJUST
 70
     0
  9
$CMLSCALE
 40
20.0
  9
$PROXYGRAPHICS
 70
     1
  9
$MEASUREMENT
 70
     1
  9
$CELWEIGHT
370
    -1
  9
$ENDCAPS
280
     0
  9
$JOINSTYLE
280
     0
  9
$LWDISPLAY
290
     0
  9
$INSUNITS
 70
     0
  9
$HYPERLINKBASE
  1

  9
$STYLESHEET
  1

  9
$XEDIT
290
     1
  9
$CEPSNTYPE
380
     0
  9
$PSTYLEMODE
290
     1
  9
$FINGERPRINTGUID
  2
{A276ECD2-75B9-11D5-A85E-0080AD788799}
  9
$VERSIONGUID
  2
{F89D9170-2961-4623-9457-0156E0C4AA22}
  9
$EXTNAMES
290
     1
  9
$PSVPSCALE
 40
0.0
  9
$OLESTARTUP
290
     0
  0
ENDSEC
  0
SECTION
  2
CLASSES
  0
CLASS
  1
XRECORD
  2
AcDbXrecord
  3
AutoCAD 2000
 90
    32768
280
     0
281
     0
  0
CLASS
  1
ACDBDICTIONARYWDFLT
  2
AcDbDictionaryWithDefault
  3
AutoCAD 2000
 90
        0
280
     0
281
     0
  0
CLASS
  1
ACDBPLACEHOLDER
  2
AcDbPlaceHolder
  3
AutoCAD 2000
 90
        0
280
     0
281
     0
  0
CLASS
  1
LAYOUT
  2
AcDbLayout
  3
AutoCAD 2000
 90
        0
280
     0
281
     0
  0
CLASS
  1
LONG_TRANSACTION
  2
AcDbLongTransaction
  3
AutoCAD 2000
 90
    32768
280
     0
281
     0
  0
CLASS
  1
LWPOLYLINE
  2
AcDbPolyline
  3
AutoCAD 2000
 90
    32768
280
     0
281
     1
  0
CLASS
  1
HATCH
  2
AcDbHatch
  3
AutoCAD 2000
 90
    32768
280
     0
281
     1
  0
CLASS
  1
XRECORD
  2
AcDbXrecord
  3
AutoCAD 2000
 90
    32768
280
     0
281
     0
  0
CLASS
  1
LONG_TRANSACTION
  2
AcDbLongTransaction
  3
AutoCAD 2000
 90
    32768
280
     0
281
     0
  0
CLASS
  1
LWPOLYLINE
  2
AcDbPolyline
  3
AutoCAD 2000
 90
    32768
280
     0
281
     1
  0
CLASS
  1
HATCH
  2
AcDbHatch
  3
AutoCAD 2000
 90
    32768
280
     0
281
     1
  0
CLASS
  1
XRECORD
  2
AcDbXrecord
  3
AutoCAD 2000
 90
    32768
280
     0
281
     0
  0
ENDSEC
  0
SECTION
  2
TABLES
  0
TABLE
  2
VPORT
  5
12
330
0
100
AcDbSymbolTable
 70
     3
  0
VPORT
  5
F87
330
12
100
AcDbSymbolTableRecord
100
AcDbViewportTableRecord
  2
*Active
 70
     0
 10
0.0
 20
0.0
 11
1.0
 21
1.0
 12
14829.7193182822
 22
8619.630839619913
 13
0.0
 23
0.0
 14
5.0
 24
5.0
 15
0.0
 25
0.0
 16
0.0
 26
0.0
 36
1.0
 17
0.0
 27
0.0
 37
0.0
 40
12237.55098344014
 41
1.64875491480996
 42
50.0
 43
0.0
 44
0.0
 50
0.0
 51
0.0
 71
     0
 72
   100
 73
     1
 74
     0
 75
     0
 76
     0
 77
     0
 78
     2
281
     0
 65
     1
110
0.0
120
0.0
130
0.0
111
1.0
121
0.0
131
0.0
112
0.0
122
1.0
132
0.0
 79
     0
146
0.0
  0
ENDTAB
  0
TABLE
  2
LTYPE
  5
E
330
0
100
AcDbSymbolTable
 70
     2
  0
LTYPE
  5
F
330
E
100
AcDbSymbolTableRecord
100
AcDbLinetypeTableRecord
  2
BYBLOCK
 70
     0
  3

 72
    65
 73
     0
 40
0.0
  0
LTYPE
  5
6
330
E
100
AcDbSymbolTableRecord
100
AcDbLinetypeTableRecord
  2
BYLAYER
 70
     0
  3

 72
    65
 73
     0
 40
0.0
  0
LTYPE
  5
5
330
E
100
AcDbSymbolTableRecord
100
AcDbLinetypeTableRecord
  2
CONTINUOUS
 70
     0
  3
Solid line
 72
    65
 73
     0
 40
0.0
  0
LTYPE
  5
41
330
E
100
AcDbSymbolTableRecord
100
AcDbLinetypeTableRecord
  2
CENTER
 70
     0
  3
____ _ ____ _ ____ _ ____ _ ____ _ ____ _ ____ 
 72
    65
 73
     4
 40
2.0
 49
1.25
 74
     0
 49
-0.25
 74
     0
 49
0.25
 74
     0
 49
-0.25
 74
     0
  0
ENDTAB
  0
TABLE
  2
LAYER
  5
B
330
0
100
AcDbSymbolTable
 70
     6
  0
LAYER
  5
4
330
B
100
AcDbSymbolTableRecord
100
AcDbLayerTableRecord
  2
0
 70
     0
 62
     7
  6
CONTINUOUS
370
    -3
390
8AB
  0
LAYER
  5
3E
330
B
100
AcDbSymbolTableRecord
100
AcDbLayerTableRecord
  2
DEFPOINTS
 70
     0
 62
     7
  6
CONTINUOUS
290
     0
370
    -3
390
8AB
  0
LAYER
  5
442
330
B
100
AcDbSymbolTableRecord
100
AcDbLayerTableRecord
  2
3
 70
     0
 62
     2
  6
CONTINUOUS
370
    -3
390
8AB
  0
LAYER
  5
443
330
B
100
AcDbSymbolTableRecord
100
AcDbLayerTableRecord
  2
2
 70
     0
 62
     3
  6
CENTER
370
    -3
390
8AB
  0
LAYER
  5
444
330
B
100
AcDbSymbolTableRecord
100
AcDbLayerTableRecord
  2
1
 70
     0
 62
     4
  6
CONTINUOUS
370
    -3
390
8AB
  0
LAYER
  5
445
330
B
100
AcDbSymbolTableRecord
100
AcDbLayerTableRecord
  2
4
 70
     0
 62
     7
  6
CONTINUOUS
370
    -3
390
8AB
  0
ENDTAB
  0
TABLE
  2
STYLE
  5
C
330
0
100
AcDbSymbolTable
 70
     2
  0
STYLE
  5
D
330
C
100
AcDbSymbolTableRecord
100
AcDbTextStyleTableRecord
  2
STANDARD
 70
     0
 40
0.0
 41
1.0
 50
0.0
 71
     0
 42
52.5
  3
C:\Program Files\AutoCAD LT\simplex.shx
  4
C:\Program Files\AutoCAD LT\extfont.shx
  0
STYLE
  5
1C
330
C
100
AcDbSymbolTableRecord
100
AcDbTextStyleTableRecord
  2
SUNPOU
 70
     0
 40
0.0
 41
1.0
 50
15.0
 71
     0
 42
5.0
  3
simplex.shx
  4
extfont.shx
  0
ENDTAB
  0
TABLE
  2
VIEW
  5
10
330
0
100
AcDbSymbolTable
 70
     0
  0
ENDTAB
  0
TABLE
  2
UCS
  5
11
330
0
100
AcDbSymbolTable
 70
     0
  0
ENDTAB
  0
TABLE
  2
APPID
  5
14
330
0
100
AcDbSymbolTable
 70
     1
  0
APPID
  5
15
330
14
100
AcDbSymbolTableRecord
100
AcDbRegAppTableRecord
  2
ACAD
 70
     0
  0
ENDTAB
  0
TABLE
  2
DIMSTYLE
  5
16
330
0
100
AcDbSymbolTable
 70
     2
100
AcDbDimStyleTable
 71
     0
  0
DIMSTYLE
105
1F
102
{ACAD_REACTORS
330
EAE
330
EBB
330
EC8
330
ED5
330
EE2
330
EEF
330
EFC
330
F09
330
F16
330
F23
330
F30
330
F3D
330
F4A
330
F59
102
}
330
16
100
AcDbSymbolTableRecord
100
AcDbDimStyleTableRecord
  2
MATSU
 70
     0
 40
10.0
 41
2.0
 42
1.0
 43
10.0
 44
1.0
 73
     0
 74
     0
 77
     1
 78
     8
140
3.0
141
0.0
143
0.03937
147
0.5
172
     1
173
     1
176
   256
177
   256
178
   256
284
     8
340
1C
341
192
343
192
344
192
  0
DIMSTYLE
105
446
330
16
100
AcDbSymbolTableRecord
100
AcDbDimStyleTableRecord
  2
IGA
 70
     0
 40
2.0
 41
2.0
 42
0.5
 43
10.0
 44
1.0
 47
1.0
 48
1.0
 73
     0
 74
     0
 77
     1
 78
     8
140
3.0
141
0.0
143
0.03937
146
10.0
147
1.0
173
     1
271
     1
272
     0
279
     2
284
     8
340
D
341
192
343
192
344
192
  0
ENDTAB
  0
TABLE
  2
BLOCK_RECORD
  5
1
330
0
100
AcDbSymbolTable
 70
    15
  0
BLOCK_RECORD
  5
2
102
{ACAD_XDICTIONARY
360
8D9
102
}
330
1
100
AcDbSymbolTableRecord
100
AcDbBlockTableRecord
  2
*MODEL_SPACE
340
8AE
  0
BLOCK_RECORD
  5
8
102
{ACAD_XDICTIONARY
360
8DB
102
}
330
1
100
AcDbSymbolTableRecord
100
AcDbBlockTableRecord
  2
*PAPER_SPACE
340
8AF
  0
BLOCK_RECORD
  5
192
330
1
100
AcDbSymbolTableRecord
100
AcDbBlockTableRecord
  2
_OPEN
340
0
102
{BLKREFS
331
EA7
331
EA8
331
EB4
331
EB5
331
EC1
331
EC2
331
ECE
331
ECF
331
EDB
331
EDC
331
EE8
331
EE9
331
EF5
331
EF6
331
F02
331
F03
331
F0F
331
F10
331
F1C
331
F1D
331
F29
331
F2A
331
F36
331
F37
331
F43
331
F44
331
F52
331
F53
102
}
  0
BLOCK_RECORD
  5
EA2
330
1
100
AcDbSymbolTableRecord
100
AcDbBlockTableRecord
  2
*D1
340
0
  0
BLOCK_RECORD
  5
EAF
330
1
100
AcDbSymbolTableRecord
100
AcDbBlockTableRecord
  2
*D2
340
0
  0
BLOCK_RECORD
  5
EBC
330
1
100
AcDbSymbolTableRecord
100
AcDbBlockTableRecord
  2
*D3
340
0
  0
BLOCK_RECORD
  5
EC9
330
1
100
AcDbSymbolTableRecord
100
AcDbBlockTableRecord
  2
*D4
340
0
  0
BLOCK_RECORD
  5
ED6
330
1
100
AcDbSymbolTableRecord
100
AcDbBlockTableRecord
  2
*D5
340
0
  0
BLOCK_RECORD
  5
EE3
330
1
100
AcDbSymbolTableRecord
100
AcDbBlockTableRecord
  2
*D6
340
0
  0
BLOCK_RECORD
  5
EF0
330
1
100
AcDbSymbolTableRecord
100
AcDbBlockTableRecord
  2
*D7
340
0
  0
BLOCK_RECORD
  5
EFD
330
1
100
AcDbSymbolTableRecord
100
AcDbBlockTableRecord
  2
*D8
340
0
  0
BLOCK_RECORD
  5
F0A
330
1
100
AcDbSymbolTableRecord
100
AcDbBlockTableRecord
  2
*D9
340
0
  0
BLOCK_RECORD
  5
F17
330
1
100
AcDbSymbolTableRecord
100
AcDbBlockTableRecord
  2
*D10
340
0
  0
BLOCK_RECORD
  5
F24
330
1
100
AcDbSymbolTableRecord
100
AcDbBlockTableRecord
  2
*D11
340
0
  0
BLOCK_RECORD
  5
F31
330
1
100
AcDbSymbolTableRecord
100
AcDbBlockTableRecord
  2
*D12
340
0
  0
BLOCK_RECORD
  5
F3E
330
1
100
AcDbSymbolTableRecord
100
AcDbBlockTableRecord
  2
*D13
340
0
  0
BLOCK_RECORD
  5
F4B
330
1
100
AcDbSymbolTableRecord
100
AcDbBlockTableRecord
  2
*D14
340
0
  0
ENDTAB
  0
ENDSEC
  0
SECTION
  2
BLOCKS
  0
BLOCK
  5
3
330
2
100
AcDbEntity
  8
0
100
AcDbBlockBegin
  2
*MODEL_SPACE
 70
     0
 10
0.0
 20
0.0
 30
0.0
  3
*MODEL_SPACE
  1

  0
ENDBLK
  5
7
330
2
100
AcDbEntity
  8
0
100
AcDbBlockEnd
  0
BLOCK
  5
9
330
8
100
AcDbEntity
 67
     1
  8
0
100
AcDbBlockBegin
  2
*PAPER_SPACE
 70
     0
 10
0.0
 20
0.0
 30
0.0
  3
*PAPER_SPACE
  1

  0
ENDBLK
  5
A
330
8
100
AcDbEntity
 67
     1
  8
0
100
AcDbBlockEnd
  0
BLOCK
  5
193
330
192
100
AcDbEntity
  8
0
 48
20.0
100
AcDbBlockBegin
  2
_OPEN
 70
     0
 10
0.0
 20
0.0
 30
0.0
  3
_OPEN
  1

  0
LINE
  5
194
330
192
100
AcDbEntity
  8
0
  6
ByBlock
 62
     0
 48
20.0
100
AcDbLine
 10
-1.0
 20
0.1666666666666666
 30
0.0
 11
0.0
 21
0.0
 31
0.0
  0
LINE
  5
195
330
192
100
AcDbEntity
  8
0
  6
ByBlock
 62
     0
 48
20.0
100
AcDbLine
 10
0.0
 20
0.0
 30
0.0
 11
-1.0
 21
-0.1666666666666666
 31
0.0
  0
LINE
  5
196
330
192
100
AcDbEntity
  8
0
  6
ByBlock
 62
     0
 48
20.0
100
AcDbLine
 10
0.0
 20
0.0
 30
0.0
 11
-1.0
 21
0.0
 31
0.0
  0
ENDBLK
  5
197
330
192
100
AcDbEntity
  8
0
 48
20.0
100
AcDbBlockEnd
  0
BLOCK
  5
EA3
330
EA2
100
AcDbEntity
  8
0
 48
10.0
100
AcDbBlockBegin
  2
*D1
 70
     1
 10
0.0
 20
0.0
 30
0.0
  3
*D1
  1

  0
LINE
  5
EA4
330
EA2
100
AcDbEntity
  8
0
  6
ByBlock
 48
10.0
100
AcDbLine
 10
10318.91352116099
 20
11569.62260126791
 30
0.0
 11
10602.89946672935
 21
11569.62260126791
 31
0.0
  0
LINE
  5
EA5
330
EA2
100
AcDbEntity
  8
0
  6
ByBlock
 48
10.0
100
AcDbLine
 10
10318.91352116099
 20
10549.6226012679
 30
0.0
 11
10602.89946672935
 21
10549.6226012679
 31
0.0
  0
LINE
  5
EA6
330
EA2
100
AcDbEntity
  8
0
  6
ByBlock
 48
10.0
100
AcDbLine
 10
10562.89946672935
 20
11489.62260126791
 30
0.0
 11
10562.89946672935
 21
10629.6226012679
 31
0.0
  0
INSERT
  5
EA7
330
EA2
100
AcDbEntity
  8
0
  6
ByBlock
 48
10.0
100
AcDbBlockReference
  2
_OPEN
 10
10562.89946672935
 20
11569.62260126791
 30
0.0
 41
80.0
 42
80.0
 43
80.0
 50
90.0
  0
INSERT
  5
EA8
330
EA2
100
AcDbEntity
  8
0
  6
ByBlock
 48
10.0
100
AcDbBlockReference
  2
_OPEN
 10
10562.89946672935
 20
10549.6226012679
 30
0.0
 41
80.0
 42
80.0
 43
80.0
 50
270.0
  0
MTEXT
  5
EA9
330
EA2
100
AcDbEntity
  8
0
  6
ByBlock
 48
10.0
100
AcDbMText
 10
10492.89946672935
 20
11059.6226012679
 30
0.0
 40
100.0
 41
0.0
 71
     5
 72
     5
  1
\A1;1020
  7
SUNPOU
 11
0.0
 21
1.0
 31
0.0
 73
     1
 44
1.0
  0
POINT
  5
EAA
330
EA2
100
AcDbEntity
  8
DEFPOINTS
  6
ByBlock
 62
     0
 48
10.0
100
AcDbPoint
 10
10278.91352116099
 20
11569.62260126791
 30
0.0
  0
POINT
  5
EAB
330
EA2
100
AcDbEntity
  8
DEFPOINTS
  6
ByBlock
 62
     0
 48
10.0
100
AcDbPoint
 10
10278.91352116099
 20
10549.6226012679
 30
0.0
  0
POINT
  5
EAC
330
EA2
100
AcDbEntity
  8
DEFPOINTS
  6
ByBlock
 62
     0
 48
10.0
100
AcDbPoint
 10
10562.89946672935
 20
10549.6226012679
 30
0.0
  0
ENDBLK
  5
EAD
330
EA2
100
AcDbEntity
  8
0
 48
10.0
100
AcDbBlockEnd
  0
BLOCK
  5
EB0
330
EAF
100
AcDbEntity
  8
0
 48
10.0
100
AcDbBlockBegin
  2
*D2
 70
     1
 10
0.0
 20
0.0
 30
0.0
  3
*D2
  1

  0
LINE
  5
EB1
330
EAF
100
AcDbEntity
  8
0
  6
ByBlock
 48
10.0
100
AcDbLine
 10
11381.7134217267
 20
7894.227368626278
 30
0.0
 11
11381.7134217267
 21
7652.608575201433
 31
0.0
  0
LINE
  5
EB2
330
EAF
100
AcDbEntity
  8
0
  6
ByBlock
 48
10.0
100
AcDbLine
 10
12401.71342172669
 20
7894.227368626278
 30
0.0
 11
12401.71342172669
 21
7652.608575201433
 31
0.0
  0
LINE
  5
EB3
330
EAF
100
AcDbEntity
  8
0
  6
ByBlock
 48
10.0
100
AcDbLine
 10
11461.7134217267
 20
7692.608575201433
 30
0.0
 11
12321.71342172669
 21
7692.608575201433
 31
0.0
  0
INSERT
  5
EB4
330
EAF
100
AcDbEntity
  8
0
  6
ByBlock
 48
10.0
100
AcDbBlockReference
  2
_OPEN
 10
11381.7134217267
 20
7692.608575201433
 30
0.0
 41
80.0
 42
80.0
 43
80.0
 50
180.0
  0
INSERT
  5
EB5
330
EAF
100
AcDbEntity
  8
0
  6
ByBlock
 48
10.0
100
AcDbBlockReference
  2
_OPEN
 10
12401.71342172669
 20
7692.608575201433
 30
0.0
 41
80.0
 42
80.0
 43
80.0
  0
MTEXT
  5
EB6
330
EAF
100
AcDbEntity
  8
0
  6
ByBlock
 48
10.0
100
AcDbMText
 10
11891.71342172669
 20
7762.608575201433
 30
0.0
 40
100.0
 41
0.0
 71
     5
 72
     5
  1
\A1;1020
  7
SUNPOU
 73
     1
 44
1.0
  0
POINT
  5
EB7
330
EAF
100
AcDbEntity
  8
DEFPOINTS
  6
ByBlock
 62
     0
 48
10.0
100
AcDbPoint
 10
11381.7134217267
 20
7934.227368626278
 30
0.0
  0
POINT
  5
EB8
330
EAF
100
AcDbEntity
  8
DEFPOINTS
  6
ByBlock
 62
     0
 48
10.0
100
AcDbPoint
 10
12401.71342172669
 20
7934.227368626278
 30
0.0
  0
POINT
  5
EB9
330
EAF
100
AcDbEntity
  8
DEFPOINTS
  6
ByBlock
 62
     0
 48
10.0
100
AcDbPoint
 10
12401.71342172669
 20
7692.608575201433
 30
0.0
  0
ENDBLK
  5
EBA
330
EAF
100
AcDbEntity
  8
0
 48
10.0
100
AcDbBlockEnd
  0
BLOCK
  5
EBD
330
EBC
100
AcDbEntity
  8
0
 48
10.0
100
AcDbBlockBegin
  2
*D3
 70
     1
 10
0.0
 20
0.0
 30
0.0
  3
*D3
  1

  0
LINE
  5
EBE
330
EBC
100
AcDbEntity
  8
0
  6
ByBlock
 48
10.0
100
AcDbLine
 10
8868.913521160997
 20
7894.227368626279
 30
0.0
 11
8868.913521160997
 21
7652.608575201433
 31
0.0
  0
LINE
  5
EBF
330
EBC
100
AcDbEntity
  8
0
  6
ByBlock
 48
10.0
100
AcDbLine
 10
10278.91352116099
 20
7894.227368626279
 30
0.0
 11
10278.91352116099
 21
7652.608575201433
 31
0.0
  0
LINE
  5
EC0
330
EBC
100
AcDbEntity
  8
0
  6
ByBlock
 48
10.0
100
AcDbLine
 10
8948.913521160998
 20
7692.608575201433
 30
0.0
 11
10198.91352116099
 21
7692.608575201433
 31
0.0
  0
INSERT
  5
EC1
330
EBC
100
AcDbEntity
  8
0
  6
ByBlock
 48
10.0
100
AcDbBlockReference
  2
_OPEN
 10
8868.913521160997
 20
7692.608575201433
 30
0.0
 41
80.0
 42
80.0
 43
80.0
 50
180.0
  0
INSERT
  5
EC2
330
EBC
100
AcDbEntity
  8
0
  6
ByBlock
 48
10.0
100
AcDbBlockReference
  2
_OPEN
 10
10278.91352116099
 20
7692.608575201433
 30
0.0
 41
80.0
 42
80.0
 43
80.0
  0
MTEXT
  5
EC3
330
EBC
100
AcDbEntity
  8
0
  6
ByBlock
 48
10.0
100
AcDbMText
 10
9573.913521160998
 20
7762.608575201433
 30
0.0
 40
100.0
 41
0.0
 71
     5
 72
     5
  1
\A1;1410
  7
SUNPOU
 73
     1
 44
1.0
  0
POINT
  5
EC4
330
EBC
100
AcDbEntity
  8
DEFPOINTS
  6
ByBlock
 62
     0
 48
10.0
100
AcDbPoint
 10
8868.913521160997
 20
7934.22736862628
 30
0.0
  0
POINT
  5
EC5
330
EBC
100
AcDbEntity
  8
DEFPOINTS
  6
ByBlock
 62
     0
 48
10.0
100
AcDbPoint
 10
10278.91352116099
 20
7934.22736862628
 30
0.0
  0
POINT
  5
EC6
330
EBC
100
AcDbEntity
  8
DEFPOINTS
  6
ByBlock
 62
     0
 48
10.0
100
AcDbPoint
 10
10278.91352116099
 20
7692.608575201433
 30
0.0
  0
ENDBLK
  5
EC7
330
EBC
100
AcDbEntity
  8
0
 48
10.0
100
AcDbBlockEnd
  0
BLOCK
  5
ECA
330
EC9
100
AcDbEntity
  8
0
 48
10.0
100
AcDbBlockBegin
  2
*D4
 70
     1
 10
0.0
 20
0.0
 30
0.0
  3
*D4
  1

  0
LINE
  5
ECB
330
EC9
100
AcDbEntity
  8
0
  6
ByBlock
 48
10.0
100
AcDbLine
 10
6938.522128572761
 20
7894.227368626278
 30
0.0
 11
6938.522128572761
 21
7652.608575201433
 31
0.0
  0
LINE
  5
ECC
330
EC9
100
AcDbEntity
  8
0
  6
ByBlock
 48
10.0
100
AcDbLine
 10
7958.522128572763
 20
7894.227368626278
 30
0.0
 11
7958.522128572763
 21
7652.608575201433
 31
0.0
  0
LINE
  5
ECD
330
EC9
100
AcDbEntity
  8
0
  6
ByBlock
 48
10.0
100
AcDbLine
 10
7018.522128572761
 20
7692.608575201433
 30
0.0
 11
7878.522128572761
 21
7692.608575201433
 31
0.0
  0
INSERT
  5
ECE
330
EC9
100
AcDbEntity
  8
0
  6
ByBlock
 48
10.0
100
AcDbBlockReference
  2
_OPEN
 10
6938.522128572761
 20
7692.608575201433
 30
0.0
 41
80.0
 42
80.0
 43
80.0
 50
180.0
  0
INSERT
  5
ECF
330
EC9
100
AcDbEntity
  8
0
  6
ByBlock
 48
10.0
100
AcDbBlockReference
  2
_OPEN
 10
7958.522128572763
 20
7692.608575201433
 30
0.0
 41
80.0
 42
80.0
 43
80.0
  0
MTEXT
  5
ED0
330
EC9
100
AcDbEntity
  8
0
  6
ByBlock
 48
10.0
100
AcDbMText
 10
7448.522128572761
 20
7762.608575201433
 30
0.0
 40
100.0
 41
0.0
 71
     5
 72
     5
  1
\A1;1020
  7
SUNPOU
 73
     1
 44
1.0
  0
POINT
  5
ED1
330
EC9
100
AcDbEntity
  8
DEFPOINTS
  6
ByBlock
 62
     0
 48
10.0
100
AcDbPoint
 10
6938.522128572761
 20
7934.227368626278
 30
0.0
  0
POINT
  5
ED2
330
EC9
100
AcDbEntity
  8
DEFPOINTS
  6
ByBlock
 62
     0
 48
10.0
100
AcDbPoint
 10
7958.522128572763
 20
7934.227368626278
 30
0.0
  0
POINT
  5
ED3
330
EC9
100
AcDbEntity
  8
DEFPOINTS
  6
ByBlock
 62
     0
 48
10.0
100
AcDbPoint
 10
7958.522128572763
 20
7692.608575201433
 30
0.0
  0
ENDBLK
  5
ED4
330
EC9
100
AcDbEntity
  8
0
 48
10.0
100
AcDbBlockEnd
  0
BLOCK
  5
ED7
330
ED6
100
AcDbEntity
  8
0
 48
10.0
100
AcDbBlockBegin
  2
*D5
 70
     1
 10
0.0
 20
0.0
 30
0.0
  3
*D5
  1

  0
LINE
  5
ED8
330
ED6
100
AcDbEntity
  8
0
  6
ByBlock
 48
10.0
100
AcDbLine
 10
7111.52212857276
 20
8607.227368626276
 30
0.0
 11
7111.52212857276
 21
8715.68781001123
 31
0.0
  0
LINE
  5
ED9
330
ED6
100
AcDbEntity
  8
0
  6
ByBlock
 48
10.0
100
AcDbLine
 10
7785.522128572761
 20
8607.227368626276
 30
0.0
 11
7785.522128572761
 21
8715.68781001123
 31
0.0
  0
LINE
  5
EDA
330
ED6
100
AcDbEntity
  8
0
  6
ByBlock
 48
10.0
100
AcDbLine
 10
7191.522128572761
 20
8675.687810011231
 30
0.0
 11
7705.522128572759
 21
8675.687810011231
 31
0.0
  0
INSERT
  5
EDB
330
ED6
100
AcDbEntity
  8
0
  6
ByBlock
 48
10.0
100
AcDbBlockReference
  2
_OPEN
 10
7111.52212857276
 20
8675.687810011231
 30
0.0
 41
80.0
 42
80.0
 43
80.0
 50
180.0
  0
INSERT
  5
EDC
330
ED6
100
AcDbEntity
  8
0
  6
ByBlock
 48
10.0
100
AcDbBlockReference
  2
_OPEN
 10
7785.522128572761
 20
8675.687810011231
 30
0.0
 41
80.0
 42
80.0
 43
80.0
  0
MTEXT
  5
EDD
330
ED6
100
AcDbEntity
  8
0
  6
ByBlock
 48
10.0
100
AcDbMText
 10
7448.52212857276
 20
8745.687810011231
 30
0.0
 40
100.0
 41
0.0
 71
     5
 72
     5
  1
\A1;674
  7
SUNPOU
 73
     1
 44
1.0
  0
POINT
  5
EDE
330
ED6
100
AcDbEntity
  8
DEFPOINTS
  6
ByBlock
 62
     0
 48
10.0
100
AcDbPoint
 10
7111.52212857276
 20
8567.227368626275
 30
0.0
  0
POINT
  5
EDF
330
ED6
100
AcDbEntity
  8
DEFPOINTS
  6
ByBlock
 62
     0
 48
10.0
100
AcDbPoint
 10
7785.522128572761
 20
8567.227368626275
 30
0.0
  0
POINT
  5
EE0
330
ED6
100
AcDbEntity
  8
DEFPOINTS
  6
ByBlock
 62
     0
 48
10.0
100
AcDbPoint
 10
7785.522128572761
 20
8675.687810011231
 30
0.0
  0
ENDBLK
  5
EE1
330
ED6
100
AcDbEntity
  8
0
 48
10.0
100
AcDbBlockEnd
  0
BLOCK
  5
EE4
330
EE3
100
AcDbEntity
  8
0
 48
10.0
100
AcDbBlockBegin
  2
*D6
 70
     1
 10
0.0
 20
0.0
 30
0.0
  3
*D6
  1

  0
LINE
  5
EE5
330
EE3
100
AcDbEntity
  8
0
  6
ByBlock
 48
10.0
100
AcDbLine
 10
7825.52212857276
 20
8567.227368626275
 30
0.0
 11
8245.727830019161
 21
8567.227368626275
 31
0.0
  0
LINE
  5
EE6
330
EE3
100
AcDbEntity
  8
0
  6
ByBlock
 48
10.0
100
AcDbLine
 10
7825.52212857276
 20
8051.227368626278
 30
0.0
 11
8245.727830019161
 21
8051.227368626278
 31
0.0
  0
LINE
  5
EE7
330
EE3
100
AcDbEntity
  8
0
  6
ByBlock
 48
10.0
100
AcDbLine
 10
8205.727830019162
 20
8487.227368626276
 30
0.0
 11
8205.727830019162
 21
8131.227368626278
 31
0.0
  0
INSERT
  5
EE8
330
EE3
100
AcDbEntity
  8
0
  6
ByBlock
 48
10.0
100
AcDbBlockReference
  2
_OPEN
 10
8205.727830019162
 20
8567.227368626275
 30
0.0
 41
80.0
 42
80.0
 43
80.0
 50
90.0
  0
INSERT
  5
EE9
330
EE3
100
AcDbEntity
  8
0
  6
ByBlock
 48
10.0
100
AcDbBlockReference
  2
_OPEN
 10
8205.727830019162
 20
8051.227368626278
 30
0.0
 41
80.0
 42
80.0
 43
80.0
 50
270.0
  0
MTEXT
  5
EEA
330
EE3
100
AcDbEntity
  8
0
  6
ByBlock
 48
10.0
100
AcDbMText
 10
8135.727830019161
 20
8309.227368626279
 30
0.0
 40
100.0
 41
0.0
 71
     5
 72
     5
  1
\A1;516
  7
SUNPOU
 11
0.0
 21
1.0
 31
0.0
 73
     1
 44
1.0
  0
POINT
  5
EEB
330
EE3
100
AcDbEntity
  8
DEFPOINTS
  6
ByBlock
 62
     0
 48
10.0
100
AcDbPoint
 10
7785.522128572761
 20
8567.227368626275
 30
0.0
  0
POINT
  5
EEC
330
EE3
100
AcDbEntity
  8
DEFPOINTS
  6
ByBlock
 62
     0
 48
10.0
100
AcDbPoint
 10
7785.522128572761
 20
8051.227368626278
 30
0.0
  0
POINT
  5
EED
330
EE3
100
AcDbEntity
  8
DEFPOINTS
  6
ByBlock
 62
     0
 48
10.0
100
AcDbPoint
 10
8205.727830019162
 20
8051.227368626278
 30
0.0
  0
ENDBLK
  5
EEE
330
EE3
100
AcDbEntity
  8
0
 48
10.0
100
AcDbBlockEnd
  0
BLOCK
  5
EF1
330
EF0
100
AcDbEntity
  8
0
 48
10.0
100
AcDbBlockBegin
  2
*D7
 70
     1
 10
0.0
 20
0.0
 30
0.0
  3
*D7
  1

  0
LINE
  5
EF2
330
EF0
100
AcDbEntity
  8
0
  6
ByBlock
 48
10.0
100
AcDbLine
 10
11554.7134217267
 20
8607.227368626276
 30
0.0
 11
11554.7134217267
 21
8715.68781001123
 31
0.0
  0
LINE
  5
EF3
330
EF0
100
AcDbEntity
  8
0
  6
ByBlock
 48
10.0
100
AcDbLine
 10
12228.7134217267
 20
8607.227368626276
 30
0.0
 11
12228.7134217267
 21
8715.68781001123
 31
0.0
  0
LINE
  5
EF4
330
EF0
100
AcDbEntity
  8
0
  6
ByBlock
 48
10.0
100
AcDbLine
 10
11634.7134217267
 20
8675.687810011231
 30
0.0
 11
12148.7134217267
 21
8675.687810011231
 31
0.0
  0
INSERT
  5
EF5
330
EF0
100
AcDbEntity
  8
0
  6
ByBlock
 48
10.0
100
AcDbBlockReference
  2
_OPEN
 10
11554.7134217267
 20
8675.687810011231
 30
0.0
 41
80.0
 42
80.0
 43
80.0
 50
180.0
  0
INSERT
  5
EF6
330
EF0
100
AcDbEntity
  8
0
  6
ByBlock
 48
10.0
100
AcDbBlockReference
  2
_OPEN
 10
12228.7134217267
 20
8675.687810011231
 30
0.0
 41
80.0
 42
80.0
 43
80.0
  0
MTEXT
  5
EF7
330
EF0
100
AcDbEntity
  8
0
  6
ByBlock
 48
10.0
100
AcDbMText
 10
11891.7134217267
 20
8745.687810011231
 30
0.0
 40
100.0
 41
0.0
 71
     5
 72
     5
  1
\A1;674
  7
SUNPOU
 73
     1
 44
1.0
  0
POINT
  5
EF8
330
EF0
100
AcDbEntity
  8
DEFPOINTS
  6
ByBlock
 62
     0
 48
10.0
100
AcDbPoint
 10
11554.7134217267
 20
8567.227368626275
 30
0.0
  0
POINT
  5
EF9
330
EF0
100
AcDbEntity
  8
DEFPOINTS
  6
ByBlock
 62
     0
 48
10.0
100
AcDbPoint
 10
12228.7134217267
 20
8567.227368626275
 30
0.0
  0
POINT
  5
EFA
330
EF0
100
AcDbEntity
  8
DEFPOINTS
  6
ByBlock
 62
     0
 48
10.0
100
AcDbPoint
 10
12228.7134217267
 20
8675.687810011231
 30
0.0
  0
ENDBLK
  5
EFB
330
EF0
100
AcDbEntity
  8
0
 48
10.0
100
AcDbBlockEnd
  0
BLOCK
  5
EFE
330
EFD
100
AcDbEntity
  8
0
 48
10.0
100
AcDbBlockBegin
  2
*D8
 70
     1
 10
0.0
 20
0.0
 30
0.0
  3
*D8
  1

  0
LINE
  5
EFF
330
EFD
100
AcDbEntity
  8
0
  6
ByBlock
 48
10.0
100
AcDbLine
 10
12268.7134217267
 20
8567.227368626275
 30
0.0
 11
12689.75318946109
 21
8567.227368626275
 31
0.0
  0
LINE
  5
F00
330
EFD
100
AcDbEntity
  8
0
  6
ByBlock
 48
10.0
100
AcDbLine
 10
12268.7134217267
 20
8051.227368626278
 30
0.0
 11
12689.75318946109
 21
8051.227368626278
 31
0.0
  0
LINE
  5
F01
330
EFD
100
AcDbEntity
  8
0
  6
ByBlock
 48
10.0
100
AcDbLine
 10
12649.75318946109
 20
8487.227368626276
 30
0.0
 11
12649.75318946109
 21
8131.227368626278
 31
0.0
  0
INSERT
  5
F02
330
EFD
100
AcDbEntity
  8
0
  6
ByBlock
 48
10.0
100
AcDbBlockReference
  2
_OPEN
 10
12649.75318946109
 20
8567.227368626275
 30
0.0
 41
80.0
 42
80.0
 43
80.0
 50
90.0
  0
INSERT
  5
F03
330
EFD
100
AcDbEntity
  8
0
  6
ByBlock
 48
10.0
100
AcDbBlockReference
  2
_OPEN
 10
12649.75318946109
 20
8051.227368626278
 30
0.0
 41
80.0
 42
80.0
 43
80.0
 50
270.0
  0
MTEXT
  5
F04
330
EFD
100
AcDbEntity
  8
0
  6
ByBlock
 48
10.0
100
AcDbMText
 10
12579.75318946109
 20
8309.227368626279
 30
0.0
 40
100.0
 41
0.0
 71
     5
 72
     5
  1
\A1;516
  7
SUNPOU
 11
0.0
 21
1.0
 31
0.0
 73
     1
 44
1.0
  0
POINT
  5
F05
330
EFD
100
AcDbEntity
  8
DEFPOINTS
  6
ByBlock
 62
     0
 48
10.0
100
AcDbPoint
 10
12228.7134217267
 20
8567.227368626275
 30
0.0
  0
POINT
  5
F06
330
EFD
100
AcDbEntity
  8
DEFPOINTS
  6
ByBlock
 62
     0
 48
10.0
100
AcDbPoint
 10
12228.7134217267
 20
8051.227368626278
 30
0.0
  0
POINT
  5
F07
330
EFD
100
AcDbEntity
  8
DEFPOINTS
  6
ByBlock
 62
     0
 48
10.0
100
AcDbPoint
 10
12649.75318946109
 20
8051.227368626278
 30
0.0
  0
ENDBLK
  5
F08
330
EFD
100
AcDbEntity
  8
0
 48
10.0
100
AcDbBlockEnd
  0
BLOCK
  5
F0B
330
F0A
100
AcDbEntity
  8
0
 48
10.0
100
AcDbBlockBegin
  2
*D9
 70
     1
 10
0.0
 20
0.0
 30
0.0
  3
*D9
  1

  0
LINE
  5
F0C
330
F0A
100
AcDbEntity
  8
0
  6
ByBlock
 48
10.0
100
AcDbLine
 10
6938.522128572761
 20
8939.22736862628
 30
0.0
 11
6938.522128572761
 21
9104.598269381789
 31
0.0
  0
LINE
  5
F0D
330
F0A
100
AcDbEntity
  8
0
  6
ByBlock
 48
10.0
100
AcDbLine
 10
7448.52212857276
 20
8996.610123476006
 30
0.0
 11
7448.52212857276
 21
9104.598269381789
 31
0.0
  0
LINE
  5
F0E
330
F0A
100
AcDbEntity
  8
0
  6
ByBlock
 48
10.0
100
AcDbLine
 10
7018.522128572761
 20
9064.598269381789
 30
0.0
 11
7368.52212857276
 21
9064.598269381789
 31
0.0
  0
INSERT
  5
F0F
330
F0A
100
AcDbEntity
  8
0
  6
ByBlock
 48
10.0
100
AcDbBlockReference
  2
_OPEN
 10
6938.522128572761
 20
9064.598269381789
 30
0.0
 41
80.0
 42
80.0
 43
80.0
 50
180.0
  0
INSERT
  5
F10
330
F0A
100
AcDbEntity
  8
0
  6
ByBlock
 48
10.0
100
AcDbBlockReference
  2
_OPEN
 10
7448.52212857276
 20
9064.598269381789
 30
0.0
 41
80.0
 42
80.0
 43
80.0
  0
MTEXT
  5
F11
330
F0A
100
AcDbEntity
  8
0
  6
ByBlock
 48
10.0
100
AcDbMText
 10
7193.522128572761
 20
9134.59826938179
 30
0.0
 40
100.0
 41
0.0
 71
     5
 72
     5
  1
\A1;510
  7
SUNPOU
 73
     1
 44
1.0
  0
POINT
  5
F12
330
F0A
100
AcDbEntity
  8
DEFPOINTS
  6
ByBlock
 62
     0
 48
10.0
100
AcDbPoint
 10
6938.522128572761
 20
8899.227368626281
 30
0.0
  0
POINT
  5
F13
330
F0A
100
AcDbEntity
  8
DEFPOINTS
  6
ByBlock
 62
     0
 48
10.0
100
AcDbPoint
 10
7448.52212857276
 20
8956.610123476007
 30
0.0
  0
POINT
  5
F14
330
F0A
100
AcDbEntity
  8
DEFPOINTS
  6
ByBlock
 62
     0
 48
10.0
100
AcDbPoint
 10
7448.52212857276
 20
9064.598269381789
 30
0.0
  0
ENDBLK
  5
F15
330
F0A
100
AcDbEntity
  8
0
 48
10.0
100
AcDbBlockEnd
  0
BLOCK
  5
F18
330
F17
100
AcDbEntity
  8
0
 48
10.0
100
AcDbBlockBegin
  2
*D10
 70
     1
 10
0.0
 20
0.0
 30
0.0
  3
*D10
  1

  0
LINE
  5
F19
330
F17
100
AcDbEntity
  8
0
  6
ByBlock
 48
10.0
100
AcDbLine
 10
7448.52212857276
 20
8996.610123476006
 30
0.0
 11
7448.52212857276
 21
9104.598269381789
 31
0.0
  0
LINE
  5
F1A
330
F17
100
AcDbEntity
  8
0
  6
ByBlock
 48
10.0
100
AcDbLine
 10
7958.522128572759
 20
8939.22736862628
 30
0.0
 11
7958.522128572759
 21
9104.598269381789
 31
0.0
  0
LINE
  5
F1B
330
F17
100
AcDbEntity
  8
0
  6
ByBlock
 48
10.0
100
AcDbLine
 10
7528.52212857276
 20
9064.598269381789
 30
0.0
 11
7878.52212857276
 21
9064.598269381789
 31
0.0
  0
INSERT
  5
F1C
330
F17
100
AcDbEntity
  8
0
  6
ByBlock
 48
10.0
100
AcDbBlockReference
  2
_OPEN
 10
7448.52212857276
 20
9064.598269381789
 30
0.0
 41
80.0
 42
80.0
 43
80.0
 50
180.0
  0
INSERT
  5
F1D
330
F17
100
AcDbEntity
  8
0
  6
ByBlock
 48
10.0
100
AcDbBlockReference
  2
_OPEN
 10
7958.522128572759
 20
9064.598269381789
 30
0.0
 41
80.0
 42
80.0
 43
80.0
  0
MTEXT
  5
F1E
330
F17
100
AcDbEntity
  8
0
  6
ByBlock
 48
10.0
100
AcDbMText
 10
7703.52212857276
 20
9134.59826938179
 30
0.0
 40
100.0
 41
0.0
 71
     5
 72
     5
  1
\A1;510
  7
SUNPOU
 73
     1
 44
1.0
  0
POINT
  5
F1F
330
F17
100
AcDbEntity
  8
DEFPOINTS
  6
ByBlock
 62
     0
 48
10.0
100
AcDbPoint
 10
7448.52212857276
 20
8956.610123476007
 30
0.0
  0
POINT
  5
F20
330
F17
100
AcDbEntity
  8
DEFPOINTS
  6
ByBlock
 62
     0
 48
10.0
100
AcDbPoint
 10
7958.522128572759
 20
8899.227368626281
 30
0.0
  0
POINT
  5
F21
330
F17
100
AcDbEntity
  8
DEFPOINTS
  6
ByBlock
 62
     0
 48
10.0
100
AcDbPoint
 10
7958.522128572759
 20
9064.598269381789
 30
0.0
  0
ENDBLK
  5
F22
330
F17
100
AcDbEntity
  8
0
 48
10.0
100
AcDbBlockEnd
  0
BLOCK
  5
F25
330
F24
100
AcDbEntity
  8
0
 48
10.0
100
AcDbBlockBegin
  2
*D11
 70
     1
 10
0.0
 20
0.0
 30
0.0
  3
*D11
  1

  0
LINE
  5
F26
330
F24
100
AcDbEntity
  8
0
  6
ByBlock
 48
10.0
100
AcDbLine
 10
8948.913521160998
 20
8939.22736862628
 30
0.0
 11
8948.913521160998
 21
9104.598269381789
 31
0.0
  0
LINE
  5
F27
330
F24
100
AcDbEntity
  8
0
  6
ByBlock
 48
10.0
100
AcDbLine
 10
10198.91352116099
 20
8939.22736862628
 30
0.0
 11
10198.91352116099
 21
9104.598269381789
 31
0.0
  0
LINE
  5
F28
330
F24
100
AcDbEntity
  8
0
  6
ByBlock
 48
10.0
100
AcDbLine
 10
9028.913521160998
 20
9064.598269381789
 30
0.0
 11
10118.91352116099
 21
9064.598269381789
 31
0.0
  0
INSERT
  5
F29
330
F24
100
AcDbEntity
  8
0
  6
ByBlock
 48
10.0
100
AcDbBlockReference
  2
_OPEN
 10
8948.913521160998
 20
9064.598269381789
 30
0.0
 41
80.0
 42
80.0
 43
80.0
 50
180.0
  0
INSERT
  5
F2A
330
F24
100
AcDbEntity
  8
0
  6
ByBlock
 48
10.0
100
AcDbBlockReference
  2
_OPEN
 10
10198.91352116099
 20
9064.598269381789
 30
0.0
 41
80.0
 42
80.0
 43
80.0
  0
MTEXT
  5
F2B
330
F24
100
AcDbEntity
  8
0
  6
ByBlock
 48
10.0
100
AcDbMText
 10
9573.913521160998
 20
9134.59826938179
 30
0.0
 40
100.0
 41
0.0
 71
     5
 72
     5
  1
\A1;1250
  7
SUNPOU
 73
     1
 44
1.0
  0
POINT
  5
F2C
330
F24
100
AcDbEntity
  8
DEFPOINTS
  6
ByBlock
 62
     0
 48
10.0
100
AcDbPoint
 10
8948.913521160998
 20
8899.227368626281
 30
0.0
  0
POINT
  5
F2D
330
F24
100
AcDbEntity
  8
DEFPOINTS
  6
ByBlock
 62
     0
 48
10.0
100
AcDbPoint
 10
10198.91352116099
 20
8899.227368626281
 30
0.0
  0
POINT
  5
F2E
330
F24
100
AcDbEntity
  8
DEFPOINTS
  6
ByBlock
 62
     0
 48
10.0
100
AcDbPoint
 10
10198.91352116099
 20
9064.598269381789
 30
0.0
  0
ENDBLK
  5
F2F
330
F24
100
AcDbEntity
  8
0
 48
10.0
100
AcDbBlockEnd
  0
BLOCK
  5
F32
330
F31
100
AcDbEntity
  8
0
 48
10.0
100
AcDbBlockBegin
  2
*D12
 70
     1
 10
0.0
 20
0.0
 30
0.0
  3
*D12
  1

  0
LINE
  5
F33
330
F31
100
AcDbEntity
  8
0
  6
ByBlock
 48
10.0
100
AcDbLine
 10
11381.7134217267
 20
8939.22736862628
 30
0.0
 11
11381.7134217267
 21
9104.598269381789
 31
0.0
  0
LINE
  5
F34
330
F31
100
AcDbEntity
  8
0
  6
ByBlock
 48
10.0
100
AcDbLine
 10
11891.7134217267
 20
8996.610123476006
 30
0.0
 11
11891.7134217267
 21
9104.598269381789
 31
0.0
  0
LINE
  5
F35
330
F31
100
AcDbEntity
  8
0
  6
ByBlock
 48
10.0
100
AcDbLine
 10
11461.7134217267
 20
9064.598269381789
 30
0.0
 11
11811.7134217267
 21
9064.598269381789
 31
0.0
  0
INSERT
  5
F36
330
F31
100
AcDbEntity
  8
0
  6
ByBlock
 48
10.0
100
AcDbBlockReference
  2
_OPEN
 10
11381.7134217267
 20
9064.598269381789
 30
0.0
 41
80.0
 42
80.0
 43
80.0
 50
180.0
  0
INSERT
  5
F37
330
F31
100
AcDbEntity
  8
0
  6
ByBlock
 48
10.0
100
AcDbBlockReference
  2
_OPEN
 10
11891.7134217267
 20
9064.598269381789
 30
0.0
 41
80.0
 42
80.0
 43
80.0
  0
MTEXT
  5
F38
330
F31
100
AcDbEntity
  8
0
  6
ByBlock
 48
10.0
100
AcDbMText
 10
11636.7134217267
 20
9134.59826938179
 30
0.0
 40
100.0
 41
0.0
 71
     5
 72
     5
  1
\A1;510
  7
SUNPOU
 73
     1
 44
1.0
  0
POINT
  5
F39
330
F31
100
AcDbEntity
  8
DEFPOINTS
  6
ByBlock
 62
     0
 48
10.0
100
AcDbPoint
 10
11381.7134217267
 20
8899.227368626281
 30
0.0
  0
POINT
  5
F3A
330
F31
100
AcDbEntity
  8
DEFPOINTS
  6
ByBlock
 62
     0
 48
10.0
100
AcDbPoint
 10
11891.7134217267
 20
8956.610123476007
 30
0.0
  0
POINT
  5
F3B
330
F31
100
AcDbEntity
  8
DEFPOINTS
  6
ByBlock
 62
     0
 48
10.0
100
AcDbPoint
 10
11891.7134217267
 20
9064.598269381789
 30
0.0
  0
ENDBLK
  5
F3C
330
F31
100
AcDbEntity
  8
0
 48
10.0
100
AcDbBlockEnd
  0
BLOCK
  5
F3F
330
F3E
100
AcDbEntity
  8
0
 48
10.0
100
AcDbBlockBegin
  2
*D13
 70
     1
 10
0.0
 20
0.0
 30
0.0
  3
*D13
  1

  0
LINE
  5
F40
330
F3E
100
AcDbEntity
  8
0
  6
ByBlock
 48
10.0
100
AcDbLine
 10
11891.7134217267
 20
8996.610123476006
 30
0.0
 11
11891.7134217267
 21
9104.598269381789
 31
0.0
  0
LINE
  5
F41
330
F3E
100
AcDbEntity
  8
0
  6
ByBlock
 48
10.0
100
AcDbLine
 10
12401.7134217267
 20
8939.22736862628
 30
0.0
 11
12401.7134217267
 21
9104.598269381789
 31
0.0
  0
LINE
  5
F42
330
F3E
100
AcDbEntity
  8
0
  6
ByBlock
 48
10.0
100
AcDbLine
 10
11971.7134217267
 20
9064.598269381789
 30
0.0
 11
12321.7134217267
 21
9064.598269381789
 31
0.0
  0
INSERT
  5
F43
330
F3E
100
AcDbEntity
  8
0
  6
ByBlock
 48
10.0
100
AcDbBlockReference
  2
_OPEN
 10
11891.7134217267
 20
9064.598269381789
 30
0.0
 41
80.0
 42
80.0
 43
80.0
 50
180.0
  0
INSERT
  5
F44
330
F3E
100
AcDbEntity
  8
0
  6
ByBlock
 48
10.0
100
AcDbBlockReference
  2
_OPEN
 10
12401.7134217267
 20
9064.598269381789
 30
0.0
 41
80.0
 42
80.0
 43
80.0
  0
MTEXT
  5
F45
330
F3E
100
AcDbEntity
  8
0
  6
ByBlock
 48
10.0
100
AcDbMText
 10
12146.7134217267
 20
9134.59826938179
 30
0.0
 40
100.0
 41
0.0
 71
     5
 72
     5
  1
\A1;510
  7
SUNPOU
 73
     1
 44
1.0
  0
POINT
  5
F46
330
F3E
100
AcDbEntity
  8
DEFPOINTS
  6
ByBlock
 62
     0
 48
10.0
100
AcDbPoint
 10
11891.7134217267
 20
8956.610123476007
 30
0.0
  0
POINT
  5
F47
330
F3E
100
AcDbEntity
  8
DEFPOINTS
  6
ByBlock
 62
     0
 48
10.0
100
AcDbPoint
 10
12401.7134217267
 20
8899.227368626281
 30
0.0
  0
POINT
  5
F48
330
F3E
100
AcDbEntity
  8
DEFPOINTS
  6
ByBlock
 62
     0
 48
10.0
100
AcDbPoint
 10
12401.7134217267
 20
9064.598269381789
 30
0.0
  0
ENDBLK
  5
F49
330
F3E
100
AcDbEntity
  8
0
 48
10.0
100
AcDbBlockEnd
  0
BLOCK
  5
F4C
330
F4B
100
AcDbEntity
  8
0
 48
10.0
100
AcDbBlockBegin
  2
*D14
 70
     1
 10
0.0
 20
0.0
 30
0.0
  3
*D14
  1

  0
LINE
  5
F4D
330
F4B
100
AcDbEntity
  8
0
  6
ByBlock
 48
10.0
100
AcDbLine
 10
8828.913521160997
 20
8309.227368626279
 30
0.0
 11
8630.674547983609
 21
8309.227368626279
 31
0.0
  0
LINE
  5
F4E
330
F4B
100
AcDbEntity
  8
0
  6
ByBlock
 48
10.0
100
AcDbLine
 10
8828.913521160997
 20
7934.22736862628
 30
0.0
 11
8630.674547983609
 21
7934.22736862628
 31
0.0
  0
LINE
  5
F4F
330
F4B
100
AcDbEntity
  8
0
  6
ByBlock
 48
10.0
100
AcDbLine
 10
8670.67454798361
 20
8389.227368626279
 30
0.0
 11
8670.67454798361
 21
8469.227368626279
 31
0.0
  0
LINE
  5
F50
330
F4B
100
AcDbEntity
  8
0
  6
ByBlock
 48
10.0
100
AcDbLine
 10
8670.67454798361
 20
7854.22736862628
 30
0.0
 11
8670.67454798361
 21
7774.227368626281
 31
0.0
  0
LINE
  5
F51
330
F4B
100
AcDbEntity
  8
0
  6
ByBlock
 48
10.0
100
AcDbLine
 10
8670.67454798361
 20
8309.227368626279
 30
0.0
 11
8670.67454798361
 21
7934.22736862628
 31
0.0
  0
INSERT
  5
F52
330
F4B
100
AcDbEntity
  8
0
  6
ByBlock
 48
10.0
100
AcDbBlockReference
  2
_OPEN
 10
8670.67454798361
 20
8309.227368626279
 30
0.0
 41
80.0
 42
80.0
 43
80.0
 50
270.0
  0
INSERT
  5
F53
330
F4B
100
AcDbEntity
  8
0
  6
ByBlock
 48
10.0
100
AcDbBlockReference
  2
_OPEN
 10
8670.67454798361
 20
7934.22736862628
 30
0.0
 41
80.0
 42
80.0
 43
80.0
 50
90.0
  0
MTEXT
  5
F54
330
F4B
100
AcDbEntity
  8
0
  6
ByBlock
 48
10.0
100
AcDbMText
 10
8600.67454798361
 20
8121.727368626279
 30
0.0
 40
100.0
 41
0.0
 71
     5
 72
     5
  1
\A1;375
  7
SUNPOU
 11
0.0
 21
1.0
 31
0.0
 73
     1
 44
1.0
  0
POINT
  5
F55
330
F4B
100
AcDbEntity
  8
DEFPOINTS
  6
ByBlock
 62
     0
 48
10.0
100
AcDbPoint
 10
8868.913521160997
 20
8309.227368626279
 30
0.0
  0
POINT
  5
F56
330
F4B
100
AcDbEntity
  8
DEFPOINTS
  6
ByBlock
 62
     0
 48
10.0
100
AcDbPoint
 10
8868.913521160997
 20
7934.22736862628
 30
0.0
  0
POINT
  5
F57
330
F4B
100
AcDbEntity
  8
DEFPOINTS
  6
ByBlock
 62
     0
 48
10.0
100
AcDbPoint
 10
8670.67454798361
 20
7934.22736862628
 30
0.0
  0
ENDBLK
  5
F58
330
F4B
100
AcDbEntity
  8
0
 48
10.0
100
AcDbBlockEnd
  0
ENDSEC
  0
SECTION
  2
ENTITIES
  0
LINE
  5
570
330
2
100
AcDbEntity
  8
4
  6
Continuous
 48
10.0
100
AcDbLine
 10
12819.74395831865
 20
6226.581588328389
 30
0.0
 11
12819.74395831865
 21
5426.581588328389
 31
0.0
  0
LINE
  5
571
330
2
100
AcDbEntity
  8
4
  6
Continuous
 48
10.0
100
AcDbLine
 10
10019.74395831864
 20
6226.581588328389
 30
0.0
 11
10019.74395831864
 21
5426.581588328389
 31
0.0
  0
LINE
  5
572
330
2
100
AcDbEntity
  8
4
  6
Continuous
 48
10.0
100
AcDbLine
 10
8019.743958318649
 20
6226.581588328389
 30
0.0
 11
8019.743958318649
 21
5426.581588328389
 31
0.0
  0
LINE
  5
575
330
2
100
AcDbEntity
  8
4
  6
Continuous
 48
10.0
100
AcDbLine
 10
8019.743958318649
 20
5426.581588328389
 30
0.0
 11
12819.74395831865
 21
5426.581588328389
 31
0.0
  0
LINE
  5
576
330
2
100
AcDbEntity
  8
4
  6
Continuous
 48
10.0
100
AcDbLine
 10
8019.743958318649
 20
5826.581588328389
 30
0.0
 11
12819.74395831865
 21
5826.581588328389
 31
0.0
  0
TEXT
  5
577
330
2
100
AcDbEntity
  8
4
  6
Continuous
 48
10.0
100
AcDbText
 10
8173.752281318648
 20
5952.753691328389
 30
0.0
 40
200.0
  1
機器名称
100
AcDbText
  0
TEXT
  5
578
330
2
100
AcDbEntity
  8
4
  6
Continuous
 48
10.0
100
AcDbText
 10
8164.776382318649
 20
5513.16221532839
 30
0.0
 40
200.0
  1
機器型番
100
AcDbText
  0
TEXT
  5
579
330
2
100
AcDbEntity
  8
4
  6
Continuous
 48
10.0
100
AcDbText
 10
10130.45894031864
 20
5916.868664328389
 30
0.0
 40
200.0
  1
ミツヤファンユニット
100
AcDbText
  0
TEXT
  5
57A
330
2
100
AcDbEntity
  8
4
  6
Continuous
 48
10.0
100
AcDbText
 10
10166.36194031864
 20
5495.219925328388
 30
0.0
 40
200.0
  1
MFU#2005-5
100
AcDbText
  0
TEXT
  5
57C
330
2
100
AcDbEntity
  8
4
  6
Continuous
 48
10.0
100
AcDbText
 10
8208.057998318649
 20
13760.29695332839
 30
0.0
 40
200.0
  1
天井吊ベット・床置ベット
100
AcDbText
  0
TEXT
  5
57D
330
2
100
AcDbEntity
  8
4
  6
Continuous
 48
10.0
100
AcDbText
 10
6684.414331318649
 20
14362.10549332838
 30
0.0
 40
250.0
  1
ベルト駆動式消音ボックス付き多翼ファン
100
AcDbText
  0
LINE
  5
57E
330
2
100
AcDbEntity
  8
4
  6
Continuous
 48
10.0
100
AcDbLine
 10
6419.743958318649
 20
14104.21660532839
 30
0.0
 11
12819.74395831865
 21
14104.21660532839
 31
0.0
  0
LINE
  5
57F
330
2
100
AcDbEntity
  8
4
  6
Continuous
 48
10.0
100
AcDbLine
 10
6419.743958318649
 20
14904.21660532839
 30
0.0
 11
12819.74395831865
 21
14904.21660532839
 31
0.0
  0
LINE
  5
580
330
2
100
AcDbEntity
  8
4
  6
Continuous
 48
10.0
100
AcDbLine
 10
8019.743958318649
 20
6226.581588328389
 30
0.0
 11
12819.74395831865
 21
6226.581588328389
 31
0.0
  0
LINE
  5
581
330
2
100
AcDbEntity
  8
4
  6
Continuous
 48
10.0
100
AcDbLine
 10
6419.743958318649
 20
14904.21660532839
 30
0.0
 11
6419.743958318649
 21
14104.21660532839
 31
0.0
  0
TEXT
  5
582
330
2
100
AcDbEntity
  8
4
  6
Continuous
 48
10.0
100
AcDbText
 10
6545.679155318649
 20
13755.85949832838
 30
0.0
 40
200.0
  1
右回転左吐出
100
AcDbText
  0
TEXT
  5
583
330
2
100
AcDbEntity
  8
4
  6
Continuous
 48
10.0
100
AcDbText
 10
11295.62219531864
 20
15050.82591432839
 30
0.0
 40
224.0
  1
No.
100
AcDbText
  0
TEXT
  5
584
330
2
100
AcDbEntity
  8
4
  6
Continuous
 48
10.0
100
AcDbText
 10
11151.26717431864
 20
13760.29695332839
 30
0.0
 40
200.0
  1
縮尺：1/40
100
AcDbText
  0
LINE
  5
585
330
2
100
AcDbEntity
  8
4
  6
Continuous
 48
10.0
100
AcDbLine
 10
12819.74395831865
 20
14904.21660532839
 30
0.0
 11
12819.74395831865
 21
14104.21660532839
 31
0.0
  0
LINE
  5
586
330
2
100
AcDbEntity
  8
4
  6
Continuous
 48
10.0
100
AcDbLine
 10
11182.21364731865
 20
14951.63592132839
 30
0.0
 11
11182.21364731865
 21
15373.19063432838
 31
0.0
  0
LINE
  5
587
330
2
100
AcDbEntity
  8
4
  6
Continuous
 48
10.0
100
AcDbLine
 10
11182.21364731865
 20
15373.19063432838
 30
0.0
 11
12819.74395831865
 21
15373.19063432838
 31
0.0
  0
LINE
  5
588
330
2
100
AcDbEntity
  8
4
  6
Continuous
 48
10.0
100
AcDbLine
 10
12819.74395831865
 20
15373.19063432838
 30
0.0
 11
12819.74395831865
 21
14951.63592132839
 31
0.0
  0
LINE
  5
589
330
2
100
AcDbEntity
  8
4
  6
Continuous
 48
10.0
100
AcDbLine
 10
12819.74395831865
 20
14951.63592132839
 30
0.0
 11
11182.21364731865
 21
14951.63592132839
 31
0.0
  0
LINE
  5
E23
330
2
100
AcDbEntity
  8
1
 48
10.0
100
AcDbLine
 10
8868.913521160997
 20
7934.22736862628
 30
0.0
 11
10278.91352116099
 21
7934.22736862628
 31
0.0
  0
LINE
  5
E24
330
2
100
AcDbEntity
  8
1
 48
10.0
100
AcDbLine
 10
10278.91352116099
 20
7934.22736862628
 30
0.0
 11
10278.91352116099
 21
8009.22736862628
 31
0.0
  0
LINE
  5
E25
330
2
100
AcDbEntity
  8
1
 48
10.0
100
AcDbLine
 10
10278.91352116099
 20
8009.22736862628
 30
0.0
 11
8868.913521160997
 21
8009.22736862628
 31
0.0
  0
LINE
  5
E26
330
2
100
AcDbEntity
  8
1
 48
10.0
100
AcDbLine
 10
8868.913521160997
 20
7934.22736862628
 30
0.0
 11
8868.913521160997
 21
8009.22736862628
 31
0.0
  0
LINE
  5
E27
330
2
100
AcDbEntity
  8
1
 48
10.0
100
AcDbLine
 10
10198.91352116099
 20
8009.22736862628
 30
0.0
 11
10198.91352116099
 21
8899.227368626281
 31
0.0
  0
LINE
  5
E28
330
2
100
AcDbEntity
  8
1
 48
10.0
100
AcDbLine
 10
10198.91352116099
 20
8899.227368626281
 30
0.0
 11
8948.913521160998
 21
8899.227368626281
 31
0.0
  0
LINE
  5
E29
330
2
100
AcDbEntity
  8
1
 48
10.0
100
AcDbLine
 10
8948.913521160998
 20
8899.227368626281
 30
0.0
 11
8948.913521160998
 21
8009.22736862628
 31
0.0
  0
LINE
  5
E2A
330
2
100
AcDbEntity
  8
2
 48
10.0
100
AcDbLine
 10
8868.913521160997
 20
8309.227368626279
 30
0.0
 11
10278.91352116099
 21
8309.227368626279
 31
0.0
  0
LINE
  5
E2B
330
2
100
AcDbEntity
  8
1
 48
10.0
100
AcDbLine
 10
8918.913521160998
 20
8597.227368626279
 30
0.0
 11
8948.913521160998
 21
8597.227368626279
 31
0.0
  0
LINE
  5
E2C
330
2
100
AcDbEntity
  8
1
 48
10.0
100
AcDbLine
 10
8918.913521160998
 20
8021.227368626281
 30
0.0
 11
8948.913521160998
 21
8021.227368626281
 31
0.0
  0
LINE
  5
E2D
330
2
100
AcDbEntity
  8
1
 48
10.0
100
AcDbLine
 10
8918.913521160998
 20
8597.227368626279
 30
0.0
 11
8918.913521160998
 21
8021.227368626277
 31
0.0
  0
LINE
  5
E2E
330
2
100
AcDbEntity
  8
1
 48
10.0
100
AcDbLine
 10
10228.91352116099
 20
8021.227368626277
 30
0.0
 11
10228.91352116099
 21
8597.227368626279
 31
0.0
  0
LINE
  5
E2F
330
2
100
AcDbEntity
  8
1
 48
10.0
100
AcDbLine
 10
10198.91352116099
 20
8597.227368626279
 30
0.0
 11
10228.91352116099
 21
8597.227368626279
 31
0.0
  0
LINE
  5
E30
330
2
100
AcDbEntity
  8
1
 48
10.0
100
AcDbLine
 10
10198.91352116099
 20
8021.227368626281
 30
0.0
 11
10228.91352116099
 21
8021.227368626281
 31
0.0
  0
LINE
  5
E31
330
2
100
AcDbEntity
  8
1
 48
10.0
100
AcDbLine
 10
7958.522128572759
 20
8899.227368626281
 30
0.0
 11
6938.522128572761
 21
8899.227368626281
 31
0.0
  0
LINE
  5
E32
330
2
100
AcDbEntity
  8
1
 48
10.0
100
AcDbLine
 10
7958.522128572761
 20
7934.22736862628
 30
0.0
 11
7958.522128572759
 21
8899.227368626281
 31
0.0
  0
LINE
  5
E33
330
2
100
AcDbEntity
  8
1
 48
10.0
100
AcDbLine
 10
7958.522128572763
 20
8009.227368626278
 30
0.0
 11
6938.522128572763
 21
8009.227368626282
 31
0.0
  0
LINE
  5
E34
330
2
100
AcDbEntity
  8
1
 48
10.0
100
AcDbLine
 10
6938.522128572763
 20
7934.227368626278
 30
0.0
 11
7958.522128572763
 21
7934.227368626278
 31
0.0
  0
LINE
  5
E35
330
2
100
AcDbEntity
  8
1
 48
10.0
100
AcDbLine
 10
6938.522128572761
 20
7934.227368626278
 30
0.0
 11
6938.522128572761
 21
8899.227368626277
 31
0.0
  0
LINE
  5
E36
330
2
100
AcDbEntity
  8
1
 48
10.0
100
AcDbLine
 10
7973.522128572762
 20
8014.227368626277
 30
0.0
 11
7973.522128572759
 21
8894.22736862628
 31
0.0
  0
LINE
  5
E37
330
2
100
AcDbEntity
  8
1
 48
10.0
100
AcDbLine
 10
6923.522128572762
 20
8014.227368626281
 30
0.0
 11
6923.52212857276
 21
8894.22736862628
 31
0.0
  0
LINE
  5
E38
330
2
100
AcDbEntity
  8
1
 48
10.0
100
AcDbLine
 10
7973.52212857276
 20
8894.22736862628
 30
0.0
 11
7958.522128572759
 21
8894.22736862628
 31
0.0
  0
LINE
  5
E39
330
2
100
AcDbEntity
  8
1
 48
10.0
100
AcDbLine
 10
7973.522128572762
 20
8014.227368626277
 30
0.0
 11
7958.522128572761
 21
8014.227368626277
 31
0.0
  0
LINE
  5
E3A
330
2
100
AcDbEntity
  8
1
 48
10.0
100
AcDbLine
 10
6938.522128572762
 20
8014.227368626281
 30
0.0
 11
6923.522128572762
 21
8014.227368626281
 31
0.0
  0
LINE
  5
E3B
330
2
100
AcDbEntity
  8
1
 48
10.0
100
AcDbLine
 10
6938.522128572761
 20
8894.22736862628
 30
0.0
 11
6923.522128572762
 21
8894.22736862628
 31
0.0
  0
LINE
  5
E3C
330
2
100
AcDbEntity
  8
2
 48
10.0
100
AcDbLine
 10
7448.522128572761
 20
7934.22736862628
 30
0.0
 11
7448.52212857276
 21
8680.426156392188
 31
0.0
  0
LINE
  5
E3E
330
2
100
AcDbEntity
  8
1
 48
10.0
100
AcDbLine
 10
7111.52212857276
 20
8567.227368626275
 30
0.0
 11
7785.522128572761
 21
8567.227368626275
 31
0.0
  0
LINE
  5
E3F
330
2
100
AcDbEntity
  8
1
 48
10.0
100
AcDbLine
 10
7111.52212857276
 20
8051.227368626278
 30
0.0
 11
7785.522128572762
 21
8051.227368626278
 31
0.0
  0
LINE
  5
E40
330
2
100
AcDbEntity
  8
1
 48
10.0
100
AcDbLine
 10
7111.52212857276
 20
8051.227368626278
 30
0.0
 11
7111.52212857276
 21
8567.227368626275
 31
0.0
  0
LINE
  5
E41
330
2
100
AcDbEntity
  8
1
 48
10.0
100
AcDbLine
 10
7785.522128572761
 20
8051.227368626278
 30
0.0
 11
7785.522128572761
 21
8567.227368626278
 31
0.0
  0
LINE
  5
E42
330
2
100
AcDbEntity
  8
1
 48
10.0
100
AcDbLine
 10
7081.522128572761
 20
8597.227368626278
 30
0.0
 11
7815.52212857276
 21
8597.227368626276
 31
0.0
  0
LINE
  5
E43
330
2
100
AcDbEntity
  8
1
 48
10.0
100
AcDbLine
 10
7081.522128572761
 20
8021.227368626277
 30
0.0
 11
7815.52212857276
 21
8021.227368626277
 31
0.0
  0
LINE
  5
E44
330
2
100
AcDbEntity
  8
1
 48
10.0
100
AcDbLine
 10
7081.522128572761
 20
8021.227368626277
 30
0.0
 11
7081.522128572761
 21
8597.227368626276
 31
0.0
  0
LINE
  5
E45
330
2
100
AcDbEntity
  8
1
 48
10.0
100
AcDbLine
 10
7815.52212857276
 20
8021.227368626277
 30
0.0
 11
7815.52212857276
 21
8597.227368626276
 31
0.0
  0
LINE
  5
E46
330
2
100
AcDbEntity
  8
1
 48
10.0
100
AcDbLine
 10
7111.52212857276
 20
8051.227368626278
 30
0.0
 11
7785.522128572761
 21
8567.227368626275
 31
0.0
  0
LINE
  5
E47
330
2
100
AcDbEntity
  8
1
 48
10.0
100
AcDbLine
 10
7785.522128572761
 20
8051.227368626278
 30
0.0
 11
7111.52212857276
 21
8567.227368626275
 31
0.0
  0
LINE
  5
E4A
330
2
100
AcDbEntity
  8
2
 48
10.0
100
AcDbLine
 10
7448.522128572761
 20
8839.668864118136
 30
0.0
 11
7448.52212857276
 21
8956.610123476007
 31
0.0
  0
LINE
  5
E4C
330
2
100
AcDbEntity
  8
1
 48
10.0
100
AcDbLine
 10
11554.7134217267
 20
8051.227368626278
 30
0.0
 11
12228.7134217267
 21
8567.227368626275
 31
0.0
  0
LINE
  5
E4D
330
2
100
AcDbEntity
  8
1
 48
10.0
100
AcDbLine
 10
12228.7134217267
 20
8051.227368626278
 30
0.0
 11
11554.7134217267
 21
8567.227368626275
 31
0.0
  0
LINE
  5
E4E
330
2
100
AcDbEntity
  8
1
 48
10.0
100
AcDbLine
 10
12258.7134217267
 20
8597.227368626278
 30
0.0
 11
11524.7134217267
 21
8597.227368626276
 31
0.0
  0
LINE
  5
E4F
330
2
100
AcDbEntity
  8
1
 48
10.0
100
AcDbLine
 10
12258.7134217267
 20
8021.227368626277
 30
0.0
 11
11524.7134217267
 21
8021.227368626277
 31
0.0
  0
LINE
  5
E50
330
2
100
AcDbEntity
  8
1
 48
10.0
100
AcDbLine
 10
12228.7134217267
 20
8567.227368626275
 30
0.0
 11
11554.7134217267
 21
8567.227368626275
 31
0.0
  0
LINE
  5
E51
330
2
100
AcDbEntity
  8
1
 48
10.0
100
AcDbLine
 10
12228.7134217267
 20
8051.227368626278
 30
0.0
 11
11554.71342172669
 21
8051.227368626278
 31
0.0
  0
LINE
  5
E52
330
2
100
AcDbEntity
  8
1
 48
10.0
100
AcDbLine
 10
12401.71342172669
 20
7934.227368626278
 30
0.0
 11
11381.7134217267
 21
7934.227368626278
 31
0.0
  0
LINE
  5
E53
330
2
100
AcDbEntity
  8
1
 48
10.0
100
AcDbLine
 10
11381.7134217267
 20
8009.227368626278
 30
0.0
 11
12401.71342172669
 21
8009.227368626282
 31
0.0
  0
LINE
  5
E54
330
2
100
AcDbEntity
  8
1
 48
10.0
100
AcDbLine
 10
11381.7134217267
 20
8899.227368626281
 30
0.0
 11
12401.7134217267
 21
8899.227368626281
 31
0.0
  0
LINE
  5
E55
330
2
100
AcDbEntity
  8
1
 48
10.0
100
AcDbLine
 10
12258.7134217267
 20
8021.227368626277
 30
0.0
 11
12258.7134217267
 21
8597.227368626276
 31
0.0
  0
LINE
  5
E56
330
2
100
AcDbEntity
  8
1
 48
10.0
100
AcDbLine
 10
12228.7134217267
 20
8051.227368626278
 30
0.0
 11
12228.7134217267
 21
8567.227368626275
 31
0.0
  0
LINE
  5
E57
330
2
100
AcDbEntity
  8
1
 48
10.0
100
AcDbLine
 10
12416.71342172669
 20
8014.227368626281
 30
0.0
 11
12416.7134217267
 21
8894.22736862628
 31
0.0
  0
LINE
  5
E58
330
2
100
AcDbEntity
  8
1
 48
10.0
100
AcDbLine
 10
12401.7134217267
 20
7934.227368626278
 30
0.0
 11
12401.7134217267
 21
8899.227368626277
 31
0.0
  0
LINE
  5
E59
330
2
100
AcDbEntity
  8
1
 48
10.0
100
AcDbLine
 10
12401.71342172669
 20
8014.227368626281
 30
0.0
 11
12416.7134217267
 21
8014.227368626281
 31
0.0
  0
LINE
  5
E5A
330
2
100
AcDbEntity
  8
1
 48
10.0
100
AcDbLine
 10
12401.7134217267
 20
8894.22736862628
 30
0.0
 11
12416.71342172669
 21
8894.22736862628
 31
0.0
  0
LINE
  5
E5B
330
2
100
AcDbEntity
  8
2
 48
10.0
100
AcDbLine
 10
11891.7134217267
 20
7934.22736862628
 30
0.0
 11
11891.7134217267
 21
8680.426156392188
 31
0.0
  0
LINE
  5
E5C
330
2
100
AcDbEntity
  8
1
 48
10.0
100
AcDbLine
 10
11524.7134217267
 20
8021.227368626277
 30
0.0
 11
11524.7134217267
 21
8597.227368626276
 31
0.0
  0
LINE
  5
E5D
330
2
100
AcDbEntity
  8
1
 48
10.0
100
AcDbLine
 10
11554.7134217267
 20
8051.227368626278
 30
0.0
 11
11554.7134217267
 21
8567.227368626278
 31
0.0
  0
LINE
  5
E5E
330
2
100
AcDbEntity
  8
2
 48
10.0
100
AcDbLine
 10
11891.7134217267
 20
8839.668864118136
 30
0.0
 11
11891.7134217267
 21
8956.610123476007
 31
0.0
  0
LINE
  5
E5F
330
2
100
AcDbEntity
  8
1
 48
10.0
100
AcDbLine
 10
11366.7134217267
 20
8014.227368626277
 30
0.0
 11
11366.7134217267
 21
8894.22736862628
 31
0.0
  0
LINE
  5
E60
330
2
100
AcDbEntity
  8
1
 48
10.0
100
AcDbLine
 10
11381.7134217267
 20
7934.22736862628
 30
0.0
 11
11381.7134217267
 21
8899.227368626281
 31
0.0
  0
LINE
  5
E61
330
2
100
AcDbEntity
  8
1
 48
10.0
100
AcDbLine
 10
11366.7134217267
 20
8014.227368626277
 30
0.0
 11
11381.7134217267
 21
8014.227368626277
 31
0.0
  0
LINE
  5
E62
330
2
100
AcDbEntity
  8
1
 48
10.0
100
AcDbLine
 10
11366.7134217267
 20
8894.22736862628
 30
0.0
 11
11381.7134217267
 21
8894.22736862628
 31
0.0
  0
LINE
  5
E63
330
2
100
AcDbEntity
  8
1
 48
10.0
100
AcDbLine
 10
8868.913521160997
 20
10549.6226012679
 30
0.0
 11
10278.91352116099
 21
10549.6226012679
 31
0.0
  0
LINE
  5
E64
330
2
100
AcDbEntity
  8
1
 48
10.0
100
AcDbLine
 10
10278.91352116099
 20
10549.6226012679
 30
0.0
 11
10278.91352116099
 21
10589.6226012679
 31
0.0
  0
LINE
  5
E65
330
2
100
AcDbEntity
  8
1
 48
10.0
100
AcDbLine
 10
10278.91352116099
 20
11569.62260126791
 30
0.0
 11
8868.913521160997
 21
11569.62260126791
 31
0.0
  0
LINE
  5
E66
330
2
100
AcDbEntity
  8
1
 48
10.0
100
AcDbLine
 10
8868.913521160997
 20
11569.62260126791
 30
0.0
 11
8868.913521160999
 21
11529.62260126791
 31
0.0
  0
LINE
  5
E67
330
2
100
AcDbEntity
  8
1
 48
10.0
100
AcDbLine
 10
8868.913521160997
 20
10589.6226012679
 30
0.0
 11
8948.913521160999
 21
10589.6226012679
 31
0.0
  0
LINE
  5
E68
330
2
100
AcDbEntity
  8
1
 48
10.0
100
AcDbLine
 10
10278.91352116099
 20
11529.62260126791
 30
0.0
 11
10198.91352116099
 21
11529.62260126791
 31
0.0
  0
LINE
  5
E69
330
2
100
AcDbEntity
  8
1
 48
10.0
100
AcDbLine
 10
10198.91352116099
 20
10534.6226012679
 30
0.0
 11
10198.91352116099
 21
11584.62260126791
 31
0.0
  0
LINE
  5
E6A
330
2
100
AcDbEntity
  8
1
 48
10.0
100
AcDbLine
 10
8948.913521160999
 20
11584.6226012679
 30
0.0
 11
8948.913521160998
 21
10534.62260126791
 31
0.0
  0
LINE
  5
E6B
330
2
100
AcDbEntity
  8
1
 48
10.0
100
AcDbLine
 10
10278.91352116099
 20
11529.62260126791
 30
0.0
 11
10278.91352116099
 21
11569.62260126791
 31
0.0
  0
LINE
  5
E6C
330
2
100
AcDbEntity
  8
1
 48
10.0
100
AcDbLine
 10
8868.913521160999
 20
10589.6226012679
 30
0.0
 11
8868.913521160997
 21
10549.6226012679
 31
0.0
  0
LINE
  5
E6D
330
2
100
AcDbEntity
  8
1
 48
10.0
100
AcDbLine
 10
10198.91352116099
 20
11584.6226012679
 30
0.0
 11
8948.913521160999
 21
11584.6226012679
 31
0.0
  0
LINE
  5
E6E
330
2
100
AcDbEntity
  8
1
 48
10.0
100
AcDbLine
 10
8948.913521160998
 20
10534.6226012679
 30
0.0
 11
10198.91352116099
 21
10534.6226012679
 31
0.0
  0
LINE
  5
E6F
330
2
100
AcDbEntity
  8
1
 48
10.0
100
AcDbLine
 10
10198.91352116099
 20
10589.62260126791
 30
0.0
 11
10278.91352116099
 21
10589.6226012679
 31
0.0
  0
LINE
  5
E70
330
2
100
AcDbEntity
  8
1
 48
10.0
100
AcDbLine
 10
8948.913521160999
 20
11529.62260126791
 30
0.0
 11
8868.913521160997
 21
11529.62260126791
 31
0.0
  0
LINE
  5
E72
330
2
100
AcDbEntity
  8
2
 48
10.0
100
AcDbLine
 10
8868.913521160997
 20
11059.6226012679
 30
0.0
 11
10278.91352116099
 21
11059.6226012679
 31
0.0
  0
LINE
  5
E73
330
2
100
AcDbEntity
  8
1
 48
10.0
100
AcDbLine
 10
10228.913521161
 20
10692.6226012679
 30
0.0
 11
10228.91352116099
 21
11426.62260126791
 31
0.0
  0
LINE
  5
E74
330
2
100
AcDbEntity
  8
1
 48
10.0
100
AcDbLine
 10
8918.913521161
 20
11426.62260126791
 30
0.0
 11
8918.913521161
 21
10692.6226012679
 31
0.0
  0
LINE
  5
E75
330
2
100
AcDbEntity
  8
1
 48
10.0
100
AcDbLine
 10
8918.913521161
 20
11426.62260126791
 30
0.0
 11
8948.913521160999
 21
11426.62260126791
 31
0.0
  0
LINE
  5
E76
330
2
100
AcDbEntity
  8
1
 48
10.0
100
AcDbLine
 10
8918.913521160998
 20
10692.62260126791
 30
0.0
 11
8948.913521160999
 21
10692.62260126791
 31
0.0
  0
LINE
  5
E77
330
2
100
AcDbEntity
  8
1
 48
10.0
100
AcDbLine
 10
10198.91352116099
 20
11426.62260126791
 30
0.0
 11
10228.91352116099
 21
11426.62260126791
 31
0.0
  0
LINE
  5
E78
330
2
100
AcDbEntity
  8
1
 48
10.0
100
AcDbLine
 10
10198.91352116099
 20
10692.62260126791
 30
0.0
 11
10228.91352116099
 21
10692.62260126791
 31
0.0
  0
DIMENSION
  5
EAE
330
2
100
AcDbEntity
  8
3
 48
10.0
100
AcDbDimension
  2
*D1
 10
10562.89946672935
 20
10549.6226012679
 30
0.0
 11
10492.89946672935
 21
11059.6226012679
 31
0.0
 70
    32
 71
     5
 42
-1.0
  3
MATSU
100
AcDbAlignedDimension
 13
10278.91352116099
 23
11569.62260126791
 33
0.0
 14
10278.91352116099
 24
10549.6226012679
 34
0.0
 50
90.0
100
AcDbRotatedDimension
1001
ACAD
1000
DSTYLE
1002
{
1070
   140
1040
2.5
1070
    40
1040
40.0
1070
     7
1000
_OPEN
1070
     6
1000
_OPEN
1002
}
  0
DIMENSION
  5
EBB
330
2
100
AcDbEntity
  8
3
 48
10.0
100
AcDbDimension
  2
*D2
 10
12401.71342172669
 20
7692.608575201433
 30
0.0
 11
11891.71342172669
 21
7762.608575201433
 31
0.0
 70
    32
 71
     5
 42
-1.0
  3
MATSU
100
AcDbAlignedDimension
 13
11381.7134217267
 23
7934.227368626278
 33
0.0
 14
12401.71342172669
 24
7934.227368626278
 34
0.0
100
AcDbRotatedDimension
1001
ACAD
1000
DSTYLE
1002
{
1070
   140
1040
2.5
1070
    40
1040
40.0
1070
     7
1000
_OPEN
1070
     6
1000
_OPEN
1002
}
  0
DIMENSION
  5
EC8
330
2
100
AcDbEntity
  8
3
 48
10.0
100
AcDbDimension
  2
*D3
 10
10278.91352116099
 20
7692.608575201433
 30
0.0
 11
9573.913521160998
 21
7762.608575201433
 31
0.0
 70
    32
 71
     5
 42
-1.0
  3
MATSU
100
AcDbAlignedDimension
 13
8868.913521160997
 23
7934.22736862628
 33
0.0
 14
10278.91352116099
 24
7934.22736862628
 34
0.0
100
AcDbRotatedDimension
1001
ACAD
1000
DSTYLE
1002
{
1070
   140
1040
2.5
1070
    40
1040
40.0
1070
     7
1000
_OPEN
1070
     6
1000
_OPEN
1002
}
  0
DIMENSION
  5
ED5
330
2
100
AcDbEntity
  8
3
 48
10.0
100
AcDbDimension
  2
*D4
 10
7958.522128572763
 20
7692.608575201433
 30
0.0
 11
7448.522128572761
 21
7762.608575201433
 31
0.0
 70
    32
 71
     5
 42
-1.0
  3
MATSU
100
AcDbAlignedDimension
 13
6938.522128572761
 23
7934.227368626278
 33
0.0
 14
7958.522128572763
 24
7934.227368626278
 34
0.0
100
AcDbRotatedDimension
1001
ACAD
1000
DSTYLE
1002
{
1070
   140
1040
2.5
1070
    40
1040
40.0
1070
     7
1000
_OPEN
1070
     6
1000
_OPEN
1002
}
  0
DIMENSION
  5
EE2
330
2
100
AcDbEntity
  8
3
 48
10.0
100
AcDbDimension
  2
*D5
 10
7785.522128572761
 20
8675.687810011231
 30
0.0
 11
7448.52212857276
 21
8745.687810011231
 31
0.0
 70
    32
 71
     5
 42
-1.0
  3
MATSU
100
AcDbAlignedDimension
 13
7111.52212857276
 23
8567.227368626275
 33
0.0
 14
7785.522128572761
 24
8567.227368626275
 34
0.0
100
AcDbRotatedDimension
1001
ACAD
1000
DSTYLE
1002
{
1070
   140
1040
2.5
1070
    40
1040
40.0
1070
     7
1000
_OPEN
1070
     6
1000
_OPEN
1002
}
  0
DIMENSION
  5
EEF
330
2
100
AcDbEntity
  8
3
 48
10.0
100
AcDbDimension
  2
*D6
 10
8205.727830019162
 20
8051.227368626278
 30
0.0
 11
8135.727830019161
 21
8309.227368626279
 31
0.0
 70
    32
 71
     5
 42
-1.0
  3
MATSU
100
AcDbAlignedDimension
 13
7785.522128572761
 23
8567.227368626275
 33
0.0
 14
7785.522128572761
 24
8051.227368626278
 34
0.0
 50
90.0
100
AcDbRotatedDimension
1001
ACAD
1000
DSTYLE
1002
{
1070
   140
1040
2.5
1070
    40
1040
40.0
1070
     7
1000
_OPEN
1070
     6
1000
_OPEN
1002
}
  0
DIMENSION
  5
EFC
330
2
100
AcDbEntity
  8
3
 48
10.0
100
AcDbDimension
  2
*D7
 10
12228.7134217267
 20
8675.687810011231
 30
0.0
 11
11891.7134217267
 21
8745.687810011231
 31
0.0
 70
    32
 71
     5
 42
-1.0
  3
MATSU
100
AcDbAlignedDimension
 13
11554.7134217267
 23
8567.227368626275
 33
0.0
 14
12228.7134217267
 24
8567.227368626275
 34
0.0
100
AcDbRotatedDimension
1001
ACAD
1000
DSTYLE
1002
{
1070
   140
1040
2.5
1070
    40
1040
40.0
1070
     7
1000
_OPEN
1070
     6
1000
_OPEN
1002
}
  0
DIMENSION
  5
F09
330
2
100
AcDbEntity
  8
3
 48
10.0
100
AcDbDimension
  2
*D8
 10
12649.75318946109
 20
8051.227368626278
 30
0.0
 11
12579.75318946109
 21
8309.227368626279
 31
0.0
 70
    32
 71
     5
 42
-1.0
  3
MATSU
100
AcDbAlignedDimension
 13
12228.7134217267
 23
8567.227368626275
 33
0.0
 14
12228.7134217267
 24
8051.227368626278
 34
0.0
 50
90.0
100
AcDbRotatedDimension
1001
ACAD
1000
DSTYLE
1002
{
1070
   140
1040
2.5
1070
    40
1040
40.0
1070
     7
1000
_OPEN
1070
     6
1000
_OPEN
1002
}
  0
DIMENSION
  5
F16
330
2
100
AcDbEntity
  8
3
 48
10.0
100
AcDbDimension
  2
*D9
 10
7448.52212857276
 20
9064.598269381789
 30
0.0
 11
7193.522128572761
 21
9134.59826938179
 31
0.0
 70
    32
 71
     5
 42
-1.0
  3
MATSU
100
AcDbAlignedDimension
 13
6938.522128572761
 23
8899.227368626281
 33
0.0
 14
7448.52212857276
 24
8956.610123476007
 34
0.0
100
AcDbRotatedDimension
1001
ACAD
1000
DSTYLE
1002
{
1070
   140
1040
2.5
1070
    40
1040
40.0
1070
     7
1000
_OPEN
1070
     6
1000
_OPEN
1002
}
  0
DIMENSION
  5
F23
330
2
100
AcDbEntity
  8
3
 48
10.0
100
AcDbDimension
  2
*D10
 10
7958.522128572759
 20
9064.598269381789
 30
0.0
 11
7703.52212857276
 21
9134.59826938179
 31
0.0
 70
    32
 71
     5
 42
-1.0
  3
MATSU
100
AcDbAlignedDimension
 13
7448.52212857276
 23
8956.610123476007
 33
0.0
 14
7958.522128572759
 24
8899.227368626281
 34
0.0
100
AcDbRotatedDimension
1001
ACAD
1000
DSTYLE
1002
{
1070
   140
1040
2.5
1070
    40
1040
40.0
1070
     7
1000
_OPEN
1070
     6
1000
_OPEN
1002
}
  0
DIMENSION
  5
F30
330
2
100
AcDbEntity
  8
3
 48
10.0
100
AcDbDimension
  2
*D11
 10
10198.91352116099
 20
9064.598269381789
 30
0.0
 11
9573.913521160998
 21
9134.59826938179
 31
0.0
 70
    32
 71
     5
 42
-1.0
  3
MATSU
100
AcDbAlignedDimension
 13
8948.913521160998
 23
8899.227368626281
 33
0.0
 14
10198.91352116099
 24
8899.227368626281
 34
0.0
100
AcDbRotatedDimension
1001
ACAD
1000
DSTYLE
1002
{
1070
   140
1040
2.5
1070
    40
1040
40.0
1070
     7
1000
_OPEN
1070
     6
1000
_OPEN
1002
}
  0
DIMENSION
  5
F3D
330
2
100
AcDbEntity
  8
3
 48
10.0
100
AcDbDimension
  2
*D12
 10
11891.7134217267
 20
9064.598269381789
 30
0.0
 11
11636.7134217267
 21
9134.59826938179
 31
0.0
 70
    32
 71
     5
 42
-1.0
  3
MATSU
100
AcDbAlignedDimension
 13
11381.7134217267
 23
8899.227368626281
 33
0.0
 14
11891.7134217267
 24
8956.610123476007
 34
0.0
100
AcDbRotatedDimension
1001
ACAD
1000
DSTYLE
1002
{
1070
   140
1040
2.5
1070
    40
1040
40.0
1070
     7
1000
_OPEN
1070
     6
1000
_OPEN
1002
}
  0
DIMENSION
  5
F4A
330
2
100
AcDbEntity
  8
3
 48
10.0
100
AcDbDimension
  2
*D13
 10
12401.7134217267
 20
9064.598269381789
 30
0.0
 11
12146.7134217267
 21
9134.59826938179
 31
0.0
 70
    32
 71
     5
 42
-1.0
  3
MATSU
100
AcDbAlignedDimension
 13
11891.7134217267
 23
8956.610123476007
 33
0.0
 14
12401.7134217267
 24
8899.227368626281
 34
0.0
100
AcDbRotatedDimension
1001
ACAD
1000
DSTYLE
1002
{
1070
   140
1040
2.5
1070
    40
1040
40.0
1070
     7
1000
_OPEN
1070
     6
1000
_OPEN
1002
}
  0
DIMENSION
  5
F59
330
2
100
AcDbEntity
  8
3
 48
10.0
100
AcDbDimension
  2
*D14
 10
8670.67454798361
 20
7934.22736862628
 30
0.0
 11
8600.67454798361
 21
8121.727368626279
 31
0.0
 70
    32
 71
     5
 42
-1.0
  3
MATSU
100
AcDbAlignedDimension
 13
8868.913521160997
 23
8309.227368626279
 33
0.0
 14
8868.913521160997
 24
7934.22736862628
 34
0.0
 50
90.0
100
AcDbRotatedDimension
1001
ACAD
1000
DSTYLE
1002
{
1070
   140
1040
2.5
1070
    40
1040
40.0
1070
     7
1000
_OPEN
1070
     6
1000
_OPEN
1002
}
  0
ARC
  5
F5F
330
2
100
AcDbEntity
  8
4
 48
10.0
100
AcDbCircle
 10
9269.913521160995
 20
8473.727368626281
 30
0.0
 40
298.0
100
AcDbArc
 50
274.6194281551392
 51
0.0
  0
ARC
  5
F60
330
2
100
AcDbEntity
  8
4
 48
10.0
100
AcDbCircle
 10
9317.913521160996
 20
8473.727368626281
 30
0.0
 40
250.0
100
AcDbArc
 50
0.0
 51
90.0
  0
ARC
  5
F63
330
2
100
AcDbEntity
  8
4
 48
10.0
100
AcDbCircle
 10
9312.413521160996
 20
8516.227368626282
 30
0.0
 40
207.5
100
AcDbArc
 50
90.0
 51
180.0
  0
ARC
  5
F66
330
2
100
AcDbEntity
  8
4
 48
10.0
100
AcDbCircle
 10
9275.413521160997
 20
8516.227368626282
 30
0.0
 40
170.5
100
AcDbArc
 50
180.0
 51
195.1292328169244
  0
LINE
  5
F67
330
2
100
AcDbEntity
  8
4
 48
10.0
100
AcDbLine
 10
9048.913521160997
 20
8121.727368626281
 30
0.0
 11
9048.913521160995
 21
8497.727368626282
 31
0.0
  0
LINE
  5
F69
330
2
100
AcDbEntity
  8
4
 48
10.0
100
AcDbLine
 10
9048.913521160995
 20
8146.727368626281
 30
0.0
 11
9293.913521160995
 21
8176.695383816564
 31
0.0
  0
LINE
  5
F6A
330
2
100
AcDbEntity
  8
4
 48
10.0
100
AcDbLine
 10
9110.823120468852
 20
8471.727368626281
 30
0.0
 11
9048.913521160995
 21
8471.727368626281
 31
0.0
  0
LINE
  5
F70
330
2
100
AcDbEntity
  8
4
 48
10.0
100
AcDbLine
 10
9048.913521160995
 20
8471.727368626281
 30
0.0
 11
8948.913521160996
 21
8471.727368626281
 31
0.0
  0
LINE
  5
F71
330
2
100
AcDbEntity
  8
4
 48
10.0
100
AcDbLine
 10
9048.913521160995
 20
8146.727368626281
 30
0.0
 11
8948.913521160996
 21
8146.727368626281
 31
0.0
  0
ENDSEC
  0
SECTION
  2
OBJECTS
  0
DICTIONARY
  5
1A
330
0
100
AcDbDictionary
281
     1
  3
ACAD_GROUP
350
18
  3
ACAD_LAYOUT
350
8AC
  3
ACAD_MLINESTYLE
350
19
  3
ACAD_PLOTSETTINGS
350
8AD
  3
ACAD_PLOTSTYLENAME
350
8AA
  0
DICTIONARY
  5
8D9
330
2
100
AcDbDictionary
280
     1
281
     1
  3
ACAD_LAYOUTSELFREF
360
C7D
  0
DICTIONARY
  5
8DB
330
8
100
AcDbDictionary
280
     1
281
     1
  3
ACAD_LAYOUTSELFREF
360
C7E
  0
DICTIONARY
  5
18
102
{ACAD_REACTORS
330
1A
102
}
330
1A
100
AcDbDictionary
281
     1
  0
DICTIONARY
  5
8AC
102
{ACAD_REACTORS
330
1A
102
}
330
1A
100
AcDbDictionary
281
     1
  3
Model
350
8AE
  3
ﾚｲｱｳﾄ1
350
8AF
  0
DICTIONARY
  5
19
102
{ACAD_REACTORS
330
1A
102
}
330
1A
100
AcDbDictionary
281
     1
  3
STANDARD
350
1E
  0
DICTIONARY
  5
8AD
102
{ACAD_REACTORS
330
1A
102
}
330
1A
100
AcDbDictionary
281
     1
  0
ACDBDICTIONARYWDFLT
  5
8AA
102
{ACAD_REACTORS
330
1A
102
}
330
1A
100
AcDbDictionary
281
     1
  3
Normal
350
8AB
100
AcDbDictionaryWithDefault
340
8AB
1001
ACAD
1000
TREAT_AS_HARD
1070
     0
1000
TREAT_AS_HARD
1070
     0
  0
XRECORD
  5
C7D
102
{ACAD_REACTORS
330
8D9
102
}
330
8D9
100
AcDbXrecord
280
     1
340
2
  0
XRECORD
  5
C7E
102
{ACAD_REACTORS
330
8DB
102
}
330
8DB
100
AcDbXrecord
280
     1
340
8
  0
LAYOUT
  5
8AE
102
{ACAD_REACTORS
330
8AC
102
}
330
8AC
100
AcDbPlotSettings
  1

  2
EPSON LP-9300
  4

  6

 40
0.0
 41
0.0
 42
0.0
 43
0.0
 44
0.0
 45
0.0
 46
0.0
 47
0.0
 48
0.0
 49
0.0
140
0.0
141
0.0
142
1.0
143
1.0
 70
  1712
 72
     0
 73
     0
 74
     0
  7

 75
     0
147
1.0
148
0.0
149
0.0
100
AcDbLayout
  1
Model
 70
     1
 71
     0
 10
0.0
 20
0.0
 11
12.0
 21
9.0
 12
0.0
 22
0.0
 32
0.0
 14
0.0
 24
0.0
 34
0.0
 15
0.0
 25
0.0
 35
0.0
146
0.0
 13
0.0
 23
0.0
 33
0.0
 16
1.0
 26
0.0
 36
0.0
 17
0.0
 27
1.0
 37
0.0
 76
     0
330
2
  0
LAYOUT
  5
8AF
102
{ACAD_REACTORS
330
8AC
102
}
330
8AC
100
AcDbPlotSettings
  1

  2
EPSON LP-9300
  4

  6

 40
0.0
 41
0.0
 42
0.0
 43
0.0
 44
0.0
 45
0.0
 46
0.0
 47
0.0
 48
0.0
 49
0.0
140
0.0
141
0.0
142
1.0
143
1.0
 70
   688
 72
     0
 73
     0
 74
     5
  7

 75
    16
147
1.0
148
0.0
149
0.0
100
AcDbLayout
  1
ﾚｲｱｳﾄ1
 70
     0
 71
     1
 10
0.0
 20
0.0
 11
12.0
 21
9.0
 12
0.0
 22
0.0
 32
0.0
 14
1.000000000000000E+20
 24
1.000000000000000E+20
 34
1.000000000000000E+20
 15
-1.000000000000000E+20
 25
-1.000000000000000E+20
 35
-1.000000000000000E+20
146
0.0
 13
0.0
 23
0.0
 33
0.0
 16
1.0
 26
0.0
 36
0.0
 17
0.0
 27
1.0
 37
0.0
 76
     0
330
8
  0
MLINESTYLE
  5
1E
102
{ACAD_REACTORS
330
19
102
}
330
19
100
AcDbMlineStyle
  2
STANDARD
 70
     0
  3

 62
     0
 51
90.0
 52
90.0
 71
     2
 49
0.5
 62
   256
  6
BYLAYER
 49
-0.5
 62
   256
  6
BYLAYER
  0
ACDBPLACEHOLDER
  5
8AB
102
{ACAD_REACTORS
330
8AA
102
}
330
8AA
  0
ENDSEC
  0
EOF
