  0
SECTION
  2
HEADER
  9
$ACADVER
  1
AC1009
  9
$INSBASE
 10
0.0
 20
0.0
 30
0.0
  9
$EXTMIN
 10
6419.7439583186488
 20
5426.5815883283894
 30
0.0
  9
$EXTMAX
 10
12819.74395831865
 20
15373.190634328381
 30
0.0
  9
$LIMMIN
 10
0.0
 20
0.0
  9
$LIMMAX
 10
297.0
 20
210.0
  9
$ORTHOMODE
 70
     0
  9
$REGENMODE
 70
     1
  9
$FILLMODE
 70
     1
  9
$QTEXTMODE
 70
     0
  9
$MIRRTEXT
 70
     0
  9
$DRAGMODE
 70
     2
  9
$LTSCALE
 40
20.0
  9
$OSMODE
 70
    37
  9
$ATTMODE
 70
     1
  9
$TEXTSIZE
 40
52.5
  9
$TRACEWID
 40
0.05
  9
$TEXTSTYLE
  7
STANDARD
  9
$CLAYER
  8
3
  9
$CELTYPE
  6
BYLAYER
  9
$CECOLOR
 62
   256
  9
$DIMSCALE
 40
40.0
  9
$DIMASZ
 40
2.0
  9
$DIMEXO
 40
1.0
  9
$DIMDLI
 40
10.0
  9
$DIMRND
 40
0.0
  9
$DIMDLE
 40
0.0
  9
$DIMEXE
 40
1.0
  9
$DIMTP
 40
0.0
  9
$DIMTM
 40
0.0
  9
$DIMTXT
 40
2.5
  9
$DIMCEN
 40
0.0
  9
$DIMTSZ
 40
0.0
  9
$DIMTOL
 70
     0
  9
$DIMLIM
 70
     0
  9
$DIMTIH
 70
     0
  9
$DIMTOH
 70
     0
  9
$DIMSE1
 70
     0
  9
$DIMSE2
 70
     0
  9
$DIMTAD
 70
     1
  9
$DIMZIN
 70
     8
  9
$DIMBLK
  1

  9
$DIMASO
 70
     1
  9
$DIMSHO
 70
     1
  9
$DIMPOST
  1

  9
$DIMAPOST
  1

  9
$DIMALT
 70
     0
  9
$DIMALTD
 70
     2
  9
$DIMALTF
 40
0.03937
  9
$DIMLFAC
 40
1.0
  9
$DIMTOFL
 70
     1
  9
$DIMTVP
 40
0.0
  9
$DIMTIX
 70
     0
  9
$DIMSOXD
 70
     0
  9
$DIMSAH
 70
     1
  9
$DIMBLK1
  1
OPEN
  9
$DIMBLK2
  1
OPEN
  9
$DIMSTYLE
  2
MATSU
  9
$DIMCLRD
 70
   256
  9
$DIMCLRE
 70
   256
  9
$DIMCLRT
 70
   256
  9
$DIMTFAC
 40
1.0
  9
$DIMGAP
 40
0.5
  9
$LUNITS
 70
     2
  9
$LUPREC
 70
     3
  9
$SKETCHINC
 40
0.1
  9
$FILLETRAD
 40
5.0
  9
$AUNITS
 70
     0
  9
$AUPREC
 70
     2
  9
$MENU
  1
acad
  9
$ELEVATION
 40
0.0
  9
$PELEVATION
 40
0.0
  9
$THICKNESS
 40
0.0
  9
$LIMCHECK
 70
     0
  9
$BLIPMODE
 70
     0
  9
$CHAMFERA
 40
0.0
  9
$CHAMFERB
 40
0.0
  9
$SKPOLY
 70
     0
  9
$TDCREATE
 40
2451997.4538002321
  9
$TDUPDATE
 40
2454953.8569728821
  9
$TDINDWG
 40
0.0405778588
  9
$TDUSRTIMER
 40
0.0405778588
  9
$USRTIMER
 70
     1
  9
$ANGBASE
 50
0.0
  9
$ANGDIR
 70
     0
  9
$PDMODE
 70
     0
  9
$PDSIZE
 40
1.0
  9
$PLINEWID
 40
0.0
  9
$COORDS
 70
     1
  9
$SPLFRAME
 70
     0
  9
$SPLINETYPE
 70
     6
  9
$SPLINESEGS
 70
     8
  9
$ATTDIA
 70
     0
  9
$ATTREQ
 70
     1
  9
$HANDLING
 70
 10241
  9
$HANDSEED
  5
F89
  9
$SURFTAB1
 70
     6
  9
$SURFTAB2
 70
     6
  9
$SURFTYPE
 70
     6
  9
$SURFU
 70
     6
  9
$SURFV
 70
     6
  9
$UCSNAME
  2

  9
$UCSORG
 10
0.0
 20
0.0
 30
0.0
  9
$UCSXDIR
 10
1.0
 20
0.0
 30
0.0
  9
$UCSYDIR
 10
0.0
 20
1.0
 30
0.0
  9
$PUCSNAME
  2

  9
$PUCSORG
 10
0.0
 20
0.0
 30
0.0
  9
$PUCSXDIR
 10
1.0
 20
0.0
 30
0.0
  9
$PUCSYDIR
 10
0.0
 20
1.0
 30
0.0
  9
$USERI1
 70
     0
  9
$USERI2
 70
     0
  9
$USERI3
 70
     0
  9
$USERI4
 70
     0
  9
$USERI5
 70
     0
  9
$USERR1
 40
0.0
  9
$USERR2
 40
0.0
  9
$USERR3
 40
0.0
  9
$USERR4
 40
0.0
  9
$USERR5
 40
0.0
  9
$WORLDVIEW
 70
     1
  9
$SHADEDGE
 70
     3
  9
$SHADEDIF
 70
    70
  9
$TILEMODE
 70
     1
  9
$MAXACTVP
 70
    16
  9
$PLIMCHECK
 70
     0
  9
$PEXTMIN
 10
1.0000000000000000E+020
 20
1.0000000000000000E+020
 30
1.0000000000000000E+020
  9
$PEXTMAX
 10
-1.0000000000000000E+020
 20
-1.0000000000000000E+020
 30
-1.0000000000000000E+020
  9
$PLIMMIN
 10
0.0
 20
0.0
  9
$PLIMMAX
 10
12.0
 20
9.0
  9
$UNITMODE
 70
     0
  9
$VISRETAIN
 70
     0
  9
$PLINEGEN
 70
     0
  9
$PSLTSCALE
 70
     0
  0
ENDSEC
  0
SECTION
  2
TABLES
  0
TABLE
  2
VPORT
 70
     2
  0
VPORT
  2
*ACTIVE
 70
     0
 10
0.0
 20
0.0
 11
1.0
 21
1.0
 12
14094.692726918551
 22
8715.2203744629041
 13
0.0
 23
0.0
 14
5.0
 24
5.0
 15
0.0
 25
0.0
 16
0.0
 26
0.0
 36
1.0
 17
0.0
 27
0.0
 37
0.0
 40
12428.730053126121
 41
1.5051150895140659
 42
50.0
 43
0.0
 44
0.0
 50
0.0
 51
0.0
 71
     0
 72
   100
 73
     1
 74
     0
 75
     0
 76
     0
 77
     0
 78
     2
  0
ENDTAB
  0
TABLE
  2
LTYPE
 70
     2
  0
LTYPE
  2
CONTINUOUS
 70
     0
  3
Solid line
 72
    65
 73
     0
 40
0.0
  0
LTYPE
  2
CENTER
 70
     0
  3
____ _ ____ _ ____ _ ____ _ ____ _ ____ _ ____ 
 72
    65
 73
     4
 40
2.0
 49
1.25
 49
-0.25
 49
0.25
 49
-0.25
  0
ENDTAB
  0
TABLE
  2
LAYER
 70
     6
  0
LAYER
  2
0
 70
     0
 62
     7
  6
CONTINUOUS
  0
LAYER
  2
DEFPOINTS
 70
     0
 62
     7
  6
CONTINUOUS
  0
LAYER
  2
3
 70
     0
 62
     2
  6
CONTINUOUS
  0
LAYER
  2
2
 70
     0
 62
     3
  6
CENTER
  0
LAYER
  2
1
 70
     0
 62
     4
  6
CONTINUOUS
  0
LAYER
  2
4
 70
     0
 62
     7
  6
CONTINUOUS
  0
ENDTAB
  0
TABLE
  2
STYLE
 70
     2
  0
STYLE
  2
STANDARD
 70
     0
 40
0.0
 41
1.0
 50
0.0
 71
     0
 42
52.5
  3
C:\Program Files\AutoCAD LT\simplex.shx
  4
C:\Program Files\AutoCAD LT\extfont.shx
  0
STYLE
  2
SUNPOU
 70
     0
 40
0.0
 41
1.0
 50
15.0
 71
     0
 42
5.0
  3
simplex.shx
  4
extfont.shx
  0
ENDTAB
  0
TABLE
  2
VIEW
 70
     0
  0
ENDTAB
  0
TABLE
  2
UCS
 70
     0
  0
ENDTAB
  0
TABLE
  2
APPID
 70
     1
  0
APPID
  2
ACAD
 70
     0
  0
ENDTAB
  0
TABLE
  2
DIMSTYLE
 70
     2
  0
DIMSTYLE
  2
MATSU
 70
     0
  3

  4

  5

  6
OPEN
  7
OPEN
 40
10.0
 41
2.0
 42
1.0
 43
10.0
 44
1.0
 45
0.0
 46
0.0
 47
0.0
 48
0.0
140
3.0
141
0.0
142
0.0
143
0.03937
144
1.0
145
0.0
146
1.0
147
0.5
 71
     0
 72
     0
 73
     0
 74
     0
 75
     0
 76
     0
 77
     1
 78
     8
170
     0
171
     2
172
     1
173
     1
174
     0
175
     0
176
   256
177
   256
178
   256
  0
DIMSTYLE
  2
IGA
 70
     0
  3

  4

  5

  6
OPEN
  7
OPEN
 40
2.0
 41
2.0
 42
0.5
 43
10.0
 44
1.0
 45
0.0
 46
0.0
 47
1.0
 48
1.0
140
3.0
141
0.0
142
0.0
143
0.03937
144
1.0
145
0.0
146
10.0
147
1.0
 71
     0
 72
     0
 73
     0
 74
     0
 75
     0
 76
     0
 77
     1
 78
     8
170
     0
171
     2
172
     0
173
     1
174
     0
175
     0
176
     0
177
     0
178
     0
  0
ENDTAB
  0
ENDSEC
  0
SECTION
  2
BLOCKS
  0
BLOCK
  8
0
  2
$MODEL_SPACE
 70
     0
 10
0.0
 20
0.0
 30
0.0
  3
$MODEL_SPACE
  1

  0
ENDBLK
  5
7
  8
0
  0
BLOCK
 67
     1
  8
0
  2
$PAPER_SPACE
 70
     0
 10
0.0
 20
0.0
 30
0.0
  3
$PAPER_SPACE
  1

  0
ENDBLK
  5
A
 67
     1
  8
0
  0
BLOCK
  8
0
  2
_OPEN
 70
     0
 10
0.0
 20
0.0
 30
0.0
  3
_OPEN
  1

  0
LINE
  5
194
  8
0
  6
BYBLOCK
 62
     0
 10
-1.0
 20
0.1666666666666666
 30
0.0
 11
0.0
 21
0.0
 31
0.0
  0
LINE
  5
195
  8
0
  6
BYBLOCK
 62
     0
 10
0.0
 20
0.0
 30
0.0
 11
-1.0
 21
-0.1666666666666666
 31
0.0
  0
LINE
  5
196
  8
0
  6
BYBLOCK
 62
     0
 10
0.0
 20
0.0
 30
0.0
 11
-1.0
 21
0.0
 31
0.0
  0
ENDBLK
  5
197
  8
0
  0
BLOCK
  8
0
  2
*D1
 70
     1
 10
0.0
 20
0.0
 30
0.0
  3
*D1
  1

  0
LINE
  5
EA4
  8
0
  6
BYBLOCK
 10
10318.91352116099
 20
11569.622601267911
 30
0.0
 11
10602.89946672935
 21
11569.622601267911
 31
0.0
  0
LINE
  5
EA5
  8
0
  6
BYBLOCK
 10
10318.91352116099
 20
10549.6226012679
 30
0.0
 11
10602.89946672935
 21
10549.6226012679
 31
0.0
  0
LINE
  5
EA6
  8
0
  6
BYBLOCK
 10
10562.89946672935
 20
11489.622601267911
 30
0.0
 11
10562.89946672935
 21
10629.6226012679
 31
0.0
  0
INSERT
  5
EA7
  8
0
  6
BYBLOCK
  2
_OPEN
 10
10562.89946672935
 20
11569.622601267911
 30
0.0
 41
80.0
 42
80.0
 43
80.0
 50
90.0
  0
INSERT
  5
EA8
  8
0
  6
BYBLOCK
  2
_OPEN
 10
10562.89946672935
 20
10549.6226012679
 30
0.0
 41
80.0
 42
80.0
 43
80.0
 50
270.0
  0
TEXT
  5
EA9
  8
3
 10
10542.89946672935
 20
10873.645761880631
 30
0.0
 40
100.0
  1
1020
 50
90.0
 51
15.0
  7
SUNPOU
  0
POINT
  5
EAA
  8
DEFPOINTS
  6
BYBLOCK
 62
     0
 10
10278.91352116099
 20
11569.622601267911
 30
0.0
  0
POINT
  5
EAB
  8
DEFPOINTS
  6
BYBLOCK
 62
     0
 10
10278.91352116099
 20
10549.6226012679
 30
0.0
  0
POINT
  5
EAC
  8
DEFPOINTS
  6
BYBLOCK
 62
     0
 10
10562.89946672935
 20
10549.6226012679
 30
0.0
  0
ENDBLK
  5
EAD
  8
0
  0
BLOCK
  8
0
  2
*D2
 70
     1
 10
0.0
 20
0.0
 30
0.0
  3
*D2
  1

  0
LINE
  5
EB1
  8
0
  6
BYBLOCK
 10
11381.713421726699
 20
7894.2273686262779
 30
0.0
 11
11381.713421726699
 21
7652.6085752014333
 31
0.0
  0
LINE
  5
EB2
  8
0
  6
BYBLOCK
 10
12401.71342172669
 20
7894.2273686262779
 30
0.0
 11
12401.71342172669
 21
7652.6085752014333
 31
0.0
  0
LINE
  5
EB3
  8
0
  6
BYBLOCK
 10
11461.713421726699
 20
7692.6085752014333
 30
0.0
 11
12321.71342172669
 21
7692.6085752014333
 31
0.0
  0
INSERT
  5
EB4
  8
0
  6
BYBLOCK
  2
_OPEN
 10
11381.713421726699
 20
7692.6085752014333
 30
0.0
 41
80.0
 42
80.0
 43
80.0
 50
180.0
  0
INSERT
  5
EB5
  8
0
  6
BYBLOCK
  2
_OPEN
 10
12401.71342172669
 20
7692.6085752014333
 30
0.0
 41
80.0
 42
80.0
 43
80.0
  0
TEXT
  5
EB6
  8
3
 10
11705.73658233941
 20
7712.6085752014333
 30
0.0
 40
100.0
  1
1020
 51
15.0
  7
SUNPOU
  0
POINT
  5
EB7
  8
DEFPOINTS
  6
BYBLOCK
 62
     0
 10
11381.713421726699
 20
7934.2273686262779
 30
0.0
  0
POINT
  5
EB8
  8
DEFPOINTS
  6
BYBLOCK
 62
     0
 10
12401.71342172669
 20
7934.2273686262779
 30
0.0
  0
POINT
  5
EB9
  8
DEFPOINTS
  6
BYBLOCK
 62
     0
 10
12401.71342172669
 20
7692.6085752014333
 30
0.0
  0
ENDBLK
  5
EBA
  8
0
  0
BLOCK
  8
0
  2
*D3
 70
     1
 10
0.0
 20
0.0
 30
0.0
  3
*D3
  1

  0
LINE
  5
EBE
  8
0
  6
BYBLOCK
 10
8868.9135211609973
 20
7894.2273686262788
 30
0.0
 11
8868.9135211609973
 21
7652.6085752014333
 31
0.0
  0
LINE
  5
EBF
  8
0
  6
BYBLOCK
 10
10278.91352116099
 20
7894.2273686262788
 30
0.0
 11
10278.91352116099
 21
7652.6085752014333
 31
0.0
  0
LINE
  5
EC0
  8
0
  6
BYBLOCK
 10
8948.9135211609973
 20
7692.6085752014333
 30
0.0
 11
10198.91352116099
 21
7692.6085752014333
 31
0.0
  0
INSERT
  5
EC1
  8
0
  6
BYBLOCK
  2
_OPEN
 10
8868.9135211609973
 20
7692.6085752014333
 30
0.0
 41
80.0
 42
80.0
 43
80.0
 50
180.0
  0
INSERT
  5
EC2
  8
0
  6
BYBLOCK
  2
_OPEN
 10
10278.91352116099
 20
7692.6085752014333
 30
0.0
 41
80.0
 42
80.0
 43
80.0
  0
TEXT
  5
EC3
  8
3
 10
9397.4604912975265
 20
7712.6085752014333
 30
0.0
 40
100.0
  1
1410
 51
15.0
  7
SUNPOU
  0
POINT
  5
EC4
  8
DEFPOINTS
  6
BYBLOCK
 62
     0
 10
8868.9135211609973
 20
7934.2273686262797
 30
0.0
  0
POINT
  5
EC5
  8
DEFPOINTS
  6
BYBLOCK
 62
     0
 10
10278.91352116099
 20
7934.2273686262797
 30
0.0
  0
POINT
  5
EC6
  8
DEFPOINTS
  6
BYBLOCK
 62
     0
 10
10278.91352116099
 20
7692.6085752014333
 30
0.0
  0
ENDBLK
  5
EC7
  8
0
  0
BLOCK
  8
0
  2
*D4
 70
     1
 10
0.0
 20
0.0
 30
0.0
  3
*D4
  1

  0
LINE
  5
ECB
  8
0
  6
BYBLOCK
 10
6938.5221285727612
 20
7894.2273686262779
 30
0.0
 11
6938.5221285727612
 21
7652.6085752014333
 31
0.0
  0
LINE
  5
ECC
  8
0
  6
BYBLOCK
 10
7958.522128572763
 20
7894.2273686262779
 30
0.0
 11
7958.522128572763
 21
7652.6085752014333
 31
0.0
  0
LINE
  5
ECD
  8
0
  6
BYBLOCK
 10
7018.5221285727612
 20
7692.6085752014333
 30
0.0
 11
7878.5221285727612
 21
7692.6085752014333
 31
0.0
  0
INSERT
  5
ECE
  8
0
  6
BYBLOCK
  2
_OPEN
 10
6938.5221285727612
 20
7692.6085752014333
 30
0.0
 41
80.0
 42
80.0
 43
80.0
 50
180.0
  0
INSERT
  5
ECF
  8
0
  6
BYBLOCK
  2
_OPEN
 10
7958.522128572763
 20
7692.6085752014333
 30
0.0
 41
80.0
 42
80.0
 43
80.0
  0
TEXT
  5
ED0
  8
3
 10
7262.5452891854811
 20
7712.6085752014333
 30
0.0
 40
100.0
  1
1020
 51
15.0
  7
SUNPOU
  0
POINT
  5
ED1
  8
DEFPOINTS
  6
BYBLOCK
 62
     0
 10
6938.5221285727612
 20
7934.2273686262779
 30
0.0
  0
POINT
  5
ED2
  8
DEFPOINTS
  6
BYBLOCK
 62
     0
 10
7958.522128572763
 20
7934.2273686262779
 30
0.0
  0
POINT
  5
ED3
  8
DEFPOINTS
  6
BYBLOCK
 62
     0
 10
7958.522128572763
 20
7692.6085752014333
 30
0.0
  0
ENDBLK
  5
ED4
  8
0
  0
BLOCK
  8
0
  2
*D5
 70
     1
 10
0.0
 20
0.0
 30
0.0
  3
*D5
  1

  0
LINE
  5
ED8
  8
0
  6
BYBLOCK
 10
7111.5221285727603
 20
8607.2273686262761
 30
0.0
 11
7111.5221285727603
 21
8715.6878100112299
 31
0.0
  0
LINE
  5
ED9
  8
0
  6
BYBLOCK
 10
7785.5221285727612
 20
8607.2273686262761
 30
0.0
 11
7785.5221285727612
 21
8715.6878100112299
 31
0.0
  0
LINE
  5
EDA
  8
0
  6
BYBLOCK
 10
7191.5221285727612
 20
8675.6878100112317
 30
0.0
 11
7705.5221285727594
 21
8675.6878100112317
 31
0.0
  0
INSERT
  5
EDB
  8
0
  6
BYBLOCK
  2
_OPEN
 10
7111.5221285727603
 20
8675.6878100112317
 30
0.0
 41
80.0
 42
80.0
 43
80.0
 50
180.0
  0
INSERT
  5
EDC
  8
0
  6
BYBLOCK
  2
_OPEN
 10
7785.5221285727612
 20
8675.6878100112317
 30
0.0
 41
80.0
 42
80.0
 43
80.0
  0
TEXT
  5
EDD
  8
3
 10
7308.8090525624957
 20
8695.6878100112299
 30
0.0
 40
100.0
  1
674
 51
15.0
  7
SUNPOU
  0
POINT
  5
EDE
  8
DEFPOINTS
  6
BYBLOCK
 62
     0
 10
7111.5221285727603
 20
8567.2273686262743
 30
0.0
  0
POINT
  5
EDF
  8
DEFPOINTS
  6
BYBLOCK
 62
     0
 10
7785.5221285727612
 20
8567.2273686262743
 30
0.0
  0
POINT
  5
EE0
  8
DEFPOINTS
  6
BYBLOCK
 62
     0
 10
7785.5221285727612
 20
8675.6878100112317
 30
0.0
  0
ENDBLK
  5
EE1
  8
0
  0
BLOCK
  8
0
  2
*D6
 70
     1
 10
0.0
 20
0.0
 30
0.0
  3
*D6
  1

  0
LINE
  5
EE5
  8
0
  6
BYBLOCK
 10
7825.5221285727603
 20
8567.2273686262743
 30
0.0
 11
8245.727830019161
 21
8567.2273686262743
 31
0.0
  0
LINE
  5
EE6
  8
0
  6
BYBLOCK
 10
7825.5221285727603
 20
8051.2273686262779
 30
0.0
 11
8245.727830019161
 21
8051.2273686262779
 31
0.0
  0
LINE
  5
EE7
  8
0
  6
BYBLOCK
 10
8205.7278300191629
 20
8487.2273686262761
 30
0.0
 11
8205.7278300191629
 21
8131.2273686262779
 31
0.0
  0
INSERT
  5
EE8
  8
0
  6
BYBLOCK
  2
_OPEN
 10
8205.7278300191629
 20
8567.2273686262743
 30
0.0
 41
80.0
 42
80.0
 43
80.0
 50
90.0
  0
INSERT
  5
EE9
  8
0
  6
BYBLOCK
  2
_OPEN
 10
8205.7278300191629
 20
8051.2273686262779
 30
0.0
 41
80.0
 42
80.0
 43
80.0
 50
270.0
  0
TEXT
  5
EEA
  8
3
 10
8185.7278300191601
 20
8180.9062204513157
 30
0.0
 40
100.0
  1
516
 50
90.0
 51
15.0
  7
SUNPOU
  0
POINT
  5
EEB
  8
DEFPOINTS
  6
BYBLOCK
 62
     0
 10
7785.5221285727612
 20
8567.2273686262743
 30
0.0
  0
POINT
  5
EEC
  8
DEFPOINTS
  6
BYBLOCK
 62
     0
 10
7785.5221285727612
 20
8051.2273686262779
 30
0.0
  0
POINT
  5
EED
  8
DEFPOINTS
  6
BYBLOCK
 62
     0
 10
8205.7278300191629
 20
8051.2273686262779
 30
0.0
  0
ENDBLK
  5
EEE
  8
0
  0
BLOCK
  8
0
  2
*D7
 70
     1
 10
0.0
 20
0.0
 30
0.0
  3
*D7
  1

  0
LINE
  5
EF2
  8
0
  6
BYBLOCK
 10
11554.713421726699
 20
8607.2273686262761
 30
0.0
 11
11554.713421726699
 21
8715.6878100112299
 31
0.0
  0
LINE
  5
EF3
  8
0
  6
BYBLOCK
 10
12228.713421726699
 20
8607.2273686262761
 30
0.0
 11
12228.713421726699
 21
8715.6878100112299
 31
0.0
  0
LINE
  5
EF4
  8
0
  6
BYBLOCK
 10
11634.713421726699
 20
8675.6878100112317
 30
0.0
 11
12148.713421726699
 21
8675.6878100112317
 31
0.0
  0
INSERT
  5
EF5
  8
0
  6
BYBLOCK
  2
_OPEN
 10
11554.713421726699
 20
8675.6878100112317
 30
0.0
 41
80.0
 42
80.0
 43
80.0
 50
180.0
  0
INSERT
  5
EF6
  8
0
  6
BYBLOCK
  2
_OPEN
 10
12228.713421726699
 20
8675.6878100112317
 30
0.0
 41
80.0
 42
80.0
 43
80.0
  0
TEXT
  5
EF7
  8
3
 10
11752.000345716429
 20
8695.6878100112299
 30
0.0
 40
100.0
  1
674
 51
15.0
  7
SUNPOU
  0
POINT
  5
EF8
  8
DEFPOINTS
  6
BYBLOCK
 62
     0
 10
11554.713421726699
 20
8567.2273686262743
 30
0.0
  0
POINT
  5
EF9
  8
DEFPOINTS
  6
BYBLOCK
 62
     0
 10
12228.713421726699
 20
8567.2273686262743
 30
0.0
  0
POINT
  5
EFA
  8
DEFPOINTS
  6
BYBLOCK
 62
     0
 10
12228.713421726699
 20
8675.6878100112317
 30
0.0
  0
ENDBLK
  5
EFB
  8
0
  0
BLOCK
  8
0
  2
*D8
 70
     1
 10
0.0
 20
0.0
 30
0.0
  3
*D8
  1

  0
LINE
  5
EFF
  8
0
  6
BYBLOCK
 10
12268.713421726699
 20
8567.2273686262743
 30
0.0
 11
12689.753189461089
 21
8567.2273686262743
 31
0.0
  0
LINE
  5
F00
  8
0
  6
BYBLOCK
 10
12268.713421726699
 20
8051.2273686262779
 30
0.0
 11
12689.753189461089
 21
8051.2273686262779
 31
0.0
  0
LINE
  5
F01
  8
0
  6
BYBLOCK
 10
12649.753189461089
 20
8487.2273686262761
 30
0.0
 11
12649.753189461089
 21
8131.2273686262779
 31
0.0
  0
INSERT
  5
F02
  8
0
  6
BYBLOCK
  2
_OPEN
 10
12649.753189461089
 20
8567.2273686262743
 30
0.0
 41
80.0
 42
80.0
 43
80.0
 50
90.0
  0
INSERT
  5
F03
  8
0
  6
BYBLOCK
  2
_OPEN
 10
12649.753189461089
 20
8051.2273686262779
 30
0.0
 41
80.0
 42
80.0
 43
80.0
 50
270.0
  0
TEXT
  5
F04
  8
3
 10
12629.753189461089
 20
8180.9062204513157
 30
0.0
 40
100.0
  1
516
 50
90.0
 51
15.0
  7
SUNPOU
  0
POINT
  5
F05
  8
DEFPOINTS
  6
BYBLOCK
 62
     0
 10
12228.713421726699
 20
8567.2273686262743
 30
0.0
  0
POINT
  5
F06
  8
DEFPOINTS
  6
BYBLOCK
 62
     0
 10
12228.713421726699
 20
8051.2273686262779
 30
0.0
  0
POINT
  5
F07
  8
DEFPOINTS
  6
BYBLOCK
 62
     0
 10
12649.753189461089
 20
8051.2273686262779
 30
0.0
  0
ENDBLK
  5
F08
  8
0
  0
BLOCK
  8
0
  2
*D9
 70
     1
 10
0.0
 20
0.0
 30
0.0
  3
*D9
  1

  0
LINE
  5
F0C
  8
0
  6
BYBLOCK
 10
6938.5221285727612
 20
8939.2273686262797
 30
0.0
 11
6938.5221285727612
 21
9104.5982693817896
 31
0.0
  0
LINE
  5
F0D
  8
0
  6
BYBLOCK
 10
7448.5221285727603
 20
8996.6101234760063
 30
0.0
 11
7448.5221285727603
 21
9104.5982693817896
 31
0.0
  0
LINE
  5
F0E
  8
0
  6
BYBLOCK
 10
7018.5221285727612
 20
9064.5982693817896
 30
0.0
 11
7368.5221285727603
 21
9064.5982693817896
 31
0.0
  0
INSERT
  5
F0F
  8
0
  6
BYBLOCK
  2
_OPEN
 10
6938.5221285727612
 20
9064.5982693817896
 30
0.0
 41
80.0
 42
80.0
 43
80.0
 50
180.0
  0
INSERT
  5
F10
  8
0
  6
BYBLOCK
  2
_OPEN
 10
7448.5221285727603
 20
9064.5982693817896
 30
0.0
 41
80.0
 42
80.0
 43
80.0
  0
TEXT
  5
F11
  8
3
 10
7063.4580022845385
 20
9084.5982693817914
 30
0.0
 40
100.0
  1
510
 51
15.0
  7
SUNPOU
  0
POINT
  5
F12
  8
DEFPOINTS
  6
BYBLOCK
 62
     0
 10
6938.5221285727612
 20
8899.2273686262815
 30
0.0
  0
POINT
  5
F13
  8
DEFPOINTS
  6
BYBLOCK
 62
     0
 10
7448.5221285727603
 20
8956.6101234760063
 30
0.0
  0
POINT
  5
F14
  8
DEFPOINTS
  6
BYBLOCK
 62
     0
 10
7448.5221285727603
 20
9064.5982693817896
 30
0.0
  0
ENDBLK
  5
F15
  8
0
  0
BLOCK
  8
0
  2
*D10
 70
     1
 10
0.0
 20
0.0
 30
0.0
  3
*D10
  1

  0
LINE
  5
F19
  8
0
  6
BYBLOCK
 10
7448.5221285727603
 20
8996.6101234760063
 30
0.0
 11
7448.5221285727603
 21
9104.5982693817896
 31
0.0
  0
LINE
  5
F1A
  8
0
  6
BYBLOCK
 10
7958.5221285727594
 20
8939.2273686262797
 30
0.0
 11
7958.5221285727594
 21
9104.5982693817896
 31
0.0
  0
LINE
  5
F1B
  8
0
  6
BYBLOCK
 10
7528.5221285727603
 20
9064.5982693817896
 30
0.0
 11
7878.5221285727603
 21
9064.5982693817896
 31
0.0
  0
INSERT
  5
F1C
  8
0
  6
BYBLOCK
  2
_OPEN
 10
7448.5221285727603
 20
9064.5982693817896
 30
0.0
 41
80.0
 42
80.0
 43
80.0
 50
180.0
  0
INSERT
  5
F1D
  8
0
  6
BYBLOCK
  2
_OPEN
 10
7958.5221285727594
 20
9064.5982693817896
 30
0.0
 41
80.0
 42
80.0
 43
80.0
  0
TEXT
  5
F1E
  8
3
 10
7573.4580022845385
 20
9084.5982693817914
 30
0.0
 40
100.0
  1
510
 51
15.0
  7
SUNPOU
  0
POINT
  5
F1F
  8
DEFPOINTS
  6
BYBLOCK
 62
     0
 10
7448.5221285727603
 20
8956.6101234760063
 30
0.0
  0
POINT
  5
F20
  8
DEFPOINTS
  6
BYBLOCK
 62
     0
 10
7958.5221285727594
 20
8899.2273686262815
 30
0.0
  0
POINT
  5
F21
  8
DEFPOINTS
  6
BYBLOCK
 62
     0
 10
7958.5221285727594
 20
9064.5982693817896
 30
0.0
  0
ENDBLK
  5
F22
  8
0
  0
BLOCK
  8
0
  2
*D11
 70
     1
 10
0.0
 20
0.0
 30
0.0
  3
*D11
  1

  0
LINE
  5
F26
  8
0
  6
BYBLOCK
 10
8948.9135211609973
 20
8939.2273686262797
 30
0.0
 11
8948.9135211609973
 21
9104.5982693817896
 31
0.0
  0
LINE
  5
F27
  8
0
  6
BYBLOCK
 10
10198.91352116099
 20
8939.2273686262797
 30
0.0
 11
10198.91352116099
 21
9104.5982693817896
 31
0.0
  0
LINE
  5
F28
  8
0
  6
BYBLOCK
 10
9028.9135211609973
 20
9064.5982693817896
 30
0.0
 11
10118.91352116099
 21
9064.5982693817896
 31
0.0
  0
INSERT
  5
F29
  8
0
  6
BYBLOCK
  2
_OPEN
 10
8948.9135211609973
 20
9064.5982693817896
 30
0.0
 41
80.0
 42
80.0
 43
80.0
 50
180.0
  0
INSERT
  5
F2A
  8
0
  6
BYBLOCK
  2
_OPEN
 10
10198.91352116099
 20
9064.5982693817896
 30
0.0
 41
80.0
 42
80.0
 43
80.0
  0
TEXT
  5
F2B
  8
3
 10
9387.9366817737173
 20
9084.5982693817914
 30
0.0
 40
100.0
  1
1250
 51
15.0
  7
SUNPOU
  0
POINT
  5
F2C
  8
DEFPOINTS
  6
BYBLOCK
 62
     0
 10
8948.9135211609973
 20
8899.2273686262815
 30
0.0
  0
POINT
  5
F2D
  8
DEFPOINTS
  6
BYBLOCK
 62
     0
 10
10198.91352116099
 20
8899.2273686262815
 30
0.0
  0
POINT
  5
F2E
  8
DEFPOINTS
  6
BYBLOCK
 62
     0
 10
10198.91352116099
 20
9064.5982693817896
 30
0.0
  0
ENDBLK
  5
F2F
  8
0
  0
BLOCK
  8
0
  2
*D12
 70
     1
 10
0.0
 20
0.0
 30
0.0
  3
*D12
  1

  0
LINE
  5
F33
  8
0
  6
BYBLOCK
 10
11381.713421726699
 20
8939.2273686262797
 30
0.0
 11
11381.713421726699
 21
9104.5982693817896
 31
0.0
  0
LINE
  5
F34
  8
0
  6
BYBLOCK
 10
11891.713421726699
 20
8996.6101234760063
 30
0.0
 11
11891.713421726699
 21
9104.5982693817896
 31
0.0
  0
LINE
  5
F35
  8
0
  6
BYBLOCK
 10
11461.713421726699
 20
9064.5982693817896
 30
0.0
 11
11811.713421726699
 21
9064.5982693817896
 31
0.0
  0
INSERT
  5
F36
  8
0
  6
BYBLOCK
  2
_OPEN
 10
11381.713421726699
 20
9064.5982693817896
 30
0.0
 41
80.0
 42
80.0
 43
80.0
 50
180.0
  0
INSERT
  5
F37
  8
0
  6
BYBLOCK
  2
_OPEN
 10
11891.713421726699
 20
9064.5982693817896
 30
0.0
 41
80.0
 42
80.0
 43
80.0
  0
TEXT
  5
F38
  8
3
 10
11506.64929543847
 20
9084.5982693817914
 30
0.0
 40
100.0
  1
510
 51
15.0
  7
SUNPOU
  0
POINT
  5
F39
  8
DEFPOINTS
  6
BYBLOCK
 62
     0
 10
11381.713421726699
 20
8899.2273686262815
 30
0.0
  0
POINT
  5
F3A
  8
DEFPOINTS
  6
BYBLOCK
 62
     0
 10
11891.713421726699
 20
8956.6101234760063
 30
0.0
  0
POINT
  5
F3B
  8
DEFPOINTS
  6
BYBLOCK
 62
     0
 10
11891.713421726699
 20
9064.5982693817896
 30
0.0
  0
ENDBLK
  5
F3C
  8
0
  0
BLOCK
  8
0
  2
*D13
 70
     1
 10
0.0
 20
0.0
 30
0.0
  3
*D13
  1

  0
LINE
  5
F40
  8
0
  6
BYBLOCK
 10
11891.713421726699
 20
8996.6101234760063
 30
0.0
 11
11891.713421726699
 21
9104.5982693817896
 31
0.0
  0
LINE
  5
F41
  8
0
  6
BYBLOCK
 10
12401.713421726699
 20
8939.2273686262797
 30
0.0
 11
12401.713421726699
 21
9104.5982693817896
 31
0.0
  0
LINE
  5
F42
  8
0
  6
BYBLOCK
 10
11971.713421726699
 20
9064.5982693817896
 30
0.0
 11
12321.713421726699
 21
9064.5982693817896
 31
0.0
  0
INSERT
  5
F43
  8
0
  6
BYBLOCK
  2
_OPEN
 10
11891.713421726699
 20
9064.5982693817896
 30
0.0
 41
80.0
 42
80.0
 43
80.0
 50
180.0
  0
INSERT
  5
F44
  8
0
  6
BYBLOCK
  2
_OPEN
 10
12401.713421726699
 20
9064.5982693817896
 30
0.0
 41
80.0
 42
80.0
 43
80.0
  0
TEXT
  5
F45
  8
3
 10
12016.64929543847
 20
9084.5982693817914
 30
0.0
 40
100.0
  1
510
 51
15.0
  7
SUNPOU
  0
POINT
  5
F46
  8
DEFPOINTS
  6
BYBLOCK
 62
     0
 10
11891.713421726699
 20
8956.6101234760063
 30
0.0
  0
POINT
  5
F47
  8
DEFPOINTS
  6
BYBLOCK
 62
     0
 10
12401.713421726699
 20
8899.2273686262815
 30
0.0
  0
POINT
  5
F48
  8
DEFPOINTS
  6
BYBLOCK
 62
     0
 10
12401.713421726699
 20
9064.5982693817896
 30
0.0
  0
ENDBLK
  5
F49
  8
0
  0
BLOCK
  8
0
  2
*D14
 70
     1
 10
0.0
 20
0.0
 30
0.0
  3
*D14
  1

  0
LINE
  5
F4D
  8
0
  6
BYBLOCK
 10
8828.9135211609973
 20
8309.2273686262797
 30
0.0
 11
8630.6745479836081
 21
8309.2273686262797
 31
0.0
  0
LINE
  5
F4E
  8
0
  6
BYBLOCK
 10
8828.9135211609973
 20
7934.2273686262797
 30
0.0
 11
8630.6745479836081
 21
7934.2273686262797
 31
0.0
  0
LINE
  5
F4F
  8
0
  6
BYBLOCK
 10
8670.67454798361
 20
8389.2273686262797
 30
0.0
 11
8670.67454798361
 21
8469.2273686262797
 31
0.0
  0
LINE
  5
F50
  8
0
  6
BYBLOCK
 10
8670.67454798361
 20
7854.2273686262797
 30
0.0
 11
8670.67454798361
 21
7774.2273686262806
 31
0.0
  0
LINE
  5
F51
  8
0
  6
BYBLOCK
 10
8670.67454798361
 20
8309.2273686262797
 30
0.0
 11
8670.67454798361
 21
7934.2273686262797
 31
0.0
  0
INSERT
  5
F52
  8
0
  6
BYBLOCK
  2
_OPEN
 10
8670.67454798361
 20
8309.2273686262797
 30
0.0
 41
80.0
 42
80.0
 43
80.0
 50
270.0
  0
INSERT
  5
F53
  8
0
  6
BYBLOCK
  2
_OPEN
 10
8670.67454798361
 20
7934.2273686262797
 30
0.0
 41
80.0
 42
80.0
 43
80.0
 50
90.0
  0
TEXT
  5
F54
  8
3
 10
8650.67454798361
 20
7981.9684881244266
 30
0.0
 40
100.0
  1
375
 50
90.0
 51
15.0
  7
SUNPOU
  0
POINT
  5
F55
  8
DEFPOINTS
  6
BYBLOCK
 62
     0
 10
8868.9135211609973
 20
8309.2273686262797
 30
0.0
  0
POINT
  5
F56
  8
DEFPOINTS
  6
BYBLOCK
 62
     0
 10
8868.9135211609973
 20
7934.2273686262797
 30
0.0
  0
POINT
  5
F57
  8
DEFPOINTS
  6
BYBLOCK
 62
     0
 10
8670.67454798361
 20
7934.2273686262797
 30
0.0
  0
ENDBLK
  5
F58
  8
0
  0
ENDSEC
  0
SECTION
  2
ENTITIES
  0
LINE
  5
570
  8
4
  6
CONTINUOUS
 10
12819.74395831865
 20
6226.5815883283894
 30
0.0
 11
12819.74395831865
 21
5426.5815883283894
 31
0.0
  0
LINE
  5
571
  8
4
  6
CONTINUOUS
 10
10019.743958318641
 20
6226.5815883283894
 30
0.0
 11
10019.743958318641
 21
5426.5815883283894
 31
0.0
  0
LINE
  5
572
  8
4
  6
CONTINUOUS
 10
8019.7439583186488
 20
6226.5815883283894
 30
0.0
 11
8019.7439583186488
 21
5426.5815883283894
 31
0.0
  0
LINE
  5
575
  8
4
  6
CONTINUOUS
 10
8019.7439583186488
 20
5426.5815883283894
 30
0.0
 11
12819.74395831865
 21
5426.5815883283894
 31
0.0
  0
LINE
  5
576
  8
4
  6
CONTINUOUS
 10
8019.7439583186488
 20
5826.5815883283894
 30
0.0
 11
12819.74395831865
 21
5826.5815883283894
 31
0.0
  0
TEXT
  5
577
  8
4
  6
CONTINUOUS
 10
8173.7522813186479
 20
5952.7536913283893
 30
0.0
 40
200.0
  1
機器名称
  0
TEXT
  5
578
  8
4
  6
CONTINUOUS
 10
8164.7763823186488
 20
5513.1622153283897
 30
0.0
 40
200.0
  1
機器型番
  0
TEXT
  5
579
  8
4
  6
CONTINUOUS
 10
10130.45894031864
 20
5916.8686643283891
 30
0.0
 40
200.0
  1
ミツヤファンユニット
  0
TEXT
  5
57A
  8
4
  6
CONTINUOUS
 10
10166.36194031864
 20
5495.2199253283879
 30
0.0
 40
200.0
  1
MFU#2005-5
  0
TEXT
  5
57C
  8
4
  6
CONTINUOUS
 10
8208.057998318649
 20
13760.29695332839
 30
0.0
 40
200.0
  1
天井吊ベット・床置ベット
  0
TEXT
  5
57D
  8
4
  6
CONTINUOUS
 10
6684.4143313186487
 20
14362.105493328379
 30
0.0
 40
250.0
  1
ベルト駆動式消音ボックス付き多翼ファン
  0
LINE
  5
57E
  8
4
  6
CONTINUOUS
 10
6419.7439583186488
 20
14104.216605328391
 30
0.0
 11
12819.74395831865
 21
14104.216605328391
 31
0.0
  0
LINE
  5
57F
  8
4
  6
CONTINUOUS
 10
6419.7439583186488
 20
14904.216605328391
 30
0.0
 11
12819.74395831865
 21
14904.216605328391
 31
0.0
  0
LINE
  5
580
  8
4
  6
CONTINUOUS
 10
8019.7439583186488
 20
6226.5815883283894
 30
0.0
 11
12819.74395831865
 21
6226.5815883283894
 31
0.0
  0
LINE
  5
581
  8
4
  6
CONTINUOUS
 10
6419.7439583186488
 20
14904.216605328391
 30
0.0
 11
6419.7439583186488
 21
14104.216605328391
 31
0.0
  0
TEXT
  5
582
  8
4
  6
CONTINUOUS
 10
6545.6791553186486
 20
13755.85949832838
 30
0.0
 40
200.0
  1
右回転左吐出
  0
TEXT
  5
583
  8
4
  6
CONTINUOUS
 10
11295.62219531864
 20
15050.82591432839
 30
0.0
 40
224.0
  1
No.
  0
TEXT
  5
584
  8
4
  6
CONTINUOUS
 10
11151.26717431864
 20
13760.29695332839
 30
0.0
 40
200.0
  1
縮尺：1/40
  0
LINE
  5
585
  8
4
  6
CONTINUOUS
 10
12819.74395831865
 20
14904.216605328391
 30
0.0
 11
12819.74395831865
 21
14104.216605328391
 31
0.0
  0
LINE
  5
586
  8
4
  6
CONTINUOUS
 10
11182.213647318649
 20
14951.63592132839
 30
0.0
 11
11182.213647318649
 21
15373.190634328381
 31
0.0
  0
LINE
  5
587
  8
4
  6
CONTINUOUS
 10
11182.213647318649
 20
15373.190634328381
 30
0.0
 11
12819.74395831865
 21
15373.190634328381
 31
0.0
  0
LINE
  5
588
  8
4
  6
CONTINUOUS
 10
12819.74395831865
 20
15373.190634328381
 30
0.0
 11
12819.74395831865
 21
14951.63592132839
 31
0.0
  0
LINE
  5
589
  8
4
  6
CONTINUOUS
 10
12819.74395831865
 20
14951.63592132839
 30
0.0
 11
11182.213647318649
 21
14951.63592132839
 31
0.0
  0
LINE
  5
E23
  8
1
 10
8868.9135211609973
 20
7934.2273686262797
 30
0.0
 11
10278.91352116099
 21
7934.2273686262797
 31
0.0
  0
LINE
  5
E24
  8
1
 10
10278.91352116099
 20
7934.2273686262797
 30
0.0
 11
10278.91352116099
 21
8009.2273686262797
 31
0.0
  0
LINE
  5
E25
  8
1
 10
10278.91352116099
 20
8009.2273686262797
 30
0.0
 11
8868.9135211609973
 21
8009.2273686262797
 31
0.0
  0
LINE
  5
E26
  8
1
 10
8868.9135211609973
 20
7934.2273686262797
 30
0.0
 11
8868.9135211609973
 21
8009.2273686262797
 31
0.0
  0
LINE
  5
E27
  8
1
 10
10198.91352116099
 20
8009.2273686262797
 30
0.0
 11
10198.91352116099
 21
8899.2273686262815
 31
0.0
  0
LINE
  5
E28
  8
1
 10
10198.91352116099
 20
8899.2273686262815
 30
0.0
 11
8948.9135211609973
 21
8899.2273686262815
 31
0.0
  0
LINE
  5
E29
  8
1
 10
8948.9135211609973
 20
8899.2273686262815
 30
0.0
 11
8948.9135211609973
 21
8009.2273686262797
 31
0.0
  0
LINE
  5
E2A
  8
2
 10
8868.9135211609973
 20
8309.2273686262797
 30
0.0
 11
10278.91352116099
 21
8309.2273686262797
 31
0.0
  0
LINE
  5
E2B
  8
1
 10
8918.9135211609973
 20
8597.2273686262797
 30
0.0
 11
8948.9135211609973
 21
8597.2273686262797
 31
0.0
  0
LINE
  5
E2C
  8
1
 10
8918.9135211609973
 20
8021.2273686262806
 30
0.0
 11
8948.9135211609973
 21
8021.2273686262806
 31
0.0
  0
LINE
  5
E2D
  8
1
 10
8918.9135211609973
 20
8597.2273686262797
 30
0.0
 11
8918.9135211609973
 21
8021.227368626277
 31
0.0
  0
LINE
  5
E2E
  8
1
 10
10228.91352116099
 20
8021.227368626277
 30
0.0
 11
10228.91352116099
 21
8597.2273686262797
 31
0.0
  0
LINE
  5
E2F
  8
1
 10
10198.91352116099
 20
8597.2273686262797
 30
0.0
 11
10228.91352116099
 21
8597.2273686262797
 31
0.0
  0
LINE
  5
E30
  8
1
 10
10198.91352116099
 20
8021.2273686262806
 30
0.0
 11
10228.91352116099
 21
8021.2273686262806
 31
0.0
  0
LINE
  5
E31
  8
1
 10
7958.5221285727594
 20
8899.2273686262815
 30
0.0
 11
6938.5221285727612
 21
8899.2273686262815
 31
0.0
  0
LINE
  5
E32
  8
1
 10
7958.5221285727612
 20
7934.2273686262797
 30
0.0
 11
7958.5221285727594
 21
8899.2273686262815
 31
0.0
  0
LINE
  5
E33
  8
1
 10
7958.522128572763
 20
8009.2273686262779
 30
0.0
 11
6938.522128572763
 21
8009.2273686262824
 31
0.0
  0
LINE
  5
E34
  8
1
 10
6938.522128572763
 20
7934.2273686262779
 30
0.0
 11
7958.522128572763
 21
7934.2273686262779
 31
0.0
  0
LINE
  5
E35
  8
1
 10
6938.5221285727612
 20
7934.2273686262779
 30
0.0
 11
6938.5221285727612
 21
8899.2273686262779
 31
0.0
  0
LINE
  5
E36
  8
1
 10
7973.5221285727621
 20
8014.227368626277
 30
0.0
 11
7973.5221285727594
 21
8894.2273686262797
 31
0.0
  0
LINE
  5
E37
  8
1
 10
6923.5221285727621
 20
8014.2273686262806
 30
0.0
 11
6923.5221285727603
 21
8894.2273686262797
 31
0.0
  0
LINE
  5
E38
  8
1
 10
7973.5221285727603
 20
8894.2273686262797
 30
0.0
 11
7958.5221285727594
 21
8894.2273686262797
 31
0.0
  0
LINE
  5
E39
  8
1
 10
7973.5221285727621
 20
8014.227368626277
 30
0.0
 11
7958.5221285727612
 21
8014.227368626277
 31
0.0
  0
LINE
  5
E3A
  8
1
 10
6938.5221285727621
 20
8014.2273686262806
 30
0.0
 11
6923.5221285727621
 21
8014.2273686262806
 31
0.0
  0
LINE
  5
E3B
  8
1
 10
6938.5221285727612
 20
8894.2273686262797
 30
0.0
 11
6923.5221285727621
 21
8894.2273686262797
 31
0.0
  0
LINE
  5
E3C
  8
2
 10
7448.5221285727612
 20
7934.2273686262797
 30
0.0
 11
7448.5221285727603
 21
8680.4261563921882
 31
0.0
  0
LINE
  5
E3E
  8
1
 10
7111.5221285727603
 20
8567.2273686262743
 30
0.0
 11
7785.5221285727612
 21
8567.2273686262743
 31
0.0
  0
LINE
  5
E3F
  8
1
 10
7111.5221285727603
 20
8051.2273686262779
 30
0.0
 11
7785.5221285727621
 21
8051.2273686262779
 31
0.0
  0
LINE
  5
E40
  8
1
 10
7111.5221285727603
 20
8051.2273686262779
 30
0.0
 11
7111.5221285727603
 21
8567.2273686262743
 31
0.0
  0
LINE
  5
E41
  8
1
 10
7785.5221285727612
 20
8051.2273686262779
 30
0.0
 11
7785.5221285727612
 21
8567.2273686262779
 31
0.0
  0
LINE
  5
E42
  8
1
 10
7081.5221285727612
 20
8597.2273686262779
 30
0.0
 11
7815.5221285727603
 21
8597.2273686262761
 31
0.0
  0
LINE
  5
E43
  8
1
 10
7081.5221285727612
 20
8021.227368626277
 30
0.0
 11
7815.5221285727603
 21
8021.227368626277
 31
0.0
  0
LINE
  5
E44
  8
1
 10
7081.5221285727612
 20
8021.227368626277
 30
0.0
 11
7081.5221285727612
 21
8597.2273686262761
 31
0.0
  0
LINE
  5
E45
  8
1
 10
7815.5221285727603
 20
8021.227368626277
 30
0.0
 11
7815.5221285727603
 21
8597.2273686262761
 31
0.0
  0
LINE
  5
E46
  8
1
 10
7111.5221285727603
 20
8051.2273686262779
 30
0.0
 11
7785.5221285727612
 21
8567.2273686262743
 31
0.0
  0
LINE
  5
E47
  8
1
 10
7785.5221285727612
 20
8051.2273686262779
 30
0.0
 11
7111.5221285727603
 21
8567.2273686262743
 31
0.0
  0
LINE
  5
E4A
  8
2
 10
7448.5221285727612
 20
8839.6688641181354
 30
0.0
 11
7448.5221285727603
 21
8956.6101234760063
 31
0.0
  0
LINE
  5
E4C
  8
1
 10
11554.713421726699
 20
8051.2273686262779
 30
0.0
 11
12228.713421726699
 21
8567.2273686262743
 31
0.0
  0
LINE
  5
E4D
  8
1
 10
12228.713421726699
 20
8051.2273686262779
 30
0.0
 11
11554.713421726699
 21
8567.2273686262743
 31
0.0
  0
LINE
  5
E4E
  8
1
 10
12258.713421726699
 20
8597.2273686262779
 30
0.0
 11
11524.713421726699
 21
8597.2273686262761
 31
0.0
  0
LINE
  5
E4F
  8
1
 10
12258.713421726699
 20
8021.227368626277
 30
0.0
 11
11524.713421726699
 21
8021.227368626277
 31
0.0
  0
LINE
  5
E50
  8
1
 10
12228.713421726699
 20
8567.2273686262743
 30
0.0
 11
11554.713421726699
 21
8567.2273686262743
 31
0.0
  0
LINE
  5
E51
  8
1
 10
12228.713421726699
 20
8051.2273686262779
 30
0.0
 11
11554.71342172669
 21
8051.2273686262779
 31
0.0
  0
LINE
  5
E52
  8
1
 10
12401.71342172669
 20
7934.2273686262779
 30
0.0
 11
11381.713421726699
 21
7934.2273686262779
 31
0.0
  0
LINE
  5
E53
  8
1
 10
11381.713421726699
 20
8009.2273686262779
 30
0.0
 11
12401.71342172669
 21
8009.2273686262824
 31
0.0
  0
LINE
  5
E54
  8
1
 10
11381.713421726699
 20
8899.2273686262815
 30
0.0
 11
12401.713421726699
 21
8899.2273686262815
 31
0.0
  0
LINE
  5
E55
  8
1
 10
12258.713421726699
 20
8021.227368626277
 30
0.0
 11
12258.713421726699
 21
8597.2273686262761
 31
0.0
  0
LINE
  5
E56
  8
1
 10
12228.713421726699
 20
8051.2273686262779
 30
0.0
 11
12228.713421726699
 21
8567.2273686262743
 31
0.0
  0
LINE
  5
E57
  8
1
 10
12416.71342172669
 20
8014.2273686262806
 30
0.0
 11
12416.713421726699
 21
8894.2273686262797
 31
0.0
  0
LINE
  5
E58
  8
1
 10
12401.713421726699
 20
7934.2273686262779
 30
0.0
 11
12401.713421726699
 21
8899.2273686262779
 31
0.0
  0
LINE
  5
E59
  8
1
 10
12401.71342172669
 20
8014.2273686262806
 30
0.0
 11
12416.713421726699
 21
8014.2273686262806
 31
0.0
  0
LINE
  5
E5A
  8
1
 10
12401.713421726699
 20
8894.2273686262797
 30
0.0
 11
12416.71342172669
 21
8894.2273686262797
 31
0.0
  0
LINE
  5
E5B
  8
2
 10
11891.713421726699
 20
7934.2273686262797
 30
0.0
 11
11891.713421726699
 21
8680.4261563921882
 31
0.0
  0
LINE
  5
E5C
  8
1
 10
11524.713421726699
 20
8021.227368626277
 30
0.0
 11
11524.713421726699
 21
8597.2273686262761
 31
0.0
  0
LINE
  5
E5D
  8
1
 10
11554.713421726699
 20
8051.2273686262779
 30
0.0
 11
11554.713421726699
 21
8567.2273686262779
 31
0.0
  0
LINE
  5
E5E
  8
2
 10
11891.713421726699
 20
8839.6688641181354
 30
0.0
 11
11891.713421726699
 21
8956.6101234760063
 31
0.0
  0
LINE
  5
E5F
  8
1
 10
11366.713421726699
 20
8014.227368626277
 30
0.0
 11
11366.713421726699
 21
8894.2273686262797
 31
0.0
  0
LINE
  5
E60
  8
1
 10
11381.713421726699
 20
7934.2273686262797
 30
0.0
 11
11381.713421726699
 21
8899.2273686262815
 31
0.0
  0
LINE
  5
E61
  8
1
 10
11366.713421726699
 20
8014.227368626277
 30
0.0
 11
11381.713421726699
 21
8014.227368626277
 31
0.0
  0
LINE
  5
E62
  8
1
 10
11366.713421726699
 20
8894.2273686262797
 30
0.0
 11
11381.713421726699
 21
8894.2273686262797
 31
0.0
  0
LINE
  5
E63
  8
1
 10
8868.9135211609973
 20
10549.6226012679
 30
0.0
 11
10278.91352116099
 21
10549.6226012679
 31
0.0
  0
LINE
  5
E64
  8
1
 10
10278.91352116099
 20
10549.6226012679
 30
0.0
 11
10278.91352116099
 21
10589.6226012679
 31
0.0
  0
LINE
  5
E65
  8
1
 10
10278.91352116099
 20
11569.622601267911
 30
0.0
 11
8868.9135211609973
 21
11569.622601267911
 31
0.0
  0
LINE
  5
E66
  8
1
 10
8868.9135211609973
 20
11569.622601267911
 30
0.0
 11
8868.9135211609992
 21
11529.622601267911
 31
0.0
  0
LINE
  5
E67
  8
1
 10
8868.9135211609973
 20
10589.6226012679
 30
0.0
 11
8948.9135211609992
 21
10589.6226012679
 31
0.0
  0
LINE
  5
E68
  8
1
 10
10278.91352116099
 20
11529.622601267911
 30
0.0
 11
10198.91352116099
 21
11529.622601267911
 31
0.0
  0
LINE
  5
E69
  8
1
 10
10198.91352116099
 20
10534.6226012679
 30
0.0
 11
10198.91352116099
 21
11584.622601267911
 31
0.0
  0
LINE
  5
E6A
  8
1
 10
8948.9135211609992
 20
11584.6226012679
 30
0.0
 11
8948.9135211609973
 21
10534.622601267911
 31
0.0
  0
LINE
  5
E6B
  8
1
 10
10278.91352116099
 20
11529.622601267911
 30
0.0
 11
10278.91352116099
 21
11569.622601267911
 31
0.0
  0
LINE
  5
E6C
  8
1
 10
8868.9135211609992
 20
10589.6226012679
 30
0.0
 11
8868.9135211609973
 21
10549.6226012679
 31
0.0
  0
LINE
  5
E6D
  8
1
 10
10198.91352116099
 20
11584.6226012679
 30
0.0
 11
8948.9135211609992
 21
11584.6226012679
 31
0.0
  0
LINE
  5
E6E
  8
1
 10
8948.9135211609973
 20
10534.6226012679
 30
0.0
 11
10198.91352116099
 21
10534.6226012679
 31
0.0
  0
LINE
  5
E6F
  8
1
 10
10198.91352116099
 20
10589.622601267911
 30
0.0
 11
10278.91352116099
 21
10589.6226012679
 31
0.0
  0
LINE
  5
E70
  8
1
 10
8948.9135211609992
 20
11529.622601267911
 30
0.0
 11
8868.9135211609973
 21
11529.622601267911
 31
0.0
  0
LINE
  5
E72
  8
2
 10
8868.9135211609973
 20
11059.6226012679
 30
0.0
 11
10278.91352116099
 21
11059.6226012679
 31
0.0
  0
LINE
  5
E73
  8
1
 10
10228.913521160999
 20
10692.6226012679
 30
0.0
 11
10228.91352116099
 21
11426.622601267911
 31
0.0
  0
LINE
  5
E74
  8
1
 10
8918.9135211609992
 20
11426.622601267911
 30
0.0
 11
8918.9135211609992
 21
10692.6226012679
 31
0.0
  0
LINE
  5
E75
  8
1
 10
8918.9135211609992
 20
11426.622601267911
 30
0.0
 11
8948.9135211609992
 21
11426.622601267911
 31
0.0
  0
LINE
  5
E76
  8
1
 10
8918.9135211609973
 20
10692.622601267911
 30
0.0
 11
8948.9135211609992
 21
10692.622601267911
 31
0.0
  0
LINE
  5
E77
  8
1
 10
10198.91352116099
 20
11426.622601267911
 30
0.0
 11
10228.91352116099
 21
11426.622601267911
 31
0.0
  0
LINE
  5
E78
  8
1
 10
10198.91352116099
 20
10692.622601267911
 30
0.0
 11
10228.91352116099
 21
10692.622601267911
 31
0.0
  0
DIMENSION
  5
EAE
  8
3
  2
*D1
 10
10562.89946672935
 20
10549.6226012679
 30
0.0
 11
10492.89946672935
 21
11059.6226012679
 31
0.0
 70
     0
 13
10278.91352116099
 23
11569.622601267911
 33
0.0
 14
10278.91352116099
 24
10549.6226012679
 34
0.0
 50
90.0
1001
ACAD
1000
DSTYLE
1002
{
1070
   140
1040
2.5
1070
    40
1040
40.0
1070
     7
1000
_OPEN
1070
     6
1000
_OPEN
1002
}
  0
DIMENSION
  5
EBB
  8
3
  2
*D2
 10
12401.71342172669
 20
7692.6085752014333
 30
0.0
 11
11891.71342172669
 21
7762.6085752014333
 31
0.0
 70
     0
 13
11381.713421726699
 23
7934.2273686262779
 33
0.0
 14
12401.71342172669
 24
7934.2273686262779
 34
0.0
1001
ACAD
1000
DSTYLE
1002
{
1070
   140
1040
2.5
1070
    40
1040
40.0
1070
     7
1000
_OPEN
1070
     6
1000
_OPEN
1002
}
  0
DIMENSION
  5
EC8
  8
3
  2
*D3
 10
10278.91352116099
 20
7692.6085752014333
 30
0.0
 11
9573.9135211609973
 21
7762.6085752014333
 31
0.0
 70
     0
 13
8868.9135211609973
 23
7934.2273686262797
 33
0.0
 14
10278.91352116099
 24
7934.2273686262797
 34
0.0
1001
ACAD
1000
DSTYLE
1002
{
1070
   140
1040
2.5
1070
    40
1040
40.0
1070
     7
1000
_OPEN
1070
     6
1000
_OPEN
1002
}
  0
DIMENSION
  5
ED5
  8
3
  2
*D4
 10
7958.522128572763
 20
7692.6085752014333
 30
0.0
 11
7448.5221285727612
 21
7762.6085752014333
 31
0.0
 70
     0
 13
6938.5221285727612
 23
7934.2273686262779
 33
0.0
 14
7958.522128572763
 24
7934.2273686262779
 34
0.0
1001
ACAD
1000
DSTYLE
1002
{
1070
   140
1040
2.5
1070
    40
1040
40.0
1070
     7
1000
_OPEN
1070
     6
1000
_OPEN
1002
}
  0
DIMENSION
  5
EE2
  8
3
  2
*D5
 10
7785.5221285727612
 20
8675.6878100112317
 30
0.0
 11
7448.5221285727603
 21
8745.6878100112317
 31
0.0
 70
     0
 13
7111.5221285727603
 23
8567.2273686262743
 33
0.0
 14
7785.5221285727612
 24
8567.2273686262743
 34
0.0
1001
ACAD
1000
DSTYLE
1002
{
1070
   140
1040
2.5
1070
    40
1040
40.0
1070
     7
1000
_OPEN
1070
     6
1000
_OPEN
1002
}
  0
DIMENSION
  5
EEF
  8
3
  2
*D6
 10
8205.7278300191629
 20
8051.2273686262779
 30
0.0
 11
8135.727830019161
 21
8309.2273686262797
 31
0.0
 70
     0
 13
7785.5221285727612
 23
8567.2273686262743
 33
0.0
 14
7785.5221285727612
 24
8051.2273686262779
 34
0.0
 50
90.0
1001
ACAD
1000
DSTYLE
1002
{
1070
   140
1040
2.5
1070
    40
1040
40.0
1070
     7
1000
_OPEN
1070
     6
1000
_OPEN
1002
}
  0
DIMENSION
  5
EFC
  8
3
  2
*D7
 10
12228.713421726699
 20
8675.6878100112317
 30
0.0
 11
11891.713421726699
 21
8745.6878100112317
 31
0.0
 70
     0
 13
11554.713421726699
 23
8567.2273686262743
 33
0.0
 14
12228.713421726699
 24
8567.2273686262743
 34
0.0
1001
ACAD
1000
DSTYLE
1002
{
1070
   140
1040
2.5
1070
    40
1040
40.0
1070
     7
1000
_OPEN
1070
     6
1000
_OPEN
1002
}
  0
DIMENSION
  5
F09
  8
3
  2
*D8
 10
12649.753189461089
 20
8051.2273686262779
 30
0.0
 11
12579.753189461089
 21
8309.2273686262797
 31
0.0
 70
     0
 13
12228.713421726699
 23
8567.2273686262743
 33
0.0
 14
12228.713421726699
 24
8051.2273686262779
 34
0.0
 50
90.0
1001
ACAD
1000
DSTYLE
1002
{
1070
   140
1040
2.5
1070
    40
1040
40.0
1070
     7
1000
_OPEN
1070
     6
1000
_OPEN
1002
}
  0
DIMENSION
  5
F16
  8
3
  2
*D9
 10
7448.5221285727603
 20
9064.5982693817896
 30
0.0
 11
7193.5221285727612
 21
9134.5982693817896
 31
0.0
 70
     0
 13
6938.5221285727612
 23
8899.2273686262815
 33
0.0
 14
7448.5221285727603
 24
8956.6101234760063
 34
0.0
1001
ACAD
1000
DSTYLE
1002
{
1070
   140
1040
2.5
1070
    40
1040
40.0
1070
     7
1000
_OPEN
1070
     6
1000
_OPEN
1002
}
  0
DIMENSION
  5
F23
  8
3
  2
*D10
 10
7958.5221285727594
 20
9064.5982693817896
 30
0.0
 11
7703.5221285727603
 21
9134.5982693817896
 31
0.0
 70
     0
 13
7448.5221285727603
 23
8956.6101234760063
 33
0.0
 14
7958.5221285727594
 24
8899.2273686262815
 34
0.0
1001
ACAD
1000
DSTYLE
1002
{
1070
   140
1040
2.5
1070
    40
1040
40.0
1070
     7
1000
_OPEN
1070
     6
1000
_OPEN
1002
}
  0
DIMENSION
  5
F30
  8
3
  2
*D11
 10
10198.91352116099
 20
9064.5982693817896
 30
0.0
 11
9573.9135211609973
 21
9134.5982693817896
 31
0.0
 70
     0
 13
8948.9135211609973
 23
8899.2273686262815
 33
0.0
 14
10198.91352116099
 24
8899.2273686262815
 34
0.0
1001
ACAD
1000
DSTYLE
1002
{
1070
   140
1040
2.5
1070
    40
1040
40.0
1070
     7
1000
_OPEN
1070
     6
1000
_OPEN
1002
}
  0
DIMENSION
  5
F3D
  8
3
  2
*D12
 10
11891.713421726699
 20
9064.5982693817896
 30
0.0
 11
11636.713421726699
 21
9134.5982693817896
 31
0.0
 70
     0
 13
11381.713421726699
 23
8899.2273686262815
 33
0.0
 14
11891.713421726699
 24
8956.6101234760063
 34
0.0
1001
ACAD
1000
DSTYLE
1002
{
1070
   140
1040
2.5
1070
    40
1040
40.0
1070
     7
1000
_OPEN
1070
     6
1000
_OPEN
1002
}
  0
DIMENSION
  5
F4A
  8
3
  2
*D13
 10
12401.713421726699
 20
9064.5982693817896
 30
0.0
 11
12146.713421726699
 21
9134.5982693817896
 31
0.0
 70
     0
 13
11891.713421726699
 23
8956.6101234760063
 33
0.0
 14
12401.713421726699
 24
8899.2273686262815
 34
0.0
1001
ACAD
1000
DSTYLE
1002
{
1070
   140
1040
2.5
1070
    40
1040
40.0
1070
     7
1000
_OPEN
1070
     6
1000
_OPEN
1002
}
  0
DIMENSION
  5
F59
  8
3
  2
*D14
 10
8670.67454798361
 20
7934.2273686262797
 30
0.0
 11
8600.67454798361
 21
8121.7273686262788
 31
0.0
 70
     0
 13
8868.9135211609973
 23
8309.2273686262797
 33
0.0
 14
8868.9135211609973
 24
7934.2273686262797
 34
0.0
 50
90.0
1001
ACAD
1000
DSTYLE
1002
{
1070
   140
1040
2.5
1070
    40
1040
40.0
1070
     7
1000
_OPEN
1070
     6
1000
_OPEN
1002
}
  0
ARC
  5
F5F
  8
4
 10
9269.9135211609955
 20
8473.7273686262815
 30
0.0
 40
298.0
 50
274.61942815513919
 51
0.0
  0
ARC
  5
F60
  8
4
 10
9317.9135211609955
 20
8473.7273686262815
 30
0.0
 40
250.0
 50
0.0
 51
90.0
  0
ARC
  5
F63
  8
4
 10
9312.4135211609955
 20
8516.2273686262815
 30
0.0
 40
207.5
 50
90.0
 51
180.0
  0
ARC
  5
F66
  8
4
 10
9275.4135211609973
 20
8516.2273686262815
 30
0.0
 40
170.5
 50
180.0
 51
195.1292328169244
  0
LINE
  5
F67
  8
4
 10
9048.9135211609973
 20
8121.7273686262806
 30
0.0
 11
9048.9135211609955
 21
8497.7273686262815
 31
0.0
  0
LINE
  5
F69
  8
4
 10
9048.9135211609955
 20
8146.7273686262806
 30
0.0
 11
9293.9135211609955
 21
8176.6953838165637
 31
0.0
  0
LINE
  5
F6A
  8
4
 10
9110.8231204688527
 20
8471.7273686262815
 30
0.0
 11
9048.9135211609955
 21
8471.7273686262815
 31
0.0
  0
LINE
  5
F70
  8
4
 10
9048.9135211609955
 20
8471.7273686262815
 30
0.0
 11
8948.9135211609955
 21
8471.7273686262815
 31
0.0
  0
LINE
  5
F71
  8
4
 10
9048.9135211609955
 20
8146.7273686262806
 30
0.0
 11
8948.9135211609955
 21
8146.7273686262806
 31
0.0
  0
ENDSEC
  0
EOF
