  0
SECTION
  2
HEADER
  9
$ACADVER
  1
AC1009
  9
$INSBASE
 10
0.0
 20
0.0
 30
0.0
  9
$EXTMIN
 10
6259.3244627790118
 20
5242.4255827003553
 30
0.0
  9
$EXTMAX
 10
11059.32446277901
 20
12702.382367700349
 30
0.0
  9
$LIMMIN
 10
0.0
 20
0.0
  9
$LIMMAX
 10
297.0
 20
210.0
  9
$ORTHOMODE
 70
     0
  9
$REGENMODE
 70
     1
  9
$FILLMODE
 70
     1
  9
$QTEXTMODE
 70
     0
  9
$MIRRTEXT
 70
     0
  9
$DRAGMODE
 70
     2
  9
$LTSCALE
 40
5.0
  9
$OSMODE
 70
    37
  9
$ATTMODE
 70
     1
  9
$TEXTSIZE
 40
52.5
  9
$TRACEWID
 40
0.05
  9
$TEXTSTYLE
  7
STANDARD
  9
$CLAYER
  8
FUTO
  9
$CELTYPE
  6
BYLAYER
  9
$CECOLOR
 62
   256
  9
$DIMSCALE
 40
10.0
  9
$DIMASZ
 40
2.0
  9
$DIMEXO
 40
1.0
  9
$DIMDLI
 40
10.0
  9
$DIMRND
 40
0.0
  9
$DIMDLE
 40
0.0
  9
$DIMEXE
 40
1.0
  9
$DIMTP
 40
0.0
  9
$DIMTM
 40
0.0
  9
$DIMTXT
 40
3.0
  9
$DIMCEN
 40
0.0
  9
$DIMTSZ
 40
0.0
  9
$DIMTOL
 70
     0
  9
$DIMLIM
 70
     0
  9
$DIMTIH
 70
     0
  9
$DIMTOH
 70
     0
  9
$DIMSE1
 70
     0
  9
$DIMSE2
 70
     0
  9
$DIMTAD
 70
     1
  9
$DIMZIN
 70
     8
  9
$DIMBLK
  1

  9
$DIMASO
 70
     1
  9
$DIMSHO
 70
     1
  9
$DIMPOST
  1

  9
$DIMAPOST
  1

  9
$DIMALT
 70
     0
  9
$DIMALTD
 70
     2
  9
$DIMALTF
 40
0.03937
  9
$DIMLFAC
 40
1.0
  9
$DIMTOFL
 70
     1
  9
$DIMTVP
 40
0.0
  9
$DIMTIX
 70
     0
  9
$DIMSOXD
 70
     0
  9
$DIMSAH
 70
     1
  9
$DIMBLK1
  1
OPEN
  9
$DIMBLK2
  1
OPEN
  9
$DIMSTYLE
  2
MATSU
  9
$DIMCLRD
 70
   256
  9
$DIMCLRE
 70
   256
  9
$DIMCLRT
 70
   256
  9
$DIMTFAC
 40
1.0
  9
$DIMGAP
 40
0.5
  9
$LUNITS
 70
     2
  9
$LUPREC
 70
     3
  9
$SKETCHINC
 40
0.1
  9
$FILLETRAD
 40
5.0
  9
$AUNITS
 70
     0
  9
$AUPREC
 70
     2
  9
$MENU
  1
acad
  9
$ELEVATION
 40
0.0
  9
$PELEVATION
 40
0.0
  9
$THICKNESS
 40
0.0
  9
$LIMCHECK
 70
     0
  9
$BLIPMODE
 70
     0
  9
$CHAMFERA
 40
0.0
  9
$CHAMFERB
 40
0.0
  9
$SKPOLY
 70
     0
  9
$TDCREATE
 40
2451997.4092196752
  9
$TDUPDATE
 40
2454953.8568032291
  9
$TDINDWG
 40
0.0456014005
  9
$TDUSRTIMER
 40
0.0456014005
  9
$USRTIMER
 70
     1
  9
$ANGBASE
 50
0.0
  9
$ANGDIR
 70
     0
  9
$PDMODE
 70
     0
  9
$PDSIZE
 40
1.0
  9
$PLINEWID
 40
0.0
  9
$COORDS
 70
     1
  9
$SPLFRAME
 70
     0
  9
$SPLINETYPE
 70
     6
  9
$SPLINESEGS
 70
     8
  9
$ATTDIA
 70
     0
  9
$ATTREQ
 70
     1
  9
$HANDLING
 70
 10241
  9
$HANDSEED
  5
933
  9
$SURFTAB1
 70
     6
  9
$SURFTAB2
 70
     6
  9
$SURFTYPE
 70
     6
  9
$SURFU
 70
     6
  9
$SURFV
 70
     6
  9
$UCSNAME
  2

  9
$UCSORG
 10
0.0
 20
0.0
 30
0.0
  9
$UCSXDIR
 10
1.0
 20
0.0
 30
0.0
  9
$UCSYDIR
 10
0.0
 20
1.0
 30
0.0
  9
$PUCSNAME
  2

  9
$PUCSORG
 10
0.0
 20
0.0
 30
0.0
  9
$PUCSXDIR
 10
1.0
 20
0.0
 30
0.0
  9
$PUCSYDIR
 10
0.0
 20
1.0
 30
0.0
  9
$USERI1
 70
     0
  9
$USERI2
 70
     0
  9
$USERI3
 70
     0
  9
$USERI4
 70
     0
  9
$USERI5
 70
     0
  9
$USERR1
 40
0.0
  9
$USERR2
 40
0.0
  9
$USERR3
 40
0.0
  9
$USERR4
 40
0.0
  9
$USERR5
 40
0.0
  9
$WORLDVIEW
 70
     1
  9
$SHADEDGE
 70
     3
  9
$SHADEDIF
 70
    70
  9
$TILEMODE
 70
     1
  9
$MAXACTVP
 70
    16
  9
$PLIMCHECK
 70
     0
  9
$PEXTMIN
 10
1.0000000000000000E+020
 20
1.0000000000000000E+020
 30
1.0000000000000000E+020
  9
$PEXTMAX
 10
-1.0000000000000000E+020
 20
-1.0000000000000000E+020
 30
-1.0000000000000000E+020
  9
$PLIMMIN
 10
0.0
 20
0.0
  9
$PLIMMAX
 10
12.0
 20
9.0
  9
$UNITMODE
 70
     0
  9
$VISRETAIN
 70
     0
  9
$PLINEGEN
 70
     0
  9
$PSLTSCALE
 70
     0
  0
ENDSEC
  0
SECTION
  2
TABLES
  0
TABLE
  2
VPORT
 70
     2
  0
VPORT
  2
*ACTIVE
 70
     0
 10
0.0
 20
0.0
 11
1.0
 21
1.0
 12
8697.7541866834727
 22
8013.1921939092736
 13
0.0
 23
0.0
 14
5.0
 24
5.0
 15
0.0
 25
0.0
 16
0.0
 26
0.0
 36
1.0
 17
0.0
 27
0.0
 37
0.0
 40
9810.7629359933235
 41
1.5051150895140659
 42
50.0
 43
0.0
 44
0.0
 50
0.0
 51
0.0
 71
     0
 72
   100
 73
     1
 74
     0
 75
     0
 76
     0
 77
     0
 78
     2
  0
ENDTAB
  0
TABLE
  2
LTYPE
 70
     2
  0
LTYPE
  2
CONTINUOUS
 70
     0
  3
Solid line
 72
    65
 73
     0
 40
0.0
  0
LTYPE
  2
CENTER
 70
     0
  3
____ _ ____ _ ____ _ ____ _ ____ _ ____ _ ____ 
 72
    65
 73
     4
 40
2.0
 49
1.25
 49
-0.25
 49
0.25
 49
-0.25
  0
ENDTAB
  0
TABLE
  2
LAYER
 70
     7
  0
LAYER
  2
0
 70
     0
 62
     7
  6
CONTINUOUS
  0
LAYER
  2
FUTO
 70
     0
 62
     4
  6
CONTINUOUS
  0
LAYER
  2
DEFPOINTS
 70
     0
 62
     7
  6
CONTINUOUS
  0
LAYER
  2
3
 70
     0
 62
     2
  6
CONTINUOUS
  0
LAYER
  2
2
 70
     0
 62
     3
  6
CENTER
  0
LAYER
  2
1
 70
     0
 62
     4
  6
CONTINUOUS
  0
LAYER
  2
4
 70
     0
 62
     7
  6
CONTINUOUS
  0
ENDTAB
  0
TABLE
  2
STYLE
 70
     2
  0
STYLE
  2
STANDARD
 70
     0
 40
0.0
 41
1.0
 50
0.0
 71
     0
 42
52.5
  3
C:\Program Files\AutoCAD LT\simplex.shx
  4
C:\Program Files\AutoCAD LT\extfont.shx
  0
STYLE
  2
SUNPOU
 70
     0
 40
0.0
 41
1.0
 50
15.0
 71
     0
 42
5.0
  3
simplex.shx
  4
extfont.shx
  0
ENDTAB
  0
TABLE
  2
VIEW
 70
     0
  0
ENDTAB
  0
TABLE
  2
UCS
 70
     0
  0
ENDTAB
  0
TABLE
  2
APPID
 70
     1
  0
APPID
  2
ACAD
 70
     0
  0
ENDTAB
  0
TABLE
  2
DIMSTYLE
 70
     2
  0
DIMSTYLE
  2
MATSU
 70
     0
  3

  4

  5

  6
OPEN
  7
OPEN
 40
10.0
 41
2.0
 42
1.0
 43
10.0
 44
1.0
 45
0.0
 46
0.0
 47
0.0
 48
0.0
140
3.0
141
0.0
142
0.0
143
0.03937
144
1.0
145
0.0
146
1.0
147
0.5
 71
     0
 72
     0
 73
     0
 74
     0
 75
     0
 76
     0
 77
     1
 78
     8
170
     0
171
     2
172
     1
173
     1
174
     0
175
     0
176
   256
177
   256
178
   256
  0
DIMSTYLE
  2
IGA
 70
     0
  3

  4

  5

  6
OPEN
  7
OPEN
 40
2.0
 41
2.0
 42
0.5
 43
10.0
 44
1.0
 45
0.0
 46
0.0
 47
1.0
 48
1.0
140
3.0
141
0.0
142
0.0
143
0.03937
144
1.0
145
0.0
146
10.0
147
1.0
 71
     0
 72
     0
 73
     0
 74
     0
 75
     0
 76
     0
 77
     1
 78
     8
170
     0
171
     2
172
     0
173
     1
174
     0
175
     0
176
     0
177
     0
178
     0
  0
ENDTAB
  0
ENDSEC
  0
SECTION
  2
BLOCKS
  0
BLOCK
  8
0
  2
$MODEL_SPACE
 70
     0
 10
0.0
 20
0.0
 30
0.0
  3
$MODEL_SPACE
  1

  0
ENDBLK
  5
7
  8
0
  0
BLOCK
 67
     1
  8
0
  2
$PAPER_SPACE
 70
     0
 10
0.0
 20
0.0
 30
0.0
  3
$PAPER_SPACE
  1

  0
ENDBLK
  5
A
 67
     1
  8
0
  0
BLOCK
  8
0
  2
_OPEN
 70
     0
 10
0.0
 20
0.0
 30
0.0
  3
_OPEN
  1

  0
LINE
  5
194
  8
0
  6
BYBLOCK
 62
     0
 10
-1.0
 20
0.1666666666666666
 30
0.0
 11
0.0
 21
0.0
 31
0.0
  0
LINE
  5
195
  8
0
  6
BYBLOCK
 62
     0
 10
0.0
 20
0.0
 30
0.0
 11
-1.0
 21
-0.1666666666666666
 31
0.0
  0
LINE
  5
196
  8
0
  6
BYBLOCK
 62
     0
 10
0.0
 20
0.0
 30
0.0
 11
-1.0
 21
0.0
 31
0.0
  0
ENDBLK
  5
197
  8
0
  0
BLOCK
  8
0
  2
*D1
 70
     1
 10
0.0
 20
0.0
 30
0.0
  3
*D1
  1

  0
LINE
  5
8B8
  8
3
  6
CONTINUOUS
 62
     0
 10
8098.3206697790101
 20
7336.9829627003546
 30
0.0
 11
8098.3206697790101
 21
7095.5962017003558
 31
0.0
  0
LINE
  5
8B9
  8
3
  6
CONTINUOUS
 62
     0
 10
6888.3206697790101
 20
7336.9829627003546
 30
0.0
 11
6888.3206697790101
 21
7095.5962017003558
 31
0.0
  0
LINE
  5
8BA
  8
3
  6
CONTINUOUS
 62
     0
 10
8038.3206697790092
 20
7125.5962017003549
 30
0.0
 11
6948.3206697790092
 21
7125.5962017003549
 31
0.0
  0
INSERT
  5
8BB
  8
3
  6
CONTINUOUS
 62
     0
  2
_OPEN
 10
8098.3206697790101
 20
7125.5962017003549
 30
0.0
 41
60.0
 42
60.0
 43
60.0
  0
INSERT
  5
8BC
  8
3
  6
CONTINUOUS
 62
     0
  2
_OPEN
 10
6888.3206697790101
 20
7125.5962017003549
 30
0.0
 41
60.0
 42
60.0
 43
60.0
 50
180.0
  0
TEXT
  8
3
  40
90
  5
927
  62
0
  72
0
  71
0
 10
7322.54
 20
7041.30
 30
0.000000
  1
1210
  0
POINT
  5
8BE
  8
DEFPOINTS
  6
CONTINUOUS
 62
     0
 10
8098.3206697790101
 20
7351.9829627003537
 30
0.0
  0
POINT
  5
8BF
  8
DEFPOINTS
  6
CONTINUOUS
 62
     0
 10
6888.3206697790101
 20
7351.9829627003564
 30
0.0
  0
POINT
  5
8C0
  8
DEFPOINTS
  6
CONTINUOUS
 62
     0
 10
6888.3206697790101
 20
7125.5962017003549
 30
0.0
  0
ENDBLK
  5
6EE
  8
0
  0
BLOCK
  8
0
  2
*D2
 70
     1
 10
0.0
 20
0.0
 30
0.0
  3
*D2
  1

  0
LINE
  5
8C1
  8
3
  6
CONTINUOUS
 62
     0
 10
8186.3549647790114
 20
7761.9829627003546
 30
0.0
 11
8230.4030637790111
 21
7761.9829627003546
 31
0.0
  0
LINE
  5
8C2
  8
3
  6
CONTINUOUS
 62
     0
 10
8113.3206697790101
 20
7351.9829627003537
 30
0.0
 11
8230.4030637790111
 21
7351.9829627003537
 31
0.0
  0
LINE
  5
8C3
  8
3
  6
CONTINUOUS
 62
     0
 10
8200.4030637790111
 20
7821.9829627003546
 30
0.0
 11
8200.4030637790111
 21
7881.9829627003537
 31
0.0
  0
LINE
  5
8C4
  8
3
  6
CONTINUOUS
 62
     0
 10
8200.4030637790111
 20
7291.9829627003546
 30
0.0
 11
8200.4030637790111
 21
7231.9829627003537
 31
0.0
  0
LINE
  5
8C5
  8
3
  6
CONTINUOUS
 62
     0
 10
8200.4030637790111
 20
7761.9829627003546
 30
0.0
 11
8200.4030637790111
 21
7351.9829627003537
 31
0.0
  0
INSERT
  5
8C6
  8
3
  6
CONTINUOUS
 62
     0
  2
_OPEN
 10
8200.4030637790111
 20
7761.9829627003546
 30
0.0
 41
60.0
 42
60.0
 43
60.0
 50
270.0
  0
INSERT
  5
8C7
  8
3
  6
CONTINUOUS
 62
     0
  2
_OPEN
 10
8200.4030637790111
 20
7351.9829627003537
 30
0.0
 41
60.0
 42
60.0
 43
60.0
 50
90.0
  0
TEXT
  8
3
  40
90
  5
928
  62
0
  72
0
  71
0
 10
7945.40
 20
7389.83
 30
0.000000
  1
410
  0
POINT
  5
8C9
  8
DEFPOINTS
  6
CONTINUOUS
 62
     0
 10
8171.3549647790114
 20
7761.9829627003546
 30
0.0
  0
POINT
  5
8CA
  8
DEFPOINTS
  6
CONTINUOUS
 62
     0
 10
8098.320669779011
 20
7351.9829627003537
 30
0.0
  0
POINT
  5
8CB
  8
DEFPOINTS
  6
CONTINUOUS
 62
     0
 10
8200.4030637790111
 20
7351.9829627003537
 30
0.0
  0
ENDBLK
  5
704
  8
0
  0
BLOCK
  8
0
  2
*D3
 70
     1
 10
0.0
 20
0.0
 30
0.0
  3
*D3
  1

  0
LINE
  5
8CC
  8
3
  6
CONTINUOUS
 62
     0
 10
8028.320669779011
 20
8221.9829627003528
 30
0.0
 11
8411.7378497790123
 21
8221.9829627003528
 31
0.0
  0
LINE
  5
8CD
  8
3
  6
CONTINUOUS
 62
     0
 10
8113.3206697790101
 20
7351.9829627003537
 30
0.0
 11
8411.7378497790123
 21
7351.9829627003537
 31
0.0
  0
LINE
  5
8CE
  8
3
  6
CONTINUOUS
 62
     0
 10
8381.7378497790123
 20
8161.9829627003528
 30
0.0
 11
8381.7378497790123
 21
7411.9829627003546
 31
0.0
  0
INSERT
  5
8CF
  8
3
  6
CONTINUOUS
 62
     0
  2
_OPEN
 10
8381.7378497790123
 20
8221.9829627003528
 30
0.0
 41
60.0
 42
60.0
 43
60.0
 50
90.0
  0
INSERT
  5
8D0
  8
3
  6
CONTINUOUS
 62
     0
  2
_OPEN
 10
8381.7378497790123
 20
7351.9829627003537
 30
0.0
 41
60.0
 42
60.0
 43
60.0
 50
270.0
  0
TEXT
  8
3
  40
90
  5
929
  62
0
  72
0
  71
0
 10
8126.74
 20
7583.98
 30
0.000000
  1
870
  0
POINT
  5
8D2
  8
DEFPOINTS
  6
CONTINUOUS
 62
     0
 10
8013.320669779011
 20
8221.9829627003528
 30
0.0
  0
POINT
  5
8D3
  8
DEFPOINTS
  6
CONTINUOUS
 62
     0
 10
8098.320669779011
 20
7351.9829627003537
 30
0.0
  0
POINT
  5
8D4
  8
DEFPOINTS
  6
CONTINUOUS
 62
     0
 10
8381.7378497790123
 20
7351.9829627003537
 30
0.0
  0
ENDBLK
  5
6F9
  8
0
  0
BLOCK
  8
0
  2
*D4
 70
     1
 10
0.0
 20
0.0
 30
0.0
  3
*D4
  1

  0
LINE
  5
8D5
  8
3
  6
CONTINUOUS
 62
     0
 10
8013.320669779011
 20
8236.9829627003528
 30
0.0
 11
8013.320669779011
 21
8402.4434477003542
 31
0.0
  0
LINE
  5
8D6
  8
3
  6
CONTINUOUS
 62
     0
 10
6983.320669779011
 20
8236.9829627003528
 30
0.0
 11
6983.320669779011
 21
8402.4434477003542
 31
0.0
  0
LINE
  5
8D7
  8
3
  6
CONTINUOUS
 62
     0
 10
7953.3206697790101
 20
8372.4434477003524
 30
0.0
 11
7043.320669779011
 21
8372.4434477003524
 31
0.0
  0
INSERT
  5
8D8
  8
3
  6
CONTINUOUS
 62
     0
  2
_OPEN
 10
8013.320669779011
 20
8372.4434477003524
 30
0.0
 41
60.0
 42
60.0
 43
60.0
  0
INSERT
  5
8D9
  8
3
  6
CONTINUOUS
 62
     0
  2
_OPEN
 10
6983.320669779011
 20
8372.4434477003524
 30
0.0
 41
60.0
 42
60.0
 43
60.0
 50
180.0
  0
TEXT
  8
3
  40
90
  5
92A
  62
0
  72
0
  71
0
 10
7352.76
 20
8288.14
 30
0.000000
  1
1030
  0
POINT
  5
8DB
  8
DEFPOINTS
  6
CONTINUOUS
 62
     0
 10
8013.320669779011
 20
8221.9829627003528
 30
0.0
  0
POINT
  5
8DC
  8
DEFPOINTS
  6
CONTINUOUS
 62
     0
 10
6983.320669779011
 20
8221.9829627003528
 30
0.0
  0
POINT
  5
8DD
  8
DEFPOINTS
  6
CONTINUOUS
 62
     0
 10
6983.320669779011
 20
8372.4434477003524
 30
0.0
  0
ENDBLK
  5
6E3
  8
0
  0
BLOCK
  8
0
  2
*D5
 70
     1
 10
0.0
 20
0.0
 30
0.0
  3
*D5
  1

  0
LINE
  5
8DE
  8
3
  6
CONTINUOUS
 62
     0
 10
6983.542057779011
 20
9494.6063537003556
 30
0.0
 11
6983.542057779011
 21
9222.6789487003552
 31
0.0
  0
LINE
  5
8DF
  8
3
  6
CONTINUOUS
 62
     0
 10
8013.542057779011
 20
9494.6063537003556
 30
0.0
 11
8013.542057779011
 21
9222.6789487003552
 31
0.0
  0
LINE
  5
8E0
  8
3
  6
CONTINUOUS
 62
     0
 10
7043.5420577790128
 20
9252.6789487003552
 30
0.0
 11
7953.5420577790119
 21
9252.6789487003552
 31
0.0
  0
INSERT
  5
8E1
  8
3
  6
CONTINUOUS
 62
     0
  2
_OPEN
 10
6983.542057779011
 20
9252.6789487003552
 30
0.0
 41
60.0
 42
60.0
 43
60.0
 50
180.0
  0
INSERT
  5
8E2
  8
3
  6
CONTINUOUS
 62
     0
  2
_OPEN
 10
8013.542057779011
 20
9252.6789487003552
 30
0.0
 41
60.0
 42
60.0
 43
60.0
  0
TEXT
  8
3
  40
90
  5
92B
  62
0
  72
0
  71
0
 10
7344.32
 20
9168.38
 30
0.000000
  1
1030
  0
POINT
  5
8E4
  8
DEFPOINTS
  6
CONTINUOUS
 62
     0
 10
6983.542057779011
 20
9509.6063537003556
 30
0.0
  0
POINT
  5
8E5
  8
DEFPOINTS
  6
CONTINUOUS
 62
     0
 10
8013.542057779011
 20
9509.6063537003556
 30
0.0
  0
POINT
  5
8E6
  8
DEFPOINTS
  6
CONTINUOUS
 62
     0
 10
8013.542057779011
 20
9252.6789487003552
 30
0.0
  0
ENDBLK
  5
6CB
  8
0
  0
BLOCK
  8
0
  2
*D6
 70
     1
 10
0.0
 20
0.0
 30
0.0
  3
*D6
  1

  0
LINE
  5
8E7
  8
3
  6
CONTINUOUS
 62
     0
 10
8028.542057779011
 20
10379.60635370035
 30
0.0
 11
8480.4089901224306
 21
10379.60635370035
 31
0.0
  0
LINE
  5
8E8
  8
3
  6
CONTINUOUS
 62
     0
 10
8028.542057779011
 20
9509.6063537003538
 30
0.0
 11
8480.4089901224306
 21
9509.6063537003538
 31
0.0
  0
LINE
  5
8E9
  8
3
  6
CONTINUOUS
 62
     0
 10
8450.4089901224306
 20
10319.60635370035
 30
0.0
 11
8450.4089901224306
 21
9569.6063537003538
 31
0.0
  0
INSERT
  5
8EA
  8
3
  6
CONTINUOUS
 62
     0
  2
_OPEN
 10
8450.4089901224306
 20
10379.60635370035
 30
0.0
 41
60.0
 42
60.0
 43
60.0
 50
90.0
  0
INSERT
  5
8EB
  8
3
  6
CONTINUOUS
 62
     0
  2
_OPEN
 10
8450.4089901224306
 20
9509.6063537003538
 30
0.0
 41
60.0
 42
60.0
 43
60.0
 50
270.0
  0
TEXT
  8
3
  40
90
  5
92C
  62
0
  72
0
  71
0
 10
8195.41
 20
9767.58
 30
0.000000
  1
870
  0
POINT
  5
8ED
  8
DEFPOINTS
  6
CONTINUOUS
 62
     0
 10
8013.542057779011
 20
10379.60635370035
 30
0.0
  0
POINT
  5
8EE
  8
DEFPOINTS
  6
CONTINUOUS
 62
     0
 10
8013.542057779011
 20
9509.6063537003538
 30
0.0
  0
POINT
  5
8EF
  8
DEFPOINTS
  6
CONTINUOUS
 62
     0
 10
8450.4089901224306
 20
9509.6063537003538
 30
0.0
  0
ENDBLK
  5
6D6
  8
0
  0
BLOCK
  8
0
  2
*D7
 70
     1
 10
0.0
 20
0.0
 30
0.0
  3
*D7
  1

  0
LINE
  5
8F0
  8
3
  6
CONTINUOUS
 62
     0
 10
9558.6839797790126
 20
7336.9829627003546
 30
0.0
 11
9558.6839797790126
 21
7062.3783647003547
 31
0.0
  0
LINE
  5
8F1
  8
3
  6
CONTINUOUS
 62
     0
 10
10398.683979779011
 20
7336.9829627003546
 30
0.0
 11
10398.683979779011
 21
7062.3783647003547
 31
0.0
  0
LINE
  5
8F2
  8
3
  6
CONTINUOUS
 62
     0
 10
9618.6839797790144
 20
7092.3783647003547
 30
0.0
 11
10338.683979779011
 21
7092.3783647003547
 31
0.0
  0
INSERT
  5
8F3
  8
3
  6
CONTINUOUS
 62
     0
  2
_OPEN
 10
9558.6839797790126
 20
7092.3783647003547
 30
0.0
 41
60.0
 42
60.0
 43
60.0
 50
180.0
  0
INSERT
  5
8F4
  8
3
  6
CONTINUOUS
 62
     0
  2
_OPEN
 10
10398.683979779011
 20
7092.3783647003547
 30
0.0
 41
60.0
 42
60.0
 43
60.0
  0
TEXT
  8
3
  40
90
  5
92D
  62
0
  72
0
  71
0
 10
9811.06
 20
7008.08
 30
0.000000
  1
840
  0
POINT
  5
8F6
  8
DEFPOINTS
  6
CONTINUOUS
 62
     0
 10
9558.6839797790126
 20
7351.9829627003537
 30
0.0
  0
POINT
  5
8F7
  8
DEFPOINTS
  6
CONTINUOUS
 62
     0
 10
10398.683979779011
 20
7351.9829627003537
 30
0.0
  0
POINT
  5
8F8
  8
DEFPOINTS
  6
CONTINUOUS
 62
     0
 10
10398.683979779011
 20
7092.3783647003547
 30
0.0
  0
ENDBLK
  5
609
  8
0
  0
BLOCK
  8
0
  2
*D8
 70
     1
 10
0.0
 20
0.0
 30
0.0
  3
*D8
  1

  0
LINE
  5
8F9
  8
3
  6
CONTINUOUS
 62
     0
 10
9798.6839797790126
 20
8016.9829627003546
 30
0.0
 11
9798.6839797790126
 21
8124.697694700355
 31
0.0
  0
LINE
  5
8FA
  8
3
  6
CONTINUOUS
 62
     0
 10
10158.683979779011
 20
8016.9829627003546
 30
0.0
 11
10158.683979779011
 21
8124.697694700355
 31
0.0
  0
LINE
  5
8FB
  8
3
  6
CONTINUOUS
 62
     0
 10
9738.6839797790126
 20
8094.697694700355
 30
0.0
 11
9678.6839797790126
 21
8094.697694700355
 31
0.0
  0
LINE
  5
8FC
  8
3
  6
CONTINUOUS
 62
     0
 10
10218.683979779011
 20
8094.697694700355
 30
0.0
 11
10278.683979779011
 21
8094.697694700355
 31
0.0
  0
LINE
  5
8FD
  8
3
  6
CONTINUOUS
 62
     0
 10
9798.6839797790126
 20
8094.697694700355
 30
0.0
 11
10158.683979779011
 21
8094.697694700355
 31
0.0
  0
INSERT
  5
8FE
  8
3
  6
CONTINUOUS
 62
     0
  2
_OPEN
 10
9798.6839797790126
 20
8094.697694700355
 30
0.0
 41
60.0
 42
60.0
 43
60.0
  0
INSERT
  5
8FF
  8
3
  6
CONTINUOUS
 62
     0
  2
_OPEN
 10
10158.683979779011
 20
8094.697694700355
 30
0.0
 41
60.0
 42
60.0
 43
60.0
 50
180.0
  0
TEXT
  8
3
  40
90
  5
92E
  62
0
  72
0
  71
0
 10
9798.68
 20
8010.40
 30
0.000000
  1
360
  0
POINT
  5
901
  8
DEFPOINTS
  6
CONTINUOUS
 62
     0
 10
9798.6839797790126
 20
8001.9829627003537
 30
0.0
  0
POINT
  5
902
  8
DEFPOINTS
  6
CONTINUOUS
 62
     0
 10
10158.683979779011
 20
8001.9829627003537
 30
0.0
  0
POINT
  5
903
  8
DEFPOINTS
  6
CONTINUOUS
 62
     0
 10
10158.683979779011
 20
8094.697694700355
 30
0.0
  0
ENDBLK
  5
5C2
  8
0
  0
BLOCK
  8
0
  2
*D9
 70
     1
 10
0.0
 20
0.0
 30
0.0
  3
*D9
  1

  0
LINE
  5
904
  8
3
  6
CONTINUOUS
 62
     0
 10
9783.6839797790126
 20
8001.9829627003537
 30
0.0
 11
9667.7962417790131
 21
8001.9829627003537
 31
0.0
  0
LINE
  5
905
  8
3
  6
CONTINUOUS
 62
     0
 10
9783.6839797790126
 20
7521.9829627003546
 30
0.0
 11
9667.7962417790131
 21
7521.9829627003546
 31
0.0
  0
LINE
  5
906
  8
3
  6
CONTINUOUS
 62
     0
 10
9697.7962417790131
 20
7941.9829627003546
 30
0.0
 11
9697.7962417790131
 21
7581.9829627003537
 31
0.0
  0
INSERT
  5
907
  8
3
  6
CONTINUOUS
 62
     0
  2
_OPEN
 10
9697.7962417790131
 20
8001.9829627003537
 30
0.0
 41
60.0
 42
60.0
 43
60.0
 50
90.0
  0
INSERT
  5
908
  8
3
  6
CONTINUOUS
 62
     0
  2
_OPEN
 10
9697.7962417790131
 20
7521.9829627003546
 30
0.0
 41
60.0
 42
60.0
 43
60.0
 50
270.0
  0
TEXT
  8
3
  40
90
  5
92F
  62
0
  72
0
  71
0
 10
9442.80
 20
7636.97
 30
0.000000
  1
480
  0
POINT
  5
90A
  8
DEFPOINTS
  6
CONTINUOUS
 62
     0
 10
9798.6839797790126
 20
8001.9829627003537
 30
0.0
  0
POINT
  5
90B
  8
DEFPOINTS
  6
CONTINUOUS
 62
     0
 10
9798.6839797790126
 20
7521.9829627003546
 30
0.0
  0
POINT
  5
90C
  8
DEFPOINTS
  6
CONTINUOUS
 62
     0
 10
9697.7962417790131
 20
7521.9829627003546
 30
0.0
  0
ENDBLK
  5
5CD
  8
0
  0
BLOCK
  8
0
  2
*D10
 70
     1
 10
0.0
 20
0.0
 30
0.0
  3
*D10
  1

  0
LINE
  5
90D
  8
3
  6
CONTINUOUS
 62
     0
 10
9543.6839797790126
 20
8235.7796244781312
 30
0.0
 11
9543.6839797790126
 21
8391.7369067003547
 31
0.0
  0
LINE
  5
90E
  8
3
  6
CONTINUOUS
 62
     0
 10
9978.6839797790126
 20
8264.0580727003562
 30
0.0
 11
9978.6839797790126
 21
8391.7369067003547
 31
0.0
  0
LINE
  5
90F
  8
3
  6
CONTINUOUS
 62
     0
 10
9603.6839797790126
 20
8361.7369067003565
 30
0.0
 11
9918.6839797790126
 21
8361.7369067003565
 31
0.0
  0
INSERT
  5
910
  8
3
  6
CONTINUOUS
 62
     0
  2
_OPEN
 10
9543.6839797790126
 20
8361.7369067003565
 30
0.0
 41
60.0
 42
60.0
 43
60.0
 50
180.0
  0
INSERT
  5
911
  8
3
  6
CONTINUOUS
 62
     0
  2
_OPEN
 10
9978.6839797790126
 20
8361.7369067003565
 30
0.0
 41
60.0
 42
60.0
 43
60.0
  0
TEXT
  8
3
  40
90
  5
930
  62
0
  72
0
  71
0
 10
9569.40
 20
8277.44
 30
0.000000
  1
435
  0
POINT
  5
913
  8
DEFPOINTS
  6
CONTINUOUS
 62
     0
 10
9543.6839797790126
 20
8220.779624478133
 30
0.0
  0
POINT
  5
914
  8
DEFPOINTS
  6
CONTINUOUS
 62
     0
 10
9978.6839797790126
 20
8249.0580727003544
 30
0.0
  0
POINT
  5
915
  8
DEFPOINTS
  6
CONTINUOUS
 62
     0
 10
9978.6839797790126
 20
8361.7369067003565
 30
0.0
  0
ENDBLK
  5
629
  8
0
  0
BLOCK
  8
0
  2
*D11
 70
     1
 10
0.0
 20
0.0
 30
0.0
  3
*D11
  1

  0
LINE
  5
916
  8
3
  6
CONTINUOUS
 62
     0
 10
10413.683979779011
 20
8236.9829627003564
 30
0.0
 11
10413.683979779011
 21
8391.7369067003547
 31
0.0
  0
LINE
  5
917
  8
3
  6
CONTINUOUS
 62
     0
 10
10038.683979779011
 20
8361.7369067003565
 30
0.0
 11
10353.683979779011
 21
8361.7369067003565
 31
0.0
  0
TEXT
  8
3
  40
90
  5
931
  62
0
  72
0
  71
0
 10
10030.9
 20
8277.44
 30
0.000000
  1
435
  0
INSERT
  5
919
  8
3
  6
CONTINUOUS
 62
     0
  2
_OPEN
 10
9978.6839797790126
 20
8361.7369067003565
 30
0.0
 41
60.0
 42
60.0
 43
60.0
 50
180.0
  0
INSERT
  5
91A
  8
3
  6
CONTINUOUS
 62
     0
  2
_OPEN
 10
10413.683979779011
 20
8361.7369067003565
 30
0.0
 41
60.0
 42
60.0
 43
60.0
  0
POINT
  5
91B
  8
DEFPOINTS
  6
CONTINUOUS
 62
     0
 10
9978.6839797790126
 20
8249.0580727003544
 30
0.0
  0
POINT
  5
91C
  8
DEFPOINTS
  6
CONTINUOUS
 62
     0
 10
10413.683979779011
 20
8221.9829627003546
 30
0.0
  0
POINT
  5
91D
  8
DEFPOINTS
  6
CONTINUOUS
 62
     0
 10
10413.683979779011
 20
8361.7369067003565
 30
0.0
  0
ENDBLK
  5
61E
  8
0
  0
BLOCK
  8
0
  2
*D12
 70
     1
 10
0.0
 20
0.0
 30
0.0
  3
*D12
  1

  0
LINE
  5
91E
  8
3
  6
CONTINUOUS
 62
     0
 10
6780.4825537790111
 20
7761.9829627003546
 30
0.0
 11
6640.3876489224704
 21
7761.9829627003546
 31
0.0
  0
LINE
  5
91F
  8
3
  6
CONTINUOUS
 62
     0
 10
6873.3206697790092
 20
7351.9829627003564
 30
0.0
 11
6640.3876489224704
 21
7351.9829627003564
 31
0.0
  0
LINE
  5
920
  8
3
  6
CONTINUOUS
 62
     0
 10
6670.3876489224704
 20
7701.9829627003546
 30
0.0
 11
6670.3876489224704
 21
7411.9829627003546
 31
0.0
  0
INSERT
  5
921
  8
3
  6
CONTINUOUS
 62
     0
  2
_OPEN
 10
6670.3876489224704
 20
7761.9829627003546
 30
0.0
 41
60.0
 42
60.0
 43
60.0
 50
90.0
  0
INSERT
  5
922
  8
3
  6
CONTINUOUS
 62
     0
  2
_OPEN
 10
6670.3876489224704
 20
7351.9829627003564
 30
0.0
 41
60.0
 42
60.0
 43
60.0
 50
270.0
  0
TEXT
  8
3
  40
90
  5
932
  62
0
  72
0
  71
0
 10
6415.39
 20
7397.68
 30
0.000000
  1
410
  0
POINT
  5
924
  8
DEFPOINTS
  6
CONTINUOUS
 62
     0
 10
6795.4825537790111
 20
7761.9829627003546
 30
0.0
  0
POINT
  5
925
  8
DEFPOINTS
  6
CONTINUOUS
 62
     0
 10
6888.3206697790101
 20
7351.9829627003564
 30
0.0
  0
POINT
  5
926
  8
DEFPOINTS
  6
CONTINUOUS
 62
     0
 10
6670.3876489224704
 20
7351.9829627003564
 30
0.0
  0
ENDBLK
  5
70F
  8
0
  0
ENDSEC
  0
SECTION
  2
ENTITIES
  0
ARC
  5
475
  8
1
  6
CONTINUOUS
 10
7645.3206697790101
 20
7931.9829627003537
 30
0.0
 40
203.69269700000001
 50
352.87498399999993
 51
85.601294999999979
  0
LINE
  5
476
  8
1
  6
CONTINUOUS
 10
8013.320669779011
 20
7598.5429627003541
 30
0.0
 11
7663.3206697790101
 21
7600.082962700355
 31
0.0
  0
LINE
  5
477
  8
1
  6
CONTINUOUS
 10
6983.320669779011
 20
8221.9829627003528
 30
0.0
 11
8013.320669779011
 21
8221.9829627003528
 31
0.0
  0
LINE
  5
478
  8
1
  6
CONTINUOUS
 10
8033.3206697790101
 20
7426.9829627003537
 30
0.0
 11
6963.3206697790101
 21
7426.9829627003537
 31
0.0
  0
LINE
  5
479
  8
1
  6
CONTINUOUS
 10
8043.3206697790101
 20
8031.9829627003564
 30
0.0
 11
8043.3206697790101
 21
7491.9829627003546
 31
0.0
  0
LINE
  5
47A
  8
1
  6
CONTINUOUS
 10
7913.3206697790101
 20
7913.9829627003546
 30
0.0
 11
7913.3206697790101
 21
7598.9829627003537
 31
0.0
  0
LINE
  5
47B
  8
1
  6
CONTINUOUS
 10
8013.320669779011
 20
8221.9829627003528
 30
0.0
 11
8013.320669779011
 21
7426.9829627003537
 31
0.0
  0
LINE
  5
47C
  8
1
  6
CONTINUOUS
 10
8013.320669779011
 20
7491.9829627003546
 30
0.0
 11
8043.3206697790101
 21
7491.9829627003546
 31
0.0
  0
LINE
  5
47D
  8
1
  6
CONTINUOUS
 10
7848.2164917790096
 20
7913.9829627003546
 30
0.0
 11
8013.320669779011
 21
7913.9829627003546
 31
0.0
  0
LINE
  5
47E
  8
1
  6
CONTINUOUS
 10
8013.320669779011
 20
8031.9829627003537
 30
0.0
 11
8043.3206697790101
 21
8031.9829627003537
 31
0.0
  0
LINE
  5
47F
  8
1
  6
CONTINUOUS
 10
6953.3206697790092
 20
8031.9829627003564
 30
0.0
 11
6953.3206697790101
 21
7491.9829627003546
 31
0.0
  0
ARC
  5
480
  8
1
  6
CONTINUOUS
 10
7688.8206697790092
 20
7888.4829627003546
 30
0.0
 40
289.52514600000001
 50
174.4724599999999
 51
264.947113
  0
LINE
  5
481
  8
1
  6
CONTINUOUS
 10
6983.3206697790101
 20
7426.9829627003537
 30
0.0
 11
6983.320669779011
 21
8221.9829627003528
 31
0.0
  0
LINE
  5
482
  8
1
  6
CONTINUOUS
 10
6983.3206697790101
 20
7491.9829627003546
 30
0.0
 11
6953.3206697790101
 21
7491.9829627003546
 31
0.0
  0
LINE
  5
483
  8
1
  6
CONTINUOUS
 10
6888.3206697790101
 20
7426.9829627003564
 30
0.0
 11
6963.3206697790101
 21
7426.9829627003537
 31
0.0
  0
LINE
  5
484
  8
1
  6
CONTINUOUS
 10
6888.3206697790101
 20
7351.9829627003537
 30
0.0
 11
6888.3206697790101
 21
7426.9829627003537
 31
0.0
  0
ARC
  5
485
  8
1
  6
CONTINUOUS
 10
7642.3206697790101
 20
7892.9829627003537
 30
0.0
 40
242.80791099999999
 50
85.601294999999979
 51
174.4724599999999
  0
LINE
  5
486
  8
1
  6
CONTINUOUS
 10
6983.3206697790101
 20
8031.9829627003537
 30
0.0
 11
6953.3206697790101
 21
8031.9829627003537
 31
0.0
  0
LINE
  5
487
  8
1
  6
CONTINUOUS
 10
8098.3206697790101
 20
7351.9829627003537
 30
0.0
 11
6888.3206697790101
 21
7351.9829627003564
 31
0.0
  0
LINE
  5
488
  8
1
  6
CONTINUOUS
 10
8033.3206697790101
 20
7426.9829627003537
 30
0.0
 11
8098.320669779011
 21
7426.9829627003537
 31
0.0
  0
LINE
  5
489
  8
1
  6
CONTINUOUS
 10
8098.320669779011
 20
7426.9829627003537
 30
0.0
 11
8098.320669779011
 21
7351.9829627003537
 31
0.0
  0
LINE
  5
48A
  8
1
  6
CONTINUOUS
 10
6983.542057779011
 20
9509.6063537003556
 30
0.0
 11
8013.542057779011
 21
9509.6063537003556
 31
0.0
  0
LINE
  5
48B
  8
1
  6
CONTINUOUS
 10
8013.5420577790119
 20
10379.60635370035
 30
0.0
 11
6983.542057779011
 21
10379.60635370035
 31
0.0
  0
LINE
  5
48C
  8
1
  6
CONTINUOUS
 10
6953.5420577790137
 20
10154.60635370035
 30
0.0
 11
6953.5420577790101
 21
9734.6063537003556
 31
0.0
  0
LINE
  5
48D
  8
1
  6
CONTINUOUS
 10
6983.542057779011
 20
10379.60635370035
 30
0.0
 11
6983.542057779011
 21
9509.6063537003538
 31
0.0
  0
LINE
  5
48E
  8
1
  6
CONTINUOUS
 10
6893.5420577790119
 20
9564.6063537003538
 30
0.0
 11
6893.5420577790119
 21
9524.6063537003538
 31
0.0
  0
LINE
  5
48F
  8
1
  6
CONTINUOUS
 10
6893.5420577790119
 20
9564.6063537003538
 30
0.0
 11
6983.542057779011
 21
9564.6063537003538
 31
0.0
  0
LINE
  5
490
  8
1
  6
CONTINUOUS
 10
6893.5420577790119
 20
9524.6063537003538
 30
0.0
 11
6983.542057779011
 21
9524.606353700352
 31
0.0
  0
LINE
  5
491
  8
1
  6
CONTINUOUS
 10
6953.5420577790101
 20
9734.6063537003556
 30
0.0
 11
6983.542057779011
 21
9734.6063537003556
 31
0.0
  0
LINE
  5
492
  8
1
  6
CONTINUOUS
 10
6953.5420577790101
 20
10154.60635370035
 30
0.0
 11
6983.542057779011
 21
10154.60635370035
 31
0.0
  0
LINE
  5
493
  8
1
  6
CONTINUOUS
 10
6893.5420577790119
 20
10324.60635370035
 30
0.0
 11
6983.542057779011
 21
10324.60635370035
 31
0.0
  0
LINE
  5
494
  8
1
  6
CONTINUOUS
 10
6893.5420577790119
 20
10364.60635370035
 30
0.0
 11
6983.5420577790128
 21
10364.60635370035
 31
0.0
  0
LINE
  5
495
  8
1
  6
CONTINUOUS
 10
6893.5420577790119
 20
10364.60635370035
 30
0.0
 11
6893.5420577790119
 21
10324.60635370035
 31
0.0
  0
LINE
  5
496
  8
1
  6
CONTINUOUS
 10
8043.5420577790119
 20
10154.60635370035
 30
0.0
 11
8043.5420577790119
 21
9734.6063537003556
 31
0.0
  0
LINE
  5
497
  8
1
  6
CONTINUOUS
 10
8013.542057779011
 20
9509.6063537003538
 30
0.0
 11
8013.542057779011
 21
10379.60635370035
 31
0.0
  0
LINE
  5
498
  8
1
  6
CONTINUOUS
 10
8103.5420577790119
 20
9524.6063537003538
 30
0.0
 11
8013.542057779011
 21
9524.6063537003502
 31
0.0
  0
LINE
  5
499
  8
1
  6
CONTINUOUS
 10
8103.5420577790119
 20
9564.6063537003538
 30
0.0
 11
8013.542057779011
 21
9564.6063537003502
 31
0.0
  0
LINE
  5
49A
  8
1
  6
CONTINUOUS
 10
8103.5420577790119
 20
9564.6063537003538
 30
0.0
 11
8103.5420577790119
 21
9524.6063537003538
 31
0.0
  0
LINE
  5
49B
  8
1
  6
CONTINUOUS
 10
8043.5420577790119
 20
9734.6063537003556
 30
0.0
 11
8013.542057779011
 21
9734.6063537003556
 31
0.0
  0
LINE
  5
49C
  8
1
  6
CONTINUOUS
 10
8043.5420577790119
 20
10154.60635370035
 30
0.0
 11
8013.542057779011
 21
10154.60635370035
 31
0.0
  0
LINE
  5
49D
  8
1
  6
CONTINUOUS
 10
8103.5420577790119
 20
10364.60635370035
 30
0.0
 11
8013.5420577790119
 21
10364.606353700339
 31
0.0
  0
LINE
  5
49E
  8
1
  6
CONTINUOUS
 10
8103.5420577790119
 20
10324.60635370035
 30
0.0
 11
8013.542057779011
 21
10324.606353700339
 31
0.0
  0
LINE
  5
49F
  8
1
  6
CONTINUOUS
 10
8103.5420577790119
 20
10364.60635370035
 30
0.0
 11
8103.5420577790119
 21
10324.60635370035
 31
0.0
  0
LINE
  5
4A0
  8
1
  6
CONTINUOUS
 10
10413.683979779011
 20
8221.9829627003546
 30
0.0
 11
9543.6839797790126
 21
8221.9829627003546
 31
0.0
  0
LINE
  5
4A1
  8
1
  6
CONTINUOUS
 10
10413.683979779011
 20
7426.9829627003537
 30
0.0
 11
9543.6839797790126
 21
7426.9829627003537
 31
0.0
  0
LINE
  5
4A2
  8
1
  6
CONTINUOUS
 10
9558.6839797790126
 20
7351.9829627003537
 30
0.0
 11
10398.683979779011
 21
7351.9829627003537
 31
0.0
  0
LINE
  5
4A3
  8
1
  6
CONTINUOUS
 10
9798.6839797790126
 20
8001.9829627003537
 30
0.0
 11
10158.683979779011
 21
7521.9829627003546
 31
0.0
  0
LINE
  5
4A4
  8
1
  6
CONTINUOUS
 10
9798.6839797790126
 20
7521.9829627003546
 30
0.0
 11
10158.683979779011
 21
8001.9829627003537
 31
0.0
  0
LINE
  5
4A5
  8
1
  6
CONTINUOUS
 10
9543.6839797790126
 20
8221.9829627003546
 30
0.0
 11
9543.6839797790126
 21
7426.9829627003537
 31
0.0
  0
POLYLINE
  5
4A6
  8
1
  6
CONTINUOUS
 66
     1
 10
0.0
 20
0.0
 30
0.0
 70
     1
  0
VERTEX
  5
8AE
  8
1
  6
CONTINUOUS
 10
9768.6839797790126
 20
7491.9829627003546
 30
0.0
  0
VERTEX
  5
8AF
  8
1
  6
CONTINUOUS
 10
10188.683979779011
 20
7491.9829627003546
 30
0.0
  0
VERTEX
  5
8B0
  8
1
  6
CONTINUOUS
 10
10188.683979779011
 20
8031.9829627003537
 30
0.0
  0
VERTEX
  5
8B1
  8
1
  6
CONTINUOUS
 10
9768.6839797790126
 20
8031.9829627003537
 30
0.0
  0
SEQEND
  5
8B2
  8
1
  6
CONTINUOUS
  0
POLYLINE
  5
4AC
  8
1
  6
CONTINUOUS
 66
     1
 10
0.0
 20
0.0
 30
0.0
 70
     1
  0
VERTEX
  5
8B3
  8
1
  6
CONTINUOUS
 10
9798.6839797790126
 20
7521.9829627003546
 30
0.0
  0
VERTEX
  5
8B4
  8
1
  6
CONTINUOUS
 10
10158.683979779011
 20
7521.9829627003546
 30
0.0
  0
VERTEX
  5
8B5
  8
1
  6
CONTINUOUS
 10
10158.683979779011
 20
8001.9829627003537
 30
0.0
  0
VERTEX
  5
8B6
  8
1
  6
CONTINUOUS
 10
9798.6839797790126
 20
8001.9829627003537
 30
0.0
  0
SEQEND
  5
8B7
  8
1
  6
CONTINUOUS
  0
LINE
  5
4B3
  8
1
  6
CONTINUOUS
 10
9558.6839797790126
 20
7426.9829627003537
 30
0.0
 11
9558.6839797790126
 21
7351.9829627003537
 31
0.0
  0
LINE
  5
4B4
  8
1
  6
CONTINUOUS
 10
9782.4928057790148
 20
7351.9829627003537
 30
0.0
 11
9712.5056247790126
 21
7351.9829627003537
 31
0.0
  0
LINE
  5
4B5
  8
1
  6
CONTINUOUS
 10
10413.683979779011
 20
7426.9829627003537
 30
0.0
 11
10413.683979779011
 21
8221.9829627003546
 31
0.0
  0
LINE
  5
4B7
  8
1
  6
CONTINUOUS
 10
10398.683979779011
 20
7351.9829627003537
 30
0.0
 11
10398.683979779011
 21
7426.9829627003537
 31
0.0
  0
LINE
  5
4B8
  8
2
  6
CENTER
 10
8171.3549647790114
 20
7761.9829627003546
 30
0.0
 11
6795.4825537790111
 21
7761.9829627003546
 31
0.0
  0
LINE
  5
4B9
  8
2
  6
CENTER
 10
6771.8606157790109
 20
9944.6063537003538
 30
0.0
 11
8235.1124637790126
 21
9944.6063537003538
 31
0.0
  0
DIMENSION
  5
4BA
  8
3
  6
CONTINUOUS
  2
*D1
 10
6888.3206697790101
 20
7125.5962017003549
 30
0.0
 11
7502.5389127790104
 21
7125.5962017003549
 31
0.0
 70
   128
 13
8098.3206697790101
 23
7351.9829627003537
 33
0.0
 14
6888.3206697790101
 24
7351.9829627003564
 34
0.0
1001
ACAD
1000
DSTYLE
1002
{
1070
   287
1070
     3
1070
   287
1070
     3
1070
   287
1070
     3
1070
    40
1040
30.0
1070
   143
1040
0.039
1070
   172
1070
     1
1070
   271
1070
     0
1070
   279
1070
     0
1070
   288
1070
     1
1002
}
  0
DIMENSION
  5
4BB
  8
3
  6
CONTINUOUS
  2
*D2
 10
8200.4030637790111
 20
7351.9829627003537
 30
0.0
 11
8200.4030637790092
 21
7549.1258198432124
 31
0.0
 70
   128
 13
8171.3549647790114
 23
7761.9829627003546
 33
0.0
 14
8098.320669779011
 24
7351.9829627003537
 34
0.0
 50
270.0
1001
ACAD
1000
DSTYLE
1002
{
1070
   287
1070
     3
1070
   287
1070
     3
1070
   287
1070
     3
1070
    40
1040
30.0
1070
   143
1040
0.039
1070
   172
1070
     1
1070
   271
1070
     0
1070
   279
1070
     0
1070
   288
1070
     1
1002
}
  0
DIMENSION
  5
4BC
  8
3
  6
CONTINUOUS
  2
*D3
 10
8381.7378497790123
 20
7351.9829627003537
 30
0.0
 11
8381.7378497790105
 21
7743.2839867003549
 31
0.0
 70
   128
 13
8013.320669779011
 23
8221.9829627003528
 33
0.0
 14
8098.320669779011
 24
7351.9829627003537
 34
0.0
 50
270.0
1001
ACAD
1000
DSTYLE
1002
{
1070
   287
1070
     3
1070
   287
1070
     3
1070
   287
1070
     3
1070
    40
1040
30.0
1070
   143
1040
0.039
1070
   172
1070
     1
1070
   271
1070
     0
1070
   279
1070
     0
1070
   288
1070
     1
1002
}
  0
DIMENSION
  5
4BD
  8
3
  6
CONTINUOUS
  2
*D4
 10
6983.320669779011
 20
8372.4434477003524
 30
0.0
 11
7532.7613777790102
 21
8372.4434477003524
 31
0.0
 70
   128
 13
8013.320669779011
 23
8221.9829627003528
 33
0.0
 14
6983.320669779011
 24
8221.9829627003528
 34
0.0
1001
ACAD
1000
DSTYLE
1002
{
1070
   287
1070
     3
1070
   287
1070
     3
1070
   287
1070
     3
1070
    40
1040
30.0
1070
   143
1040
0.039
1070
   172
1070
     1
1070
   271
1070
     0
1070
   279
1070
     0
1070
   288
1070
     1
1002
}
  0
DIMENSION
  5
4BE
  8
3
  6
CONTINUOUS
  2
*D5
 10
8013.542057779011
 20
9252.6789487003552
 30
0.0
 11
7524.3248907790121
 21
9252.6789487003552
 31
0.0
 70
   128
 13
6983.542057779011
 23
9509.6063537003556
 33
0.0
 14
8013.542057779011
 24
9509.6063537003556
 34
0.0
1001
ACAD
1000
DSTYLE
1002
{
1070
   287
1070
     3
1070
   287
1070
     3
1070
   287
1070
     3
1070
    40
1040
30.0
1070
   143
1040
0.039
1070
   172
1070
     1
1070
   271
1070
     0
1070
   279
1070
     0
1070
   288
1070
     1
1002
}
  0
DIMENSION
  5
4BF
  8
3
  6
CONTINUOUS
  2
*D6
 10
8450.4089901224306
 20
9509.6063537003538
 30
0.0
 11
8450.4089901224288
 21
9926.8789597003561
 31
0.0
 70
   128
 13
8013.542057779011
 23
10379.60635370035
 33
0.0
 14
8013.542057779011
 24
9509.6063537003538
 34
0.0
 50
90.0
1001
ACAD
1000
DSTYLE
1002
{
1070
   287
1070
     3
1070
   287
1070
     3
1070
   287
1070
     3
1070
    40
1040
30.0
1070
   143
1040
0.039
1070
   172
1070
     1
1070
   271
1070
     0
1070
   279
1070
     0
1070
   288
1070
     1
1002
}
  0
LINE
  5
4C0
  8
2
  6
CENTER
 10
9978.6839797790126
 20
8254.0580727003544
 30
0.0
 11
9978.6839797790126
 21
8240.3584408544812
 31
0.0
  0
DIMENSION
  5
4C1
  8
3
  6
CONTINUOUS
  2
*D7
 10
10398.683979779011
 20
7092.3783647003547
 30
0.0
 11
9991.0609237790122
 21
7092.3783647003547
 31
0.0
 70
   128
 13
9558.6839797790126
 23
7351.9829627003537
 33
0.0
 14
10398.683979779011
 24
7351.9829627003537
 34
0.0
1001
ACAD
1000
DSTYLE
1002
{
1070
   287
1070
     3
1070
   287
1070
     3
1070
   287
1070
     3
1070
    40
1040
30.0
1070
   143
1040
0.039
1070
   172
1070
     1
1070
   271
1070
     0
1070
   279
1070
     0
1070
   288
1070
     1
1002
}
  0
DIMENSION
  5
4C2
  8
3
  6
CONTINUOUS
  2
*D8
 10
10158.683979779011
 20
8094.697694700355
 30
0.0
 11
9978.6839797790126
 21
8094.697694700355
 31
0.0
 70
   128
 13
9798.6839797790126
 23
8001.9829627003537
 33
0.0
 14
10158.683979779011
 24
8001.9829627003537
 34
0.0
1001
ACAD
1000
DSTYLE
1002
{
1070
   287
1070
     3
1070
   287
1070
     3
1070
   287
1070
     3
1070
    40
1040
30.0
1070
   143
1040
0.039
1070
   172
1070
     1
1070
   271
1070
     0
1070
   279
1070
     0
1070
   288
1070
     1
1002
}
  0
DIMENSION
  5
4C3
  8
3
  6
CONTINUOUS
  2
*D9
 10
9697.7962417790131
 20
7521.9829627003546
 30
0.0
 11
9697.7962417790113
 21
7796.2686769860702
 31
0.0
 70
   128
 13
9798.6839797790126
 23
8001.9829627003537
 33
0.0
 14
9798.6839797790126
 24
7521.9829627003546
 34
0.0
 50
90.0
1001
ACAD
1000
DSTYLE
1002
{
1070
   287
1070
     3
1070
   287
1070
     3
1070
   287
1070
     3
1070
    40
1040
30.0
1070
   143
1040
0.039
1070
   172
1070
     1
1070
   271
1070
     0
1070
   279
1070
     0
1070
   288
1070
     1
1002
}
  0
DIMENSION
  5
4C4
  8
3
  6
CONTINUOUS
  2
*D10
 10
9978.6839797790126
 20
8361.7369067003565
 30
0.0
 11
9749.3982654932988
 21
8361.7369067003565
 31
0.0
 70
   128
 13
9543.6839797790126
 23
8220.779624478133
 33
0.0
 14
9978.6839797790126
 24
8249.0580727003544
 34
0.0
1001
ACAD
1000
DSTYLE
1002
{
1070
   287
1070
     3
1070
   287
1070
     3
1070
   287
1070
     3
1070
    40
1040
30.0
1070
   143
1040
0.039
1070
   172
1070
     1
1070
   271
1070
     0
1070
   279
1070
     0
1070
   288
1070
     1
1002
}
  0
DIMENSION
  5
4C5
  8
3
  6
CONTINUOUS
  2
*D11
 10
10413.683979779011
 20
8361.7369067003565
 30
0.0
 11
10210.86062377901
 21
8361.7369067003565
 31
0.0
 70
   128
 13
9978.6839797790126
 23
8249.0580727003544
 33
0.0
 14
10413.683979779011
 24
8221.9829627003546
 34
0.0
1001
ACAD
1000
DSTYLE
1002
{
1070
   287
1070
     4
1070
   287
1070
     4
1070
   287
1070
     4
1070
    40
1040
30.0
1070
    75
1070
     1
1070
   143
1040
0.039
1070
   172
1070
     1
1070
   271
1070
     0
1070
   279
1070
     1
1070
   288
1070
     1
1002
}
  0
LINE
  5
4C6
  8
4
  6
CONTINUOUS
 10
11059.32446277901
 20
5842.4255827003553
 30
0.0
 11
11059.32446277901
 21
5242.4255827003553
 31
0.0
  0
LINE
  5
4C7
  8
4
  6
CONTINUOUS
 10
8959.3244627790118
 20
5842.4255827003553
 30
0.0
 11
8959.3244627790118
 21
5242.4255827003553
 31
0.0
  0
LINE
  5
4C8
  8
4
  6
CONTINUOUS
 10
7459.3244627790118
 20
5842.4255827003553
 30
0.0
 11
7459.3244627790118
 21
5242.4255827003553
 31
0.0
  0
LINE
  5
4CB
  8
4
  6
CONTINUOUS
 10
7459.3244627790118
 20
5242.4255827003553
 30
0.0
 11
11059.32446277901
 21
5242.4255827003553
 31
0.0
  0
LINE
  5
4CC
  8
4
  6
CONTINUOUS
 10
7459.3244627790118
 20
5542.4255827003553
 30
0.0
 11
11059.32446277901
 21
5542.4255827003553
 31
0.0
  0
TEXT
  5
4CD
  8
4
  6
CONTINUOUS
 10
7574.8307057790107
 20
5637.0546607003544
 30
0.0
 40
150.0
  1
機器名称
  0
TEXT
  5
4CE
  8
4
  6
CONTINUOUS
 10
7568.0987807790116
 20
5307.3610527003548
 30
0.0
 40
150.0
  1
機器型番
  0
TEXT
  5
4CF
  8
4
  6
CONTINUOUS
 10
9042.3606987790117
 20
5610.1408897003548
 30
0.0
 40
150.0
  1
ミツヤファンユニット
  0
TEXT
  5
4D0
  8
4
  6
CONTINUOUS
 10
9069.2879497790109
 20
5293.9043357003547
 30
0.0
 40
150.0
  1
MFU#2001-1
  0
TEXT
  5
4D2
  8
4
  6
CONTINUOUS
 10
7582.361795779012
 20
11492.71210670035
 30
0.0
 40
150.0
  1
天井吊ベット・床置ベット
  0
TEXT
  5
4D3
  8
4
  6
CONTINUOUS
 10
6457.8272427790107
 20
11944.06851170035
 30
0.0
 40
190.0
  1
ベルト駆動式消音ボックス付き多翼ファン
  0
LINE
  5
4D4
  8
4
  6
CONTINUOUS
 10
6259.3244627790118
 20
11750.651845700349
 30
0.0
 11
11059.32446277901
 21
11750.651845700349
 31
0.0
  0
LINE
  5
4D5
  8
4
  6
CONTINUOUS
 10
6259.3244627790118
 20
12350.651845700349
 30
0.0
 11
11059.32446277901
 21
12350.651845700349
 31
0.0
  0
LINE
  5
4D6
  8
4
  6
CONTINUOUS
 10
7459.3244627790118
 20
5842.4255827003553
 30
0.0
 11
11059.32446277901
 21
5842.4255827003553
 31
0.0
  0
LINE
  5
4D7
  8
4
  6
CONTINUOUS
 10
6259.3244627790118
 20
12350.651845700349
 30
0.0
 11
6259.3244627790118
 21
11750.651845700349
 31
0.0
  0
TEXT
  5
4D8
  8
4
  6
CONTINUOUS
 10
6413.449078779011
 20
11489.384015700351
 30
0.0
 40
150.0
  1
左回転右吐出
  0
TEXT
  5
4D9
  8
4
  6
CONTINUOUS
 10
9916.2331407790134
 20
12460.608826700351
 30
0.0
 40
168.0
  1
No.
  0
TEXT
  5
4DA
  8
4
  6
CONTINUOUS
 10
9928.5358437790146
 20
11492.71210670035
 30
0.0
 40
150.0
  1
縮尺：1/30
  0
LINE
  5
4DB
  8
4
  6
CONTINUOUS
 10
11059.32446277901
 20
12350.651845700349
 30
0.0
 11
11059.32446277901
 21
11750.651845700349
 31
0.0
  0
LINE
  5
4DC
  8
4
  6
CONTINUOUS
 10
9831.1767297790138
 20
12386.216331700351
 30
0.0
 11
9831.1767297790138
 21
12702.382367700349
 31
0.0
  0
LINE
  5
4DD
  8
4
  6
CONTINUOUS
 10
9831.1767297790138
 20
12702.382367700349
 30
0.0
 11
11059.32446277901
 21
12702.382367700349
 31
0.0
  0
LINE
  5
4DE
  8
4
  6
CONTINUOUS
 10
11059.32446277901
 20
12702.382367700349
 30
0.0
 11
11059.32446277901
 21
12386.216331700351
 31
0.0
  0
LINE
  5
4DF
  8
4
  6
CONTINUOUS
 10
11059.32446277901
 20
12386.216331700351
 30
0.0
 11
9831.1767297790138
 21
12386.216331700351
 31
0.0
  0
DIMENSION
  5
690
  8
3
  6
CONTINUOUS
  2
*D12
 10
6670.3876489224704
 20
7351.9829627003564
 30
0.0
 11
6595.3876489224676
 21
7556.9829627003573
 31
0.0
 70
     0
 13
6795.4825537790111
 23
7761.9829627003546
 33
0.0
 14
6888.3206697790101
 24
7351.9829627003564
 34
0.0
 50
270.0
1001
ACAD
1000
DSTYLE
1002
{
1070
   287
1070
     3
1070
   287
1070
     3
1070
   287
1070
     3
1070
    40
1040
30.0
1070
   143
1040
0.039
1070
   172
1070
     1
1070
   271
1070
     0
1070
   279
1070
     0
1070
   288
1070
     1
1002
}
  0
LINE
  5
7D8
  8
2
  6
CENTER
 10
9978.6839797790126
 20
8071.669610124809
 30
0.0
 11
9978.6839797790126
 21
7312.2751957003547
 31
0.0
  0
ENDSEC
  0
EOF
