  0
SECTION
  2
HEADER
  9
$ACADVER
  1
AC1015
  9
$ACADMAINTVER
 70
     6
  9
$DWGCODEPAGE
  3
ANSI_932
  9
$INSBASE
 10
0.0
 20
0.0
 30
0.0
  9
$EXTMIN
 10
6259.324462779012
 20
5242.425582700355
 30
0.0
  9
$EXTMAX
 10
11059.32446277901
 20
12702.38236770035
 30
0.0
  9
$LIMMIN
 10
0.0
 20
0.0
  9
$LIMMAX
 10
297.0
 20
210.0
  9
$ORTHOMODE
 70
     1
  9
$REGENMODE
 70
     1
  9
$FILLMODE
 70
     1
  9
$QTEXTMODE
 70
     0
  9
$MIRRTEXT
 70
     0
  9
$LTSCALE
 40
5.0
  9
$ATTMODE
 70
     1
  9
$TEXTSIZE
 40
52.5
  9
$TRACEWID
 40
0.05
  9
$TEXTSTYLE
  7
STANDARD
  9
$CLAYER
  8
3
  9
$CELTYPE
  6
BYLAYER
  9
$CECOLOR
 62
   256
  9
$CELTSCALE
 40
10.0
  9
$DISPSILH
 70
     0
  9
$DIMSCALE
 40
30.0
  9
$DIMASZ
 40
2.0
  9
$DIMEXO
 40
1.0
  9
$DIMDLI
 40
10.0
  9
$DIMRND
 40
0.0
  9
$DIMDLE
 40
0.0
  9
$DIMEXE
 40
1.0
  9
$DIMTP
 40
0.0
  9
$DIMTM
 40
0.0
  9
$DIMTXT
 40
3.0
  9
$DIMCEN
 40
0.0
  9
$DIMTSZ
 40
0.0
  9
$DIMTOL
 70
     0
  9
$DIMLIM
 70
     0
  9
$DIMTIH
 70
     0
  9
$DIMTOH
 70
     0
  9
$DIMSE1
 70
     0
  9
$DIMSE2
 70
     0
  9
$DIMTAD
 70
     1
  9
$DIMZIN
 70
     8
  9
$DIMBLK
  1

  9
$DIMASO
 70
     1
  9
$DIMSHO
 70
     1
  9
$DIMPOST
  1

  9
$DIMAPOST
  1

  9
$DIMALT
 70
     0
  9
$DIMALTD
 70
     2
  9
$DIMALTF
 40
0.03937
  9
$DIMLFAC
 40
1.0
  9
$DIMTOFL
 70
     1
  9
$DIMTVP
 40
0.0
  9
$DIMTIX
 70
     0
  9
$DIMSOXD
 70
     0
  9
$DIMSAH
 70
     1
  9
$DIMBLK1
  1
OPEN
  9
$DIMBLK2
  1
OPEN
  9
$DIMSTYLE
  2
MATSU
  9
$DIMCLRD
 70
   256
  9
$DIMCLRE
 70
   256
  9
$DIMCLRT
 70
   256
  9
$DIMTFAC
 40
1.0
  9
$DIMGAP
 40
0.5
  9
$DIMJUST
 70
     0
  9
$DIMSD1
 70
     0
  9
$DIMSD2
 70
     0
  9
$DIMTOLJ
 70
     1
  9
$DIMTZIN
 70
     8
  9
$DIMALTZ
 70
     0
  9
$DIMALTTZ
 70
     0
  9
$DIMUPT
 70
     0
  9
$DIMDEC
 70
     4
  9
$DIMTDEC
 70
     4
  9
$DIMALTU
 70
     2
  9
$DIMALTTD
 70
     2
  9
$DIMTXSTY
  7
SUNPOU
  9
$DIMAUNIT
 70
     0
  9
$DIMADEC
 70
     0
  9
$DIMALTRND
 40
0.0
  9
$DIMAZIN
 70
     0
  9
$DIMDSEP
 70
    46
  9
$DIMATFIT
 70
     3
  9
$DIMFRAC
 70
     0
  9
$DIMLDRBLK
  1
OPEN
  9
$DIMLUNIT
 70
     2
  9
$DIMLWD
 70
    -2
  9
$DIMLWE
 70
    -2
  9
$DIMTMOVE
 70
     0
  9
$LUNITS
 70
     2
  9
$LUPREC
 70
     3
  9
$SKETCHINC
 40
0.1
  9
$FILLETRAD
 40
5.0
  9
$AUNITS
 70
     0
  9
$AUPREC
 70
     2
  9
$MENU
  1
acad
  9
$ELEVATION
 40
0.0
  9
$PELEVATION
 40
0.0
  9
$THICKNESS
 40
0.0
  9
$LIMCHECK
 70
     0
  9
$CHAMFERA
 40
0.0
  9
$CHAMFERB
 40
0.0
  9
$CHAMFERC
 40
20.0
  9
$CHAMFERD
 40
0.0
  9
$SKPOLY
 70
     0
  9
$TDCREATE
 40
2451997.409219675
  9
$TDUCREATE
 40
2451997.034219675
  9
$TDUPDATE
 40
2456463.653800937
  9
$TDUUPDATE
 40
2456463.278800937
  9
$TDINDWG
 40
0.0496746759
  9
$TDUSRTIMER
 40
0.0496746759
  9
$USRTIMER
 70
     1
  9
$ANGBASE
 50
0.0
  9
$ANGDIR
 70
     0
  9
$PDMODE
 70
     0
  9
$PDSIZE
 40
1.0
  9
$PLINEWID
 40
0.0
  9
$SPLFRAME
 70
     0
  9
$SPLINETYPE
 70
     6
  9
$SPLINESEGS
 70
     8
  9
$HANDSEED
  5
90A
  9
$SURFTAB1
 70
     6
  9
$SURFTAB2
 70
     6
  9
$SURFTYPE
 70
     6
  9
$SURFU
 70
     6
  9
$SURFV
 70
     6
  9
$UCSBASE
  2

  9
$UCSNAME
  2

  9
$UCSORG
 10
0.0
 20
0.0
 30
0.0
  9
$UCSXDIR
 10
1.0
 20
0.0
 30
0.0
  9
$UCSYDIR
 10
0.0
 20
1.0
 30
0.0
  9
$UCSORTHOREF
  2

  9
$UCSORTHOVIEW
 70
     0
  9
$UCSORGTOP
 10
0.0
 20
0.0
 30
0.0
  9
$UCSORGBOTTOM
 10
0.0
 20
0.0
 30
0.0
  9
$UCSORGLEFT
 10
0.0
 20
0.0
 30
0.0
  9
$UCSORGRIGHT
 10
0.0
 20
0.0
 30
0.0
  9
$UCSORGFRONT
 10
0.0
 20
0.0
 30
0.0
  9
$UCSORGBACK
 10
0.0
 20
0.0
 30
0.0
  9
$PUCSBASE
  2

  9
$PUCSNAME
  2

  9
$PUCSORG
 10
0.0
 20
0.0
 30
0.0
  9
$PUCSXDIR
 10
1.0
 20
0.0
 30
0.0
  9
$PUCSYDIR
 10
0.0
 20
1.0
 30
0.0
  9
$PUCSORTHOREF
  2

  9
$PUCSORTHOVIEW
 70
     0
  9
$PUCSORGTOP
 10
0.0
 20
0.0
 30
0.0
  9
$PUCSORGBOTTOM
 10
0.0
 20
0.0
 30
0.0
  9
$PUCSORGLEFT
 10
0.0
 20
0.0
 30
0.0
  9
$PUCSORGRIGHT
 10
0.0
 20
0.0
 30
0.0
  9
$PUCSORGFRONT
 10
0.0
 20
0.0
 30
0.0
  9
$PUCSORGBACK
 10
0.0
 20
0.0
 30
0.0
  9
$USERI1
 70
     0
  9
$USERI2
 70
     0
  9
$USERI3
 70
     0
  9
$USERI4
 70
     0
  9
$USERI5
 70
     0
  9
$USERR1
 40
0.0
  9
$USERR2
 40
0.0
  9
$USERR3
 40
0.0
  9
$USERR4
 40
0.0
  9
$USERR5
 40
0.0
  9
$WORLDVIEW
 70
     1
  9
$SHADEDGE
 70
     3
  9
$SHADEDIF
 70
    70
  9
$TILEMODE
 70
     1
  9
$MAXACTVP
 70
    16
  9
$PINSBASE
 10
0.0
 20
0.0
 30
0.0
  9
$PLIMCHECK
 70
     0
  9
$PEXTMIN
 10
1.000000000000000E+20
 20
1.000000000000000E+20
 30
1.000000000000000E+20
  9
$PEXTMAX
 10
-1.000000000000000E+20
 20
-1.000000000000000E+20
 30
-1.000000000000000E+20
  9
$PLIMMIN
 10
0.0
 20
0.0
  9
$PLIMMAX
 10
12.0
 20
9.0
  9
$UNITMODE
 70
     0
  9
$VISRETAIN
 70
     0
  9
$PLINEGEN
 70
     0
  9
$PSLTSCALE
 70
     0
  9
$TREEDEPTH
 70
  3020
  9
$CMLSTYLE
  2
STANDARD
  9
$CMLJUST
 70
     0
  9
$CMLSCALE
 40
20.0
  9
$PROXYGRAPHICS
 70
     1
  9
$MEASUREMENT
 70
     1
  9
$CELWEIGHT
370
    -1
  9
$ENDCAPS
280
     0
  9
$JOINSTYLE
280
     0
  9
$LWDISPLAY
290
     0
  9
$INSUNITS
 70
     0
  9
$HYPERLINKBASE
  1

  9
$STYLESHEET
  1

  9
$XEDIT
290
     1
  9
$CEPSNTYPE
380
     0
  9
$PSTYLEMODE
290
     1
  9
$FINGERPRINTGUID
  2
{A276ECCF-75B9-11D5-A85E-0080AD788799}
  9
$VERSIONGUID
  2
{297241BA-7AB1-4C14-9755-41081E40E570}
  9
$EXTNAMES
290
     1
  9
$PSVPSCALE
 40
0.0
  9
$OLESTARTUP
290
     0
  0
ENDSEC
  0
SECTION
  2
CLASSES
  0
CLASS
  1
XRECORD
  2
AcDbXrecord
  3
AutoCAD 2000
 90
    32768
280
     0
281
     0
  0
CLASS
  1
ACDBDICTIONARYWDFLT
  2
AcDbDictionaryWithDefault
  3
AutoCAD 2000
 90
        0
280
     0
281
     0
  0
CLASS
  1
ACDBPLACEHOLDER
  2
AcDbPlaceHolder
  3
AutoCAD 2000
 90
        0
280
     0
281
     0
  0
CLASS
  1
LAYOUT
  2
AcDbLayout
  3
AutoCAD 2000
 90
        0
280
     0
281
     0
  0
CLASS
  1
LONG_TRANSACTION
  2
AcDbLongTransaction
  3
AutoCAD 2000
 90
    32768
280
     0
281
     0
  0
CLASS
  1
LWPOLYLINE
  2
AcDbPolyline
  3
AutoCAD 2000
 90
    32768
280
     0
281
     1
  0
CLASS
  1
HATCH
  2
AcDbHatch
  3
AutoCAD 2000
 90
    32768
280
     0
281
     1
  0
CLASS
  1
XRECORD
  2
AcDbXrecord
  3
AutoCAD 2000
 90
    32768
280
     0
281
     0
  0
CLASS
  1
DICTIONARYVAR
  2
AcDbDictionaryVar
  3
AutoCAD 2000
 90
        0
280
     0
281
     0
  0
CLASS
  1
LONG_TRANSACTION
  2
AcDbLongTransaction
  3
AutoCAD 2000
 90
    32768
280
     0
281
     0
  0
CLASS
  1
LWPOLYLINE
  2
AcDbPolyline
  3
AutoCAD 2000
 90
    32768
280
     0
281
     1
  0
CLASS
  1
HATCH
  2
AcDbHatch
  3
AutoCAD 2000
 90
    32768
280
     0
281
     1
  0
CLASS
  1
XRECORD
  2
AcDbXrecord
  3
AutoCAD 2000
 90
    32768
280
     0
281
     0
  0
ENDSEC
  0
SECTION
  2
TABLES
  0
TABLE
  2
VPORT
  5
12
330
0
100
AcDbSymbolTable
 70
     3
  0
VPORT
  5
909
330
12
100
AcDbSymbolTableRecord
100
AcDbViewportTableRecord
  2
*Active
 70
     0
 10
0.0
 20
0.0
 11
1.0
 21
1.0
 12
11932.09010897755
 22
9376.213909208749
 13
0.0
 23
0.0
 14
5.0
 24
5.0
 15
0.0
 25
0.0
 16
0.0
 26
0.0
 36
1.0
 17
0.0
 27
0.0
 37
0.0
 40
11410.24385049198
 41
1.73997233748271
 42
50.0
 43
0.0
 44
0.0
 50
0.0
 51
0.0
 71
     0
 72
   100
 73
     1
 74
     0
 75
     0
 76
     0
 77
     0
 78
     2
281
     0
 65
     1
110
0.0
120
0.0
130
0.0
111
1.0
121
0.0
131
0.0
112
0.0
122
1.0
132
0.0
 79
     0
146
0.0
  0
ENDTAB
  0
TABLE
  2
LTYPE
  5
E
330
0
100
AcDbSymbolTable
 70
     2
  0
LTYPE
  5
F
330
E
100
AcDbSymbolTableRecord
100
AcDbLinetypeTableRecord
  2
BYBLOCK
 70
     0
  3

 72
    65
 73
     0
 40
0.0
  0
LTYPE
  5
6
330
E
100
AcDbSymbolTableRecord
100
AcDbLinetypeTableRecord
  2
BYLAYER
 70
     0
  3

 72
    65
 73
     0
 40
0.0
  0
LTYPE
  5
5
330
E
100
AcDbSymbolTableRecord
100
AcDbLinetypeTableRecord
  2
CONTINUOUS
 70
     0
  3
Solid line
 72
    65
 73
     0
 40
0.0
  0
LTYPE
  5
41
330
E
100
AcDbSymbolTableRecord
100
AcDbLinetypeTableRecord
  2
CENTER
 70
     0
  3
____ _ ____ _ ____ _ ____ _ ____ _ ____ _ ____ 
 72
    65
 73
     4
 40
2.0
 49
1.25
 74
     0
 49
-0.25
 74
     0
 49
0.25
 74
     0
 49
-0.25
 74
     0
  0
ENDTAB
  0
TABLE
  2
LAYER
  5
B
330
0
100
AcDbSymbolTable
 70
     7
  0
LAYER
  5
4
330
B
100
AcDbSymbolTableRecord
100
AcDbLayerTableRecord
  2
0
 70
     0
 62
     7
  6
CONTINUOUS
370
    -3
390
720
  0
LAYER
  5
3C
330
B
100
AcDbSymbolTableRecord
100
AcDbLayerTableRecord
  2
FUTO
 70
     0
 62
     4
  6
CONTINUOUS
370
    -3
390
720
  0
LAYER
  5
3E
330
B
100
AcDbSymbolTableRecord
100
AcDbLayerTableRecord
  2
DEFPOINTS
 70
     0
 62
     7
  6
CONTINUOUS
290
     0
370
    -3
390
720
  0
LAYER
  5
401
330
B
100
AcDbSymbolTableRecord
100
AcDbLayerTableRecord
  2
3
 70
     0
 62
     2
  6
CONTINUOUS
370
    -3
390
720
  0
LAYER
  5
402
330
B
100
AcDbSymbolTableRecord
100
AcDbLayerTableRecord
  2
2
 70
     0
 62
     3
  6
CENTER
370
    -3
390
720
  0
LAYER
  5
403
330
B
100
AcDbSymbolTableRecord
100
AcDbLayerTableRecord
  2
1
 70
     0
 62
     4
  6
CONTINUOUS
370
    -3
390
720
  0
LAYER
  5
404
330
B
100
AcDbSymbolTableRecord
100
AcDbLayerTableRecord
  2
4
 70
     0
 62
     7
  6
CONTINUOUS
370
    -3
390
720
  0
ENDTAB
  0
TABLE
  2
STYLE
  5
C
330
0
100
AcDbSymbolTable
 70
     2
  0
STYLE
  5
D
330
C
100
AcDbSymbolTableRecord
100
AcDbTextStyleTableRecord
  2
STANDARD
 70
     0
 40
0.0
 41
1.0
 50
0.0
 71
     0
 42
52.5
  3
C:\Program Files\AutoCAD LT\simplex.shx
  4
C:\Program Files\AutoCAD LT\extfont.shx
  0
STYLE
  5
1C
330
C
100
AcDbSymbolTableRecord
100
AcDbTextStyleTableRecord
  2
SUNPOU
 70
     0
 40
0.0
 41
1.0
 50
15.0
 71
     0
 42
5.0
  3
simplex.shx
  4
extfont.shx
  0
ENDTAB
  0
TABLE
  2
VIEW
  5
10
330
0
100
AcDbSymbolTable
 70
     0
  0
ENDTAB
  0
TABLE
  2
UCS
  5
11
330
0
100
AcDbSymbolTable
 70
     0
  0
ENDTAB
  0
TABLE
  2
APPID
  5
14
330
0
100
AcDbSymbolTable
 70
     1
  0
APPID
  5
15
330
14
100
AcDbSymbolTableRecord
100
AcDbRegAppTableRecord
  2
ACAD
 70
     0
  0
ENDTAB
  0
TABLE
  2
DIMSTYLE
  5
16
330
0
100
AcDbSymbolTable
 70
     2
100
AcDbDimStyleTable
 71
     1
340
1F
  0
DIMSTYLE
105
1F
102
{ACAD_REACTORS
330
8D3
330
8E0
330
8ED
102
}
330
16
100
AcDbSymbolTableRecord
100
AcDbDimStyleTableRecord
  2
MATSU
 70
     0
 40
30.0
 41
2.0
 42
1.0
 43
10.0
 44
1.0
 73
     0
 74
     0
 77
     1
 78
     8
140
3.0
141
0.0
143
0.03937
147
0.5
172
     1
173
     1
176
   256
177
   256
178
   256
284
     8
340
1C
341
192
343
192
344
192
  0
DIMSTYLE
105
405
102
{ACAD_REACTORS
330
4BA
330
4BB
330
4BC
330
4BD
330
4BE
330
4C1
330
4C3
330
690
330
4C2
102
}
330
16
100
AcDbSymbolTableRecord
100
AcDbDimStyleTableRecord
  2
IGA
 70
     0
 40
2.0
 41
2.0
 42
0.5
 43
10.0
 44
1.0
 47
1.0
 48
1.0
 73
     0
 74
     0
 77
     1
 78
     8
140
3.0
141
0.0
143
0.03937
146
10.0
147
1.0
173
     1
271
     1
272
     0
279
     2
284
     8
340
D
341
192
343
192
344
192
  0
ENDTAB
  0
TABLE
  2
BLOCK_RECORD
  5
1
330
0
100
AcDbSymbolTable
 70
    13
  0
BLOCK_RECORD
  5
2
102
{ACAD_XDICTIONARY
360
74E
102
}
330
1
100
AcDbSymbolTableRecord
100
AcDbBlockTableRecord
  2
*MODEL_SPACE
340
723
  0
BLOCK_RECORD
  5
8
102
{ACAD_XDICTIONARY
360
750
102
}
330
1
100
AcDbSymbolTableRecord
100
AcDbBlockTableRecord
  2
*PAPER_SPACE
340
724
  0
BLOCK_RECORD
  5
192
330
1
100
AcDbSymbolTableRecord
100
AcDbBlockTableRecord
  2
_OPEN
340
0
102
{BLKREFS
331
832
331
833
331
83B
331
83C
331
844
331
845
331
84D
331
84E
331
868
331
869
331
871
331
872
331
87A
331
87B
331
894
331
895
331
8B9
331
8BA
331
8D8
331
8D9
331
8E5
331
8E6
331
8F2
331
8F3
102
}
  0
BLOCK_RECORD
  5
4E0
330
1
100
AcDbSymbolTableRecord
100
AcDbBlockTableRecord
  2
*D1
340
0
  0
BLOCK_RECORD
  5
4EC
330
1
100
AcDbSymbolTableRecord
100
AcDbBlockTableRecord
  2
*D2
340
0
  0
BLOCK_RECORD
  5
4FA
330
1
100
AcDbSymbolTableRecord
100
AcDbBlockTableRecord
  2
*D3
340
0
  0
BLOCK_RECORD
  5
506
330
1
100
AcDbSymbolTableRecord
100
AcDbBlockTableRecord
  2
*D4
340
0
  0
BLOCK_RECORD
  5
512
330
1
100
AcDbSymbolTableRecord
100
AcDbBlockTableRecord
  2
*D5
340
0
  0
BLOCK_RECORD
  5
52A
330
1
100
AcDbSymbolTableRecord
100
AcDbBlockTableRecord
  2
*D6
340
0
  0
BLOCK_RECORD
  5
536
330
1
100
AcDbSymbolTableRecord
100
AcDbBlockTableRecord
  2
*D7
340
0
  0
BLOCK_RECORD
  5
544
330
1
100
AcDbSymbolTableRecord
100
AcDbBlockTableRecord
  2
*D8
340
0
  0
BLOCK_RECORD
  5
684
330
1
100
AcDbSymbolTableRecord
100
AcDbBlockTableRecord
  2
*D9
340
0
  0
BLOCK_RECORD
  5
8D4
330
1
100
AcDbSymbolTableRecord
100
AcDbBlockTableRecord
  2
*D10
340
0
  0
BLOCK_RECORD
  5
8E1
330
1
100
AcDbSymbolTableRecord
100
AcDbBlockTableRecord
  2
*D11
340
0
  0
BLOCK_RECORD
  5
8EE
330
1
100
AcDbSymbolTableRecord
100
AcDbBlockTableRecord
  2
*D12
340
0
  0
ENDTAB
  0
ENDSEC
  0
SECTION
  2
BLOCKS
  0
BLOCK
  5
3
330
2
100
AcDbEntity
  8
0
100
AcDbBlockBegin
  2
*MODEL_SPACE
 70
     0
 10
0.0
 20
0.0
 30
0.0
  3
*MODEL_SPACE
  1

  0
ENDBLK
  5
7
330
2
100
AcDbEntity
  8
0
100
AcDbBlockEnd
  0
BLOCK
  5
9
330
8
100
AcDbEntity
 67
     1
  8
0
100
AcDbBlockBegin
  2
*PAPER_SPACE
 70
     0
 10
0.0
 20
0.0
 30
0.0
  3
*PAPER_SPACE
  1

  0
ENDBLK
  5
A
330
8
100
AcDbEntity
 67
     1
  8
0
100
AcDbBlockEnd
  0
BLOCK
  5
193
330
192
100
AcDbEntity
  8
0
 48
20.0
100
AcDbBlockBegin
  2
_OPEN
 70
     0
 10
0.0
 20
0.0
 30
0.0
  3
_OPEN
  1

  0
LINE
  5
194
330
192
100
AcDbEntity
  8
0
  6
ByBlock
 62
     0
 48
20.0
100
AcDbLine
 10
-1.0
 20
0.1666666666666666
 30
0.0
 11
0.0
 21
0.0
 31
0.0
  0
LINE
  5
195
330
192
100
AcDbEntity
  8
0
  6
ByBlock
 62
     0
 48
20.0
100
AcDbLine
 10
0.0
 20
0.0
 30
0.0
 11
-1.0
 21
-0.1666666666666666
 31
0.0
  0
LINE
  5
196
330
192
100
AcDbEntity
  8
0
  6
ByBlock
 62
     0
 48
20.0
100
AcDbLine
 10
0.0
 20
0.0
 30
0.0
 11
-1.0
 21
0.0
 31
0.0
  0
ENDBLK
  5
197
330
192
100
AcDbEntity
  8
0
 48
20.0
100
AcDbBlockEnd
  0
BLOCK
  5
6E4
330
4E0
100
AcDbEntity
  8
0
 48
10.0
100
AcDbBlockBegin
  2
*D1
 70
     1
 10
0.0
 20
0.0
 30
0.0
  3
*D1
  1

  0
LINE
  5
82F
330
4E0
100
AcDbEntity
  8
3
  6
Continuous
 62
     0
 48
10.0
100
AcDbLine
 10
8098.32066977901
 20
7336.982962700355
 30
0.0
 11
8098.32066977901
 21
7095.596201700356
 31
0.0
  0
LINE
  5
830
330
4E0
100
AcDbEntity
  8
3
  6
Continuous
 62
     0
 48
10.0
100
AcDbLine
 10
6888.32066977901
 20
7336.982962700355
 30
0.0
 11
6888.32066977901
 21
7095.596201700356
 31
0.0
  0
LINE
  5
831
330
4E0
100
AcDbEntity
  8
3
  6
Continuous
 62
     0
 48
10.0
100
AcDbLine
 10
8038.320669779009
 20
7125.596201700355
 30
0.0
 11
6948.320669779009
 21
7125.596201700355
 31
0.0
  0
INSERT
  5
832
330
4E0
100
AcDbEntity
  8
3
  6
Continuous
 62
     0
 48
10.0
100
AcDbBlockReference
  2
_OPEN
 10
8098.32066977901
 20
7125.596201700355
 30
0.0
 41
60.0
 42
60.0
 43
60.0
  0
INSERT
  5
833
330
4E0
100
AcDbEntity
  8
3
  6
Continuous
 62
     0
 48
10.0
100
AcDbBlockReference
  2
_OPEN
 10
6888.32066977901
 20
7125.596201700355
 30
0.0
 41
60.0
 42
60.0
 43
60.0
 50
180.0
  0
MTEXT
  5
834
330
4E0
100
AcDbEntity
  8
3
  6
Continuous
 62
     0
 48
10.0
100
AcDbMText
 10
7502.53891277901
 20
7200.596201700355
 30
0.0
 40
90.0
 41
0.0
 71
     5
 72
     5
  1
\A1;1210
 73
     1
 44
1.0
  0
POINT
  5
835
330
4E0
100
AcDbEntity
  8
DEFPOINTS
  6
Continuous
 62
     0
 48
10.0
100
AcDbPoint
 10
8098.32066977901
 20
7351.982962700354
 30
0.0
  0
POINT
  5
836
330
4E0
100
AcDbEntity
  8
DEFPOINTS
  6
Continuous
 62
     0
 48
10.0
100
AcDbPoint
 10
6888.32066977901
 20
7351.982962700356
 30
0.0
  0
POINT
  5
837
330
4E0
100
AcDbEntity
  8
DEFPOINTS
  6
Continuous
 62
     0
 48
10.0
100
AcDbPoint
 10
6888.32066977901
 20
7125.596201700355
 30
0.0
  0
ENDBLK
  5
6EE
330
4E0
100
AcDbEntity
  8
0
 48
10.0
100
AcDbBlockEnd
  0
BLOCK
  5
6FA
330
4EC
100
AcDbEntity
  8
0
 48
10.0
100
AcDbBlockBegin
  2
*D2
 70
     1
 10
0.0
 20
0.0
 30
0.0
  3
*D2
  1

  0
LINE
  5
838
330
4EC
100
AcDbEntity
  8
3
  6
Continuous
 62
     0
 48
10.0
100
AcDbLine
 10
8186.354964779011
 20
7761.982962700355
 30
0.0
 11
8230.403063779011
 21
7761.982962700355
 31
0.0
  0
LINE
  5
839
330
4EC
100
AcDbEntity
  8
3
  6
Continuous
 62
     0
 48
10.0
100
AcDbLine
 10
8113.32066977901
 20
7351.982962700354
 30
0.0
 11
8230.403063779011
 21
7351.982962700354
 31
0.0
  0
LINE
  5
83A
330
4EC
100
AcDbEntity
  8
3
  6
Continuous
 62
     0
 48
10.0
100
AcDbLine
 10
8200.403063779011
 20
7701.982962700355
 30
0.0
 11
8200.403063779011
 21
7411.982962700355
 31
0.0
  0
INSERT
  5
83B
330
4EC
100
AcDbEntity
  8
3
  6
Continuous
 62
     0
 48
10.0
100
AcDbBlockReference
  2
_OPEN
 10
8200.403063779011
 20
7761.982962700355
 30
0.0
 41
60.0
 42
60.0
 43
60.0
 50
90.0
  0
INSERT
  5
83C
330
4EC
100
AcDbEntity
  8
3
  6
Continuous
 62
     0
 48
10.0
100
AcDbBlockReference
  2
_OPEN
 10
8200.403063779011
 20
7351.982962700354
 30
0.0
 41
60.0
 42
60.0
 43
60.0
 50
270.0
  0
MTEXT
  5
83D
330
4EC
100
AcDbEntity
  8
3
  6
Continuous
 62
     0
 48
10.0
100
AcDbMText
 10
8125.40306377901
 20
7549.125819843212
 30
0.0
 40
90.0
 41
0.0
 71
     5
 72
     5
  1
\A1;410
 11
0.0000000000000001
 21
1.0
 31
0.0
 73
     1
 44
1.0
  0
POINT
  5
83E
330
4EC
100
AcDbEntity
  8
DEFPOINTS
  6
Continuous
 62
     0
 48
10.0
100
AcDbPoint
 10
8171.354964779011
 20
7761.982962700355
 30
0.0
  0
POINT
  5
83F
330
4EC
100
AcDbEntity
  8
DEFPOINTS
  6
Continuous
 62
     0
 48
10.0
100
AcDbPoint
 10
8098.320669779011
 20
7351.982962700354
 30
0.0
  0
POINT
  5
840
330
4EC
100
AcDbEntity
  8
DEFPOINTS
  6
Continuous
 62
     0
 48
10.0
100
AcDbPoint
 10
8200.403063779011
 20
7351.982962700354
 30
0.0
  0
ENDBLK
  5
704
330
4EC
100
AcDbEntity
  8
0
 48
10.0
100
AcDbBlockEnd
  0
BLOCK
  5
6EF
330
4FA
100
AcDbEntity
  8
0
 48
10.0
100
AcDbBlockBegin
  2
*D3
 70
     1
 10
0.0
 20
0.0
 30
0.0
  3
*D3
  1

  0
LINE
  5
841
330
4FA
100
AcDbEntity
  8
3
  6
Continuous
 62
     0
 48
10.0
100
AcDbLine
 10
8028.320669779011
 20
8221.982962700353
 30
0.0
 11
8411.737849779013
 21
8221.982962700353
 31
0.0
  0
LINE
  5
842
330
4FA
100
AcDbEntity
  8
3
  6
Continuous
 62
     0
 48
10.0
100
AcDbLine
 10
8113.32066977901
 20
7351.982962700354
 30
0.0
 11
8411.737849779013
 21
7351.982962700354
 31
0.0
  0
LINE
  5
843
330
4FA
100
AcDbEntity
  8
3
  6
Continuous
 62
     0
 48
10.0
100
AcDbLine
 10
8381.737849779012
 20
8161.982962700353
 30
0.0
 11
8381.737849779012
 21
7411.982962700355
 31
0.0
  0
INSERT
  5
844
330
4FA
100
AcDbEntity
  8
3
  6
Continuous
 62
     0
 48
10.0
100
AcDbBlockReference
  2
_OPEN
 10
8381.737849779012
 20
8221.982962700353
 30
0.0
 41
60.0
 42
60.0
 43
60.0
 50
90.0
  0
INSERT
  5
845
330
4FA
100
AcDbEntity
  8
3
  6
Continuous
 62
     0
 48
10.0
100
AcDbBlockReference
  2
_OPEN
 10
8381.737849779012
 20
7351.982962700354
 30
0.0
 41
60.0
 42
60.0
 43
60.0
 50
270.0
  0
MTEXT
  5
846
330
4FA
100
AcDbEntity
  8
3
  6
Continuous
 62
     0
 48
10.0
100
AcDbMText
 10
8306.737849779009
 20
7743.283986700355
 30
0.0
 40
90.0
 41
0.0
 71
     5
 72
     5
  1
\A1;870
 11
0.0000000000000001
 21
1.0
 31
0.0
 73
     1
 44
1.0
  0
POINT
  5
847
330
4FA
100
AcDbEntity
  8
DEFPOINTS
  6
Continuous
 62
     0
 48
10.0
100
AcDbPoint
 10
8013.320669779011
 20
8221.982962700353
 30
0.0
  0
POINT
  5
848
330
4FA
100
AcDbEntity
  8
DEFPOINTS
  6
Continuous
 62
     0
 48
10.0
100
AcDbPoint
 10
8098.320669779011
 20
7351.982962700354
 30
0.0
  0
POINT
  5
849
330
4FA
100
AcDbEntity
  8
DEFPOINTS
  6
Continuous
 62
     0
 48
10.0
100
AcDbPoint
 10
8381.737849779012
 20
7351.982962700354
 30
0.0
  0
ENDBLK
  5
6F9
330
4FA
100
AcDbEntity
  8
0
 48
10.0
100
AcDbBlockEnd
  0
BLOCK
  5
6D9
330
506
100
AcDbEntity
  8
0
 48
10.0
100
AcDbBlockBegin
  2
*D4
 70
     1
 10
0.0
 20
0.0
 30
0.0
  3
*D4
  1

  0
LINE
  5
84A
330
506
100
AcDbEntity
  8
3
  6
Continuous
 62
     0
 48
10.0
100
AcDbLine
 10
8013.320669779011
 20
8236.982962700352
 30
0.0
 11
8013.320669779011
 21
8402.443447700354
 31
0.0
  0
LINE
  5
84B
330
506
100
AcDbEntity
  8
3
  6
Continuous
 62
     0
 48
10.0
100
AcDbLine
 10
6983.320669779011
 20
8236.982962700352
 30
0.0
 11
6983.320669779011
 21
8402.443447700354
 31
0.0
  0
LINE
  5
84C
330
506
100
AcDbEntity
  8
3
  6
Continuous
 62
     0
 48
10.0
100
AcDbLine
 10
7953.32066977901
 20
8372.443447700353
 30
0.0
 11
7043.320669779011
 21
8372.443447700353
 31
0.0
  0
INSERT
  5
84D
330
506
100
AcDbEntity
  8
3
  6
Continuous
 62
     0
 48
10.0
100
AcDbBlockReference
  2
_OPEN
 10
8013.320669779011
 20
8372.443447700353
 30
0.0
 41
60.0
 42
60.0
 43
60.0
  0
INSERT
  5
84E
330
506
100
AcDbEntity
  8
3
  6
Continuous
 62
     0
 48
10.0
100
AcDbBlockReference
  2
_OPEN
 10
6983.320669779011
 20
8372.443447700353
 30
0.0
 41
60.0
 42
60.0
 43
60.0
 50
180.0
  0
MTEXT
  5
84F
330
506
100
AcDbEntity
  8
3
  6
Continuous
 62
     0
 48
10.0
100
AcDbMText
 10
7532.76137777901
 20
8447.443447700354
 30
0.0
 40
90.0
 41
0.0
 71
     5
 72
     5
  1
\A1;1030
 73
     1
 44
1.0
  0
POINT
  5
850
330
506
100
AcDbEntity
  8
DEFPOINTS
  6
Continuous
 62
     0
 48
10.0
100
AcDbPoint
 10
8013.320669779011
 20
8221.982962700353
 30
0.0
  0
POINT
  5
851
330
506
100
AcDbEntity
  8
DEFPOINTS
  6
Continuous
 62
     0
 48
10.0
100
AcDbPoint
 10
6983.320669779011
 20
8221.982962700353
 30
0.0
  0
POINT
  5
852
330
506
100
AcDbEntity
  8
DEFPOINTS
  6
Continuous
 62
     0
 48
10.0
100
AcDbPoint
 10
6983.320669779011
 20
8372.443447700353
 30
0.0
  0
ENDBLK
  5
6E3
330
506
100
AcDbEntity
  8
0
 48
10.0
100
AcDbBlockEnd
  0
BLOCK
  5
6C1
330
512
100
AcDbEntity
  8
0
 48
10.0
100
AcDbBlockBegin
  2
*D5
 70
     1
 10
0.0
 20
0.0
 30
0.0
  3
*D5
  1

  0
LINE
  5
8B6
330
512
100
AcDbEntity
  8
3
  6
Continuous
 62
     0
 48
10.0
370
    -2
100
AcDbLine
 10
6983.542057779011
 20
9509.606353700355
 30
0.0
 11
6983.542057779011
 21
9237.678948700354
 31
0.0
  0
LINE
  5
8B7
330
512
100
AcDbEntity
  8
3
  6
Continuous
 62
     0
 48
10.0
370
    -2
100
AcDbLine
 10
8013.542057779011
 20
9509.606353700355
 30
0.0
 11
8013.542057779011
 21
9237.678948700354
 31
0.0
  0
LINE
  5
8B8
330
512
100
AcDbEntity
  8
3
  6
Continuous
 62
     0
 48
10.0
370
    -2
100
AcDbLine
 10
7043.542057779013
 20
9267.678948700355
 30
0.0
 11
7953.542057779012
 21
9267.678948700355
 31
0.0
  0
INSERT
  5
8B9
330
512
100
AcDbEntity
  8
3
  6
Continuous
 62
     0
 48
10.0
370
    -2
100
AcDbBlockReference
  2
_OPEN
 10
6983.542057779011
 20
9267.678948700355
 30
0.0
 41
60.0
 42
60.0
 43
60.0
 50
180.0
  0
INSERT
  5
8BA
330
512
100
AcDbEntity
  8
3
  6
Continuous
 62
     0
 48
10.0
370
    -2
100
AcDbBlockReference
  2
_OPEN
 10
8013.542057779011
 20
9267.678948700355
 30
0.0
 41
60.0
 42
60.0
 43
60.0
  0
MTEXT
  5
8BB
330
512
100
AcDbEntity
  8
3
  6
Continuous
 62
     0
 48
10.0
100
AcDbMText
 10
7524.324890779012
 20
9342.678948700356
 30
0.0
 40
90.0
 41
0.0
 71
     5
 72
     1
  1
\A1;1030
 73
     1
 44
1.0
  0
POINT
  5
8BC
330
512
100
AcDbEntity
  8
DEFPOINTS
  6
Continuous
 62
     0
 48
10.0
100
AcDbPoint
 10
6983.542057779011
 20
9524.606353700356
 30
0.0
  0
POINT
  5
8BD
330
512
100
AcDbEntity
  8
DEFPOINTS
  6
Continuous
 62
     0
 48
10.0
100
AcDbPoint
 10
8013.542057779011
 20
9524.606353700356
 30
0.0
  0
POINT
  5
8BE
330
512
100
AcDbEntity
  8
DEFPOINTS
  6
Continuous
 62
     0
 48
10.0
100
AcDbPoint
 10
8013.542057779011
 20
9267.678948700355
 30
0.0
  0
ENDBLK
  5
6CB
330
512
100
AcDbEntity
  8
0
 48
10.0
100
AcDbBlockEnd
  0
BLOCK
  5
5FF
330
52A
100
AcDbEntity
  8
0
 48
10.0
100
AcDbBlockBegin
  2
*D6
 70
     1
 10
0.0
 20
0.0
 30
0.0
  3
*D6
  1

  0
LINE
  5
865
330
52A
100
AcDbEntity
  8
3
  6
Continuous
 62
     0
 48
10.0
100
AcDbLine
 10
9558.683979779013
 20
7336.982962700355
 30
0.0
 11
9558.683979779013
 21
7062.378364700355
 31
0.0
  0
LINE
  5
866
330
52A
100
AcDbEntity
  8
3
  6
Continuous
 62
     0
 48
10.0
100
AcDbLine
 10
10398.68397977901
 20
7336.982962700355
 30
0.0
 11
10398.68397977901
 21
7062.378364700355
 31
0.0
  0
LINE
  5
867
330
52A
100
AcDbEntity
  8
3
  6
Continuous
 62
     0
 48
10.0
100
AcDbLine
 10
9618.683979779014
 20
7092.378364700355
 30
0.0
 11
10338.68397977901
 21
7092.378364700355
 31
0.0
  0
INSERT
  5
868
330
52A
100
AcDbEntity
  8
3
  6
Continuous
 62
     0
 48
10.0
100
AcDbBlockReference
  2
_OPEN
 10
9558.683979779013
 20
7092.378364700355
 30
0.0
 41
60.0
 42
60.0
 43
60.0
 50
180.0
  0
INSERT
  5
869
330
52A
100
AcDbEntity
  8
3
  6
Continuous
 62
     0
 48
10.0
100
AcDbBlockReference
  2
_OPEN
 10
10398.68397977901
 20
7092.378364700355
 30
0.0
 41
60.0
 42
60.0
 43
60.0
  0
MTEXT
  5
86A
330
52A
100
AcDbEntity
  8
3
  6
Continuous
 62
     0
 48
10.0
100
AcDbMText
 10
9991.060923779013
 20
7167.378364700354
 30
0.0
 40
90.0
 41
0.0
 71
     5
 72
     5
  1
\A1;840
 73
     1
 44
1.0
  0
POINT
  5
86B
330
52A
100
AcDbEntity
  8
DEFPOINTS
  6
Continuous
 62
     0
 48
10.0
100
AcDbPoint
 10
9558.683979779013
 20
7351.982962700354
 30
0.0
  0
POINT
  5
86C
330
52A
100
AcDbEntity
  8
DEFPOINTS
  6
Continuous
 62
     0
 48
10.0
100
AcDbPoint
 10
10398.68397977901
 20
7351.982962700354
 30
0.0
  0
POINT
  5
86D
330
52A
100
AcDbEntity
  8
DEFPOINTS
  6
Continuous
 62
     0
 48
10.0
100
AcDbPoint
 10
10398.68397977901
 20
7092.378364700355
 30
0.0
  0
ENDBLK
  5
609
330
52A
100
AcDbEntity
  8
0
 48
10.0
100
AcDbBlockEnd
  0
BLOCK
  5
5B6
330
536
100
AcDbEntity
  8
0
 48
10.0
100
AcDbBlockBegin
  2
*D7
 70
     1
 10
0.0
 20
0.0
 30
0.0
  3
*D7
  1

  0
LINE
  5
86E
330
536
100
AcDbEntity
  8
3
  6
Continuous
 62
     0
 48
10.0
100
AcDbLine
 10
9798.683979779013
 20
8016.982962700355
 30
0.0
 11
9798.683979779013
 21
8124.697694700355
 31
0.0
  0
LINE
  5
86F
330
536
100
AcDbEntity
  8
3
  6
Continuous
 62
     0
 48
10.0
100
AcDbLine
 10
10158.68397977901
 20
8016.982962700355
 30
0.0
 11
10158.68397977901
 21
8124.697694700355
 31
0.0
  0
LINE
  5
870
330
536
100
AcDbEntity
  8
3
  6
Continuous
 62
     0
 48
10.0
100
AcDbLine
 10
9858.683979779014
 20
8094.697694700355
 30
0.0
 11
10098.68397977901
 21
8094.697694700355
 31
0.0
  0
INSERT
  5
871
330
536
100
AcDbEntity
  8
3
  6
Continuous
 62
     0
 48
10.0
100
AcDbBlockReference
  2
_OPEN
 10
9798.683979779013
 20
8094.697694700355
 30
0.0
 41
60.0
 42
60.0
 43
60.0
 50
180.0
  0
INSERT
  5
872
330
536
100
AcDbEntity
  8
3
  6
Continuous
 62
     0
 48
10.0
100
AcDbBlockReference
  2
_OPEN
 10
10158.68397977901
 20
8094.697694700355
 30
0.0
 41
60.0
 42
60.0
 43
60.0
  0
MTEXT
  5
873
330
536
100
AcDbEntity
  8
3
  6
Continuous
 62
     0
 48
10.0
100
AcDbMText
 10
9978.683979779013
 20
8169.697694700355
 30
0.0
 40
90.0
 41
0.0
 71
     5
 72
     5
  1
\A1;360
 73
     1
 44
1.0
  0
POINT
  5
874
330
536
100
AcDbEntity
  8
DEFPOINTS
  6
Continuous
 62
     0
 48
10.0
100
AcDbPoint
 10
9798.683979779013
 20
8001.982962700354
 30
0.0
  0
POINT
  5
875
330
536
100
AcDbEntity
  8
DEFPOINTS
  6
Continuous
 62
     0
 48
10.0
100
AcDbPoint
 10
10158.68397977901
 20
8001.982962700354
 30
0.0
  0
POINT
  5
876
330
536
100
AcDbEntity
  8
DEFPOINTS
  6
Continuous
 62
     0
 48
10.0
100
AcDbPoint
 10
10158.68397977901
 20
8094.697694700355
 30
0.0
  0
ENDBLK
  5
5C2
330
536
100
AcDbEntity
  8
0
 48
10.0
100
AcDbBlockEnd
  0
BLOCK
  5
5C3
330
544
100
AcDbEntity
  8
0
 48
10.0
100
AcDbBlockBegin
  2
*D8
 70
     1
 10
0.0
 20
0.0
 30
0.0
  3
*D8
  1

  0
LINE
  5
877
330
544
100
AcDbEntity
  8
3
  6
Continuous
 62
     0
 48
10.0
100
AcDbLine
 10
9783.683979779013
 20
8001.982962700354
 30
0.0
 11
9667.796241779013
 21
8001.982962700354
 31
0.0
  0
LINE
  5
878
330
544
100
AcDbEntity
  8
3
  6
Continuous
 62
     0
 48
10.0
100
AcDbLine
 10
9783.683979779013
 20
7521.982962700355
 30
0.0
 11
9667.796241779013
 21
7521.982962700355
 31
0.0
  0
LINE
  5
879
330
544
100
AcDbEntity
  8
3
  6
Continuous
 62
     0
 48
10.0
100
AcDbLine
 10
9697.796241779014
 20
7941.982962700355
 30
0.0
 11
9697.796241779014
 21
7581.982962700354
 31
0.0
  0
INSERT
  5
87A
330
544
100
AcDbEntity
  8
3
  6
Continuous
 62
     0
 48
10.0
100
AcDbBlockReference
  2
_OPEN
 10
9697.796241779014
 20
8001.982962700354
 30
0.0
 41
60.0
 42
60.0
 43
60.0
 50
90.0
  0
INSERT
  5
87B
330
544
100
AcDbEntity
  8
3
  6
Continuous
 62
     0
 48
10.0
100
AcDbBlockReference
  2
_OPEN
 10
9697.796241779014
 20
7521.982962700355
 30
0.0
 41
60.0
 42
60.0
 43
60.0
 50
270.0
  0
MTEXT
  5
87C
330
544
100
AcDbEntity
  8
3
  6
Continuous
 62
     0
 48
10.0
100
AcDbMText
 10
9622.796241779012
 20
7796.26867698607
 30
0.0
 40
90.0
 41
0.0
 71
     5
 72
     5
  1
\A1;480
 11
0.0000000000000001
 21
1.0
 31
0.0
 73
     1
 44
1.0
  0
POINT
  5
87D
330
544
100
AcDbEntity
  8
DEFPOINTS
  6
Continuous
 62
     0
 48
10.0
100
AcDbPoint
 10
9798.683979779013
 20
8001.982962700354
 30
0.0
  0
POINT
  5
87E
330
544
100
AcDbEntity
  8
DEFPOINTS
  6
Continuous
 62
     0
 48
10.0
100
AcDbPoint
 10
9798.683979779013
 20
7521.982962700355
 30
0.0
  0
POINT
  5
87F
330
544
100
AcDbEntity
  8
DEFPOINTS
  6
Continuous
 62
     0
 48
10.0
100
AcDbPoint
 10
9697.796241779014
 20
7521.982962700355
 30
0.0
  0
ENDBLK
  5
5CD
330
544
100
AcDbEntity
  8
0
 48
10.0
100
AcDbBlockEnd
  0
BLOCK
  5
705
330
684
100
AcDbEntity
  8
0
 48
10.0
100
AcDbBlockBegin
  2
*D9
 70
     1
 10
0.0
 20
0.0
 30
0.0
  3
*D9
  1

  0
LINE
  5
891
330
684
100
AcDbEntity
  8
3
  6
Continuous
 62
     0
 48
10.0
100
AcDbLine
 10
6780.482553779011
 20
7761.982962700355
 30
0.0
 11
6640.38764892247
 21
7761.982962700355
 31
0.0
  0
LINE
  5
892
330
684
100
AcDbEntity
  8
3
  6
Continuous
 62
     0
 48
10.0
100
AcDbLine
 10
6873.320669779009
 20
7351.982962700356
 30
0.0
 11
6640.38764892247
 21
7351.982962700356
 31
0.0
  0
LINE
  5
893
330
684
100
AcDbEntity
  8
3
  6
Continuous
 62
     0
 48
10.0
100
AcDbLine
 10
6670.38764892247
 20
7701.982962700355
 30
0.0
 11
6670.38764892247
 21
7411.982962700355
 31
0.0
  0
INSERT
  5
894
330
684
100
AcDbEntity
  8
3
  6
Continuous
 62
     0
 48
10.0
100
AcDbBlockReference
  2
_OPEN
 10
6670.38764892247
 20
7761.982962700355
 30
0.0
 41
60.0
 42
60.0
 43
60.0
 50
90.0
  0
INSERT
  5
895
330
684
100
AcDbEntity
  8
3
  6
Continuous
 62
     0
 48
10.0
100
AcDbBlockReference
  2
_OPEN
 10
6670.38764892247
 20
7351.982962700356
 30
0.0
 41
60.0
 42
60.0
 43
60.0
 50
270.0
  0
MTEXT
  5
896
330
684
100
AcDbEntity
  8
3
  6
Continuous
 62
     0
 48
10.0
100
AcDbMText
 10
6595.387648922468
 20
7556.982962700357
 30
0.0
 40
90.0
 41
0.0
 71
     5
 72
     5
  1
\A1;410
 11
0.0000000000000001
 21
1.0
 31
0.0
 73
     1
 44
1.0
  0
POINT
  5
897
330
684
100
AcDbEntity
  8
DEFPOINTS
  6
Continuous
 62
     0
 48
10.0
100
AcDbPoint
 10
6795.482553779011
 20
7761.982962700355
 30
0.0
  0
POINT
  5
898
330
684
100
AcDbEntity
  8
DEFPOINTS
  6
Continuous
 62
     0
 48
10.0
100
AcDbPoint
 10
6888.32066977901
 20
7351.982962700356
 30
0.0
  0
POINT
  5
899
330
684
100
AcDbEntity
  8
DEFPOINTS
  6
Continuous
 62
     0
 48
10.0
100
AcDbPoint
 10
6670.38764892247
 20
7351.982962700356
 30
0.0
  0
ENDBLK
  5
70F
330
684
100
AcDbEntity
  8
0
 48
10.0
100
AcDbBlockEnd
  0
BLOCK
  5
8DE
330
8D4
100
AcDbEntity
  8
0
 48
10.0
100
AcDbBlockBegin
  2
*D10
 70
     1
 10
0.0
 20
0.0
 30
0.0
  3
*D10
  1

  0
LINE
  5
8D5
330
8D4
100
AcDbEntity
  8
3
 48
10.0
370
    -2
100
AcDbLine
 10
8133.542057779012
 20
10364.60635370035
 30
0.0
 11
8420.305757957326
 21
10364.60635370035
 31
0.0
  0
LINE
  5
8D6
330
8D4
100
AcDbEntity
  8
3
 48
10.0
370
    -2
100
AcDbLine
 10
8133.542057779012
 20
9524.606353700354
 30
0.0
 11
8420.305757957326
 21
9524.606353700354
 31
0.0
  0
LINE
  5
8D7
330
8D4
100
AcDbEntity
  8
3
 48
10.0
370
    -2
100
AcDbLine
 10
8390.305757957326
 20
10304.60635370035
 30
0.0
 11
8390.305757957326
 21
9584.606353700355
 31
0.0
  0
INSERT
  5
8D8
330
8D4
100
AcDbEntity
  8
3
 48
10.0
370
    -2
100
AcDbBlockReference
  2
_OPEN
 10
8390.305757957326
 20
10364.60635370035
 30
0.0
 41
60.0
 42
60.0
 43
60.0
 50
90.0
  0
INSERT
  5
8D9
330
8D4
100
AcDbEntity
  8
3
 48
10.0
370
    -2
100
AcDbBlockReference
  2
_OPEN
 10
8390.305757957326
 20
9524.606353700354
 30
0.0
 41
60.0
 42
60.0
 43
60.0
 50
270.0
  0
MTEXT
  5
8DA
330
8D4
100
AcDbEntity
  8
3
 48
10.0
100
AcDbMText
 10
8330.305757957324
 20
9944.606353700356
 30
0.0
 40
90.0
 41
0.0
 71
     5
 72
     1
  1
\A1;840
  7
SUNPOU
 11
0.0000000000000001
 21
1.0
 31
0.0
 73
     1
 44
1.0
  0
POINT
  5
8DB
330
8D4
100
AcDbEntity
  8
DEFPOINTS
 62
     0
 48
10.0
100
AcDbPoint
 10
8103.542057779012
 20
10364.60635370035
 30
0.0
  0
POINT
  5
8DC
330
8D4
100
AcDbEntity
  8
DEFPOINTS
 62
     0
 48
10.0
100
AcDbPoint
 10
8103.542057779012
 20
9524.606353700354
 30
0.0
  0
POINT
  5
8DD
330
8D4
100
AcDbEntity
  8
DEFPOINTS
 62
     0
 48
10.0
100
AcDbPoint
 10
8390.305757957326
 20
9524.606353700354
 30
0.0
  0
ENDBLK
  5
8DF
330
8D4
100
AcDbEntity
  8
0
 48
10.0
100
AcDbBlockEnd
  0
BLOCK
  5
8EB
330
8E1
100
AcDbEntity
  8
0
 48
10.0
100
AcDbBlockBegin
  2
*D11
 70
     1
 10
0.0
 20
0.0
 30
0.0
  3
*D11
  1

  0
LINE
  5
8E2
330
8E1
100
AcDbEntity
  8
3
 48
10.0
370
    -2
100
AcDbLine
 10
9558.683979779013
 20
8251.982962700354
 30
0.0
 11
9558.683979779013
 21
8411.504870194603
 31
0.0
  0
LINE
  5
8E3
330
8E1
100
AcDbEntity
  8
3
 48
10.0
370
    -2
100
AcDbLine
 10
9978.683979779013
 20
8284.058072700354
 30
0.0
 11
9978.683979779013
 21
8411.504870194603
 31
0.0
  0
LINE
  5
8E4
330
8E1
100
AcDbEntity
  8
3
 48
10.0
370
    -2
100
AcDbLine
 10
9618.683979779014
 20
8381.504870194602
 30
0.0
 11
9918.683979779013
 21
8381.504870194602
 31
0.0
  0
INSERT
  5
8E5
330
8E1
100
AcDbEntity
  8
3
 48
10.0
370
    -2
100
AcDbBlockReference
  2
_OPEN
 10
9558.683979779013
 20
8381.504870194602
 30
0.0
 41
60.0
 42
60.0
 43
60.0
 50
180.0
  0
INSERT
  5
8E6
330
8E1
100
AcDbEntity
  8
3
 48
10.0
370
    -2
100
AcDbBlockReference
  2
_OPEN
 10
9978.683979779013
 20
8381.504870194602
 30
0.0
 41
60.0
 42
60.0
 43
60.0
  0
MTEXT
  5
8E7
330
8E1
100
AcDbEntity
  8
3
 48
10.0
100
AcDbMText
 10
9768.683979779012
 20
8441.504870194602
 30
0.0
 40
90.0
 41
0.0
 71
     5
 72
     1
  1
\A1;420
  7
SUNPOU
 73
     1
 44
1.0
  0
POINT
  5
8E8
330
8E1
100
AcDbEntity
  8
DEFPOINTS
 62
     0
 48
10.0
100
AcDbPoint
 10
9558.683979779013
 20
8221.982962700355
 30
0.0
  0
POINT
  5
8E9
330
8E1
100
AcDbEntity
  8
DEFPOINTS
 62
     0
 48
10.0
100
AcDbPoint
 10
9978.683979779013
 20
8254.058072700354
 30
0.0
  0
POINT
  5
8EA
330
8E1
100
AcDbEntity
  8
DEFPOINTS
 62
     0
 48
10.0
100
AcDbPoint
 10
9978.683979779013
 20
8381.504870194602
 30
0.0
  0
ENDBLK
  5
8EC
330
8E1
100
AcDbEntity
  8
0
 48
10.0
100
AcDbBlockEnd
  0
BLOCK
  5
8F8
330
8EE
100
AcDbEntity
  8
0
 48
10.0
100
AcDbBlockBegin
  2
*D12
 70
     1
 10
0.0
 20
0.0
 30
0.0
  3
*D12
  1

  0
LINE
  5
8EF
330
8EE
100
AcDbEntity
  8
3
 48
10.0
370
    -2
100
AcDbLine
 10
9978.683979779013
 20
8284.058072700354
 30
0.0
 11
9978.683979779013
 21
8411.504870194603
 31
0.0
  0
LINE
  5
8F0
330
8EE
100
AcDbEntity
  8
3
 48
10.0
370
    -2
100
AcDbLine
 10
10398.68397977901
 20
8251.982962700353
 30
0.0
 11
10398.68397977901
 21
8411.504870194603
 31
0.0
  0
LINE
  5
8F1
330
8EE
100
AcDbEntity
  8
3
 48
10.0
370
    -2
100
AcDbLine
 10
10038.68397977901
 20
8381.504870194602
 30
0.0
 11
10338.68397977901
 21
8381.504870194602
 31
0.0
  0
INSERT
  5
8F2
330
8EE
100
AcDbEntity
  8
3
 48
10.0
370
    -2
100
AcDbBlockReference
  2
_OPEN
 10
9978.683979779013
 20
8381.504870194602
 30
0.0
 41
60.0
 42
60.0
 43
60.0
 50
180.0
  0
INSERT
  5
8F3
330
8EE
100
AcDbEntity
  8
3
 48
10.0
370
    -2
100
AcDbBlockReference
  2
_OPEN
 10
10398.68397977901
 20
8381.504870194602
 30
0.0
 41
60.0
 42
60.0
 43
60.0
  0
MTEXT
  5
8F4
330
8EE
100
AcDbEntity
  8
3
 48
10.0
100
AcDbMText
 10
10188.68397977901
 20
8441.504870194602
 30
0.0
 40
90.0
 41
0.0
 71
     5
 72
     1
  1
\A1;420
  7
SUNPOU
 73
     1
 44
1.0
  0
POINT
  5
8F5
330
8EE
100
AcDbEntity
  8
DEFPOINTS
 62
     0
 48
10.0
100
AcDbPoint
 10
9978.683979779013
 20
8254.058072700354
 30
0.0
  0
POINT
  5
8F6
330
8EE
100
AcDbEntity
  8
DEFPOINTS
 62
     0
 48
10.0
100
AcDbPoint
 10
10398.68397977901
 20
8221.982962700353
 30
0.0
  0
POINT
  5
8F7
330
8EE
100
AcDbEntity
  8
DEFPOINTS
 62
     0
 48
10.0
100
AcDbPoint
 10
10398.68397977901
 20
8381.504870194602
 30
0.0
  0
ENDBLK
  5
8F9
330
8EE
100
AcDbEntity
  8
0
 48
10.0
100
AcDbBlockEnd
  0
ENDSEC
  0
SECTION
  2
ENTITIES
  0
ARC
  5
475
330
2
100
AcDbEntity
  8
1
  6
Continuous
 48
30.0
100
AcDbCircle
 10
7645.32066977901
 20
7931.982962700354
 30
0.0
 40
203.692697
100
AcDbArc
 50
352.8749839999999
 51
85.60129499999998
  0
LINE
  5
476
330
2
100
AcDbEntity
  8
1
  6
Continuous
 48
30.0
100
AcDbLine
 10
8013.320669779011
 20
7598.542962700354
 30
0.0
 11
7663.32066977901
 21
7600.082962700355
 31
0.0
  0
LINE
  5
477
330
2
100
AcDbEntity
  8
1
  6
Continuous
 48
30.0
100
AcDbLine
 10
6983.320669779011
 20
8221.982962700353
 30
0.0
 11
8013.320669779011
 21
8221.982962700353
 31
0.0
  0
LINE
  5
478
330
2
100
AcDbEntity
  8
1
  6
Continuous
 48
30.0
100
AcDbLine
 10
8033.32066977901
 20
7426.982962700354
 30
0.0
 11
6963.32066977901
 21
7426.982962700354
 31
0.0
  0
LINE
  5
479
330
2
100
AcDbEntity
  8
1
  6
Continuous
 48
30.0
100
AcDbLine
 10
8043.32066977901
 20
8031.982962700356
 30
0.0
 11
8043.32066977901
 21
7491.982962700355
 31
0.0
  0
LINE
  5
47A
330
2
100
AcDbEntity
  8
1
  6
Continuous
 48
30.0
100
AcDbLine
 10
7913.32066977901
 20
7913.982962700355
 30
0.0
 11
7913.32066977901
 21
7598.982962700354
 31
0.0
  0
LINE
  5
47B
330
2
100
AcDbEntity
  8
1
  6
Continuous
 48
30.0
100
AcDbLine
 10
8013.320669779011
 20
8221.982962700353
 30
0.0
 11
8013.320669779011
 21
7426.982962700354
 31
0.0
  0
LINE
  5
47C
330
2
100
AcDbEntity
  8
1
  6
Continuous
 48
30.0
100
AcDbLine
 10
8013.320669779011
 20
7491.982962700355
 30
0.0
 11
8043.32066977901
 21
7491.982962700355
 31
0.0
  0
LINE
  5
47D
330
2
100
AcDbEntity
  8
1
  6
Continuous
 48
30.0
100
AcDbLine
 10
7848.21649177901
 20
7913.982962700355
 30
0.0
 11
8013.320669779011
 21
7913.982962700355
 31
0.0
  0
LINE
  5
47E
330
2
100
AcDbEntity
  8
1
  6
Continuous
 48
30.0
100
AcDbLine
 10
8013.320669779011
 20
8031.982962700354
 30
0.0
 11
8043.32066977901
 21
8031.982962700354
 31
0.0
  0
LINE
  5
47F
330
2
100
AcDbEntity
  8
1
  6
Continuous
 48
30.0
100
AcDbLine
 10
6953.320669779009
 20
8031.982962700356
 30
0.0
 11
6953.32066977901
 21
7491.982962700355
 31
0.0
  0
ARC
  5
480
330
2
100
AcDbEntity
  8
1
  6
Continuous
 48
30.0
100
AcDbCircle
 10
7688.820669779009
 20
7888.482962700355
 30
0.0
 40
289.525146
100
AcDbArc
 50
174.4724599999999
 51
264.947113
  0
LINE
  5
481
330
2
100
AcDbEntity
  8
1
  6
Continuous
 48
30.0
100
AcDbLine
 10
6983.32066977901
 20
7426.982962700354
 30
0.0
 11
6983.320669779011
 21
8221.982962700353
 31
0.0
  0
LINE
  5
482
330
2
100
AcDbEntity
  8
1
  6
Continuous
 48
30.0
100
AcDbLine
 10
6983.32066977901
 20
7491.982962700355
 30
0.0
 11
6953.32066977901
 21
7491.982962700355
 31
0.0
  0
LINE
  5
483
330
2
100
AcDbEntity
  8
1
  6
Continuous
 48
30.0
100
AcDbLine
 10
6888.32066977901
 20
7426.982962700356
 30
0.0
 11
6963.32066977901
 21
7426.982962700354
 31
0.0
  0
LINE
  5
484
330
2
100
AcDbEntity
  8
1
  6
Continuous
 48
30.0
100
AcDbLine
 10
6888.32066977901
 20
7351.982962700354
 30
0.0
 11
6888.32066977901
 21
7426.982962700354
 31
0.0
  0
ARC
  5
485
330
2
100
AcDbEntity
  8
1
  6
Continuous
 48
30.0
100
AcDbCircle
 10
7642.32066977901
 20
7892.982962700354
 30
0.0
 40
242.807911
100
AcDbArc
 50
85.60129499999998
 51
174.4724599999999
  0
LINE
  5
486
330
2
100
AcDbEntity
  8
1
  6
Continuous
 48
30.0
100
AcDbLine
 10
6983.32066977901
 20
8031.982962700354
 30
0.0
 11
6953.32066977901
 21
8031.982962700354
 31
0.0
  0
LINE
  5
487
330
2
100
AcDbEntity
  8
1
  6
Continuous
 48
30.0
100
AcDbLine
 10
8098.32066977901
 20
7351.982962700354
 30
0.0
 11
6888.32066977901
 21
7351.982962700356
 31
0.0
  0
LINE
  5
488
330
2
100
AcDbEntity
  8
1
  6
Continuous
 48
30.0
100
AcDbLine
 10
8033.32066977901
 20
7426.982962700354
 30
0.0
 11
8098.320669779011
 21
7426.982962700354
 31
0.0
  0
LINE
  5
489
330
2
100
AcDbEntity
  8
1
  6
Continuous
 48
30.0
100
AcDbLine
 10
8098.320669779011
 20
7426.982962700354
 30
0.0
 11
8098.320669779011
 21
7351.982962700354
 31
0.0
  0
LINE
  5
48A
330
2
100
AcDbEntity
  8
1
  6
Continuous
 48
30.0
100
AcDbLine
 10
6983.542057779011
 20
9524.606353700356
 30
0.0
 11
8013.542057779011
 21
9524.606353700356
 31
0.0
  0
LINE
  5
48B
330
2
100
AcDbEntity
  8
1
  6
Continuous
 48
30.0
100
AcDbLine
 10
8013.542057779012
 20
10364.60635370035
 30
0.0
 11
6983.542057779011
 21
10364.60635370035
 31
0.0
  0
LINE
  5
48C
330
2
100
AcDbEntity
  8
1
  6
Continuous
 48
30.0
100
AcDbLine
 10
6953.542057779014
 20
10154.60635370035
 30
0.0
 11
6953.54205777901
 21
9734.606353700355
 31
0.0
  0
LINE
  5
48D
330
2
100
AcDbEntity
  8
1
  6
Continuous
 48
30.0
100
AcDbLine
 10
6983.542057779011
 20
10364.60635370035
 30
0.0
 11
6983.542057779011
 21
9524.606353700358
 31
0.0
  0
LINE
  5
48E
330
2
100
AcDbEntity
  8
1
  6
Continuous
 48
30.0
100
AcDbLine
 10
6893.542057779012
 20
9564.606353700353
 30
0.0
 11
6893.542057779012
 21
9524.606353700354
 31
0.0
  0
LINE
  5
48F
330
2
100
AcDbEntity
  8
1
  6
Continuous
 48
30.0
100
AcDbLine
 10
6893.542057779012
 20
9564.606353700353
 30
0.0
 11
6983.542057779011
 21
9564.606353700353
 31
0.0
  0
LINE
  5
490
330
2
100
AcDbEntity
  8
1
  6
Continuous
 48
30.0
100
AcDbLine
 10
6893.542057779012
 20
9524.606353700354
 30
0.0
 11
6983.542057779011
 21
9524.606353700352
 31
0.0
  0
LINE
  5
491
330
2
100
AcDbEntity
  8
1
  6
Continuous
 48
30.0
100
AcDbLine
 10
6953.54205777901
 20
9734.606353700355
 30
0.0
 11
6983.542057779011
 21
9734.606353700355
 31
0.0
  0
LINE
  5
492
330
2
100
AcDbEntity
  8
1
  6
Continuous
 48
30.0
100
AcDbLine
 10
6953.54205777901
 20
10154.60635370035
 30
0.0
 11
6983.542057779011
 21
10154.60635370035
 31
0.0
  0
LINE
  5
493
330
2
100
AcDbEntity
  8
1
  6
Continuous
 48
30.0
100
AcDbLine
 10
6893.542057779012
 20
10324.60635370035
 30
0.0
 11
6983.542057779011
 21
10324.60635370035
 31
0.0
  0
LINE
  5
494
330
2
100
AcDbEntity
  8
1
  6
Continuous
 48
30.0
100
AcDbLine
 10
6893.542057779012
 20
10364.60635370035
 30
0.0
 11
6983.542057779013
 21
10364.60635370035
 31
0.0
  0
LINE
  5
495
330
2
100
AcDbEntity
  8
1
  6
Continuous
 48
30.0
100
AcDbLine
 10
6893.542057779012
 20
10364.60635370035
 30
0.0
 11
6893.542057779012
 21
10324.60635370035
 31
0.0
  0
LINE
  5
496
330
2
100
AcDbEntity
  8
1
  6
Continuous
 48
30.0
100
AcDbLine
 10
8043.542057779012
 20
10154.60635370035
 30
0.0
 11
8043.542057779012
 21
9734.606353700355
 31
0.0
  0
LINE
  5
497
330
2
100
AcDbEntity
  8
1
  6
Continuous
 48
30.0
100
AcDbLine
 10
8013.542057779011
 20
9524.606353700356
 30
0.0
 11
8013.542057779011
 21
10364.60635370035
 31
0.0
  0
LINE
  5
498
330
2
100
AcDbEntity
  8
1
  6
Continuous
 48
30.0
100
AcDbLine
 10
8103.542057779012
 20
9524.606353700354
 30
0.0
 11
8013.542057779011
 21
9524.606353700351
 31
0.0
  0
LINE
  5
499
330
2
100
AcDbEntity
  8
1
  6
Continuous
 48
30.0
100
AcDbLine
 10
8103.542057779012
 20
9564.606353700353
 30
0.0
 11
8013.542057779011
 21
9564.60635370035
 31
0.0
  0
LINE
  5
49A
330
2
100
AcDbEntity
  8
1
  6
Continuous
 48
30.0
100
AcDbLine
 10
8103.542057779012
 20
9564.606353700353
 30
0.0
 11
8103.542057779012
 21
9524.606353700354
 31
0.0
  0
LINE
  5
49B
330
2
100
AcDbEntity
  8
1
  6
Continuous
 48
30.0
100
AcDbLine
 10
8043.542057779012
 20
9734.606353700355
 30
0.0
 11
8013.542057779011
 21
9734.606353700355
 31
0.0
  0
LINE
  5
49C
330
2
100
AcDbEntity
  8
1
  6
Continuous
 48
30.0
100
AcDbLine
 10
8043.542057779012
 20
10154.60635370035
 30
0.0
 11
8013.542057779011
 21
10154.60635370035
 31
0.0
  0
LINE
  5
49D
330
2
100
AcDbEntity
  8
1
  6
Continuous
 48
30.0
100
AcDbLine
 10
8103.542057779012
 20
10364.60635370035
 30
0.0
 11
8013.542057779012
 21
10364.60635370034
 31
0.0
  0
LINE
  5
49E
330
2
100
AcDbEntity
  8
1
  6
Continuous
 48
30.0
100
AcDbLine
 10
8103.542057779012
 20
10324.60635370035
 30
0.0
 11
8013.542057779011
 21
10324.60635370034
 31
0.0
  0
LINE
  5
49F
330
2
100
AcDbEntity
  8
1
  6
Continuous
 48
30.0
100
AcDbLine
 10
8103.542057779012
 20
10364.60635370035
 30
0.0
 11
8103.542057779012
 21
10324.60635370035
 31
0.0
  0
LINE
  5
4A0
330
2
100
AcDbEntity
  8
1
  6
Continuous
 48
30.0
100
AcDbLine
 10
10398.68397977901
 20
8221.982962700353
 30
0.0
 11
9558.683979779013
 21
8221.982962700355
 31
0.0
  0
LINE
  5
4A1
330
2
100
AcDbEntity
  8
1
  6
Continuous
 48
30.0
100
AcDbLine
 10
10398.68397977901
 20
7426.982962700354
 30
0.0
 11
9558.683979779013
 21
7426.982962700356
 31
0.0
  0
LINE
  5
4A2
330
2
100
AcDbEntity
  8
1
  6
Continuous
 48
30.0
100
AcDbLine
 10
9558.683979779013
 20
7351.982962700354
 30
0.0
 11
10398.68397977901
 21
7351.982962700354
 31
0.0
  0
LINE
  5
4A3
330
2
100
AcDbEntity
  8
1
  6
Continuous
 48
30.0
100
AcDbLine
 10
9798.683979779013
 20
8001.982962700354
 30
0.0
 11
10158.68397977901
 21
7521.982962700355
 31
0.0
  0
LINE
  5
4A4
330
2
100
AcDbEntity
  8
1
  6
Continuous
 48
30.0
100
AcDbLine
 10
9798.683979779013
 20
7521.982962700355
 30
0.0
 11
10158.68397977901
 21
8001.982962700354
 31
0.0
  0
LINE
  5
4A5
330
2
100
AcDbEntity
  8
1
  6
Continuous
 48
30.0
100
AcDbLine
 10
9558.683979779013
 20
8221.982962700355
 30
0.0
 11
9558.683979779013
 21
7426.982962700354
 31
0.0
  0
LWPOLYLINE
  5
4A6
330
2
100
AcDbEntity
  8
1
  6
Continuous
 48
30.0
100
AcDbPolyline
 90
        4
 70
     1
 43
0.0
 10
9768.683979779012
 20
7491.982962700355
 10
10188.68397977901
 20
7491.982962700355
 10
10188.68397977901
 20
8031.982962700354
 10
9768.683979779012
 20
8031.982962700354
  0
LWPOLYLINE
  5
4AC
330
2
100
AcDbEntity
  8
1
  6
Continuous
 48
30.0
100
AcDbPolyline
 90
        4
 70
     1
 43
0.0
 10
9798.683979779013
 20
7521.982962700355
 10
10158.68397977901
 20
7521.982962700355
 10
10158.68397977901
 20
8001.982962700354
 10
9798.683979779013
 20
8001.982962700354
  0
LINE
  5
4B3
330
2
100
AcDbEntity
  8
1
  6
Continuous
 48
30.0
100
AcDbLine
 10
9558.683979779013
 20
7426.982962700354
 30
0.0
 11
9558.683979779013
 21
7351.982962700354
 31
0.0
  0
LINE
  5
4B4
330
2
100
AcDbEntity
  8
1
  6
Continuous
 48
30.0
100
AcDbLine
 10
9782.492805779014
 20
7351.982962700354
 30
0.0
 11
9712.505624779012
 21
7351.982962700354
 31
0.0
  0
LINE
  5
4B5
330
2
100
AcDbEntity
  8
1
  6
Continuous
 48
30.0
100
AcDbLine
 10
10398.68397977901
 20
7426.982962700354
 30
0.0
 11
10398.68397977901
 21
8221.982962700355
 31
0.0
  0
LINE
  5
4B7
330
2
100
AcDbEntity
  8
1
  6
Continuous
 48
30.0
100
AcDbLine
 10
10398.68397977901
 20
7351.982962700354
 30
0.0
 11
10398.68397977901
 21
7426.982962700354
 31
0.0
  0
LINE
  5
4B8
330
2
100
AcDbEntity
  8
2
  6
CENTER
 48
30.0
100
AcDbLine
 10
8171.354964779011
 20
7761.982962700355
 30
0.0
 11
6795.482553779011
 21
7761.982962700355
 31
0.0
  0
LINE
  5
4B9
330
2
100
AcDbEntity
  8
2
  6
CENTER
 48
30.0
100
AcDbLine
 10
6771.860615779011
 20
9944.606353700354
 30
0.0
 11
8235.112463779012
 21
9944.606353700354
 31
0.0
  0
DIMENSION
  5
4BA
330
2
100
AcDbEntity
  8
3
  6
Continuous
 48
30.0
100
AcDbDimension
  2
*D1
 10
6888.32066977901
 20
7125.596201700355
 30
0.0
 11
7502.53891277901
 21
7125.596201700355
 31
0.0
 70
   160
 71
     5
 42
-1.0
  3
IGA
100
AcDbAlignedDimension
 13
8098.32066977901
 23
7351.982962700354
 33
0.0
 14
6888.32066977901
 24
7351.982962700356
 34
0.0
100
AcDbRotatedDimension
1001
ACAD
1000
DSTYLE
1002
{
1070
   287
1070
     3
1070
   287
1070
     3
1070
    40
1040
30.0
1070
   143
1040
0.039
1070
   172
1070
     1
1070
   271
1070
     0
1070
   279
1070
     0
1070
   288
1070
     1
1002
}
  0
DIMENSION
  5
4BB
330
2
100
AcDbEntity
  8
3
  6
Continuous
 48
30.0
100
AcDbDimension
  2
*D2
 10
8200.403063779011
 20
7351.982962700354
 30
0.0
 11
8200.40306377901
 21
7549.125819843212
 31
0.0
 70
   160
 71
     5
 42
-1.0
  3
IGA
100
AcDbAlignedDimension
 13
8171.354964779011
 23
7761.982962700355
 33
0.0
 14
8098.320669779011
 24
7351.982962700354
 34
0.0
 50
270.0
100
AcDbRotatedDimension
1001
ACAD
1000
DSTYLE
1002
{
1070
   287
1070
     3
1070
   287
1070
     3
1070
    40
1040
30.0
1070
   143
1040
0.039
1070
   172
1070
     1
1070
   271
1070
     0
1070
   279
1070
     0
1070
   288
1070
     1
1002
}
  0
DIMENSION
  5
4BC
330
2
100
AcDbEntity
  8
3
  6
Continuous
 48
30.0
100
AcDbDimension
  2
*D3
 10
8381.737849779012
 20
7351.982962700354
 30
0.0
 11
8381.73784977901
 21
7743.283986700355
 31
0.0
 70
   160
 71
     5
 42
-1.0
  3
IGA
100
AcDbAlignedDimension
 13
8013.320669779011
 23
8221.982962700353
 33
0.0
 14
8098.320669779011
 24
7351.982962700354
 34
0.0
 50
270.0
100
AcDbRotatedDimension
1001
ACAD
1000
DSTYLE
1002
{
1070
   287
1070
     3
1070
   287
1070
     3
1070
    40
1040
30.0
1070
   143
1040
0.039
1070
   172
1070
     1
1070
   271
1070
     0
1070
   279
1070
     0
1070
   288
1070
     1
1002
}
  0
DIMENSION
  5
4BD
330
2
100
AcDbEntity
  8
3
  6
Continuous
 48
30.0
100
AcDbDimension
  2
*D4
 10
6983.320669779011
 20
8372.443447700353
 30
0.0
 11
7532.76137777901
 21
8372.443447700353
 31
0.0
 70
   160
 71
     5
 42
-1.0
  3
IGA
100
AcDbAlignedDimension
 13
8013.320669779011
 23
8221.982962700353
 33
0.0
 14
6983.320669779011
 24
8221.982962700353
 34
0.0
100
AcDbRotatedDimension
1001
ACAD
1000
DSTYLE
1002
{
1070
   287
1070
     3
1070
   287
1070
     3
1070
    40
1040
30.0
1070
   143
1040
0.039
1070
   172
1070
     1
1070
   271
1070
     0
1070
   279
1070
     0
1070
   288
1070
     1
1002
}
  0
DIMENSION
  5
4BE
330
2
100
AcDbEntity
  8
3
  6
Continuous
 48
30.0
100
AcDbDimension
  2
*D5
 10
8013.542057779011
 20
9267.678948700355
 30
0.0
 11
7524.324890779012
 21
9267.678948700355
 31
0.0
 70
   160
 71
     5
 42
1030.0
  3
IGA
100
AcDbAlignedDimension
 13
6983.542057779011
 23
9524.606353700356
 33
0.0
 14
8013.542057779011
 24
9524.606353700356
 34
0.0
100
AcDbRotatedDimension
1001
ACAD
1000
DSTYLE
1002
{
1070
   287
1070
     3
1070
   287
1070
     3
1070
    40
1040
30.0
1070
   143
1040
0.039
1070
   172
1070
     1
1070
   271
1070
     0
1070
   279
1070
     0
1070
   288
1070
     1
1002
}
  0
LINE
  5
4C0
330
2
100
AcDbEntity
  8
2
  6
CENTER
 48
30.0
100
AcDbLine
 10
9978.683979779013
 20
8254.058072700354
 30
0.0
 11
9978.683979779013
 21
8240.358440854482
 31
0.0
  0
DIMENSION
  5
4C1
330
2
100
AcDbEntity
  8
3
  6
Continuous
 48
30.0
100
AcDbDimension
  2
*D6
 10
10398.68397977901
 20
7092.378364700355
 30
0.0
 11
9991.060923779013
 21
7092.378364700355
 31
0.0
 70
   160
 71
     5
 42
-1.0
  3
IGA
100
AcDbAlignedDimension
 13
9558.683979779013
 23
7351.982962700354
 33
0.0
 14
10398.68397977901
 24
7351.982962700354
 34
0.0
100
AcDbRotatedDimension
1001
ACAD
1000
DSTYLE
1002
{
1070
   287
1070
     3
1070
   287
1070
     3
1070
    40
1040
30.0
1070
   143
1040
0.039
1070
   172
1070
     1
1070
   271
1070
     0
1070
   279
1070
     0
1070
   288
1070
     1
1002
}
  0
DIMENSION
  5
4C2
330
2
100
AcDbEntity
  8
3
  6
Continuous
 48
30.0
100
AcDbDimension
  2
*D7
 10
10158.68397977901
 20
8094.697694700355
 30
0.0
 11
9978.683979779013
 21
8094.697694700355
 31
0.0
 70
   160
 71
     5
 42
-1.0
  3
IGA
100
AcDbAlignedDimension
 13
9798.683979779013
 23
8001.982962700354
 33
0.0
 14
10158.68397977901
 24
8001.982962700354
 34
0.0
100
AcDbRotatedDimension
1001
ACAD
1000
DSTYLE
1002
{
1070
   287
1070
     3
1070
   287
1070
     3
1070
    40
1040
30.0
1070
   143
1040
0.039
1070
   172
1070
     1
1070
   271
1070
     0
1070
   279
1070
     0
1070
   288
1070
     1
1002
}
  0
DIMENSION
  5
4C3
330
2
100
AcDbEntity
  8
3
  6
Continuous
 48
30.0
100
AcDbDimension
  2
*D8
 10
9697.796241779014
 20
7521.982962700355
 30
0.0
 11
9697.796241779011
 21
7796.26867698607
 31
0.0
 70
   160
 71
     5
 42
-1.0
  3
IGA
100
AcDbAlignedDimension
 13
9798.683979779013
 23
8001.982962700354
 33
0.0
 14
9798.683979779013
 24
7521.982962700355
 34
0.0
 50
90.0
100
AcDbRotatedDimension
1001
ACAD
1000
DSTYLE
1002
{
1070
   287
1070
     3
1070
   287
1070
     3
1070
    40
1040
30.0
1070
   143
1040
0.039
1070
   172
1070
     1
1070
   271
1070
     0
1070
   279
1070
     0
1070
   288
1070
     1
1002
}
  0
LINE
  5
4C6
330
2
100
AcDbEntity
  8
4
  6
Continuous
 48
30.0
100
AcDbLine
 10
11059.32446277901
 20
5842.425582700355
 30
0.0
 11
11059.32446277901
 21
5242.425582700355
 31
0.0
  0
LINE
  5
4C7
330
2
100
AcDbEntity
  8
4
  6
Continuous
 48
30.0
100
AcDbLine
 10
8959.324462779012
 20
5842.425582700355
 30
0.0
 11
8959.324462779012
 21
5242.425582700355
 31
0.0
  0
LINE
  5
4C8
330
2
100
AcDbEntity
  8
4
  6
Continuous
 48
30.0
100
AcDbLine
 10
7459.324462779012
 20
5842.425582700355
 30
0.0
 11
7459.324462779012
 21
5242.425582700355
 31
0.0
  0
LINE
  5
4CB
330
2
100
AcDbEntity
  8
4
  6
Continuous
 48
30.0
100
AcDbLine
 10
7459.324462779012
 20
5242.425582700355
 30
0.0
 11
11059.32446277901
 21
5242.425582700355
 31
0.0
  0
LINE
  5
4CC
330
2
100
AcDbEntity
  8
4
  6
Continuous
 48
30.0
100
AcDbLine
 10
7459.324462779012
 20
5542.425582700355
 30
0.0
 11
11059.32446277901
 21
5542.425582700355
 31
0.0
  0
TEXT
  5
4CD
330
2
100
AcDbEntity
  8
4
  6
Continuous
 48
30.0
100
AcDbText
 10
7574.830705779011
 20
5637.054660700354
 30
0.0
 40
150.0
  1
機器名称
100
AcDbText
  0
TEXT
  5
4CE
330
2
100
AcDbEntity
  8
4
  6
Continuous
 48
30.0
100
AcDbText
 10
7568.098780779012
 20
5307.361052700355
 30
0.0
 40
150.0
  1
機器型番
100
AcDbText
  0
TEXT
  5
4CF
330
2
100
AcDbEntity
  8
4
  6
Continuous
 48
30.0
100
AcDbText
 10
9042.360698779011
 20
5610.140889700355
 30
0.0
 40
150.0
  1
ミツヤファンユニット
100
AcDbText
  0
TEXT
  5
4D0
330
2
100
AcDbEntity
  8
4
  6
Continuous
 48
30.0
100
AcDbText
 10
9069.287949779011
 20
5293.904335700355
 30
0.0
 40
150.0
  1
MFU#2001-1
100
AcDbText
  0
TEXT
  5
4D2
330
2
100
AcDbEntity
  8
4
  6
Continuous
 48
30.0
100
AcDbText
 10
7582.361795779012
 20
11492.71210670035
 30
0.0
 40
150.0
  1
天井吊りベット
100
AcDbText
  0
TEXT
  5
4D3
330
2
100
AcDbEntity
  8
4
  6
Continuous
 48
30.0
100
AcDbText
 10
6457.827242779011
 20
11944.06851170035
 30
0.0
 40
190.0
  1
ベルト駆動式消音ボックス付き多翼ファン
100
AcDbText
  0
LINE
  5
4D4
330
2
100
AcDbEntity
  8
4
  6
Continuous
 48
30.0
100
AcDbLine
 10
6259.324462779012
 20
11750.65184570035
 30
0.0
 11
11059.32446277901
 21
11750.65184570035
 31
0.0
  0
LINE
  5
4D5
330
2
100
AcDbEntity
  8
4
  6
Continuous
 48
30.0
100
AcDbLine
 10
6259.324462779012
 20
12350.65184570035
 30
0.0
 11
11059.32446277901
 21
12350.65184570035
 31
0.0
  0
LINE
  5
4D6
330
2
100
AcDbEntity
  8
4
  6
Continuous
 48
30.0
100
AcDbLine
 10
7459.324462779012
 20
5842.425582700355
 30
0.0
 11
11059.32446277901
 21
5842.425582700355
 31
0.0
  0
LINE
  5
4D7
330
2
100
AcDbEntity
  8
4
  6
Continuous
 48
30.0
100
AcDbLine
 10
6259.324462779012
 20
12350.65184570035
 30
0.0
 11
6259.324462779012
 21
11750.65184570035
 31
0.0
  0
TEXT
  5
4D8
330
2
100
AcDbEntity
  8
4
  6
Continuous
 48
30.0
100
AcDbText
 10
6413.449078779011
 20
11489.38401570035
 30
0.0
 40
150.0
  1
左回転右吐出
100
AcDbText
  0
TEXT
  5
4D9
330
2
100
AcDbEntity
  8
4
  6
Continuous
 48
30.0
100
AcDbText
 10
9916.233140779013
 20
12460.60882670035
 30
0.0
 40
168.0
  1
No.
100
AcDbText
  0
TEXT
  5
4DA
330
2
100
AcDbEntity
  8
4
  6
Continuous
 48
30.0
100
AcDbText
 10
9928.535843779014
 20
11492.71210670035
 30
0.0
 40
150.0
  1
縮尺：1/30
100
AcDbText
  0
LINE
  5
4DB
330
2
100
AcDbEntity
  8
4
  6
Continuous
 48
30.0
100
AcDbLine
 10
11059.32446277901
 20
12350.65184570035
 30
0.0
 11
11059.32446277901
 21
11750.65184570035
 31
0.0
  0
LINE
  5
4DC
330
2
100
AcDbEntity
  8
4
  6
Continuous
 48
30.0
100
AcDbLine
 10
9831.176729779013
 20
12386.21633170035
 30
0.0
 11
9831.176729779013
 21
12702.38236770035
 31
0.0
  0
LINE
  5
4DD
330
2
100
AcDbEntity
  8
4
  6
Continuous
 48
30.0
100
AcDbLine
 10
9831.176729779013
 20
12702.38236770035
 30
0.0
 11
11059.32446277901
 21
12702.38236770035
 31
0.0
  0
LINE
  5
4DE
330
2
100
AcDbEntity
  8
4
  6
Continuous
 48
30.0
100
AcDbLine
 10
11059.32446277901
 20
12702.38236770035
 30
0.0
 11
11059.32446277901
 21
12386.21633170035
 31
0.0
  0
LINE
  5
4DF
330
2
100
AcDbEntity
  8
4
  6
Continuous
 48
30.0
100
AcDbLine
 10
11059.32446277901
 20
12386.21633170035
 30
0.0
 11
9831.176729779013
 21
12386.21633170035
 31
0.0
  0
DIMENSION
  5
690
330
2
100
AcDbEntity
  8
3
  6
Continuous
 48
30.0
100
AcDbDimension
  2
*D9
 10
6670.38764892247
 20
7351.982962700356
 30
0.0
 11
6595.387648922468
 21
7556.982962700357
 31
0.0
 70
    32
 71
     5
 42
-1.0
  3
IGA
100
AcDbAlignedDimension
 13
6795.482553779011
 23
7761.982962700355
 33
0.0
 14
6888.32066977901
 24
7351.982962700356
 34
0.0
 50
270.0
100
AcDbRotatedDimension
1001
ACAD
1000
DSTYLE
1002
{
1070
   287
1070
     3
1070
   287
1070
     3
1070
    40
1040
30.0
1070
   143
1040
0.039
1070
   172
1070
     1
1070
   271
1070
     0
1070
   279
1070
     0
1070
   288
1070
     1
1002
}
  0
LINE
  5
7D8
330
2
100
AcDbEntity
  8
2
  6
CENTER
 48
30.0
100
AcDbLine
 10
9978.683979779013
 20
8071.669610124809
 30
0.0
 11
9978.683979779013
 21
7312.275195700355
 31
0.0
  0
DIMENSION
  5
8D3
330
2
100
AcDbEntity
  8
3
 48
10.0
100
AcDbDimension
  2
*D10
 10
8390.305757957326
 20
9524.606353700354
 30
0.0
 11
8330.305757957324
 21
9944.606353700356
 31
0.0
 70
    32
 71
     5
 42
840.0
  3
MATSU
100
AcDbAlignedDimension
 13
8103.542057779012
 23
10364.60635370035
 33
0.0
 14
8103.542057779012
 24
9524.606353700354
 34
0.0
 50
90.0
100
AcDbRotatedDimension
  0
DIMENSION
  5
8E0
330
2
100
AcDbEntity
  8
3
 48
10.0
100
AcDbDimension
  2
*D11
 10
9978.683979779013
 20
8381.504870194602
 30
0.0
 11
9768.683979779012
 21
8441.504870194602
 31
0.0
 70
    32
 71
     5
 42
420.0
  3
MATSU
100
AcDbAlignedDimension
 13
9558.683979779013
 23
8221.982962700355
 33
0.0
 14
9978.683979779013
 24
8254.058072700354
 34
0.0
100
AcDbRotatedDimension
  0
DIMENSION
  5
8ED
330
2
100
AcDbEntity
  8
3
 48
10.0
100
AcDbDimension
  2
*D12
 10
10398.68397977901
 20
8381.504870194602
 30
0.0
 11
10188.68397977901
 21
8441.504870194602
 31
0.0
 70
    32
 71
     5
 42
419.9999999999981
  3
MATSU
100
AcDbAlignedDimension
 13
9978.683979779013
 23
8254.058072700354
 33
0.0
 14
10398.68397977901
 24
8221.982962700353
 34
0.0
100
AcDbRotatedDimension
1001
ACAD
1000
DSTYLE
1002
{
1070
   279
1070
     1
1002
}
  0
ENDSEC
  0
SECTION
  2
OBJECTS
  0
DICTIONARY
  5
1A
330
0
100
AcDbDictionary
281
     1
  3
ACAD_GROUP
350
18
  3
ACAD_LAYOUT
350
721
  3
ACAD_MLINESTYLE
350
19
  3
ACAD_PLOTSETTINGS
350
722
  3
ACAD_PLOTSTYLENAME
350
71F
  3
AcDbVariableDictionary
350
89C
  0
DICTIONARY
  5
74E
330
2
100
AcDbDictionary
280
     1
281
     1
  3
ACAD_LAYOUTSELFREF
360
81D
  0
DICTIONARY
  5
750
330
8
100
AcDbDictionary
280
     1
281
     1
  3
ACAD_LAYOUTSELFREF
360
81E
  0
DICTIONARY
  5
18
102
{ACAD_REACTORS
330
1A
102
}
330
1A
100
AcDbDictionary
281
     1
  0
DICTIONARY
  5
721
102
{ACAD_REACTORS
330
1A
102
}
330
1A
100
AcDbDictionary
281
     1
  3
Model
350
723
  3
ﾚｲｱｳﾄ1
350
724
  0
DICTIONARY
  5
19
102
{ACAD_REACTORS
330
1A
102
}
330
1A
100
AcDbDictionary
281
     1
  3
STANDARD
350
1E
  0
DICTIONARY
  5
722
102
{ACAD_REACTORS
330
1A
102
}
330
1A
100
AcDbDictionary
281
     1
  0
ACDBDICTIONARYWDFLT
  5
71F
102
{ACAD_REACTORS
330
1A
102
}
330
1A
100
AcDbDictionary
281
     1
  3
Normal
350
720
100
AcDbDictionaryWithDefault
340
720
1001
ACAD
1000
TREAT_AS_HARD
1070
     0
1000
TREAT_AS_HARD
1070
     0
  0
DICTIONARY
  5
89C
102
{ACAD_REACTORS
330
1A
102
}
330
1A
100
AcDbDictionary
281
     1
  3
DIMASSOC
350
89D
  0
XRECORD
  5
81D
102
{ACAD_REACTORS
330
74E
102
}
330
74E
100
AcDbXrecord
280
     1
340
2
  0
XRECORD
  5
81E
102
{ACAD_REACTORS
330
750
102
}
330
750
100
AcDbXrecord
280
     1
340
8
  0
LAYOUT
  5
723
102
{ACAD_REACTORS
330
721
102
}
330
721
100
AcDbPlotSettings
  1

  2
EPSON LP-9300
  4

  6

 40
0.0
 41
0.0
 42
0.0
 43
0.0
 44
0.0
 45
0.0
 46
0.0
 47
0.0
 48
0.0
 49
0.0
140
0.0
141
0.0
142
1.0
143
1.0
 70
  1712
 72
     0
 73
     0
 74
     0
  7

 75
     0
147
1.0
148
0.0
149
0.0
100
AcDbLayout
  1
Model
 70
     1
 71
     0
 10
0.0
 20
0.0
 11
12.0
 21
9.0
 12
0.0
 22
0.0
 32
0.0
 14
0.0
 24
0.0
 34
0.0
 15
0.0
 25
0.0
 35
0.0
146
0.0
 13
0.0
 23
0.0
 33
0.0
 16
1.0
 26
0.0
 36
0.0
 17
0.0
 27
1.0
 37
0.0
 76
     0
330
2
  0
LAYOUT
  5
724
102
{ACAD_REACTORS
330
721
102
}
330
721
100
AcDbPlotSettings
  1

  2
EPSON LP-9300
  4

  6

 40
0.0
 41
0.0
 42
0.0
 43
0.0
 44
0.0
 45
0.0
 46
0.0
 47
0.0
 48
0.0
 49
0.0
140
0.0
141
0.0
142
1.0
143
1.0
 70
   688
 72
     0
 73
     0
 74
     5
  7

 75
    16
147
1.0
148
0.0
149
0.0
100
AcDbLayout
  1
ﾚｲｱｳﾄ1
 70
     0
 71
     1
 10
0.0
 20
0.0
 11
12.0
 21
9.0
 12
0.0
 22
0.0
 32
0.0
 14
1.000000000000000E+20
 24
1.000000000000000E+20
 34
1.000000000000000E+20
 15
-1.000000000000000E+20
 25
-1.000000000000000E+20
 35
-1.000000000000000E+20
146
0.0
 13
0.0
 23
0.0
 33
0.0
 16
1.0
 26
0.0
 36
0.0
 17
0.0
 27
1.0
 37
0.0
 76
     0
330
8
  0
MLINESTYLE
  5
1E
102
{ACAD_REACTORS
330
19
102
}
330
19
100
AcDbMlineStyle
  2
STANDARD
 70
     0
  3

 62
     0
 51
90.0
 52
90.0
 71
     2
 49
0.5
 62
   256
  6
BYLAYER
 49
-0.5
 62
   256
  6
BYLAYER
  0
ACDBPLACEHOLDER
  5
720
102
{ACAD_REACTORS
330
71F
102
}
330
71F
  0
DICTIONARYVAR
  5
89D
102
{ACAD_REACTORS
330
89C
102
}
330
89C
100
DictionaryVariables
280
     0
  1
1
  0
ENDSEC
  0
EOF
