  0
SECTION
  2
HEADER
  9
$ACADVER
  1
AC1015
  9
$ACADMAINTVER
 70
     6
  9
$DWGCODEPAGE
  3
ANSI_932
  9
$INSBASE
 10
0.0
 20
0.0
 30
0.0
  9
$EXTMIN
 10
500.0
 20
600.0
 30
0.0
  9
$EXTMAX
 10
3700.0
 20
5573.304523
 30
0.0
  9
$LIMMIN
 10
0.0
 20
0.0
  9
$LIMMAX
 10
297.0
 20
210.0
  9
$ORTHOMODE
 70
     1
  9
$REGENMODE
 70
     1
  9
$FILLMODE
 70
     0
  9
$QTEXTMODE
 70
     0
  9
$MIRRTEXT
 70
     1
  9
$LTSCALE
 40
5.0
  9
$ATTMODE
 70
     1
  9
$TEXTSIZE
 40
180.0
  9
$TRACEWID
 40
0.05
  9
$TEXTSTYLE
  7
STANDARD
  9
$CLAYER
  8
3
  9
$CELTYPE
  6
BYLAYER
  9
$CECOLOR
 62
   256
  9
$CELTSCALE
 40
1.0
  9
$DISPSILH
 70
     0
  9
$DIMSCALE
 40
20.0
  9
$DIMASZ
 40
2.0
  9
$DIMEXO
 40
0.5
  9
$DIMDLI
 40
10.0
  9
$DIMRND
 40
0.0
  9
$DIMDLE
 40
0.0
  9
$DIMEXE
 40
1.0
  9
$DIMTP
 40
1.0
  9
$DIMTM
 40
1.0
  9
$DIMTXT
 40
3.0
  9
$DIMCEN
 40
0.0
  9
$DIMTSZ
 40
0.0
  9
$DIMTOL
 70
     0
  9
$DIMLIM
 70
     0
  9
$DIMTIH
 70
     0
  9
$DIMTOH
 70
     0
  9
$DIMSE1
 70
     0
  9
$DIMSE2
 70
     0
  9
$DIMTAD
 70
     1
  9
$DIMZIN
 70
     8
  9
$DIMBLK
  1

  9
$DIMASO
 70
     1
  9
$DIMSHO
 70
     1
  9
$DIMPOST
  1

  9
$DIMAPOST
  1

  9
$DIMALT
 70
     0
  9
$DIMALTD
 70
     2
  9
$DIMALTF
 40
0.039
  9
$DIMLFAC
 40
1.0
  9
$DIMTOFL
 70
     1
  9
$DIMTVP
 40
0.0
  9
$DIMTIX
 70
     0
  9
$DIMSOXD
 70
     0
  9
$DIMSAH
 70
     1
  9
$DIMBLK1
  1
OPEN
  9
$DIMBLK2
  1
OPEN
  9
$DIMSTYLE
  2
IGA
  9
$DIMCLRD
 70
     0
  9
$DIMCLRE
 70
     0
  9
$DIMCLRT
 70
     0
  9
$DIMTFAC
 40
10.0
  9
$DIMGAP
 40
1.0
  9
$DIMJUST
 70
     0
  9
$DIMSD1
 70
     0
  9
$DIMSD2
 70
     0
  9
$DIMTOLJ
 70
     1
  9
$DIMTZIN
 70
     8
  9
$DIMALTZ
 70
     0
  9
$DIMALTTZ
 70
     0
  9
$DIMUPT
 70
     1
  9
$DIMDEC
 70
     0
  9
$DIMTDEC
 70
     0
  9
$DIMALTU
 70
     2
  9
$DIMALTTD
 70
     2
  9
$DIMTXSTY
  7
STANDARD
  9
$DIMAUNIT
 70
     0
  9
$DIMADEC
 70
     0
  9
$DIMALTRND
 40
0.0
  9
$DIMAZIN
 70
     0
  9
$DIMDSEP
 70
    46
  9
$DIMATFIT
 70
     3
  9
$DIMFRAC
 70
     0
  9
$DIMLDRBLK
  1
OPEN
  9
$DIMLUNIT
 70
     2
  9
$DIMLWD
 70
    -2
  9
$DIMLWE
 70
    -2
  9
$DIMTMOVE
 70
     0
  9
$LUNITS
 70
     2
  9
$LUPREC
 70
     3
  9
$SKETCHINC
 40
0.1
  9
$FILLETRAD
 40
50.0
  9
$AUNITS
 70
     0
  9
$AUPREC
 70
     0
  9
$MENU
  1
acad
  9
$ELEVATION
 40
0.0
  9
$PELEVATION
 40
0.0
  9
$THICKNESS
 40
0.0
  9
$LIMCHECK
 70
     0
  9
$CHAMFERA
 40
0.5
  9
$CHAMFERB
 40
0.5
  9
$CHAMFERC
 40
20.0
  9
$CHAMFERD
 40
0.0
  9
$SKPOLY
 70
     0
  9
$TDCREATE
 40
2450786.359002199
  9
$TDUCREATE
 40
2450785.984002199
  9
$TDUPDATE
 40
2456463.547928414
  9
$TDUUPDATE
 40
2456463.172928414
  9
$TDINDWG
 40
0.0181611227
  9
$TDUSRTIMER
 40
0.0181611227
  9
$USRTIMER
 70
     1
  9
$ANGBASE
 50
0.0
  9
$ANGDIR
 70
     0
  9
$PDMODE
 70
     0
  9
$PDSIZE
 40
0.0
  9
$PLINEWID
 40
0.0
  9
$SPLFRAME
 70
     0
  9
$SPLINETYPE
 70
     6
  9
$SPLINESEGS
 70
     8
  9
$HANDSEED
  5
7E6A
  9
$SURFTAB1
 70
     6
  9
$SURFTAB2
 70
     6
  9
$SURFTYPE
 70
     6
  9
$SURFU
 70
     6
  9
$SURFV
 70
     6
  9
$UCSBASE
  2

  9
$UCSNAME
  2

  9
$UCSORG
 10
0.0
 20
0.0
 30
0.0
  9
$UCSXDIR
 10
1.0
 20
0.0
 30
0.0
  9
$UCSYDIR
 10
0.0
 20
1.0
 30
0.0
  9
$UCSORTHOREF
  2

  9
$UCSORTHOVIEW
 70
     0
  9
$UCSORGTOP
 10
0.0
 20
0.0
 30
0.0
  9
$UCSORGBOTTOM
 10
0.0
 20
0.0
 30
0.0
  9
$UCSORGLEFT
 10
0.0
 20
0.0
 30
0.0
  9
$UCSORGRIGHT
 10
0.0
 20
0.0
 30
0.0
  9
$UCSORGFRONT
 10
0.0
 20
0.0
 30
0.0
  9
$UCSORGBACK
 10
0.0
 20
0.0
 30
0.0
  9
$PUCSBASE
  2

  9
$PUCSNAME
  2

  9
$PUCSORG
 10
0.0
 20
0.0
 30
0.0
  9
$PUCSXDIR
 10
1.0
 20
0.0
 30
0.0
  9
$PUCSYDIR
 10
0.0
 20
1.0
 30
0.0
  9
$PUCSORTHOREF
  2

  9
$PUCSORTHOVIEW
 70
     0
  9
$PUCSORGTOP
 10
0.0
 20
0.0
 30
0.0
  9
$PUCSORGBOTTOM
 10
0.0
 20
0.0
 30
0.0
  9
$PUCSORGLEFT
 10
0.0
 20
0.0
 30
0.0
  9
$PUCSORGRIGHT
 10
0.0
 20
0.0
 30
0.0
  9
$PUCSORGFRONT
 10
0.0
 20
0.0
 30
0.0
  9
$PUCSORGBACK
 10
0.0
 20
0.0
 30
0.0
  9
$USERI1
 70
     0
  9
$USERI2
 70
     0
  9
$USERI3
 70
     0
  9
$USERI4
 70
     0
  9
$USERI5
 70
     0
  9
$USERR1
 40
0.0
  9
$USERR2
 40
0.0
  9
$USERR3
 40
0.0
  9
$USERR4
 40
0.0
  9
$USERR5
 40
0.0
  9
$WORLDVIEW
 70
     1
  9
$SHADEDGE
 70
     3
  9
$SHADEDIF
 70
    70
  9
$TILEMODE
 70
     1
  9
$MAXACTVP
 70
    16
  9
$PINSBASE
 10
0.0
 20
0.0
 30
0.0
  9
$PLIMCHECK
 70
     0
  9
$PEXTMIN
 10
1.000000000000000E+20
 20
1.000000000000000E+20
 30
1.000000000000000E+20
  9
$PEXTMAX
 10
-1.000000000000000E+20
 20
-1.000000000000000E+20
 30
-1.000000000000000E+20
  9
$PLIMMIN
 10
0.0
 20
0.0
  9
$PLIMMAX
 10
12.0
 20
9.0
  9
$UNITMODE
 70
     0
  9
$VISRETAIN
 70
     0
  9
$PLINEGEN
 70
     0
  9
$PSLTSCALE
 70
     1
  9
$TREEDEPTH
 70
  3020
  9
$CMLSTYLE
  2
STANDARD
  9
$CMLJUST
 70
     0
  9
$CMLSCALE
 40
20.0
  9
$PROXYGRAPHICS
 70
     1
  9
$MEASUREMENT
 70
     0
  9
$CELWEIGHT
370
    -1
  9
$ENDCAPS
280
     0
  9
$JOINSTYLE
280
     0
  9
$LWDISPLAY
290
     0
  9
$INSUNITS
 70
     0
  9
$HYPERLINKBASE
  1

  9
$STYLESHEET
  1

  9
$XEDIT
290
     1
  9
$CEPSNTYPE
380
     0
  9
$PSTYLEMODE
290
     1
  9
$FINGERPRINTGUID
  2
{A276ECC6-75B9-11D5-A85E-0080AD788799}
  9
$VERSIONGUID
  2
{0E953389-DE6E-4DEC-A039-C28F7A61D593}
  9
$EXTNAMES
290
     1
  9
$PSVPSCALE
 40
0.0
  9
$OLESTARTUP
290
     0
  0
ENDSEC
  0
SECTION
  2
CLASSES
  0
CLASS
  1
ACDBDICTIONARYWDFLT
  2
AcDbDictionaryWithDefault
  3
AutoCAD 2000
 90
        0
280
     0
281
     0
  0
CLASS
  1
ACDBPLACEHOLDER
  2
AcDbPlaceHolder
  3
AutoCAD 2000
 90
        0
280
     0
281
     0
  0
CLASS
  1
LAYOUT
  2
AcDbLayout
  3
AutoCAD 2000
 90
        0
280
     0
281
     0
  0
CLASS
  1
LONG_TRANSACTION
  2
AcDbLongTransaction
  3
AutoCAD 2000
 90
    32768
280
     0
281
     0
  0
CLASS
  1
LWPOLYLINE
  2
AcDbPolyline
  3
AutoCAD 2000
 90
    32768
280
     0
281
     1
  0
CLASS
  1
HATCH
  2
AcDbHatch
  3
AutoCAD 2000
 90
    32768
280
     0
281
     1
  0
CLASS
  1
XRECORD
  2
AcDbXrecord
  3
AutoCAD 2000
 90
    32768
280
     0
281
     0
  0
CLASS
  1
DICTIONARYVAR
  2
AcDbDictionaryVar
  3
AutoCAD 2000
 90
        0
280
     0
281
     0
  0
CLASS
  1
LONG_TRANSACTION
  2
AcDbLongTransaction
  3
AutoCAD 2000
 90
    32768
280
     0
281
     0
  0
CLASS
  1
LWPOLYLINE
  2
AcDbPolyline
  3
AutoCAD 2000
 90
    32768
280
     0
281
     1
  0
CLASS
  1
HATCH
  2
AcDbHatch
  3
AutoCAD 2000
 90
    32768
280
     0
281
     1
  0
CLASS
  1
XRECORD
  2
AcDbXrecord
  3
AutoCAD 2000
 90
    32768
280
     0
281
     0
  0
ENDSEC
  0
SECTION
  2
TABLES
  0
TABLE
  2
VPORT
  5
8
330
0
100
AcDbSymbolTable
 70
     3
  0
VPORT
  5
7E69
330
8
100
AcDbSymbolTableRecord
100
AcDbViewportTableRecord
  2
*Active
 70
     0
 10
0.0
 20
0.0
 11
1.0
 21
1.0
 12
1243.875242371798
 22
3219.024097099402
 13
0.0
 23
0.0
 14
10.0
 24
10.0
 15
10.0
 25
10.0
 16
0.0
 26
0.0
 36
1.0
 17
0.0
 27
0.0
 37
0.0
 40
5383.980807102371
 41
1.73997233748271
 42
50.0
 43
0.0
 44
0.0
 50
0.0
 51
0.0
 71
     0
 72
   100
 73
     1
 74
     0
 75
     0
 76
     0
 77
     0
 78
     0
281
     0
 65
     1
110
0.0
120
0.0
130
0.0
111
1.0
121
0.0
131
0.0
112
0.0
122
1.0
132
0.0
 79
     0
146
0.0
  0
ENDTAB
  0
TABLE
  2
LTYPE
  5
5
330
0
100
AcDbSymbolTable
 70
     2
  0
LTYPE
  5
13
330
5
100
AcDbSymbolTableRecord
100
AcDbLinetypeTableRecord
  2
BYBLOCK
 70
     0
  3

 72
    65
 73
     0
 40
0.0
  0
LTYPE
  5
14
330
5
100
AcDbSymbolTableRecord
100
AcDbLinetypeTableRecord
  2
BYLAYER
 70
     0
  3

 72
    65
 73
     0
 40
0.0
  0
LTYPE
  5
15
330
5
100
AcDbSymbolTableRecord
100
AcDbLinetypeTableRecord
  2
CONTINUOUS
 70
     0
  3
Solid line
 72
    65
 73
     0
 40
0.0
  0
LTYPE
  5
1F
330
5
100
AcDbSymbolTableRecord
100
AcDbLinetypeTableRecord
  2
CENTER
 70
     0
  3
____ _ ____ _ ____ _ ____ _ ____ _ ____ _ ____ 
 72
    65
 73
     4
 40
2.0
 49
1.25
 74
     0
 49
-0.25
 74
     0
 49
0.25
 74
     0
 49
-0.25
 74
     0
  0
ENDTAB
  0
TABLE
  2
LAYER
  5
2
330
0
100
AcDbSymbolTable
 70
     6
  0
LAYER
  5
F
330
2
100
AcDbSymbolTableRecord
100
AcDbLayerTableRecord
  2
0
 70
     0
 62
     7
  6
CONTINUOUS
370
    -3
390
7C2B
  0
LAYER
  5
31
330
2
100
AcDbSymbolTableRecord
100
AcDbLayerTableRecord
  2
3
 70
     0
 62
     2
  6
CONTINUOUS
370
    -3
390
7C2B
  0
LAYER
  5
76D0
330
2
100
AcDbSymbolTableRecord
100
AcDbLayerTableRecord
  2
2
 70
     0
 62
     3
  6
CENTER
370
    -3
390
7C2B
  0
LAYER
  5
76D1
330
2
100
AcDbSymbolTableRecord
100
AcDbLayerTableRecord
  2
1
 70
     0
 62
     4
  6
CONTINUOUS
370
    -3
390
7C2B
  0
LAYER
  5
76D2
330
2
100
AcDbSymbolTableRecord
100
AcDbLayerTableRecord
  2
4
 70
     0
 62
     7
  6
CONTINUOUS
370
    -3
390
7C2B
  0
LAYER
  5
7A9F
330
2
100
AcDbSymbolTableRecord
100
AcDbLayerTableRecord
  2
DEFPOINTS
 70
     0
 62
     7
  6
CONTINUOUS
290
     0
370
    -3
390
7C2B
  0
ENDTAB
  0
TABLE
  2
STYLE
  5
3
330
0
100
AcDbSymbolTable
 70
     1
  0
STYLE
  5
10
330
3
100
AcDbSymbolTableRecord
100
AcDbTextStyleTableRecord
  2
STANDARD
 70
     0
 40
0.0
 41
1.0
 50
0.0
 71
     0
 42
180.0
  3
simplex.shx
  4
extfont.shx
  0
ENDTAB
  0
TABLE
  2
VIEW
  5
6
330
0
100
AcDbSymbolTable
 70
     0
  0
ENDTAB
  0
TABLE
  2
UCS
  5
7
330
0
100
AcDbSymbolTable
 70
     0
  0
ENDTAB
  0
TABLE
  2
APPID
  5
9
330
0
100
AcDbSymbolTable
 70
     1
  0
APPID
  5
11
330
9
100
AcDbSymbolTableRecord
100
AcDbRegAppTableRecord
  2
ACAD
 70
     0
  0
ENDTAB
  0
TABLE
  2
DIMSTYLE
  5
A
330
0
100
AcDbSymbolTable
 70
     1
100
AcDbDimStyleTable
 71
     1
340
1D
  0
DIMSTYLE
105
1D
102
{ACAD_REACTORS
330
7AB2
330
7ABF
330
7ACC
330
7AD9
330
7AE6
330
7B1E
330
7B2B
330
7B38
330
7C0E
330
7AF3
330
7B0F
330
7B03
330
7E38
330
7E45
330
7E52
102
}
330
A
100
AcDbSymbolTableRecord
100
AcDbDimStyleTableRecord
  2
IGA
 70
     0
 40
2.0
 41
2.0
 42
0.5
 43
10.0
 44
1.0
 47
1.0
 48
1.0
 73
     0
 74
     0
 77
     1
 78
     8
140
3.0
141
0.0
143
0.03937
146
10.0
147
1.0
173
     1
271
     1
272
     0
279
     2
284
     8
340
10
341
7A91
343
7A91
344
7A91
  0
ENDTAB
  0
TABLE
  2
BLOCK_RECORD
  5
1
330
0
100
AcDbSymbolTable
 70
    16
  0
BLOCK_RECORD
  5
19
102
{ACAD_XDICTIONARY
360
7C59
102
}
330
1
100
AcDbSymbolTableRecord
100
AcDbBlockTableRecord
  2
*MODEL_SPACE
340
7C2E
  0
BLOCK_RECORD
  5
16
102
{ACAD_XDICTIONARY
360
7C57
102
}
330
1
100
AcDbSymbolTableRecord
100
AcDbBlockTableRecord
  2
*PAPER_SPACE
340
7C2F
  0
BLOCK_RECORD
  5
7A91
330
1
100
AcDbSymbolTableRecord
100
AcDbBlockTableRecord
  2
_OPEN
340
0
102
{BLKREFS
331
7DC3
331
7DC4
331
7DCC
331
7DCD
331
7DD5
331
7DD6
331
7DDE
331
7DDF
331
7DE7
331
7DE8
331
7DF0
331
7DF1
331
7DF9
331
7DFA
331
7E01
331
7E02
331
7E0A
331
7E0B
331
7E13
331
7E14
331
7E1C
331
7E1D
331
7E25
331
7E26
331
7E3D
331
7E3E
331
7E4A
331
7E4B
331
7E57
331
7E58
331
7E62
331
7E63
102
}
  0
BLOCK_RECORD
  5
7AA6
330
1
100
AcDbSymbolTableRecord
100
AcDbBlockTableRecord
  2
*D1
340
0
  0
BLOCK_RECORD
  5
7AB3
330
1
100
AcDbSymbolTableRecord
100
AcDbBlockTableRecord
  2
*D2
340
0
  0
BLOCK_RECORD
  5
7AC0
330
1
100
AcDbSymbolTableRecord
100
AcDbBlockTableRecord
  2
*D3
340
0
  0
BLOCK_RECORD
  5
7ACD
330
1
100
AcDbSymbolTableRecord
100
AcDbBlockTableRecord
  2
*D4
340
0
  0
BLOCK_RECORD
  5
7ADA
330
1
100
AcDbSymbolTableRecord
100
AcDbBlockTableRecord
  2
*D5
340
0
  0
BLOCK_RECORD
  5
7AE7
330
1
100
AcDbSymbolTableRecord
100
AcDbBlockTableRecord
  2
*D6
340
0
  0
BLOCK_RECORD
  5
7AF7
330
1
100
AcDbSymbolTableRecord
100
AcDbBlockTableRecord
  2
*D7
340
0
  0
BLOCK_RECORD
  5
7B04
330
1
100
AcDbSymbolTableRecord
100
AcDbBlockTableRecord
  2
*D8
340
0
  0
BLOCK_RECORD
  5
7B10
330
1
100
AcDbSymbolTableRecord
100
AcDbBlockTableRecord
  2
*D9
340
0
  0
BLOCK_RECORD
  5
7B1F
330
1
100
AcDbSymbolTableRecord
100
AcDbBlockTableRecord
  2
*D10
340
0
  0
BLOCK_RECORD
  5
7B2C
330
1
100
AcDbSymbolTableRecord
100
AcDbBlockTableRecord
  2
*D11
340
0
  0
BLOCK_RECORD
  5
7C02
330
1
100
AcDbSymbolTableRecord
100
AcDbBlockTableRecord
  2
*D12
340
0
  0
BLOCK_RECORD
  5
7E39
330
1
100
AcDbSymbolTableRecord
100
AcDbBlockTableRecord
  2
*D13
340
0
  0
BLOCK_RECORD
  5
7E46
330
1
100
AcDbSymbolTableRecord
100
AcDbBlockTableRecord
  2
*D14
340
0
  0
BLOCK_RECORD
  5
7E53
330
1
100
AcDbSymbolTableRecord
100
AcDbBlockTableRecord
  2
*D15
340
0
  0
ENDTAB
  0
ENDSEC
  0
SECTION
  2
BLOCKS
  0
BLOCK
  5
1A
330
19
100
AcDbEntity
  8
0
100
AcDbBlockBegin
  2
*MODEL_SPACE
 70
     0
 10
0.0
 20
0.0
 30
0.0
  3
*MODEL_SPACE
  1

  0
ENDBLK
  5
1B
330
19
100
AcDbEntity
  8
0
100
AcDbBlockEnd
  0
BLOCK
  5
17
330
16
100
AcDbEntity
 67
     1
  8
0
100
AcDbBlockBegin
  2
*PAPER_SPACE
 70
     0
 10
0.0
 20
0.0
 30
0.0
  3
*PAPER_SPACE
  1

  0
ENDBLK
  5
18
330
16
100
AcDbEntity
 67
     1
  8
0
100
AcDbBlockEnd
  0
BLOCK
  5
7A92
330
7A91
100
AcDbEntity
  8
0
100
AcDbBlockBegin
  2
_OPEN
 70
     0
 10
0.0
 20
0.0
 30
0.0
  3
_OPEN
  1

  0
LINE
  5
7A93
330
7A91
100
AcDbEntity
  8
0
  6
ByBlock
 62
     0
100
AcDbLine
 10
-1.0
 20
0.166667
 30
0.0
 11
0.0
 21
0.0
 31
0.0
  0
LINE
  5
7A94
330
7A91
100
AcDbEntity
  8
0
  6
ByBlock
 62
     0
100
AcDbLine
 10
0.0
 20
0.0
 30
0.0
 11
-1.0
 21
-0.166667
 31
0.0
  0
LINE
  5
7A95
330
7A91
100
AcDbEntity
  8
0
  6
ByBlock
 62
     0
100
AcDbLine
 10
0.0
 20
0.0
 30
0.0
 11
-1.0
 21
0.0
 31
0.0
  0
ENDBLK
  5
7A96
330
7A91
100
AcDbEntity
  8
0
100
AcDbBlockEnd
  0
BLOCK
  5
7BBF
330
7AA6
100
AcDbEntity
  8
0
100
AcDbBlockBegin
  2
*D1
 70
     1
 10
0.0
 20
0.0
 30
0.0
  3
*D1
  1

  0
LINE
  5
7DC0
330
7AA6
100
AcDbEntity
  8
3
  6
Continuous
 62
     0
100
AcDbLine
 10
866.9736949999998
 20
1833.767241
 30
0.0
 11
866.9736949999998
 21
1637.786988
 31
0.0
  0
LINE
  5
7DC1
330
7AA6
100
AcDbEntity
  8
3
  6
Continuous
 62
     0
100
AcDbLine
 10
1936.973694999999
 20
1833.767241
 30
0.0
 11
1936.973694999999
 21
1637.786988
 31
0.0
  0
LINE
  5
7DC2
330
7AA6
100
AcDbEntity
  8
3
  6
Continuous
 62
     0
100
AcDbLine
 10
906.9736949999997
 20
1657.786988
 30
0.0
 11
1896.973694999999
 21
1657.786988
 31
0.0
  0
INSERT
  5
7DC3
330
7AA6
100
AcDbEntity
  8
3
  6
Continuous
 62
     0
100
AcDbBlockReference
  2
_OPEN
 10
866.9736949999998
 20
1657.786988
 30
0.0
 41
40.0
 42
40.0
 43
40.0
 50
180.0
  0
INSERT
  5
7DC4
330
7AA6
100
AcDbEntity
  8
3
  6
Continuous
 62
     0
100
AcDbBlockReference
  2
_OPEN
 10
1936.973694999999
 20
1657.786988
 30
0.0
 41
40.0
 42
40.0
 43
40.0
  0
MTEXT
  5
7DC5
330
7AA6
100
AcDbEntity
  8
3
  6
Continuous
 62
     0
100
AcDbMText
 10
1446.200816
 20
1707.786988
 30
0.0
 40
60.0
 41
0.0
 71
     5
 72
     5
  1
\A1;1070
 73
     1
 44
1.0
  0
POINT
  5
7DC6
330
7AA6
100
AcDbEntity
  8
DEFPOINTS
  6
Continuous
 62
     0
100
AcDbPoint
 10
866.9736949999998
 20
1843.767240999999
 30
0.0
  0
POINT
  5
7DC7
330
7AA6
100
AcDbEntity
  8
DEFPOINTS
  6
Continuous
 62
     0
100
AcDbPoint
 10
1936.973694999999
 20
1843.767241
 30
0.0
  0
POINT
  5
7DC8
330
7AA6
100
AcDbEntity
  8
DEFPOINTS
  6
Continuous
 62
     0
100
AcDbPoint
 10
1936.973694999999
 20
1657.786988
 30
0.0
  0
ENDBLK
  5
7BC9
330
7AA6
100
AcDbEntity
  8
0
100
AcDbBlockEnd
  0
BLOCK
  5
7B93
330
7AB3
100
AcDbEntity
  8
0
100
AcDbBlockBegin
  2
*D2
 70
     1
 10
0.0
 20
0.0
 30
0.0
  3
*D2
  1

  0
LINE
  5
7DC9
330
7AB3
100
AcDbEntity
  8
3
  6
Continuous
 62
     0
100
AcDbLine
 10
797.29997
 20
2193.767241
 30
0.0
 11
752.8040740000003
 21
2193.767241
 31
0.0
  0
LINE
  5
7DCA
330
7AB3
100
AcDbEntity
  8
3
  6
Continuous
 62
     0
100
AcDbLine
 10
851.9736949999998
 20
1843.767241
 30
0.0
 11
752.8040740000003
 21
1843.767241
 31
0.0
  0
LINE
  5
7DCB
330
7AB3
100
AcDbEntity
  8
3
  6
Continuous
 62
     0
100
AcDbLine
 10
772.8040740000003
 20
2153.767241
 30
0.0
 11
772.8040740000003
 21
1883.767241
 31
0.0
  0
INSERT
  5
7DCC
330
7AB3
100
AcDbEntity
  8
3
  6
Continuous
 62
     0
100
AcDbBlockReference
  2
_OPEN
 10
772.8040740000003
 20
2193.767241
 30
0.0
 41
40.0
 42
40.0
 43
40.0
 50
90.0
  0
INSERT
  5
7DCD
330
7AB3
100
AcDbEntity
  8
3
  6
Continuous
 62
     0
100
AcDbBlockReference
  2
_OPEN
 10
772.8040740000003
 20
1843.767241
 30
0.0
 41
40.0
 42
40.0
 43
40.0
 50
270.0
  0
MTEXT
  5
7DCE
330
7AB3
100
AcDbEntity
  8
3
  6
Continuous
 62
     0
100
AcDbMText
 10
722.8040739999999
 20
2008.459669
 30
0.0
 40
60.0
 41
0.0
 71
     5
 72
     5
  1
\A1;350
 11
0.0000000000000001
 21
1.0
 31
0.0
 73
     1
 44
1.0
  0
POINT
  5
7DCF
330
7AB3
100
AcDbEntity
  8
DEFPOINTS
  6
Continuous
 62
     0
100
AcDbPoint
 10
807.29997
 20
2193.767241
 30
0.0
  0
POINT
  5
7DD0
330
7AB3
100
AcDbEntity
  8
DEFPOINTS
  6
Continuous
 62
     0
100
AcDbPoint
 10
861.973695
 20
1843.767241
 30
0.0
  0
POINT
  5
7DD1
330
7AB3
100
AcDbEntity
  8
DEFPOINTS
  6
Continuous
 62
     0
100
AcDbPoint
 10
772.8040740000003
 20
1843.767241
 30
0.0
  0
ENDBLK
  5
7B9D
330
7AB3
100
AcDbEntity
  8
0
100
AcDbBlockEnd
  0
BLOCK
  5
7BCB
330
7AC0
100
AcDbEntity
  8
0
100
AcDbBlockBegin
  2
*D3
 70
     1
 10
0.0
 20
0.0
 30
0.0
  3
*D3
  1

  0
LINE
  5
7DD2
330
7AC0
100
AcDbEntity
  8
3
  6
Continuous
 62
     0
100
AcDbLine
 10
946.9736949999999
 20
2588.767241
 30
0.0
 11
623.3890590000004
 21
2588.767241
 31
0.0
  0
LINE
  5
7DD3
330
7AC0
100
AcDbEntity
  8
3
  6
Continuous
 62
     0
100
AcDbLine
 10
851.9736949999998
 20
1843.767241
 30
0.0
 11
623.3890590000003
 21
1843.767241
 31
0.0
  0
LINE
  5
7DD4
330
7AC0
100
AcDbEntity
  8
3
  6
Continuous
 62
     0
100
AcDbLine
 10
643.3890590000004
 20
2548.767241
 30
0.0
 11
643.3890590000003
 21
1883.767241
 31
0.0
  0
INSERT
  5
7DD5
330
7AC0
100
AcDbEntity
  8
3
  6
Continuous
 62
     0
100
AcDbBlockReference
  2
_OPEN
 10
643.3890590000004
 20
2588.767241
 30
0.0
 41
40.0
 42
40.0
 43
40.0
 50
90.0
  0
INSERT
  5
7DD6
330
7AC0
100
AcDbEntity
  8
3
  6
Continuous
 62
     0
100
AcDbBlockReference
  2
_OPEN
 10
643.3890590000003
 20
1843.767241
 30
0.0
 41
40.0
 42
40.0
 43
40.0
 50
270.0
  0
MTEXT
  5
7DD7
330
7AC0
100
AcDbEntity
  8
3
  6
Continuous
 62
     0
100
AcDbMText
 10
593.3890589999999
 20
2196.946239999999
 30
0.0
 40
60.0
 41
0.0
 71
     5
 72
     5
  1
\A1;745
 11
0.0000000000000001
 21
1.0
 31
0.0
 73
     1
 44
1.0
  0
POINT
  5
7DD8
330
7AC0
100
AcDbEntity
  8
DEFPOINTS
  6
Continuous
 62
     0
100
AcDbPoint
 10
956.9736949999999
 20
2588.767241
 30
0.0
  0
POINT
  5
7DD9
330
7AC0
100
AcDbEntity
  8
DEFPOINTS
  6
Continuous
 62
     0
100
AcDbPoint
 10
861.973695
 20
1843.767241
 30
0.0
  0
POINT
  5
7DDA
330
7AC0
100
AcDbEntity
  8
DEFPOINTS
  6
Continuous
 62
     0
100
AcDbPoint
 10
643.3890590000003
 20
1843.767241
 30
0.0
  0
ENDBLK
  5
7BD5
330
7AC0
100
AcDbEntity
  8
0
100
AcDbBlockEnd
  0
BLOCK
  5
7BA9
330
7ACD
100
AcDbEntity
  8
0
100
AcDbBlockBegin
  2
*D4
 70
     1
 10
0.0
 20
0.0
 30
0.0
  3
*D4
  1

  0
LINE
  5
7DDB
330
7ACD
100
AcDbEntity
  8
3
  6
Continuous
 62
     0
100
AcDbLine
 10
956.9736949999999
 20
2598.767241
 30
0.0
 11
956.9736949999999
 21
2736.201897
 31
0.0
  0
LINE
  5
7DDC
330
7ACD
100
AcDbEntity
  8
3
  6
Continuous
 62
     0
100
AcDbLine
 10
1846.973694999999
 20
2598.767241
 30
0.0
 11
1846.973694999999
 21
2736.201897
 31
0.0
  0
LINE
  5
7DDD
330
7ACD
100
AcDbEntity
  8
3
  6
Continuous
 62
     0
100
AcDbLine
 10
996.9736949999999
 20
2716.201896999999
 30
0.0
 11
1806.973694999999
 21
2716.201896999999
 31
0.0
  0
INSERT
  5
7DDE
330
7ACD
100
AcDbEntity
  8
3
  6
Continuous
 62
     0
100
AcDbBlockReference
  2
_OPEN
 10
956.9736949999999
 20
2716.201896999999
 30
0.0
 41
40.0
 42
40.0
 43
40.0
 50
180.0
  0
INSERT
  5
7DDF
330
7ACD
100
AcDbEntity
  8
3
  6
Continuous
 62
     0
100
AcDbBlockReference
  2
_OPEN
 10
1846.973694999999
 20
2716.201896999999
 30
0.0
 41
40.0
 42
40.0
 43
40.0
  0
MTEXT
  5
7DE0
330
7ACD
100
AcDbEntity
  8
3
  6
Continuous
 62
     0
100
AcDbMText
 10
1384.783518999999
 20
2766.201897
 30
0.0
 40
60.0
 41
0.0
 71
     5
 72
     5
  1
\A1;890
 73
     1
 44
1.0
  0
POINT
  5
7DE1
330
7ACD
100
AcDbEntity
  8
DEFPOINTS
  6
Continuous
 62
     0
100
AcDbPoint
 10
956.9736949999999
 20
2588.767241
 30
0.0
  0
POINT
  5
7DE2
330
7ACD
100
AcDbEntity
  8
DEFPOINTS
  6
Continuous
 62
     0
100
AcDbPoint
 10
1846.973694999999
 20
2588.767241
 30
0.0
  0
POINT
  5
7DE3
330
7ACD
100
AcDbEntity
  8
DEFPOINTS
  6
Continuous
 62
     0
100
AcDbPoint
 10
1846.973694999999
 20
2716.201896999999
 30
0.0
  0
ENDBLK
  5
7BB3
330
7ACD
100
AcDbEntity
  8
0
100
AcDbBlockEnd
  0
BLOCK
  5
7BE1
330
7ADA
100
AcDbEntity
  8
0
100
AcDbBlockBegin
  2
*D5
 70
     1
 10
0.0
 20
0.0
 30
0.0
  3
*D5
  1

  0
LINE
  5
7E5F
330
7ADA
100
AcDbEntity
  8
3
  6
Continuous
 62
     0
370
    -2
100
AcDbLine
 10
956.8867140000001
 20
3401.372766
 30
0.0
 11
956.8867140000001
 21
3204.513586
 31
0.0
  0
LINE
  5
7E60
330
7ADA
100
AcDbEntity
  8
3
  6
Continuous
 62
     0
370
    -2
100
AcDbLine
 10
1846.886714
 20
3401.372766
 30
0.0
 11
1846.886714
 21
3204.513586
 31
0.0
  0
LINE
  5
7E61
330
7ADA
100
AcDbEntity
  8
3
  6
Continuous
 62
     0
370
    -2
100
AcDbLine
 10
996.8867140000002
 20
3224.513586
 30
0.0
 11
1806.886714
 21
3224.513586
 31
0.0
  0
INSERT
  5
7E62
330
7ADA
100
AcDbEntity
  8
3
  6
Continuous
 62
     0
370
    -2
100
AcDbBlockReference
  2
_OPEN
 10
956.8867140000001
 20
3224.513586
 30
0.0
 41
40.0
 42
40.0
 43
40.0
 50
180.0
  0
INSERT
  5
7E63
330
7ADA
100
AcDbEntity
  8
3
  6
Continuous
 62
     0
370
    -2
100
AcDbBlockReference
  2
_OPEN
 10
1846.886714
 20
3224.513586
 30
0.0
 41
40.0
 42
40.0
 43
40.0
  0
MTEXT
  5
7E64
330
7ADA
100
AcDbEntity
  8
3
  6
Continuous
 62
     0
100
AcDbMText
 10
1424.266052
 20
3274.513585999999
 30
0.0
 40
60.0
 41
0.0
 71
     5
 72
     1
  1
\A1;890
 73
     1
 44
1.0
  0
POINT
  5
7E65
330
7ADA
100
AcDbEntity
  8
DEFPOINTS
  6
Continuous
 62
     0
100
AcDbPoint
 10
956.8867140000001
 20
3411.372766
 30
0.0
  0
POINT
  5
7E66
330
7ADA
100
AcDbEntity
  8
DEFPOINTS
  6
Continuous
 62
     0
100
AcDbPoint
 10
1846.886714
 20
3411.372766
 30
0.0
  0
POINT
  5
7E67
330
7ADA
100
AcDbEntity
  8
DEFPOINTS
  6
Continuous
 62
     0
100
AcDbPoint
 10
1846.886714
 20
3224.513586
 30
0.0
  0
ENDBLK
  5
7BEB
330
7ADA
100
AcDbEntity
  8
0
100
AcDbBlockEnd
  0
BLOCK
  5
7BF7
330
7AE7
100
AcDbEntity
  8
0
100
AcDbBlockBegin
  2
*D6
 70
     1
 10
0.0
 20
0.0
 30
0.0
  3
*D6
  1

  0
LINE
  5
7DED
330
7AE7
100
AcDbEntity
  8
3
  6
Continuous
 62
     0
100
AcDbLine
 10
1856.886713999999
 20
4096.372765999999
 30
0.0
 11
2108.888897
 21
4096.372765999999
 31
0.0
  0
LINE
  5
7DEE
330
7AE7
100
AcDbEntity
  8
3
  6
Continuous
 62
     0
100
AcDbLine
 10
1856.886714
 20
3396.372765999999
 30
0.0
 11
2108.888897
 21
3396.372765999999
 31
0.0
  0
LINE
  5
7DEF
330
7AE7
100
AcDbEntity
  8
3
  6
Continuous
 62
     0
100
AcDbLine
 10
2088.888897
 20
4056.372765999999
 30
0.0
 11
2088.888897
 21
3436.372765999999
 31
0.0
  0
INSERT
  5
7DF0
330
7AE7
100
AcDbEntity
  8
3
  6
Continuous
 62
     0
100
AcDbBlockReference
  2
_OPEN
 10
2088.888897
 20
4096.372765999999
 30
0.0
 41
40.0
 42
40.0
 43
40.0
 50
90.0
  0
INSERT
  5
7DF1
330
7AE7
100
AcDbEntity
  8
3
  6
Continuous
 62
     0
100
AcDbBlockReference
  2
_OPEN
 10
2088.888897
 20
3396.372765999999
 30
0.0
 41
40.0
 42
40.0
 43
40.0
 50
270.0
  0
MTEXT
  5
7DF2
330
7AE7
100
AcDbEntity
  8
3
  6
Continuous
 62
     0
100
AcDbMText
 10
2038.888896999999
 20
3755.905442
 30
0.0
 40
60.0
 41
0.0
 71
     5
 72
     5
  1
\A1;700
 11
0.0000000000000001
 21
1.0
 31
0.0
 73
     1
 44
1.0
  0
POINT
  5
7DF3
330
7AE7
100
AcDbEntity
  8
DEFPOINTS
  6
Continuous
 62
     0
100
AcDbPoint
 10
1846.886713999999
 20
4096.372765999999
 30
0.0
  0
POINT
  5
7DF4
330
7AE7
100
AcDbEntity
  8
DEFPOINTS
  6
Continuous
 62
     0
100
AcDbPoint
 10
1846.886714
 20
3396.372765999999
 30
0.0
  0
POINT
  5
7DF5
330
7AE7
100
AcDbEntity
  8
DEFPOINTS
  6
Continuous
 62
     0
100
AcDbPoint
 10
2088.888897
 20
3396.372765999999
 30
0.0
  0
ENDBLK
  5
7C01
330
7AE7
100
AcDbEntity
  8
0
100
AcDbBlockEnd
  0
BLOCK
  5
7C1D
330
7AF7
100
AcDbEntity
  8
0
100
AcDbBlockBegin
  2
*D7
 70
     1
 10
0.0
 20
0.0
 30
0.0
  3
*D7
  1

  0
LINE
  5
7DF6
330
7AF7
100
AcDbEntity
  8
3
  6
Continuous
 62
     0
100
AcDbLine
 10
2766.080628
 20
2598.767241
 30
0.0
 11
2766.080628
 21
2741.023669
 31
0.0
  0
LINE
  5
7DF7
330
7AF7
100
AcDbEntity
  8
3
  6
Continuous
 62
     0
100
AcDbLine
 10
3116.080628
 20
2676.231057
 30
0.0
 11
3116.080628
 21
2741.023669
 31
0.0
  0
LINE
  5
7DF8
330
7AF7
100
AcDbEntity
  8
3
  6
Continuous
 62
     0
100
AcDbLine
 10
2806.080628
 20
2721.023669
 30
0.0
 11
3076.080628
 21
2721.023669
 31
0.0
  0
INSERT
  5
7DF9
330
7AF7
100
AcDbEntity
  8
3
  6
Continuous
 62
     0
100
AcDbBlockReference
  2
_OPEN
 10
2766.080628
 20
2721.023669
 30
0.0
 41
40.0
 42
40.0
 43
40.0
 50
180.0
  0
INSERT
  5
7DFA
330
7AF7
100
AcDbEntity
  8
3
  6
Continuous
 62
     0
100
AcDbBlockReference
  2
_OPEN
 10
3116.080628
 20
2721.023669
 30
0.0
 41
40.0
 42
40.0
 43
40.0
  0
MTEXT
  5
7DFB
330
7AF7
100
AcDbEntity
  8
3
  6
Continuous
 62
     0
100
AcDbMText
 10
2978.937770857143
 20
2771.023669
 30
0.0
 40
60.0
 41
0.0
 71
     5
 72
     5
  1
\A1;350
 73
     1
 44
1.0
  0
POINT
  5
7DFC
330
7AF7
100
AcDbEntity
  8
DEFPOINTS
  6
Continuous
 62
     0
100
AcDbPoint
 10
2766.080628
 20
2588.767241
 30
0.0
  0
POINT
  5
7DFD
330
7AF7
100
AcDbEntity
  8
DEFPOINTS
  6
Continuous
 62
     0
100
AcDbPoint
 10
3116.080628
 20
2666.231057
 30
0.0
  0
POINT
  5
7DFE
330
7AF7
100
AcDbEntity
  8
DEFPOINTS
  6
Continuous
 62
     0
100
AcDbPoint
 10
3116.080628
 20
2721.023669
 30
0.0
  0
ENDBLK
  5
7C27
330
7AF7
100
AcDbEntity
  8
0
100
AcDbBlockEnd
  0
BLOCK
  5
7B7E
330
7B04
100
AcDbEntity
  8
0
100
AcDbBlockBegin
  2
*D8
 70
     1
 10
0.0
 20
0.0
 30
0.0
  3
*D8
  1

  0
LINE
  5
7DFF
330
7B04
100
AcDbEntity
  8
3
  6
Continuous
 62
     0
100
AcDbLine
 10
3466.080628
 20
2598.767241
 30
0.0
 11
3466.080628
 21
2741.023669
 31
0.0
  0
LINE
  5
7E00
330
7B04
100
AcDbEntity
  8
3
  6
Continuous
 62
     0
100
AcDbLine
 10
3156.080628
 20
2721.023669
 30
0.0
 11
3426.080628
 21
2721.023669
 31
0.0
  0
INSERT
  5
7E01
330
7B04
100
AcDbEntity
  8
3
  6
Continuous
 62
     0
100
AcDbBlockReference
  2
_OPEN
 10
3116.080628
 20
2721.023669
 30
0.0
 41
40.0
 42
40.0
 43
40.0
 50
180.0
  0
INSERT
  5
7E02
330
7B04
100
AcDbEntity
  8
3
  6
Continuous
 62
     0
100
AcDbBlockReference
  2
_OPEN
 10
3466.080628
 20
2721.023669
 30
0.0
 41
40.0
 42
40.0
 43
40.0
  0
MTEXT
  5
7E03
330
7B04
100
AcDbEntity
  8
3
  6
Continuous
 62
     0
100
AcDbMText
 10
3291.080628
 20
2771.023669
 30
0.0
 40
60.0
 41
0.0
 71
     5
 72
     5
  1
\A1;350
 73
     1
 44
1.0
  0
POINT
  5
7E04
330
7B04
100
AcDbEntity
  8
DEFPOINTS
  6
Continuous
 62
     0
100
AcDbPoint
 10
3116.080628
 20
2666.231057
 30
0.0
  0
POINT
  5
7E05
330
7B04
100
AcDbEntity
  8
DEFPOINTS
  6
Continuous
 62
     0
100
AcDbPoint
 10
3466.080628
 20
2588.767241
 30
0.0
  0
POINT
  5
7E06
330
7B04
100
AcDbEntity
  8
DEFPOINTS
  6
Continuous
 62
     0
100
AcDbPoint
 10
3466.080628
 20
2721.023669
 30
0.0
  0
ENDBLK
  5
7B87
330
7B04
100
AcDbEntity
  8
0
100
AcDbBlockEnd
  0
BLOCK
  5
7B11
330
7B10
100
AcDbEntity
  8
0
100
AcDbBlockBegin
  2
*D9
 70
     1
 10
0.0
 20
0.0
 30
0.0
  3
*D9
  1

  0
LINE
  5
7E07
330
7B10
100
AcDbEntity
  8
3
  6
Continuous
 62
     0
100
AcDbLine
 10
2996.080628
 20
2363.767241
 30
0.0
 11
2996.080628
 21
2475.485516
 31
0.0
  0
LINE
  5
7E08
330
7B10
100
AcDbEntity
  8
3
  6
Continuous
 62
     0
100
AcDbLine
 10
3236.080628
 20
2363.767241
 30
0.0
 11
3236.080628
 21
2475.485516
 31
0.0
  0
LINE
  5
7E09
330
7B10
100
AcDbEntity
  8
3
  6
Continuous
 62
     0
100
AcDbLine
 10
3036.080628
 20
2455.485516
 30
0.0
 11
3196.080628
 21
2455.485516
 31
0.0
  0
INSERT
  5
7E0A
330
7B10
100
AcDbEntity
  8
3
  6
Continuous
 62
     0
100
AcDbBlockReference
  2
_OPEN
 10
2996.080628
 20
2455.485516
 30
0.0
 41
40.0
 42
40.0
 43
40.0
 50
180.0
  0
INSERT
  5
7E0B
330
7B10
100
AcDbEntity
  8
3
  6
Continuous
 62
     0
100
AcDbBlockReference
  2
_OPEN
 10
3236.080628
 20
2455.485516
 30
0.0
 41
40.0
 42
40.0
 43
40.0
  0
MTEXT
  5
7E0C
330
7B10
100
AcDbEntity
  8
3
  6
Continuous
 62
     0
100
AcDbMText
 10
3116.080628
 20
2505.485516
 30
0.0
 40
60.0
 41
0.0
 71
     5
 72
     5
  1
\A1;240
 73
     1
 44
1.0
  0
POINT
  5
7E0D
330
7B10
100
AcDbEntity
  8
DEFPOINTS
  6
Continuous
 62
     0
100
AcDbPoint
 10
2996.080628
 20
2353.767240999999
 30
0.0
  0
POINT
  5
7E0E
330
7B10
100
AcDbEntity
  8
DEFPOINTS
  6
Continuous
 62
     0
100
AcDbPoint
 10
3236.080628
 20
2353.767240999999
 30
0.0
  0
POINT
  5
7E0F
330
7B10
100
AcDbEntity
  8
DEFPOINTS
  6
Continuous
 62
     0
100
AcDbPoint
 10
3236.080628
 20
2455.485516
 30
0.0
  0
ENDBLK
  5
7B1D
330
7B10
100
AcDbEntity
  8
0
100
AcDbBlockEnd
  0
BLOCK
  5
7B20
330
7B1F
100
AcDbEntity
  8
0
100
AcDbBlockBegin
  2
*D10
 70
     1
 10
0.0
 20
0.0
 30
0.0
  3
*D10
  1

  0
LINE
  5
7E10
330
7B1F
100
AcDbEntity
  8
3
  6
Continuous
 62
     0
100
AcDbLine
 10
2986.080628
 20
2353.767240999999
 30
0.0
 11
2889.284912
 21
2353.767240999999
 31
0.0
  0
LINE
  5
7E11
330
7B1F
100
AcDbEntity
  8
3
  6
Continuous
 62
     0
100
AcDbLine
 10
2986.080628
 20
2033.767241
 30
0.0
 11
2889.284912
 21
2033.767241
 31
0.0
  0
LINE
  5
7E12
330
7B1F
100
AcDbEntity
  8
3
  6
Continuous
 62
     0
100
AcDbLine
 10
2909.284912
 20
2313.767241
 30
0.0
 11
2909.284912
 21
2073.767241
 31
0.0
  0
INSERT
  5
7E13
330
7B1F
100
AcDbEntity
  8
3
  6
Continuous
 62
     0
100
AcDbBlockReference
  2
_OPEN
 10
2909.284912
 20
2353.767240999999
 30
0.0
 41
40.0
 42
40.0
 43
40.0
 50
90.0
  0
INSERT
  5
7E14
330
7B1F
100
AcDbEntity
  8
3
  6
Continuous
 62
     0
100
AcDbBlockReference
  2
_OPEN
 10
2909.284912
 20
2033.767241
 30
0.0
 41
40.0
 42
40.0
 43
40.0
 50
270.0
  0
MTEXT
  5
7E15
330
7B1F
100
AcDbEntity
  8
3
  6
Continuous
 62
     0
100
AcDbMText
 10
2859.284912
 20
2191.604352
 30
0.0
 40
60.0
 41
0.0
 71
     5
 72
     5
  1
\A1;320
 11
0.0000000000000001
 21
1.0
 31
0.0
 73
     1
 44
1.0
  0
POINT
  5
7E16
330
7B1F
100
AcDbEntity
  8
DEFPOINTS
  6
Continuous
 62
     0
100
AcDbPoint
 10
2996.080628
 20
2353.767240999999
 30
0.0
  0
POINT
  5
7E17
330
7B1F
100
AcDbEntity
  8
DEFPOINTS
  6
Continuous
 62
     0
100
AcDbPoint
 10
2996.080628
 20
2033.767241
 30
0.0
  0
POINT
  5
7E18
330
7B1F
100
AcDbEntity
  8
DEFPOINTS
  6
Continuous
 62
     0
100
AcDbPoint
 10
2909.284912
 20
2033.767241
 30
0.0
  0
ENDBLK
  5
7B2A
330
7B1F
100
AcDbEntity
  8
0
100
AcDbBlockEnd
  0
BLOCK
  5
7B68
330
7B2C
100
AcDbEntity
  8
0
100
AcDbBlockBegin
  2
*D11
 70
     1
 10
0.0
 20
0.0
 30
0.0
  3
*D11
  1

  0
LINE
  5
7E19
330
7B2C
100
AcDbEntity
  8
3
  6
Continuous
 62
     0
100
AcDbLine
 10
2781.080628
 20
1833.767241
 30
0.0
 11
2781.080628
 21
1655.320672
 31
0.0
  0
LINE
  5
7E1A
330
7B2C
100
AcDbEntity
  8
3
  6
Continuous
 62
     0
100
AcDbLine
 10
3451.080628
 20
1833.767241
 30
0.0
 11
3451.080628
 21
1655.320672
 31
0.0
  0
LINE
  5
7E1B
330
7B2C
100
AcDbEntity
  8
3
  6
Continuous
 62
     0
100
AcDbLine
 10
2821.080628
 20
1675.320672
 30
0.0
 11
3411.080628
 21
1675.320672
 31
0.0
  0
INSERT
  5
7E1C
330
7B2C
100
AcDbEntity
  8
3
  6
Continuous
 62
     0
100
AcDbBlockReference
  2
_OPEN
 10
2781.080628
 20
1675.320672
 30
0.0
 41
40.0
 42
40.0
 43
40.0
 50
180.0
  0
INSERT
  5
7E1D
330
7B2C
100
AcDbEntity
  8
3
  6
Continuous
 62
     0
100
AcDbBlockReference
  2
_OPEN
 10
3451.080628
 20
1675.320672
 30
0.0
 41
40.0
 42
40.0
 43
40.0
  0
MTEXT
  5
7E1E
330
7B2C
100
AcDbEntity
  8
3
  6
Continuous
 62
     0
100
AcDbMText
 10
3145.471519
 20
1725.320672
 30
0.0
 40
60.0
 41
0.0
 71
     5
 72
     5
  1
\A1;670
 73
     1
 44
1.0
  0
POINT
  5
7E1F
330
7B2C
100
AcDbEntity
  8
DEFPOINTS
  6
Continuous
 62
     0
100
AcDbPoint
 10
2781.080628
 20
1843.767241
 30
0.0
  0
POINT
  5
7E20
330
7B2C
100
AcDbEntity
  8
DEFPOINTS
  6
Continuous
 62
     0
100
AcDbPoint
 10
3451.080628
 20
1843.767241
 30
0.0
  0
POINT
  5
7E21
330
7B2C
100
AcDbEntity
  8
DEFPOINTS
  6
Continuous
 62
     0
100
AcDbPoint
 10
3451.080628
 20
1675.320672
 30
0.0
  0
ENDBLK
  5
7B72
330
7B2C
100
AcDbEntity
  8
0
100
AcDbBlockEnd
  0
BLOCK
  5
7C03
330
7C02
100
AcDbEntity
  8
0
100
AcDbBlockBegin
  2
*D12
 70
     1
 10
0.0
 20
0.0
 30
0.0
  3
*D12
  1

  0
LINE
  5
7E22
330
7C02
100
AcDbEntity
  8
3
 62
     0
100
AcDbLine
 10
1946.973694999999
 20
1843.767241
 30
0.0
 11
2157.643495883021
 21
1843.767241
 31
0.0
  0
LINE
  5
7E23
330
7C02
100
AcDbEntity
  8
3
 62
     0
100
AcDbLine
 10
2006.762963999999
 20
2193.767241
 30
0.0
 11
2157.643495883021
 21
2193.767241
 31
0.0
  0
LINE
  5
7E24
330
7C02
100
AcDbEntity
  8
3
 62
     0
100
AcDbLine
 10
2137.643495883021
 20
1883.767241
 30
0.0
 11
2137.643495883021
 21
2153.767241
 31
0.0
  0
INSERT
  5
7E25
330
7C02
100
AcDbEntity
  8
3
 62
     0
100
AcDbBlockReference
  2
_OPEN
 10
2137.643495883021
 20
1843.767241
 30
0.0
 41
40.0
 42
40.0
 43
40.0
 50
270.0
  0
INSERT
  5
7E26
330
7C02
100
AcDbEntity
  8
3
 62
     0
100
AcDbBlockReference
  2
_OPEN
 10
2137.643495883021
 20
2193.767241
 30
0.0
 41
40.0
 42
40.0
 43
40.0
 50
90.0
  0
MTEXT
  5
7E27
330
7C02
100
AcDbEntity
  8
3
 62
     0
100
AcDbMText
 10
2087.643495883021
 20
2003.210187981069
 30
0.0
 40
60.0
 41
0.0
 71
     5
 72
     5
  1
\A1;350
 11
0.0000000000000001
 21
1.0
 31
0.0
 73
     1
 44
1.0
  0
POINT
  5
7E28
330
7C02
100
AcDbEntity
  8
DEFPOINTS
 62
     0
100
AcDbPoint
 10
1936.973694999999
 20
1843.767241
 30
0.0
  0
POINT
  5
7E29
330
7C02
100
AcDbEntity
  8
DEFPOINTS
 62
     0
100
AcDbPoint
 10
1996.762964
 20
2193.767241
 30
0.0
  0
POINT
  5
7E2A
330
7C02
100
AcDbEntity
  8
DEFPOINTS
 62
     0
100
AcDbPoint
 10
2137.643495883021
 20
2193.767241
 30
0.0
  0
ENDBLK
  5
7C0D
330
7C02
100
AcDbEntity
  8
0
100
AcDbBlockEnd
  0
BLOCK
  5
7E43
330
7E39
100
AcDbEntity
  8
0
100
AcDbBlockBegin
  2
*D13
 70
     1
 10
0.0
 20
0.0
 30
0.0
  3
*D13
  1

  0
LINE
  5
7E3A
330
7E39
100
AcDbEntity
  8
3
 62
     0
370
    -2
100
AcDbLine
 10
2781.080628
 20
2598.767240999999
 30
0.0
 11
2781.080628
 21
2783.172797236009
 31
0.0
  0
LINE
  5
7E3B
330
7E39
100
AcDbEntity
  8
3
 62
     0
370
    -2
100
AcDbLine
 10
3116.080628
 20
2681.231057
 30
0.0
 11
3116.080628
 21
2783.172797236009
 31
0.0
  0
LINE
  5
7E3C
330
7E39
100
AcDbEntity
  8
3
 62
     0
370
    -2
100
AcDbLine
 10
2821.080628
 20
2763.172797236009
 30
0.0
 11
3076.080628
 21
2763.172797236009
 31
0.0
  0
INSERT
  5
7E3D
330
7E39
100
AcDbEntity
  8
3
 62
     0
370
    -2
100
AcDbBlockReference
  2
_OPEN
 10
2781.080628
 20
2763.172797236009
 30
0.0
 41
40.0
 42
40.0
 43
40.0
 50
180.0
  0
INSERT
  5
7E3E
330
7E39
100
AcDbEntity
  8
3
 62
     0
370
    -2
100
AcDbBlockReference
  2
_OPEN
 10
3116.080628
 20
2763.172797236009
 30
0.0
 41
40.0
 42
40.0
 43
40.0
  0
MTEXT
  5
7E3F
330
7E39
100
AcDbEntity
  8
3
 62
     0
100
AcDbMText
 10
2946.697647768422
 20
2813.172797236009
 30
0.0
 40
60.0
 41
0.0
 71
     5
 72
     1
  1
\A1;335
 73
     1
 44
1.0
  0
POINT
  5
7E40
330
7E39
100
AcDbEntity
  8
DEFPOINTS
 62
     0
100
AcDbPoint
 10
2781.080628
 20
2588.767240999999
 30
0.0
  0
POINT
  5
7E41
330
7E39
100
AcDbEntity
  8
DEFPOINTS
 62
     0
100
AcDbPoint
 10
3116.080628
 20
2671.231056999999
 30
0.0
  0
POINT
  5
7E42
330
7E39
100
AcDbEntity
  8
DEFPOINTS
 62
     0
100
AcDbPoint
 10
3116.080628
 20
2763.172797236009
 30
0.0
  0
ENDBLK
  5
7E44
330
7E39
100
AcDbEntity
  8
0
100
AcDbBlockEnd
  0
BLOCK
  5
7E50
330
7E46
100
AcDbEntity
  8
0
100
AcDbBlockBegin
  2
*D14
 70
     1
 10
0.0
 20
0.0
 30
0.0
  3
*D14
  1

  0
LINE
  5
7E47
330
7E46
100
AcDbEntity
  8
3
 62
     0
370
    -2
100
AcDbLine
 10
3116.080628
 20
2681.231057
 30
0.0
 11
3116.080628
 21
2783.172797236009
 31
0.0
  0
LINE
  5
7E48
330
7E46
100
AcDbEntity
  8
3
 62
     0
370
    -2
100
AcDbLine
 10
3451.080628
 20
2598.767240999999
 30
0.0
 11
3451.080628
 21
2783.172797236009
 31
0.0
  0
LINE
  5
7E49
330
7E46
100
AcDbEntity
  8
3
 62
     0
370
    -2
100
AcDbLine
 10
3156.080628
 20
2763.172797236009
 30
0.0
 11
3411.080628
 21
2763.172797236009
 31
0.0
  0
INSERT
  5
7E4A
330
7E46
100
AcDbEntity
  8
3
 62
     0
370
    -2
100
AcDbBlockReference
  2
_OPEN
 10
3116.080628
 20
2763.172797236009
 30
0.0
 41
40.0
 42
40.0
 43
40.0
 50
180.0
  0
INSERT
  5
7E4B
330
7E46
100
AcDbEntity
  8
3
 62
     0
370
    -2
100
AcDbBlockReference
  2
_OPEN
 10
3451.080628
 20
2763.172797236009
 30
0.0
 41
40.0
 42
40.0
 43
40.0
  0
MTEXT
  5
7E4C
330
7E46
100
AcDbEntity
  8
3
 62
     0
100
AcDbMText
 10
3283.580628
 20
2813.172797236009
 30
0.0
 40
60.0
 41
0.0
 71
     5
 72
     1
  1
\A1;335
 73
     1
 44
1.0
  0
POINT
  5
7E4D
330
7E46
100
AcDbEntity
  8
DEFPOINTS
 62
     0
100
AcDbPoint
 10
3116.080628
 20
2671.231056999999
 30
0.0
  0
POINT
  5
7E4E
330
7E46
100
AcDbEntity
  8
DEFPOINTS
 62
     0
100
AcDbPoint
 10
3451.080628
 20
2588.767240999999
 30
0.0
  0
POINT
  5
7E4F
330
7E46
100
AcDbEntity
  8
DEFPOINTS
 62
     0
100
AcDbPoint
 10
3451.080628
 20
2763.172797236009
 30
0.0
  0
ENDBLK
  5
7E51
330
7E46
100
AcDbEntity
  8
0
100
AcDbBlockEnd
  0
BLOCK
  5
7E5D
330
7E53
100
AcDbEntity
  8
0
100
AcDbBlockBegin
  2
*D15
 70
     1
 10
0.0
 20
0.0
 30
0.0
  3
*D15
  1

  0
LINE
  5
7E54
330
7E53
100
AcDbEntity
  8
3
 62
     0
370
    -2
100
AcDbLine
 10
1946.886714
 20
4081.372766
 30
0.0
 11
2141.732111575668
 21
4081.372766
 31
0.0
  0
LINE
  5
7E55
330
7E53
100
AcDbEntity
  8
3
 62
     0
370
    -2
100
AcDbLine
 10
1946.886714
 20
3411.372765999999
 30
0.0
 11
2141.732111575668
 21
3411.372765999999
 31
0.0
  0
LINE
  5
7E56
330
7E53
100
AcDbEntity
  8
3
 62
     0
370
    -2
100
AcDbLine
 10
2121.732111575668
 20
4041.372766
 30
0.0
 11
2121.732111575668
 21
3451.372765999999
 31
0.0
  0
INSERT
  5
7E57
330
7E53
100
AcDbEntity
  8
3
 62
     0
370
    -2
100
AcDbBlockReference
  2
_OPEN
 10
2121.732111575668
 20
4081.372766
 30
0.0
 41
40.0
 42
40.0
 43
40.0
 50
90.0
  0
INSERT
  5
7E58
330
7E53
100
AcDbEntity
  8
3
 62
     0
370
    -2
100
AcDbBlockReference
  2
_OPEN
 10
2121.732111575668
 20
3411.372765999999
 30
0.0
 41
40.0
 42
40.0
 43
40.0
 50
270.0
  0
MTEXT
  5
7E59
330
7E53
100
AcDbEntity
  8
3
 62
     0
100
AcDbMText
 10
2071.732111575667
 20
3711.833686988873
 30
0.0
 40
60.0
 41
0.0
 71
     5
 72
     1
  1
\A1;670
 11
0.0000000000000001
 21
1.0
 31
0.0
 73
     1
 44
1.0
  0
POINT
  5
7E5A
330
7E53
100
AcDbEntity
  8
DEFPOINTS
 62
     0
100
AcDbPoint
 10
1936.886713999999
 20
4081.372766
 30
0.0
  0
POINT
  5
7E5B
330
7E53
100
AcDbEntity
  8
DEFPOINTS
 62
     0
100
AcDbPoint
 10
1936.886713999999
 20
3411.372765999999
 30
0.0
  0
POINT
  5
7E5C
330
7E53
100
AcDbEntity
  8
DEFPOINTS
 62
     0
100
AcDbPoint
 10
2121.732111575668
 20
3411.372765999999
 30
0.0
  0
ENDBLK
  5
7E5E
330
7E53
100
AcDbEntity
  8
0
100
AcDbBlockEnd
  0
ENDSEC
  0
SECTION
  2
ENTITIES
  0
ARC
  5
7A4B
330
19
100
AcDbEntity
  8
1
  6
Continuous
 48
20.0
100
AcDbCircle
 10
1273.973695
 20
2293.767241
 30
0.0
 40
192.750281
100
AcDbArc
 50
4.635462999999999
 51
95.52754000000001
  0
ARC
  5
7A4C
330
19
100
AcDbEntity
  8
1
  6
Continuous
 48
20.0
100
AcDbCircle
 10
1236.973695
 20
2290.767241
 30
0.0
 40
229.8717029999999
100
AcDbArc
 50
274.991333
 51
4.635462999999999
  0
LINE
  5
7A4D
330
19
100
AcDbEntity
  8
1
  6
Continuous
 48
20.0
100
AcDbLine
 10
1846.973694999999
 20
2588.767241
 30
0.0
 11
956.9736949999999
 21
2588.767241
 31
0.0
  0
LINE
  5
7A4E
330
19
100
AcDbEntity
  8
1
  6
Continuous
 48
20.0
100
AcDbLine
 10
941.9736949999998
 20
1923.767241
 30
0.0
 11
1861.973695
 21
1923.767241
 31
0.0
  0
LINE
  5
7A4F
330
19
100
AcDbEntity
  8
1
  6
Continuous
 48
20.0
100
AcDbLine
 10
866.9736949999998
 20
1843.767240999999
 30
0.0
 11
1936.973694999999
 21
1843.767241
 31
0.0
  0
LINE
  5
7A50
330
19
100
AcDbEntity
  8
1
  6
Continuous
 48
20.0
100
AcDbLine
 10
866.9736949999998
 20
1923.767241
 30
0.0
 11
1936.973694999999
 21
1923.767241
 31
0.0
  0
LINE
  5
7A51
330
19
100
AcDbEntity
  8
1
  6
Continuous
 48
20.0
100
AcDbLine
 10
866.9736949999998
 20
1843.767240999999
 30
0.0
 11
1936.973694999999
 21
1843.767241
 31
0.0
  0
LINE
  5
7A52
330
19
100
AcDbEntity
  8
1
  6
Continuous
 48
20.0
100
AcDbLine
 10
956.9736949999999
 20
2588.767241
 30
0.0
 11
956.9736949999999
 21
1923.767241
 31
0.0
  0
LINE
  5
7A53
330
19
100
AcDbEntity
  8
1
  6
Continuous
 48
20.0
100
AcDbLine
 10
956.9736949999999
 20
2588.767241
 30
0.0
 11
956.9736949999999
 21
1923.767241
 31
0.0
  0
LINE
  5
7A54
330
19
100
AcDbEntity
  8
1
  6
Continuous
 48
20.0
100
AcDbLine
 10
941.9736949999998
 20
1923.767241
 30
0.0
 11
866.9736949999998
 21
1923.767241
 31
0.0
  0
LINE
  5
7A55
330
19
100
AcDbEntity
  8
1
  6
Continuous
 48
20.0
100
AcDbLine
 10
866.9736949999998
 20
1923.767241
 30
0.0
 11
866.9736949999998
 21
1843.767241
 31
0.0
  0
LINE
  5
7A56
330
19
100
AcDbEntity
  8
1
  6
Continuous
 48
20.0
100
AcDbLine
 10
866.9736949999998
 20
1923.767241
 30
0.0
 11
866.9736949999998
 21
1843.767241
 31
0.0
  0
LINE
  5
7A57
330
19
100
AcDbEntity
  8
1
  6
Continuous
 48
20.0
100
AcDbLine
 10
956.9736949999999
 20
2060.267241
 30
0.0
 11
1256.973695
 21
2061.767241
 31
0.0
  0
LINE
  5
7A58
330
19
100
AcDbEntity
  8
1
  6
Continuous
 48
20.0
100
AcDbLine
 10
1109.975794
 20
2310.767241
 30
0.0
 11
956.9736949999999
 21
2310.767241
 31
0.0
  0
LINE
  5
7A59
330
19
100
AcDbEntity
  8
1
  6
Continuous
 48
20.0
100
AcDbLine
 10
931.9736949999997
 20
2378.767240999999
 30
0.0
 11
931.9736949999997
 21
2008.767241
 31
0.0
  0
LINE
  5
7A5A
330
19
100
AcDbEntity
  8
1
  6
Continuous
 48
20.0
100
AcDbLine
 10
931.9736949999999
 20
2008.767241
 30
0.0
 11
956.9736949999999
 21
2008.767241
 31
0.0
  0
LINE
  5
7A5B
330
19
100
AcDbEntity
  8
1
  6
Continuous
 48
20.0
100
AcDbLine
 10
1056.973694999999
 20
2310.767241
 30
0.0
 11
1056.973694999999
 21
2060.767241
 31
0.0
  0
LINE
  5
7A5C
330
19
100
AcDbEntity
  8
1
  6
Continuous
 48
20.0
100
AcDbLine
 10
931.9736949999999
 20
2378.767240999999
 30
0.0
 11
956.9736949999999
 21
2378.767240999999
 31
0.0
  0
ARC
  5
7A5D
330
19
100
AcDbEntity
  8
1
  6
Continuous
 48
20.0
100
AcDbCircle
 10
1270.973695
 20
2324.767240999999
 30
0.0
 40
161.605458
100
AcDbArc
 50
95.52754000000001
 51
186.8427729999999
  0
LINE
  5
7A5E
330
19
100
AcDbEntity
  8
1
  6
Continuous
 48
20.0
100
AcDbLine
 10
1846.973694999999
 20
1923.767241
 30
0.0
 11
1846.973694999999
 21
2588.767241
 31
0.0
  0
LINE
  5
7A5F
330
19
100
AcDbEntity
  8
1
  6
Continuous
 48
20.0
100
AcDbLine
 10
1936.973694999999
 20
1923.767241
 30
0.0
 11
1861.973695
 21
1923.767241
 31
0.0
  0
LINE
  5
7A60
330
19
100
AcDbEntity
  8
1
  6
Continuous
 48
20.0
100
AcDbLine
 10
1936.973695
 20
1843.767241
 30
0.0
 11
1936.973695
 21
1923.767241
 31
0.0
  0
LINE
  5
7A61
330
19
100
AcDbEntity
  8
1
  6
Continuous
 48
20.0
100
AcDbLine
 10
1871.973694999999
 20
2378.767240999999
 30
0.0
 11
1871.973694999999
 21
2008.767241
 31
0.0
  0
LINE
  5
7A62
330
19
100
AcDbEntity
  8
1
  6
Continuous
 48
20.0
100
AcDbLine
 10
1871.973694999999
 20
2008.767241
 30
0.0
 11
1846.973694999999
 21
2008.767241
 31
0.0
  0
LINE
  5
7A63
330
19
100
AcDbEntity
  8
1
  6
Continuous
 48
20.0
100
AcDbLine
 10
1871.973694999999
 20
2378.767240999999
 30
0.0
 11
1846.973694999999
 21
2378.767240999999
 31
0.0
  0
LINE
  5
7A64
330
19
100
AcDbEntity
  8
1
  6
Continuous
 48
20.0
100
AcDbLine
 10
1871.886714
 20
3891.372765999999
 30
0.0
 11
1871.886714
 21
3601.372765999999
 31
0.0
  0
LINE
  5
7A65
330
19
100
AcDbEntity
  8
1
  6
Continuous
 48
20.0
100
AcDbLine
 10
931.8867140000001
 20
3891.372765999999
 30
0.0
 11
931.8867140000001
 21
3601.372765999999
 31
0.0
  0
LINE
  5
7A66
330
19
100
AcDbEntity
  8
1
  6
Continuous
 48
20.0
100
AcDbLine
 10
956.8867140000001
 20
4081.372766
 30
0.0
 11
956.8867140000003
 21
3411.372766
 31
0.0
  0
LINE
  5
7A67
330
19
100
AcDbEntity
  8
1
  6
Continuous
 48
20.0
100
AcDbLine
 10
1846.886714
 20
3411.372766
 30
0.0
 11
1846.886714
 21
4081.372766
 31
0.0
  0
LINE
  5
7A68
330
19
100
AcDbEntity
  8
1
  6
Continuous
 48
20.0
100
AcDbLine
 10
956.8867140000001
 20
3411.372766
 30
0.0
 11
1846.886714
 21
3411.372765999999
 31
0.0
  0
LINE
  5
7A69
330
19
100
AcDbEntity
  8
1
  6
Continuous
 48
20.0
100
AcDbLine
 10
866.8867140000001
 20
3451.372765999999
 30
0.0
 11
956.8867140000001
 21
3451.372765999999
 31
0.0
  0
LINE
  5
7A6A
330
19
100
AcDbEntity
  8
1
  6
Continuous
 48
20.0
100
AcDbLine
 10
866.8867140000001
 20
3411.372765999999
 30
0.0
 11
956.8867140000001
 21
3411.372765999999
 31
0.0
  0
LINE
  5
7A6B
330
19
100
AcDbEntity
  8
1
  6
Continuous
 48
20.0
100
AcDbLine
 10
866.8867140000001
 20
3411.372765999999
 30
0.0
 11
866.8867140000001
 21
3451.372765999999
 31
0.0
  0
LINE
  5
7A6C
330
19
100
AcDbEntity
  8
1
  6
Continuous
 48
20.0
100
AcDbLine
 10
931.8867140000001
 20
3601.372765999999
 30
0.0
 11
956.8867140000001
 21
3601.372765999999
 31
0.0
  0
LINE
  5
7A6D
330
19
100
AcDbEntity
  8
1
  6
Continuous
 48
20.0
100
AcDbLine
 10
1936.886713999999
 20
3411.372765999999
 30
0.0
 11
1846.886714
 21
3411.372765999999
 31
0.0
  0
LINE
  5
7A6E
330
19
100
AcDbEntity
  8
1
  6
Continuous
 48
20.0
100
AcDbLine
 10
1936.886713999999
 20
3451.372765999999
 30
0.0
 11
1846.886714
 21
3451.372765999999
 31
0.0
  0
LINE
  5
7A6F
330
19
100
AcDbEntity
  8
1
  6
Continuous
 48
20.0
100
AcDbLine
 10
1871.886714
 20
3601.372765999999
 30
0.0
 11
1846.886714
 21
3601.372765999999
 31
0.0
  0
LINE
  5
7A70
330
19
100
AcDbEntity
  8
1
  6
Continuous
 48
20.0
100
AcDbLine
 10
1936.886713999999
 20
3411.372765999999
 30
0.0
 11
1936.886713999999
 21
3451.372765999999
 31
0.0
  0
LINE
  5
7A71
330
19
100
AcDbEntity
  8
1
  6
Continuous
 48
20.0
100
AcDbLine
 10
1846.886713999999
 20
4081.372766
 30
0.0
 11
956.886714
 21
4081.372766
 31
0.0
  0
LINE
  5
7A72
330
19
100
AcDbEntity
  8
1
  6
Continuous
 48
20.0
100
AcDbLine
 10
866.8867140000001
 20
4041.372766
 30
0.0
 11
866.8867140000001
 21
4081.372766
 31
0.0
  0
LINE
  5
7A73
330
19
100
AcDbEntity
  8
1
  6
Continuous
 48
20.0
100
AcDbLine
 10
866.8867140000001
 20
4041.372766
 30
0.0
 11
956.8867140000001
 21
4041.372766
 31
0.0
  0
LINE
  5
7A74
330
19
100
AcDbEntity
  8
1
  6
Continuous
 48
20.0
100
AcDbLine
 10
931.8867140000001
 20
3891.372765999999
 30
0.0
 11
956.8867140000001
 21
3891.372765999999
 31
0.0
  0
LINE
  5
7A75
330
19
100
AcDbEntity
  8
1
  6
Continuous
 48
20.0
100
AcDbLine
 10
866.8867140000001
 20
4081.372766
 30
0.0
 11
956.8867140000001
 21
4081.372766
 31
0.0
  0
LINE
  5
7A76
330
19
100
AcDbEntity
  8
1
  6
Continuous
 48
20.0
100
AcDbLine
 10
1936.886713999999
 20
4041.372766
 30
0.0
 11
1936.886713999999
 21
4081.372766
 31
0.0
  0
LINE
  5
7A77
330
19
100
AcDbEntity
  8
1
  6
Continuous
 48
20.0
100
AcDbLine
 10
1936.886713999999
 20
4041.372766
 30
0.0
 11
1846.886713999999
 21
4041.372766
 31
0.0
  0
LINE
  5
7A78
330
19
100
AcDbEntity
  8
1
  6
Continuous
 48
20.0
100
AcDbLine
 10
1871.886714
 20
3891.372765999999
 30
0.0
 11
1846.886714
 21
3891.372765999999
 31
0.0
  0
LINE
  5
7A79
330
19
100
AcDbEntity
  8
1
  6
Continuous
 48
20.0
100
AcDbLine
 10
1936.886713999999
 20
4081.372766
 30
0.0
 11
1846.886713999999
 21
4081.372766
 31
0.0
  0
LINE
  5
7A7A
330
19
100
AcDbEntity
  8
1
  6
Continuous
 48
20.0
100
AcDbLine
 10
3451.080628
 20
2588.767241
 30
0.0
 11
2781.080628
 21
2588.767241
 31
0.0
  0
LINE
  5
7A7B
330
19
100
AcDbEntity
  8
1
  6
Continuous
 48
20.0
100
AcDbLine
 10
3451.080628
 20
1923.767240999999
 30
0.0
 11
2781.080628
 21
1923.767241
 31
0.0
  0
LINE
  5
7A7C
330
19
100
AcDbEntity
  8
1
  6
Continuous
 48
20.0
100
AcDbLine
 10
2781.080628
 20
1843.767241
 30
0.0
 11
3451.080628
 21
1843.767241
 31
0.0
  0
LINE
  5
7A7D
330
19
100
AcDbEntity
  8
1
  6
Continuous
 48
20.0
100
AcDbLine
 10
2781.080628
 20
2588.767240999999
 30
0.0
 11
2781.080628
 21
1923.767241
 31
0.0
  0
LINE
  5
7A7F
330
19
100
AcDbEntity
  8
1
  6
Continuous
 48
20.0
100
AcDbLine
 10
2781.080628
 20
1923.767241
 30
0.0
 11
2781.080628
 21
1843.767241
 31
0.0
  0
LINE
  5
7A80
330
19
100
AcDbEntity
  8
1
  6
Continuous
 48
20.0
100
AcDbLine
 10
2996.080628
 20
2353.767240999999
 30
0.0
 11
3236.080628
 21
2033.767241
 31
0.0
  0
LINE
  5
7A81
330
19
100
AcDbEntity
  8
1
  6
Continuous
 48
20.0
100
AcDbLine
 10
2996.080628
 20
2033.767241
 30
0.0
 11
3236.080628
 21
2353.767240999999
 31
0.0
  0
LWPOLYLINE
  5
7A82
330
19
100
AcDbEntity
  8
1
  6
Continuous
 48
20.0
100
AcDbPolyline
 90
        4
 70
     1
 43
0.0
 10
2971.080628
 20
2008.767241
 10
3261.080628
 20
2008.767241
 10
3261.080628
 20
2378.767240999999
 10
2971.080628
 20
2378.767240999999
  0
LWPOLYLINE
  5
7A88
330
19
100
AcDbEntity
  8
1
  6
Continuous
 48
20.0
100
AcDbPolyline
 90
        4
 70
     1
 43
0.0
 10
2996.080628
 20
2033.767241
 10
3236.080628
 20
2033.767241
 10
3236.080628
 20
2353.767240999999
 10
2996.080628
 20
2353.767240999999
  0
LINE
  5
7A8E
330
19
100
AcDbEntity
  8
1
  6
Continuous
 48
20.0
100
AcDbLine
 10
3451.080628
 20
1923.767241
 30
0.0
 11
3451.080628
 21
2588.767240999999
 31
0.0
  0
LINE
  5
7A90
330
19
100
AcDbEntity
  8
1
  6
Continuous
 48
20.0
100
AcDbLine
 10
3451.080628
 20
1843.767241
 30
0.0
 11
3451.080628
 21
1923.767241
 31
0.0
  0
LINE
  5
7AA5
330
19
100
AcDbEntity
  8
2
  6
CENTER
 48
20.0
100
AcDbLine
 10
807.29997
 20
2193.767241
 30
0.0
 11
1996.762964
 21
2193.767241
 31
0.0
  0
DIMENSION
  5
7AB2
330
19
100
AcDbEntity
  8
3
  6
Continuous
 48
20.0
100
AcDbDimension
  2
*D1
 10
1936.973694999999
 20
1657.786988
 30
0.0
 11
1446.200816
 21
1657.786988
 31
0.0
 70
   160
 71
     5
 42
-1.0
  3
IGA
100
AcDbAlignedDimension
 13
866.9736949999998
 23
1843.767240999999
 33
0.0
 14
1936.973694999999
 24
1843.767241
 34
0.0
100
AcDbRotatedDimension
1001
ACAD
1000
DSTYLE
1002
{
1070
   287
1070
     3
1070
   287
1070
     3
1070
    40
1040
20.0
1070
   143
1040
0.039
1070
   172
1070
     1
1070
   271
1070
     0
1070
   279
1070
     0
1070
   288
1070
     1
1002
}
  0
DIMENSION
  5
7ABF
330
19
100
AcDbEntity
  8
3
  6
Continuous
 48
20.0
100
AcDbDimension
  2
*D2
 10
772.8040740000003
 20
1843.767241
 30
0.0
 11
772.8040739999999
 21
2008.459669
 31
0.0
 70
   160
 71
     5
 42
-1.0
  3
IGA
100
AcDbAlignedDimension
 13
807.29997
 23
2193.767241
 33
0.0
 14
861.973695
 24
1843.767241
 34
0.0
 50
90.0
100
AcDbRotatedDimension
1001
ACAD
1000
DSTYLE
1002
{
1070
   287
1070
     3
1070
   287
1070
     3
1070
    40
1040
20.0
1070
   143
1040
0.039
1070
   172
1070
     1
1070
   271
1070
     0
1070
   279
1070
     0
1070
   288
1070
     1
1002
}
  0
DIMENSION
  5
7ACC
330
19
100
AcDbEntity
  8
3
  6
Continuous
 48
20.0
100
AcDbDimension
  2
*D3
 10
643.3890590000003
 20
1843.767241
 30
0.0
 11
643.3890589999999
 21
2196.946239999999
 31
0.0
 70
   160
 71
     5
 42
-1.0
  3
IGA
100
AcDbAlignedDimension
 13
956.9736949999999
 23
2588.767241
 33
0.0
 14
861.973695
 24
1843.767241
 34
0.0
 50
90.0
100
AcDbRotatedDimension
1001
ACAD
1000
DSTYLE
1002
{
1070
   287
1070
     3
1070
   287
1070
     3
1070
    40
1040
20.0
1070
   143
1040
0.039
1070
   172
1070
     1
1070
   271
1070
     0
1070
   279
1070
     0
1070
   288
1070
     1
1002
}
  0
DIMENSION
  5
7AD9
330
19
100
AcDbEntity
  8
3
  6
Continuous
 48
20.0
100
AcDbDimension
  2
*D4
 10
1846.973694999999
 20
2716.201896999999
 30
0.0
 11
1384.783518999999
 21
2716.201896999999
 31
0.0
 70
   160
 71
     5
 42
-1.0
  3
IGA
100
AcDbAlignedDimension
 13
956.9736949999999
 23
2588.767241
 33
0.0
 14
1846.973694999999
 24
2588.767241
 34
0.0
100
AcDbRotatedDimension
1001
ACAD
1000
DSTYLE
1002
{
1070
   287
1070
     3
1070
   287
1070
     3
1070
    40
1040
20.0
1070
   143
1040
0.039
1070
   172
1070
     1
1070
   271
1070
     0
1070
   279
1070
     0
1070
   288
1070
     1
1002
}
  0
DIMENSION
  5
7AE6
330
19
100
AcDbEntity
  8
3
  6
Continuous
 48
20.0
100
AcDbDimension
  2
*D5
 10
1846.886714
 20
3224.513586
 30
0.0
 11
1424.266052
 21
3224.513586
 31
0.0
 70
   160
 71
     5
 42
890.0
  3
IGA
100
AcDbAlignedDimension
 13
956.8867140000001
 23
3411.372766
 33
0.0
 14
1846.886714
 24
3411.372766
 34
0.0
100
AcDbRotatedDimension
1001
ACAD
1000
DSTYLE
1002
{
1070
   287
1070
     3
1070
   287
1070
     3
1070
    40
1040
20.0
1070
   143
1040
0.039
1070
   172
1070
     1
1070
   271
1070
     0
1070
   279
1070
     0
1070
   288
1070
     1
1002
}
  0
LINE
  5
7AF4
330
19
100
AcDbEntity
  8
2
  6
CENTER
 48
20.0
100
AcDbLine
 10
883.98458
 20
3746.372765999999
 30
0.0
 11
1922.1848
 21
3746.372765999999
 31
0.0
  0
LINE
  5
7AF5
330
19
100
AcDbEntity
  8
2
  6
CENTER
 48
20.0
100
AcDbLine
 10
3116.080628
 20
2671.231056999999
 30
0.0
 11
3116.080628
 21
2547.492938905167
 31
0.0
  0
DIMENSION
  5
7B1E
330
19
100
AcDbEntity
  8
3
  6
Continuous
 48
20.0
100
AcDbDimension
  2
*D9
 10
3236.080628
 20
2455.485516
 30
0.0
 11
3116.080628
 21
2455.485516
 31
0.0
 70
   160
 71
     5
 42
-1.0
  3
IGA
100
AcDbAlignedDimension
 13
2996.080628
 23
2353.767240999999
 33
0.0
 14
3236.080628
 24
2353.767240999999
 34
0.0
100
AcDbRotatedDimension
1001
ACAD
1000
DSTYLE
1002
{
1070
   287
1070
     3
1070
   287
1070
     3
1070
    40
1040
20.0
1070
   143
1040
0.039
1070
   172
1070
     1
1070
   271
1070
     0
1070
   279
1070
     0
1070
   288
1070
     1
1002
}
  0
DIMENSION
  5
7B2B
330
19
100
AcDbEntity
  8
3
  6
Continuous
 48
20.0
100
AcDbDimension
  2
*D10
 10
2909.284912
 20
2033.767241
 30
0.0
 11
2909.284912
 21
2191.604352
 31
0.0
 70
   160
 71
     5
 42
-1.0
  3
IGA
100
AcDbAlignedDimension
 13
2996.080628
 23
2353.767240999999
 33
0.0
 14
2996.080628
 24
2033.767241
 34
0.0
 50
90.0
100
AcDbRotatedDimension
1001
ACAD
1000
DSTYLE
1002
{
1070
   287
1070
     3
1070
   287
1070
     3
1070
    40
1040
20.0
1070
   143
1040
0.039
1070
   172
1070
     1
1070
   271
1070
     0
1070
   279
1070
     0
1070
   288
1070
     1
1002
}
  0
DIMENSION
  5
7B38
330
19
100
AcDbEntity
  8
3
  6
Continuous
 48
20.0
100
AcDbDimension
  2
*D11
 10
3451.080628
 20
1675.320672
 30
0.0
 11
3145.471519
 21
1675.320672
 31
0.0
 70
   160
 71
     5
 42
-1.0
  3
IGA
100
AcDbAlignedDimension
 13
2781.080628
 23
1843.767241
 33
0.0
 14
3451.080628
 24
1843.767241
 34
0.0
100
AcDbRotatedDimension
1001
ACAD
1000
DSTYLE
1002
{
1070
   287
1070
     3
1070
   287
1070
     3
1070
    40
1040
20.0
1070
   143
1040
0.039
1070
   172
1070
     1
1070
   271
1070
     0
1070
   279
1070
     0
1070
   288
1070
     1
1002
}
  0
LINE
  5
7B3A
330
19
100
AcDbEntity
  8
4
  6
Continuous
 48
20.0
100
AcDbLine
 10
3700.0
 20
1000.0
 30
0.0
 11
3700.0
 21
600.0
 31
0.0
  0
LINE
  5
7B3B
330
19
100
AcDbEntity
  8
4
  6
Continuous
 48
20.0
100
AcDbLine
 10
2300.0
 20
1000.0
 30
0.0
 11
2300.0
 21
600.0
 31
0.0
  0
LINE
  5
7B3C
330
19
100
AcDbEntity
  8
4
  6
Continuous
 48
20.0
100
AcDbLine
 10
1300.0
 20
1000.0
 30
0.0
 11
1300.0
 21
600.0
 31
0.0
  0
LINE
  5
7B3F
330
19
100
AcDbEntity
  8
4
  6
Continuous
 48
20.0
100
AcDbLine
 10
1300.0
 20
600.0
 30
0.0
 11
3700.0
 21
600.0
 31
0.0
  0
LINE
  5
7B40
330
19
100
AcDbEntity
  8
4
  6
Continuous
 48
20.0
100
AcDbLine
 10
1300.0
 20
800.0
 30
0.0
 11
3700.0
 21
800.0
 31
0.0
  0
TEXT
  5
7B41
330
19
100
AcDbEntity
  8
4
  6
Continuous
 48
20.0
100
AcDbText
 10
1377.004162
 20
863.086052
 30
0.0
 40
100.0
  1
機器名称
100
AcDbText
  0
TEXT
  5
7B42
330
19
100
AcDbEntity
  8
4
  6
Continuous
 48
20.0
100
AcDbText
 10
1372.516212
 20
643.2903129999999
 30
0.0
 40
100.0
  1
機器型番
100
AcDbText
  0
TEXT
  5
7B43
330
19
100
AcDbEntity
  8
4
  6
Continuous
 48
20.0
100
AcDbText
 10
2355.357491
 20
845.1435380000001
 30
0.0
 40
100.0
  1
ミツヤファンユニット
100
AcDbText
  0
TEXT
  5
7B44
330
19
100
AcDbEntity
  8
4
  6
Continuous
 48
20.0
100
AcDbText
 10
2373.308991
 20
634.319169
 30
0.0
 40
100.0
  1
MFU#1501-1
100
AcDbText
  0
TEXT
  5
7B46
330
19
100
AcDbEntity
  8
4
  6
Continuous
 48
20.0
100
AcDbText
 10
1403.542977
 20
4766.857683
 30
0.0
 40
100.0
  1
床置ベット
100
AcDbText
  0
TEXT
  5
7B47
330
19
100
AcDbEntity
  8
4
  6
Continuous
 48
20.0
100
AcDbText
 10
632.335187
 20
5067.761952000001
 30
0.0
 40
120.0
  1
ベルト駆動式消音ボックス付き多翼ファン
100
AcDbText
  0
LINE
  5
7B48
330
19
100
AcDbEntity
  8
4
  6
Continuous
 48
20.0
100
AcDbLine
 10
500.0
 20
4938.817509
 30
0.0
 11
3700.0
 21
4938.817509
 31
0.0
  0
LINE
  5
7B49
330
19
100
AcDbEntity
  8
4
  6
Continuous
 48
20.0
100
AcDbLine
 10
500.0
 20
5338.817509
 30
0.0
 11
3700.0
 21
5338.817509
 31
0.0
  0
LINE
  5
7B4A
330
19
100
AcDbEntity
  8
4
  6
Continuous
 48
20.0
100
AcDbLine
 10
1300.0
 20
1000.0
 30
0.0
 11
3700.0
 21
1000.0
 31
0.0
  0
LINE
  5
7B4B
330
19
100
AcDbEntity
  8
4
  6
Continuous
 48
20.0
100
AcDbLine
 10
500.0
 20
5338.817509
 30
0.0
 11
500.0
 21
4938.817509
 31
0.0
  0
TEXT
  5
7B4C
330
19
100
AcDbEntity
  8
4
  6
Continuous
 48
20.0
100
AcDbText
 10
602.7497440000001
 20
4764.638954999999
 30
0.0
 40
100.0
  1
右回転左吐出
100
AcDbText
  0
TEXT
  5
7B4D
330
19
100
AcDbEntity
  8
4
  6
Continuous
 48
20.0
100
AcDbText
 10
2937.939118
 20
5412.122163
 30
0.0
 40
112.0
  1
No.
100
AcDbText
  0
TEXT
  5
7B4E
330
19
100
AcDbEntity
  8
4
  6
Continuous
 48
20.0
100
AcDbText
 10
2946.140944
 20
4766.857683
 30
0.0
 40
100.0
  1
縮尺：1/20
100
AcDbText
  0
LINE
  5
7B4F
330
19
100
AcDbEntity
  8
4
  6
Continuous
 48
20.0
100
AcDbLine
 10
3700.0
 20
5338.817509
 30
0.0
 11
3700.0
 21
4938.817509
 31
0.0
  0
LINE
  5
7B51
330
19
100
AcDbEntity
  8
4
  6
Continuous
 48
20.0
100
AcDbLine
 10
2881.234845
 20
5362.527166
 30
0.0
 11
2881.234845
 21
5573.304523
 31
0.0
  0
LINE
  5
7B52
330
19
100
AcDbEntity
  8
4
  6
Continuous
 48
20.0
100
AcDbLine
 10
2881.234845
 20
5573.304523
 30
0.0
 11
3700.0
 21
5573.304523
 31
0.0
  0
LINE
  5
7B53
330
19
100
AcDbEntity
  8
4
  6
Continuous
 48
20.0
100
AcDbLine
 10
3700.0
 20
5573.304523
 30
0.0
 11
3700.0
 21
5362.527166
 31
0.0
  0
LINE
  5
7B54
330
19
100
AcDbEntity
  8
4
  6
Continuous
 48
20.0
100
AcDbLine
 10
3700.0
 20
5362.527166
 30
0.0
 11
2881.234845
 21
5362.527166
 31
0.0
  0
DIMENSION
  5
7C0E
330
19
100
AcDbEntity
  8
3
 48
20.0
100
AcDbDimension
  2
*D12
 10
2137.643495883021
 20
2193.767241
 30
0.0
 11
2137.643495883021
 21
2003.210187981069
 31
0.0
 70
   160
 71
     5
 42
-1.0
  3
IGA
100
AcDbAlignedDimension
 13
1936.973694999999
 23
1843.767241
 33
0.0
 14
1996.762964
 24
2193.767241
 34
0.0
 50
90.0
100
AcDbRotatedDimension
1001
ACAD
1000
DSTYLE
1002
{
1070
   287
1070
     3
1070
   287
1070
     3
1070
    40
1040
20.0
1070
   143
1040
0.039
1070
   172
1070
     1
1070
   271
1070
     0
1070
   279
1070
     0
1070
   288
1070
     1
1002
}
  0
LINE
  5
7CDB
330
19
100
AcDbEntity
  8
2
  6
CENTER
 48
20.0
100
AcDbLine
 10
3116.080628
 20
2441.145410829567
 30
0.0
 11
3116.080628
 21
1784.905881
 31
0.0
  0
DIMENSION
  5
7E38
330
19
100
AcDbEntity
  8
3
100
AcDbDimension
  2
*D13
 10
3116.080628
 20
2763.172797236009
 30
0.0
 11
2946.697647768422
 21
2763.172797236009
 31
0.0
 70
   160
 71
     5
 42
335.0
  3
IGA
100
AcDbAlignedDimension
 13
2781.080628
 23
2588.767240999999
 33
0.0
 14
3116.080628
 24
2671.231056999999
 34
0.0
100
AcDbRotatedDimension
1001
ACAD
1000
DSTYLE
1002
{
1070
    40
1040
20.0
1070
   143
1040
0.039
1070
   172
1070
     1
1070
   271
1070
     0
1070
   279
1070
     0
1070
   288
1070
     1
1002
}
  0
DIMENSION
  5
7E45
330
19
100
AcDbEntity
  8
3
100
AcDbDimension
  2
*D14
 10
3451.080628
 20
2763.172797236009
 30
0.0
 11
3283.580628
 21
2813.172797236009
 31
0.0
 70
    32
 71
     5
 42
335.0
  3
IGA
100
AcDbAlignedDimension
 13
3116.080628
 23
2671.231056999999
 33
0.0
 14
3451.080628
 24
2588.767240999999
 34
0.0
100
AcDbRotatedDimension
1001
ACAD
1000
DSTYLE
1002
{
1070
    40
1040
20.0
1070
   143
1040
0.039
1070
   172
1070
     1
1070
   271
1070
     0
1070
   279
1070
     1
1070
   288
1070
     1
1002
}
  0
DIMENSION
  5
7E52
330
19
100
AcDbEntity
  8
3
100
AcDbDimension
  2
*D15
 10
2121.732111575668
 20
3411.372765999999
 30
0.0
 11
2121.732111575667
 21
3711.833686988873
 31
0.0
 70
   160
 71
     5
 42
670.0
  3
IGA
100
AcDbAlignedDimension
 13
1936.886713999999
 23
4081.372766
 33
0.0
 14
1936.886713999999
 24
3411.372765999999
 34
0.0
 50
90.0
100
AcDbRotatedDimension
1001
ACAD
1000
DSTYLE
1002
{
1070
    40
1040
20.0
1070
   143
1040
0.039
1070
   172
1070
     1
1070
   271
1070
     0
1070
   279
1070
     0
1070
   288
1070
     1
1002
}
  0
ENDSEC
  0
SECTION
  2
OBJECTS
  0
DICTIONARY
  5
C
330
0
100
AcDbDictionary
281
     1
  3
ACAD_GROUP
350
D
  3
ACAD_LAYOUT
350
7C2C
  3
ACAD_MLINESTYLE
350
E
  3
ACAD_PLOTSETTINGS
350
7C2D
  3
ACAD_PLOTSTYLENAME
350
7C2A
  3
AcDbVariableDictionary
350
7E2D
  0
DICTIONARY
  5
7C59
330
19
100
AcDbDictionary
280
     1
281
     1
  3
ACAD_LAYOUTSELFREF
360
7DB1
  0
DICTIONARY
  5
7C57
330
16
100
AcDbDictionary
280
     1
281
     1
  3
ACAD_LAYOUTSELFREF
360
7DB0
  0
DICTIONARY
  5
D
102
{ACAD_REACTORS
330
C
102
}
330
0
100
AcDbDictionary
281
     1
  0
DICTIONARY
  5
7C2C
102
{ACAD_REACTORS
330
C
102
}
330
C
100
AcDbDictionary
281
     1
  3
Model
350
7C2E
  3
ﾚｲｱｳﾄ1
350
7C2F
  0
DICTIONARY
  5
E
102
{ACAD_REACTORS
330
C
102
}
330
0
100
AcDbDictionary
281
     1
  3
STANDARD
350
1C
  0
DICTIONARY
  5
7C2D
102
{ACAD_REACTORS
330
C
102
}
330
C
100
AcDbDictionary
281
     1
  0
ACDBDICTIONARYWDFLT
  5
7C2A
102
{ACAD_REACTORS
330
C
102
}
330
C
100
AcDbDictionary
281
     1
  3
Normal
350
7C2B
100
AcDbDictionaryWithDefault
340
7C2B
1001
ACAD
1000
TREAT_AS_HARD
1070
     0
1000
TREAT_AS_HARD
1070
     0
  0
DICTIONARY
  5
7E2D
102
{ACAD_REACTORS
330
C
102
}
330
C
100
AcDbDictionary
281
     1
  3
DIMASSOC
350
7E2E
  0
XRECORD
  5
7DB1
102
{ACAD_REACTORS
330
7C59
102
}
330
7C59
100
AcDbXrecord
280
     1
340
19
  0
XRECORD
  5
7DB0
102
{ACAD_REACTORS
330
7C57
102
}
330
7C57
100
AcDbXrecord
280
     1
340
16
  0
LAYOUT
  5
7C2E
102
{ACAD_REACTORS
330
7C2C
102
}
330
7C2C
100
AcDbPlotSettings
  1

  2
EPSON LP-9300
  4

  6

 40
0.0
 41
0.0
 42
0.0
 43
0.0
 44
0.0
 45
0.0
 46
0.0
 47
0.0
 48
0.0
 49
0.0
140
0.0
141
0.0
142
1.0
143
1.0
 70
  1712
 72
     0
 73
     0
 74
     0
  7

 75
     0
147
1.0
148
0.0
149
0.0
100
AcDbLayout
  1
Model
 70
     1
 71
     0
 10
0.0
 20
0.0
 11
12.0
 21
9.0
 12
0.0
 22
0.0
 32
0.0
 14
0.0
 24
0.0
 34
0.0
 15
0.0
 25
0.0
 35
0.0
146
0.0
 13
0.0
 23
0.0
 33
0.0
 16
1.0
 26
0.0
 36
0.0
 17
0.0
 27
1.0
 37
0.0
 76
     0
330
19
  0
LAYOUT
  5
7C2F
102
{ACAD_REACTORS
330
7C2C
102
}
330
7C2C
100
AcDbPlotSettings
  1

  2
EPSON LP-9300
  4

  6

 40
0.0
 41
0.0
 42
0.0
 43
0.0
 44
0.0
 45
0.0
 46
0.0
 47
0.0
 48
0.0
 49
0.0
140
0.0
141
0.0
142
1.0
143
1.0
 70
   688
 72
     0
 73
     0
 74
     5
  7

 75
    16
147
1.0
148
0.0
149
0.0
100
AcDbLayout
  1
ﾚｲｱｳﾄ1
 70
     1
 71
     1
 10
0.0
 20
0.0
 11
12.0
 21
9.0
 12
0.0
 22
0.0
 32
0.0
 14
1.000000000000000E+20
 24
1.000000000000000E+20
 34
1.000000000000000E+20
 15
-1.000000000000000E+20
 25
-1.000000000000000E+20
 35
-1.000000000000000E+20
146
0.0
 13
0.0
 23
0.0
 33
0.0
 16
1.0
 26
0.0
 36
0.0
 17
0.0
 27
1.0
 37
0.0
 76
     0
330
16
  0
MLINESTYLE
  5
1C
102
{ACAD_REACTORS
330
E
102
}
330
0
100
AcDbMlineStyle
  2
STANDARD
 70
     0
  3

 62
     0
 51
90.0
 52
90.0
 71
     2
 49
0.5
 62
   256
  6
BYLAYER
 49
-0.5
 62
   256
  6
BYLAYER
  0
ACDBPLACEHOLDER
  5
7C2B
102
{ACAD_REACTORS
330
7C2A
102
}
330
7C2A
  0
DICTIONARYVAR
  5
7E2E
102
{ACAD_REACTORS
330
7E2D
102
}
330
7E2D
100
DictionaryVariables
280
     0
  1
1
  0
ENDSEC
  0
EOF
