  0
SECTION
  2
HEADER
  9
$ACADVER
  1
AC1009
  9
$INSBASE
 10
0.0
 20
0.0
 30
0.0
  9
$EXTMIN
 10
500.0
 20
600.0
 30
0.0
  9
$EXTMAX
 10
3700.0
 20
5573.3045229999998
 30
0.0
  9
$LIMMIN
 10
0.0
 20
0.0
  9
$LIMMAX
 10
297.0
 20
210.0
  9
$ORTHOMODE
 70
     0
  9
$REGENMODE
 70
     1
  9
$FILLMODE
 70
     0
  9
$QTEXTMODE
 70
     0
  9
$MIRRTEXT
 70
     1
  9
$DRAGMODE
 70
     2
  9
$LTSCALE
 40
5.0
  9
$OSMODE
 70
    37
  9
$ATTMODE
 70
     1
  9
$TEXTSIZE
 40
180.0
  9
$TRACEWID
 40
0.05
  9
$TEXTSTYLE
  7
STANDARD
  9
$CLAYER
  8
3
  9
$CELTYPE
  6
BYLAYER
  9
$CECOLOR
 62
   256
  9
$DIMSCALE
 40
20.0
  9
$DIMASZ
 40
2.0
  9
$DIMEXO
 40
0.5
  9
$DIMDLI
 40
10.0
  9
$DIMRND
 40
0.0
  9
$DIMDLE
 40
0.0
  9
$DIMEXE
 40
1.0
  9
$DIMTP
 40
1.0
  9
$DIMTM
 40
1.0
  9
$DIMTXT
 40
3.0
  9
$DIMCEN
 40
0.0
  9
$DIMTSZ
 40
0.0
  9
$DIMTOL
 70
     0
  9
$DIMLIM
 70
     0
  9
$DIMTIH
 70
     0
  9
$DIMTOH
 70
     0
  9
$DIMSE1
 70
     0
  9
$DIMSE2
 70
     0
  9
$DIMTAD
 70
     1
  9
$DIMZIN
 70
     8
  9
$DIMBLK
  1

  9
$DIMASO
 70
     1
  9
$DIMSHO
 70
     1
  9
$DIMPOST
  1

  9
$DIMAPOST
  1

  9
$DIMALT
 70
     0
  9
$DIMALTD
 70
     2
  9
$DIMALTF
 40
0.039
  9
$DIMLFAC
 40
1.0
  9
$DIMTOFL
 70
     1
  9
$DIMTVP
 40
0.0
  9
$DIMTIX
 70
     0
  9
$DIMSOXD
 70
     0
  9
$DIMSAH
 70
     1
  9
$DIMBLK1
  1
OPEN
  9
$DIMBLK2
  1
OPEN
  9
$DIMSTYLE
  2
IGA
  9
$DIMCLRD
 70
     0
  9
$DIMCLRE
 70
     0
  9
$DIMCLRT
 70
     0
  9
$DIMTFAC
 40
10.0
  9
$DIMGAP
 40
1.0
  9
$LUNITS
 70
     2
  9
$LUPREC
 70
     3
  9
$SKETCHINC
 40
0.1
  9
$FILLETRAD
 40
50.0
  9
$AUNITS
 70
     0
  9
$AUPREC
 70
     0
  9
$MENU
  1
acad
  9
$ELEVATION
 40
0.0
  9
$PELEVATION
 40
0.0
  9
$THICKNESS
 40
0.0
  9
$LIMCHECK
 70
     0
  9
$BLIPMODE
 70
     0
  9
$CHAMFERA
 40
0.5
  9
$CHAMFERB
 40
0.5
  9
$SKPOLY
 70
     0
  9
$TDCREATE
 40
2450786.359002199
  9
$TDUPDATE
 40
2454953.856682546
  9
$TDINDWG
 40
0.0109099306
  9
$TDUSRTIMER
 40
0.0109099306
  9
$USRTIMER
 70
     1
  9
$ANGBASE
 50
0.0
  9
$ANGDIR
 70
     0
  9
$PDMODE
 70
     0
  9
$PDSIZE
 40
0.0
  9
$PLINEWID
 40
0.0
  9
$COORDS
 70
     1
  9
$SPLFRAME
 70
     0
  9
$SPLINETYPE
 70
     6
  9
$SPLINESEGS
 70
     8
  9
$ATTDIA
 70
     0
  9
$ATTREQ
 70
     1
  9
$HANDLING
 70
 10241
  9
$HANDSEED
  5
7E54
  9
$SURFTAB1
 70
     6
  9
$SURFTAB2
 70
     6
  9
$SURFTYPE
 70
     6
  9
$SURFU
 70
     6
  9
$SURFV
 70
     6
  9
$UCSNAME
  2

  9
$UCSORG
 10
0.0
 20
0.0
 30
0.0
  9
$UCSXDIR
 10
1.0
 20
0.0
 30
0.0
  9
$UCSYDIR
 10
0.0
 20
1.0
 30
0.0
  9
$PUCSNAME
  2

  9
$PUCSORG
 10
0.0
 20
0.0
 30
0.0
  9
$PUCSXDIR
 10
1.0
 20
0.0
 30
0.0
  9
$PUCSYDIR
 10
0.0
 20
1.0
 30
0.0
  9
$USERI1
 70
     0
  9
$USERI2
 70
     0
  9
$USERI3
 70
     0
  9
$USERI4
 70
     0
  9
$USERI5
 70
     0
  9
$USERR1
 40
0.0
  9
$USERR2
 40
0.0
  9
$USERR3
 40
0.0
  9
$USERR4
 40
0.0
  9
$USERR5
 40
0.0
  9
$WORLDVIEW
 70
     1
  9
$SHADEDGE
 70
     3
  9
$SHADEDIF
 70
    70
  9
$TILEMODE
 70
     1
  9
$MAXACTVP
 70
    16
  9
$PLIMCHECK
 70
     0
  9
$PEXTMIN
 10
1.0000000000000000E+020
 20
1.0000000000000000E+020
 30
1.0000000000000000E+020
  9
$PEXTMAX
 10
-1.0000000000000000E+020
 20
-1.0000000000000000E+020
 30
-1.0000000000000000E+020
  9
$PLIMMIN
 10
0.0
 20
0.0
  9
$PLIMMAX
 10
12.0
 20
9.0
  9
$UNITMODE
 70
     0
  9
$VISRETAIN
 70
     0
  9
$PLINEGEN
 70
     0
  9
$PSLTSCALE
 70
     1
  0
ENDSEC
  0
SECTION
  2
TABLES
  0
TABLE
  2
VPORT
 70
     2
  0
VPORT
  2
*ACTIVE
 70
     0
 10
0.0
 20
0.0
 11
1.0
 21
1.0
 12
5223.8217207328153
 22
2705.429285806375
 13
0.0
 23
0.0
 14
10.0
 24
10.0
 15
10.0
 25
10.0
 16
0.0
 26
0.0
 36
1.0
 17
0.0
 27
0.0
 37
0.0
 40
7023.4146802622272
 41
1.5051150895140659
 42
50.0
 43
0.0
 44
0.0
 50
0.0
 51
0.0
 71
     0
 72
   100
 73
     1
 74
     0
 75
     0
 76
     0
 77
     0
 78
     0
  0
ENDTAB
  0
TABLE
  2
LTYPE
 70
     2
  0
LTYPE
  2
CONTINUOUS
 70
     0
  3
Solid line
 72
    65
 73
     0
 40
0.0
  0
LTYPE
  2
CENTER
 70
     0
  3
____ _ ____ _ ____ _ ____ _ ____ _ ____ _ ____ 
 72
    65
 73
     4
 40
2.0
 49
1.25
 49
-0.25
 49
0.25
 49
-0.25
  0
ENDTAB
  0
TABLE
  2
LAYER
 70
     6
  0
LAYER
  2
0
 70
     0
 62
     7
  6
CONTINUOUS
  0
LAYER
  2
3
 70
     0
 62
     2
  6
CONTINUOUS
  0
LAYER
  2
2
 70
     0
 62
     3
  6
CENTER
  0
LAYER
  2
1
 70
     0
 62
     4
  6
CONTINUOUS
  0
LAYER
  2
4
 70
     0
 62
     7
  6
CONTINUOUS
  0
LAYER
  2
DEFPOINTS
 70
     0
 62
     7
  6
CONTINUOUS
  0
ENDTAB
  0
TABLE
  2
STYLE
 70
     1
  0
STYLE
  2
STANDARD
 70
     0
 40
0.0
 41
1.0
 50
0.0
 71
     0
 42
180.0
  3
simplex.shx
  4
extfont.shx
  0
ENDTAB
  0
TABLE
  2
VIEW
 70
     0
  0
ENDTAB
  0
TABLE
  2
UCS
 70
     0
  0
ENDTAB
  0
TABLE
  2
APPID
 70
     1
  0
APPID
  2
ACAD
 70
     0
  0
ENDTAB
  0
TABLE
  2
DIMSTYLE
 70
     1
  0
DIMSTYLE
  2
IGA
 70
     0
  3

  4

  5

  6
OPEN
  7
OPEN
 40
2.0
 41
2.0
 42
0.5
 43
10.0
 44
1.0
 45
0.0
 46
0.0
 47
1.0
 48
1.0
140
3.0
141
0.0
142
0.0
143
0.03937
144
1.0
145
0.0
146
10.0
147
1.0
 71
     0
 72
     0
 73
     0
 74
     0
 75
     0
 76
     0
 77
     1
 78
     8
170
     0
171
     2
172
     0
173
     1
174
     0
175
     0
176
     0
177
     0
178
     0
  0
ENDTAB
  0
ENDSEC
  0
SECTION
  2
BLOCKS
  0
BLOCK
  8
0
  2
$MODEL_SPACE
 70
     0
 10
0.0
 20
0.0
 30
0.0
  3
$MODEL_SPACE
  1

  0
ENDBLK
  5
1B
  8
0
  0
BLOCK
 67
     1
  8
0
  2
$PAPER_SPACE
 70
     0
 10
0.0
 20
0.0
 30
0.0
  3
$PAPER_SPACE
  1

  0
ENDBLK
  5
18
 67
     1
  8
0
  0
BLOCK
  8
0
  2
_OPEN
 70
     0
 10
0.0
 20
0.0
 30
0.0
  3
_OPEN
  1

  0
LINE
  5
7A93
  8
0
  6
BYBLOCK
 62
     0
 10
-1.0
 20
0.166667
 30
0.0
 11
0.0
 21
0.0
 31
0.0
  0
LINE
  5
7A94
  8
0
  6
BYBLOCK
 62
     0
 10
0.0
 20
0.0
 30
0.0
 11
-1.0
 21
-0.166667
 31
0.0
  0
LINE
  5
7A95
  8
0
  6
BYBLOCK
 62
     0
 10
0.0
 20
0.0
 30
0.0
 11
-1.0
 21
0.0
 31
0.0
  0
ENDBLK
  5
7A96
  8
0
  0
BLOCK
  8
0
  2
*D1
 70
     1
 10
0.0
 20
0.0
 30
0.0
  3
*D1
  1

  0
LINE
  5
7DDB
  8
3
  6
CONTINUOUS
 62
     0
 10
1936.9736949999999
 20
1833.767241
 30
0.0
 11
1936.9736949999999
 21
1637.7869880000001
 31
0.0
  0
LINE
  5
7DDC
  8
3
  6
CONTINUOUS
 62
     0
 10
866.97369500000002
 20
1833.767241
 30
0.0
 11
866.97369500000002
 21
1637.7869880000001
 31
0.0
  0
LINE
  5
7DDD
  8
3
  6
CONTINUOUS
 62
     0
 10
1896.9736949999999
 20
1657.7869880000001
 30
0.0
 11
906.97369500000013
 21
1657.7869880000001
 31
0.0
  0
INSERT
  5
7DDE
  8
3
  6
CONTINUOUS
 62
     0
  2
_OPEN
 10
1936.9736949999999
 20
1657.7869880000001
 30
0.0
 41
40.0
 42
40.0
 43
40.0
  0
INSERT
  5
7DDF
  8
3
  6
CONTINUOUS
 62
     0
  2
_OPEN
 10
866.97369500000002
 20
1657.7869880000001
 30
0.0
 41
40.0
 42
40.0
 43
40.0
 50
180.0
  0
TEXT
  8
3
  40
60
  5
7E48
  62
0
  72
0
  71
0
 10
1237.75
 20
1601.59
 30
0.000000
  1
1070
  0
POINT
  5
7DE1
  8
DEFPOINTS
  6
CONTINUOUS
 62
     0
 10
1936.9736949999999
 20
1843.7672409999991
 30
0.0
  0
POINT
  5
7DE2
  8
DEFPOINTS
  6
CONTINUOUS
 62
     0
 10
866.97369500000002
 20
1843.767241
 30
0.0
  0
POINT
  5
7DE3
  8
DEFPOINTS
  6
CONTINUOUS
 62
     0
 10
866.97369500000002
 20
1657.7869880000001
 30
0.0
  0
ENDBLK
  5
7C1F
  8
0
  0
BLOCK
  8
0
  2
*D2
 70
     1
 10
0.0
 20
0.0
 30
0.0
  3
*D2
  1

  0
LINE
  5
7DE4
  8
3
  6
CONTINUOUS
 62
     0
 10
2006.6474199999991
 20
2193.767241
 30
0.0
 11
2051.1433160000001
 21
2193.767241
 31
0.0
  0
LINE
  5
7DE5
  8
3
  6
CONTINUOUS
 62
     0
 10
1951.973694999999
 20
1843.767241
 30
0.0
 11
2051.1433160000001
 21
1843.767241
 31
0.0
  0
LINE
  5
7DE6
  8
3
  6
CONTINUOUS
 62
     0
 10
2031.1433159999999
 20
2153.767241
 30
0.0
 11
2031.1433159999999
 21
1883.767241
 31
0.0
  0
INSERT
  5
7DE7
  8
3
  6
CONTINUOUS
 62
     0
  2
_OPEN
 10
2031.1433159999999
 20
2193.767241
 30
0.0
 41
40.0
 42
40.0
 43
40.0
 50
90.0
  0
INSERT
  5
7DE8
  8
3
  6
CONTINUOUS
 62
     0
  2
_OPEN
 10
2031.1433159999999
 20
1843.767241
 30
0.0
 41
40.0
 42
40.0
 43
40.0
 50
270.0
  0
TEXT
  8
3
  40
60
  5
7E49
  62
0
  72
0
  71
0
 10
1861.14
 20
1902.26
 30
0.000000
  1
350
  0
POINT
  5
7DEA
  8
DEFPOINTS
  6
CONTINUOUS
 62
     0
 10
1996.6474199999991
 20
2193.767241
 30
0.0
  0
POINT
  5
7DEB
  8
DEFPOINTS
  6
CONTINUOUS
 62
     0
 10
1941.9736949999999
 20
1843.767241
 30
0.0
  0
POINT
  5
7DEC
  8
DEFPOINTS
  6
CONTINUOUS
 62
     0
 10
2031.1433159999999
 20
1843.767241
 30
0.0
  0
ENDBLK
  5
7C40
  8
0
  0
BLOCK
  8
0
  2
*D3
 70
     1
 10
0.0
 20
0.0
 30
0.0
  3
*D3
  1

  0
LINE
  5
7DED
  8
3
  6
CONTINUOUS
 62
     0
 10
1856.973694999999
 20
2588.767241
 30
0.0
 11
2180.5583310000002
 21
2588.767241
 31
0.0
  0
LINE
  5
7DEE
  8
3
  6
CONTINUOUS
 62
     0
 10
1951.973694999999
 20
1843.767241
 30
0.0
 11
2180.5583310000002
 21
1843.767241
 31
0.0
  0
LINE
  5
7DEF
  8
3
  6
CONTINUOUS
 62
     0
 10
2160.5583310000002
 20
2548.767241
 30
0.0
 11
2160.5583310000002
 21
1883.767241
 31
0.0
  0
INSERT
  5
7DF0
  8
3
  6
CONTINUOUS
 62
     0
  2
_OPEN
 10
2160.5583310000002
 20
2588.767241
 30
0.0
 41
40.0
 42
40.0
 43
40.0
 50
90.0
  0
INSERT
  5
7DF1
  8
3
  6
CONTINUOUS
 62
     0
  2
_OPEN
 10
2160.5583310000002
 20
1843.767241
 30
0.0
 41
40.0
 42
40.0
 43
40.0
 50
270.0
  0
TEXT
  8
3
  40
60
  5
7E4A
  62
0
  72
0
  71
0
 10
1990.56
 20
2090.75
 30
0.000000
  1
745
  0
POINT
  5
7DF3
  8
DEFPOINTS
  6
CONTINUOUS
 62
     0
 10
1846.973694999999
 20
2588.767241
 30
0.0
  0
POINT
  5
7DF4
  8
DEFPOINTS
  6
CONTINUOUS
 62
     0
 10
1941.9736949999999
 20
1843.767241
 30
0.0
  0
POINT
  5
7DF5
  8
DEFPOINTS
  6
CONTINUOUS
 62
     0
 10
2160.5583310000002
 20
1843.767241
 30
0.0
  0
ENDBLK
  5
7C35
  8
0
  0
BLOCK
  8
0
  2
*D4
 70
     1
 10
0.0
 20
0.0
 30
0.0
  3
*D4
  1

  0
LINE
  5
7DF6
  8
3
  6
CONTINUOUS
 62
     0
 10
1846.973694999999
 20
2598.767241
 30
0.0
 11
1846.973694999999
 21
2736.2018969999999
 31
0.0
  0
LINE
  5
7DF7
  8
3
  6
CONTINUOUS
 62
     0
 10
956.97369499999991
 20
2598.767241
 30
0.0
 11
956.97369499999991
 21
2736.2018969999999
 31
0.0
  0
LINE
  5
7DF8
  8
3
  6
CONTINUOUS
 62
     0
 10
1806.973694999999
 20
2716.201896999999
 30
0.0
 11
996.97369499999991
 21
2716.201896999999
 31
0.0
  0
INSERT
  5
7DF9
  8
3
  6
CONTINUOUS
 62
     0
  2
_OPEN
 10
1846.973694999999
 20
2716.201896999999
 30
0.0
 41
40.0
 42
40.0
 43
40.0
  0
INSERT
  5
7DFA
  8
3
  6
CONTINUOUS
 62
     0
  2
_OPEN
 10
956.97369499999991
 20
2716.201896999999
 30
0.0
 41
40.0
 42
40.0
 43
40.0
 50
180.0
  0
TEXT
  8
3
  40
60
  5
7E4B
  62
0
  72
0
  71
0
 10
1299.16
 20
2660.00
 30
0.000000
  1
890
  0
POINT
  5
7DFC
  8
DEFPOINTS
  6
CONTINUOUS
 62
     0
 10
1846.973694999999
 20
2588.767241
 30
0.0
  0
POINT
  5
7DFD
  8
DEFPOINTS
  6
CONTINUOUS
 62
     0
 10
956.97369499999991
 20
2588.767241
 30
0.0
  0
POINT
  5
7DFE
  8
DEFPOINTS
  6
CONTINUOUS
 62
     0
 10
956.97369499999991
 20
2716.201896999999
 30
0.0
  0
ENDBLK
  5
7C2A
  8
0
  0
BLOCK
  8
0
  2
*D5
 70
     1
 10
0.0
 20
0.0
 30
0.0
  3
*D5
  1

  0
LINE
  5
7DFF
  8
3
  6
CONTINUOUS
 62
     0
 10
956.8867140000001
 20
3386.372766
 30
0.0
 11
956.8867140000001
 21
3189.513586
 31
0.0
  0
LINE
  5
7E00
  8
3
  6
CONTINUOUS
 62
     0
 10
1846.886714
 20
3386.372766
 30
0.0
 11
1846.886714
 21
3189.513586
 31
0.0
  0
LINE
  5
7E01
  8
3
  6
CONTINUOUS
 62
     0
 10
996.88671400000021
 20
3209.5135859999991
 30
0.0
 11
1806.886714
 21
3209.5135859999991
 31
0.0
  0
INSERT
  5
7E02
  8
3
  6
CONTINUOUS
 62
     0
  2
_OPEN
 10
956.8867140000001
 20
3209.5135859999991
 30
0.0
 41
40.0
 42
40.0
 43
40.0
 50
180.0
  0
INSERT
  5
7E03
  8
3
  6
CONTINUOUS
 62
     0
  2
_OPEN
 10
1846.886714
 20
3209.5135859999991
 30
0.0
 41
40.0
 42
40.0
 43
40.0
  0
TEXT
  8
3
  40
60
  5
7E4C
  62
0
  72
0
  71
0
 10
1304.27
 20
3153.31
 30
0.000000
  1
890
  0
POINT
  5
7E05
  8
DEFPOINTS
  6
CONTINUOUS
 62
     0
 10
956.8867140000001
 20
3396.372766
 30
0.0
  0
POINT
  5
7E06
  8
DEFPOINTS
  6
CONTINUOUS
 62
     0
 10
1846.886714
 20
3396.372766
 30
0.0
  0
POINT
  5
7E07
  8
DEFPOINTS
  6
CONTINUOUS
 62
     0
 10
1846.886714
 20
3209.5135859999991
 30
0.0
  0
ENDBLK
  5
7BEB
  8
0
  0
BLOCK
  8
0
  2
*D6
 70
     1
 10
0.0
 20
0.0
 30
0.0
  3
*D6
  1

  0
LINE
  5
7E08
  8
3
  6
CONTINUOUS
 62
     0
 10
1856.8867139999991
 20
4096.3727659999986
 30
0.0
 11
2108.8888969999998
 21
4096.3727659999986
 31
0.0
  0
LINE
  5
7E09
  8
3
  6
CONTINUOUS
 62
     0
 10
1856.886714
 20
3396.372765999999
 30
0.0
 11
2108.8888969999998
 21
3396.372765999999
 31
0.0
  0
LINE
  5
7E0A
  8
3
  6
CONTINUOUS
 62
     0
 10
2088.8888969999998
 20
4056.372765999999
 30
0.0
 11
2088.8888969999998
 21
3436.372765999999
 31
0.0
  0
INSERT
  5
7E0B
  8
3
  6
CONTINUOUS
 62
     0
  2
_OPEN
 10
2088.8888969999998
 20
4096.3727659999986
 30
0.0
 41
40.0
 42
40.0
 43
40.0
 50
90.0
  0
INSERT
  5
7E0C
  8
3
  6
CONTINUOUS
 62
     0
  2
_OPEN
 10
2088.8888969999998
 20
3396.372765999999
 30
0.0
 41
40.0
 42
40.0
 43
40.0
 50
270.0
  0
TEXT
  8
3
  40
60
  5
7E4D
  62
0
  72
0
  71
0
 10
1918.89
 20
3649.71
 30
0.000000
  1
700
  0
POINT
  5
7E0E
  8
DEFPOINTS
  6
CONTINUOUS
 62
     0
 10
1846.8867139999991
 20
4096.3727659999986
 30
0.0
  0
POINT
  5
7E0F
  8
DEFPOINTS
  6
CONTINUOUS
 62
     0
 10
1846.886714
 20
3396.372765999999
 30
0.0
  0
POINT
  5
7E10
  8
DEFPOINTS
  6
CONTINUOUS
 62
     0
 10
2088.8888969999998
 20
3396.372765999999
 30
0.0
  0
ENDBLK
  5
7C01
  8
0
  0
BLOCK
  8
0
  2
*D7
 70
     1
 10
0.0
 20
0.0
 30
0.0
  3
*D7
  1

  0
LINE
  5
7E11
  8
3
  6
CONTINUOUS
 62
     0
 10
2766.0806280000002
 20
2598.767241
 30
0.0
 11
2766.0806280000002
 21
2741.0236690000002
 31
0.0
  0
LINE
  5
7E12
  8
3
  6
CONTINUOUS
 62
     0
 10
3116.0806280000002
 20
2676.231057
 30
0.0
 11
3116.0806280000002
 21
2741.0236690000002
 31
0.0
  0
LINE
  5
7E13
  8
3
  6
CONTINUOUS
 62
     0
 10
2806.0806280000002
 20
2721.0236690000002
 30
0.0
 11
3076.0806280000002
 21
2721.0236690000002
 31
0.0
  0
INSERT
  5
7E14
  8
3
  6
CONTINUOUS
 62
     0
  2
_OPEN
 10
2766.0806280000002
 20
2721.0236690000002
 30
0.0
 41
40.0
 42
40.0
 43
40.0
 50
180.0
  0
INSERT
  5
7E15
  8
3
  6
CONTINUOUS
 62
     0
  2
_OPEN
 10
3116.0806280000002
 20
2721.0236690000002
 30
0.0
 41
40.0
 42
40.0
 43
40.0
  0
TEXT
  8
3
  40
60
  5
7E4E
  62
0
  72
0
  71
0
 10
2858.94
 20
2664.82
 30
0.000000
  1
350
  0
POINT
  5
7E17
  8
DEFPOINTS
  6
CONTINUOUS
 62
     0
 10
2766.0806280000002
 20
2588.767241
 30
0.0
  0
POINT
  5
7E18
  8
DEFPOINTS
  6
CONTINUOUS
 62
     0
 10
3116.0806280000002
 20
2666.231057
 30
0.0
  0
POINT
  5
7E19
  8
DEFPOINTS
  6
CONTINUOUS
 62
     0
 10
3116.0806280000002
 20
2721.0236690000002
 30
0.0
  0
ENDBLK
  5
7C60
  8
0
  0
BLOCK
  8
0
  2
*D8
 70
     1
 10
0.0
 20
0.0
 30
0.0
  3
*D8
  1

  0
LINE
  5
7E1A
  8
3
  6
CONTINUOUS
 62
     0
 10
3466.0806280000002
 20
2598.767241
 30
0.0
 11
3466.0806280000002
 21
2741.0236690000002
 31
0.0
  0
LINE
  5
7E1B
  8
3
  6
CONTINUOUS
 62
     0
 10
3156.0806280000002
 20
2721.0236690000002
 30
0.0
 11
3426.0806280000002
 21
2721.0236690000002
 31
0.0
  0
INSERT
  5
7E1C
  8
3
  6
CONTINUOUS
 62
     0
  2
_OPEN
 10
3116.0806280000002
 20
2721.0236690000002
 30
0.0
 41
40.0
 42
40.0
 43
40.0
 50
180.0
  0
INSERT
  5
7E1D
  8
3
  6
CONTINUOUS
 62
     0
  2
_OPEN
 10
3466.0806280000002
 20
2721.0236690000002
 30
0.0
 41
40.0
 42
40.0
 43
40.0
  0
TEXT
  8
3
  40
60
  5
7E4F
  62
0
  72
0
  71
0
 10
3171.08
 20
2664.82
 30
0.000000
  1
350
  0
POINT
  5
7E1F
  8
DEFPOINTS
  6
CONTINUOUS
 62
     0
 10
3116.0806280000002
 20
2666.231057
 30
0.0
  0
POINT
  5
7E20
  8
DEFPOINTS
  6
CONTINUOUS
 62
     0
 10
3466.0806280000002
 20
2588.767241
 30
0.0
  0
POINT
  5
7E21
  8
DEFPOINTS
  6
CONTINUOUS
 62
     0
 10
3466.0806280000002
 20
2721.0236690000002
 30
0.0
  0
ENDBLK
  5
7B87
  8
0
  0
BLOCK
  8
0
  2
*D9
 70
     1
 10
0.0
 20
0.0
 30
0.0
  3
*D9
  1

  0
LINE
  5
7E22
  8
3
  6
CONTINUOUS
 62
     0
 10
2996.0806280000002
 20
2363.767241
 30
0.0
 11
2996.0806280000002
 21
2475.4855160000002
 31
0.0
  0
LINE
  5
7E23
  8
3
  6
CONTINUOUS
 62
     0
 10
3236.0806280000002
 20
2363.767241
 30
0.0
 11
3236.0806280000002
 21
2475.4855160000002
 31
0.0
  0
LINE
  5
7E24
  8
3
  6
CONTINUOUS
 62
     0
 10
2956.0806280000002
 20
2455.4855160000002
 30
0.0
 11
2916.0806280000002
 21
2455.4855160000002
 31
0.0
  0
LINE
  5
7E25
  8
3
  6
CONTINUOUS
 62
     0
 10
3276.0806280000002
 20
2455.4855160000002
 30
0.0
 11
3316.0806280000002
 21
2455.4855160000002
 31
0.0
  0
LINE
  5
7E26
  8
3
  6
CONTINUOUS
 62
     0
 10
2996.0806280000002
 20
2455.4855160000002
 30
0.0
 11
3236.0806280000002
 21
2455.4855160000002
 31
0.0
  0
INSERT
  5
7E27
  8
3
  6
CONTINUOUS
 62
     0
  2
_OPEN
 10
2996.0806280000002
 20
2455.4855160000002
 30
0.0
 41
40.0
 42
40.0
 43
40.0
  0
INSERT
  5
7E28
  8
3
  6
CONTINUOUS
 62
     0
  2
_OPEN
 10
3236.0806280000002
 20
2455.4855160000002
 30
0.0
 41
40.0
 42
40.0
 43
40.0
 50
180.0
  0
TEXT
  8
3
  40
60
  5
7E50
  62
0
  72
0
  71
0
 10
2996.08
 20
2399.29
 30
0.000000
  1
240
  0
POINT
  5
7E2A
  8
DEFPOINTS
  6
CONTINUOUS
 62
     0
 10
2996.0806280000002
 20
2353.7672409999991
 30
0.0
  0
POINT
  5
7E2B
  8
DEFPOINTS
  6
CONTINUOUS
 62
     0
 10
3236.0806280000002
 20
2353.7672409999991
 30
0.0
  0
POINT
  5
7E2C
  8
DEFPOINTS
  6
CONTINUOUS
 62
     0
 10
3236.0806280000002
 20
2455.4855160000002
 30
0.0
  0
ENDBLK
  5
7B1D
  8
0
  0
BLOCK
  8
0
  2
*D10
 70
     1
 10
0.0
 20
0.0
 30
0.0
  3
*D10
  1

  0
LINE
  5
7E2D
  8
3
  6
CONTINUOUS
 62
     0
 10
2986.0806280000002
 20
2353.7672409999991
 30
0.0
 11
2889.2849120000001
 21
2353.7672409999991
 31
0.0
  0
LINE
  5
7E2E
  8
3
  6
CONTINUOUS
 62
     0
 10
2986.0806280000002
 20
2033.767241
 30
0.0
 11
2889.2849120000001
 21
2033.767241
 31
0.0
  0
LINE
  5
7E2F
  8
3
  6
CONTINUOUS
 62
     0
 10
2909.2849120000001
 20
2313.767241
 30
0.0
 11
2909.2849120000001
 21
2073.767241
 31
0.0
  0
INSERT
  5
7E30
  8
3
  6
CONTINUOUS
 62
     0
  2
_OPEN
 10
2909.2849120000001
 20
2353.7672409999991
 30
0.0
 41
40.0
 42
40.0
 43
40.0
 50
90.0
  0
INSERT
  5
7E31
  8
3
  6
CONTINUOUS
 62
     0
  2
_OPEN
 10
2909.2849120000001
 20
2033.767241
 30
0.0
 41
40.0
 42
40.0
 43
40.0
 50
270.0
  0
TEXT
  8
3
  40
60
  5
7E51
  62
0
  72
0
  71
0
 10
2739.28
 20
2085.40
 30
0.000000
  1
320
  0
POINT
  5
7E33
  8
DEFPOINTS
  6
CONTINUOUS
 62
     0
 10
2996.0806280000002
 20
2353.7672409999991
 30
0.0
  0
POINT
  5
7E34
  8
DEFPOINTS
  6
CONTINUOUS
 62
     0
 10
2996.0806280000002
 20
2033.767241
 30
0.0
  0
POINT
  5
7E35
  8
DEFPOINTS
  6
CONTINUOUS
 62
     0
 10
2909.2849120000001
 20
2033.767241
 30
0.0
  0
ENDBLK
  5
7B2A
  8
0
  0
BLOCK
  8
0
  2
*D11
 70
     1
 10
0.0
 20
0.0
 30
0.0
  3
*D11
  1

  0
LINE
  5
7E36
  8
3
  6
CONTINUOUS
 62
     0
 10
2781.0806280000002
 20
1833.767241
 30
0.0
 11
2781.0806280000002
 21
1655.3206720000001
 31
0.0
  0
LINE
  5
7E37
  8
3
  6
CONTINUOUS
 62
     0
 10
3451.0806280000002
 20
1833.767241
 30
0.0
 11
3451.0806280000002
 21
1655.3206720000001
 31
0.0
  0
LINE
  5
7E38
  8
3
  6
CONTINUOUS
 62
     0
 10
2821.0806280000002
 20
1675.3206720000001
 30
0.0
 11
3411.0806280000002
 21
1675.3206720000001
 31
0.0
  0
INSERT
  5
7E39
  8
3
  6
CONTINUOUS
 62
     0
  2
_OPEN
 10
2781.0806280000002
 20
1675.3206720000001
 30
0.0
 41
40.0
 42
40.0
 43
40.0
 50
180.0
  0
INSERT
  5
7E3A
  8
3
  6
CONTINUOUS
 62
     0
  2
_OPEN
 10
3451.0806280000002
 20
1675.3206720000001
 30
0.0
 41
40.0
 42
40.0
 43
40.0
  0
TEXT
  8
3
  40
60
  5
7E52
  62
0
  72
0
  71
0
 10
3025.47
 20
1619.12
 30
0.000000
  1
670
  0
POINT
  5
7E3C
  8
DEFPOINTS
  6
CONTINUOUS
 62
     0
 10
2781.0806280000002
 20
1843.767241
 30
0.0
  0
POINT
  5
7E3D
  8
DEFPOINTS
  6
CONTINUOUS
 62
     0
 10
3451.0806280000002
 20
1843.767241
 30
0.0
  0
POINT
  5
7E3E
  8
DEFPOINTS
  6
CONTINUOUS
 62
     0
 10
3451.0806280000002
 20
1675.3206720000001
 30
0.0
  0
ENDBLK
  5
7B72
  8
0
  0
BLOCK
  8
0
  2
*D12
 70
     1
 10
0.0
 20
0.0
 30
0.0
  3
*D12
  1

  0
LINE
  5
7E3F
  8
3
 62
     0
 10
856.97369500000013
 20
1843.767241
 30
0.0
 11
646.30389411697865
 21
1843.767241
 31
0.0
  0
LINE
  5
7E40
  8
3
 62
     0
 10
797.1844259999998
 20
2193.767241
 30
0.0
 11
646.30389411697865
 21
2193.767241
 31
0.0
  0
LINE
  5
7E41
  8
3
 62
     0
 10
666.30389411697865
 20
1883.767241
 30
0.0
 11
666.30389411697865
 21
2153.767241
 31
0.0
  0
INSERT
  5
7E42
  8
3
 62
     0
  2
_OPEN
 10
666.30389411697865
 20
1843.767241
 30
0.0
 41
40.0
 42
40.0
 43
40.0
 50
270.0
  0
INSERT
  5
7E43
  8
3
 62
     0
  2
_OPEN
 10
666.30389411697865
 20
2193.767241
 30
0.0
 41
40.0
 42
40.0
 43
40.0
 50
90.0
  0
TEXT
  8
3
  40
60
  5
7E53
  62
0
  72
0
  71
0
 10
496.304
 20
1897.01
 30
0.000000
  1
350
  0
POINT
  5
7E45
  8
DEFPOINTS
 62
     0
 10
866.97369500000002
 20
1843.767241
 30
0.0
  0
POINT
  5
7E46
  8
DEFPOINTS
 62
     0
 10
807.1844259999998
 20
2193.767241
 30
0.0
  0
POINT
  5
7E47
  8
DEFPOINTS
 62
     0
 10
666.30389411697865
 20
2193.767241
 30
0.0
  0
ENDBLK
  5
7C4B
  8
0
  0
ENDSEC
  0
SECTION
  2
ENTITIES
  0
ARC
  5
7A4B
  8
1
  6
CONTINUOUS
 10
1529.973694999999
 20
2293.767241
 30
0.0
 40
192.750281
 50
84.472459999999984
 51
175.36453700000001
  0
ARC
  5
7A4C
  8
1
  6
CONTINUOUS
 10
1566.973694999999
 20
2290.767241
 30
0.0
 40
229.87170299999991
 50
175.36453700000001
 51
265.00866699999989
  0
LINE
  5
7A4D
  8
1
  6
CONTINUOUS
 10
956.97369499999991
 20
2588.767241
 30
0.0
 11
1846.973694999999
 21
2588.767241
 31
0.0
  0
LINE
  5
7A4E
  8
1
  6
CONTINUOUS
 10
1861.9736949999999
 20
1923.767241
 30
0.0
 11
941.97369499999979
 21
1923.767241
 31
0.0
  0
LINE
  5
7A4F
  8
1
  6
CONTINUOUS
 10
1936.9736949999999
 20
1843.7672409999991
 30
0.0
 11
866.97369500000002
 21
1843.767241
 31
0.0
  0
LINE
  5
7A50
  8
1
  6
CONTINUOUS
 10
1936.9736949999999
 20
1923.767241
 30
0.0
 11
866.97369500000002
 21
1923.767241
 31
0.0
  0
LINE
  5
7A51
  8
1
  6
CONTINUOUS
 10
1936.9736949999999
 20
1843.7672409999991
 30
0.0
 11
866.97369500000002
 21
1843.767241
 31
0.0
  0
LINE
  5
7A52
  8
1
  6
CONTINUOUS
 10
1846.973694999999
 20
2588.767241
 30
0.0
 11
1846.973694999999
 21
1923.767241
 31
0.0
  0
LINE
  5
7A53
  8
1
  6
CONTINUOUS
 10
1846.973694999999
 20
2588.767241
 30
0.0
 11
1846.973694999999
 21
1923.767241
 31
0.0
  0
LINE
  5
7A54
  8
1
  6
CONTINUOUS
 10
1861.9736949999999
 20
1923.767241
 30
0.0
 11
1936.9736949999999
 21
1923.767241
 31
0.0
  0
LINE
  5
7A55
  8
1
  6
CONTINUOUS
 10
1936.9736949999999
 20
1923.767241
 30
0.0
 11
1936.9736949999999
 21
1843.767241
 31
0.0
  0
LINE
  5
7A56
  8
1
  6
CONTINUOUS
 10
1936.9736949999999
 20
1923.767241
 30
0.0
 11
1936.9736949999999
 21
1843.767241
 31
0.0
  0
LINE
  5
7A57
  8
1
  6
CONTINUOUS
 10
1846.973694999999
 20
2060.267241
 30
0.0
 11
1546.9736949999999
 21
2061.767241
 31
0.0
  0
LINE
  5
7A58
  8
1
  6
CONTINUOUS
 10
1693.971595999999
 20
2310.767241
 30
0.0
 11
1846.973694999999
 21
2310.767241
 31
0.0
  0
LINE
  5
7A59
  8
1
  6
CONTINUOUS
 10
1871.9736949999999
 20
2378.7672409999991
 30
0.0
 11
1871.9736949999999
 21
2008.767241
 31
0.0
  0
LINE
  5
7A5A
  8
1
  6
CONTINUOUS
 10
1871.973694999999
 20
2008.767241
 30
0.0
 11
1846.973694999999
 21
2008.767241
 31
0.0
  0
LINE
  5
7A5B
  8
1
  6
CONTINUOUS
 10
1746.973694999999
 20
2310.767241
 30
0.0
 11
1746.973694999999
 21
2060.767241
 31
0.0
  0
LINE
  5
7A5C
  8
1
  6
CONTINUOUS
 10
1871.973694999999
 20
2378.7672409999991
 30
0.0
 11
1846.973694999999
 21
2378.7672409999991
 31
0.0
  0
ARC
  5
7A5D
  8
1
  6
CONTINUOUS
 10
1532.973694999999
 20
2324.7672409999991
 30
0.0
 40
161.605458
 50
353.15722699999998
 51
84.472459999999984
  0
LINE
  5
7A5E
  8
1
  6
CONTINUOUS
 10
956.97369499999991
 20
1923.767241
 30
0.0
 11
956.97369500000013
 21
2588.767241
 31
0.0
  0
LINE
  5
7A5F
  8
1
  6
CONTINUOUS
 10
866.97369500000002
 20
1923.767241
 30
0.0
 11
941.97369499999979
 21
1923.767241
 31
0.0
  0
LINE
  5
7A60
  8
1
  6
CONTINUOUS
 10
866.97369499999979
 20
1843.767241
 30
0.0
 11
866.97369499999979
 21
1923.767241
 31
0.0
  0
LINE
  5
7A61
  8
1
  6
CONTINUOUS
 10
931.97369499999991
 20
2378.7672409999991
 30
0.0
 11
931.97369499999991
 21
2008.767241
 31
0.0
  0
LINE
  5
7A62
  8
1
  6
CONTINUOUS
 10
931.97369499999991
 20
2008.767241
 30
0.0
 11
956.97369499999991
 21
2008.767241
 31
0.0
  0
LINE
  5
7A63
  8
1
  6
CONTINUOUS
 10
931.97369499999991
 20
2378.7672409999991
 30
0.0
 11
956.97369499999991
 21
2378.7672409999991
 31
0.0
  0
LINE
  5
7A64
  8
1
  6
CONTINUOUS
 10
1871.886714
 20
3891.372765999999
 30
0.0
 11
1871.886714
 21
3601.372765999999
 31
0.0
  0
LINE
  5
7A65
  8
1
  6
CONTINUOUS
 10
931.8867140000001
 20
3891.372765999999
 30
0.0
 11
931.8867140000001
 21
3601.372765999999
 31
0.0
  0
LINE
  5
7A66
  8
1
  6
CONTINUOUS
 10
956.8867140000001
 20
4096.3727659999986
 30
0.0
 11
956.8867140000001
 21
3396.372766
 31
0.0
  0
LINE
  5
7A67
  8
1
  6
CONTINUOUS
 10
1846.886714
 20
3396.372766
 30
0.0
 11
1846.886714
 21
4096.3727659999986
 31
0.0
  0
LINE
  5
7A68
  8
1
  6
CONTINUOUS
 10
956.8867140000001
 20
3396.372766
 30
0.0
 11
1846.886714
 21
3396.372765999999
 31
0.0
  0
LINE
  5
7A69
  8
1
  6
CONTINUOUS
 10
866.8867140000001
 20
3451.372765999999
 30
0.0
 11
956.8867140000001
 21
3451.372765999999
 31
0.0
  0
LINE
  5
7A6A
  8
1
  6
CONTINUOUS
 10
866.8867140000001
 20
3411.372765999999
 30
0.0
 11
956.8867140000001
 21
3411.372765999999
 31
0.0
  0
LINE
  5
7A6B
  8
1
  6
CONTINUOUS
 10
866.8867140000001
 20
3411.372765999999
 30
0.0
 11
866.8867140000001
 21
3451.372765999999
 31
0.0
  0
LINE
  5
7A6C
  8
1
  6
CONTINUOUS
 10
931.8867140000001
 20
3601.372765999999
 30
0.0
 11
956.8867140000001
 21
3601.372765999999
 31
0.0
  0
LINE
  5
7A6D
  8
1
  6
CONTINUOUS
 10
1936.8867139999991
 20
3411.372765999999
 30
0.0
 11
1846.886714
 21
3411.372765999999
 31
0.0
  0
LINE
  5
7A6E
  8
1
  6
CONTINUOUS
 10
1936.8867139999991
 20
3451.372765999999
 30
0.0
 11
1846.886714
 21
3451.372765999999
 31
0.0
  0
LINE
  5
7A6F
  8
1
  6
CONTINUOUS
 10
1871.886714
 20
3601.372765999999
 30
0.0
 11
1846.886714
 21
3601.372765999999
 31
0.0
  0
LINE
  5
7A70
  8
1
  6
CONTINUOUS
 10
1936.8867139999991
 20
3411.372765999999
 30
0.0
 11
1936.8867139999991
 21
3451.372765999999
 31
0.0
  0
LINE
  5
7A71
  8
1
  6
CONTINUOUS
 10
1846.8867139999991
 20
4096.3727659999986
 30
0.0
 11
956.88671399999998
 21
4096.3727659999986
 31
0.0
  0
LINE
  5
7A72
  8
1
  6
CONTINUOUS
 10
866.8867140000001
 20
4041.372766
 30
0.0
 11
866.8867140000001
 21
4081.372766
 31
0.0
  0
LINE
  5
7A73
  8
1
  6
CONTINUOUS
 10
866.8867140000001
 20
4041.372766
 30
0.0
 11
956.8867140000001
 21
4041.372766
 31
0.0
  0
LINE
  5
7A74
  8
1
  6
CONTINUOUS
 10
931.8867140000001
 20
3891.372765999999
 30
0.0
 11
956.8867140000001
 21
3891.372765999999
 31
0.0
  0
LINE
  5
7A75
  8
1
  6
CONTINUOUS
 10
866.8867140000001
 20
4081.372766
 30
0.0
 11
956.8867140000001
 21
4081.372766
 31
0.0
  0
LINE
  5
7A76
  8
1
  6
CONTINUOUS
 10
1936.8867139999991
 20
4041.372766
 30
0.0
 11
1936.8867139999991
 21
4081.372766
 31
0.0
  0
LINE
  5
7A77
  8
1
  6
CONTINUOUS
 10
1936.8867139999991
 20
4041.372766
 30
0.0
 11
1846.8867139999991
 21
4041.372766
 31
0.0
  0
LINE
  5
7A78
  8
1
  6
CONTINUOUS
 10
1871.886714
 20
3891.372765999999
 30
0.0
 11
1846.886714
 21
3891.372765999999
 31
0.0
  0
LINE
  5
7A79
  8
1
  6
CONTINUOUS
 10
1936.8867139999991
 20
4081.372766
 30
0.0
 11
1846.8867139999991
 21
4081.372766
 31
0.0
  0
LINE
  5
7A7A
  8
1
  6
CONTINUOUS
 10
3466.0806280000002
 20
2588.767241
 30
0.0
 11
2766.0806280000002
 21
2588.767241
 31
0.0
  0
LINE
  5
7A7B
  8
1
  6
CONTINUOUS
 10
3466.0806280000002
 20
1923.767241
 30
0.0
 11
2766.0806280000002
 21
1923.767241
 31
0.0
  0
LINE
  5
7A7C
  8
1
  6
CONTINUOUS
 10
2781.0806280000002
 20
1843.767241
 30
0.0
 11
3451.0806280000002
 21
1843.767241
 31
0.0
  0
LINE
  5
7A7D
  8
1
  6
CONTINUOUS
 10
2766.0806280000002
 20
2588.7672409999991
 30
0.0
 11
2766.0806280000002
 21
1923.767241
 31
0.0
  0
LINE
  5
7A7F
  8
1
  6
CONTINUOUS
 10
2781.0806280000002
 20
1923.767241
 30
0.0
 11
2781.0806280000002
 21
1843.767241
 31
0.0
  0
LINE
  5
7A80
  8
1
  6
CONTINUOUS
 10
2996.0806280000002
 20
2353.7672409999991
 30
0.0
 11
3236.0806280000002
 21
2033.767241
 31
0.0
  0
LINE
  5
7A81
  8
1
  6
CONTINUOUS
 10
2996.0806280000002
 20
2033.767241
 30
0.0
 11
3236.0806280000002
 21
2353.7672409999991
 31
0.0
  0
POLYLINE
  5
7A82
  8
1
  6
CONTINUOUS
 66
     1
 10
0.0
 20
0.0
 30
0.0
 70
     1
  0
VERTEX
  5
7DD1
  8
1
  6
CONTINUOUS
 10
2971.0806280000002
 20
2008.767241
 30
0.0
  0
VERTEX
  5
7DD2
  8
1
  6
CONTINUOUS
 10
3261.0806280000002
 20
2008.767241
 30
0.0
  0
VERTEX
  5
7DD3
  8
1
  6
CONTINUOUS
 10
3261.0806280000002
 20
2378.7672409999991
 30
0.0
  0
VERTEX
  5
7DD4
  8
1
  6
CONTINUOUS
 10
2971.0806280000002
 20
2378.7672409999991
 30
0.0
  0
SEQEND
  5
7DD5
  8
1
  6
CONTINUOUS
  0
POLYLINE
  5
7A88
  8
1
  6
CONTINUOUS
 66
     1
 10
0.0
 20
0.0
 30
0.0
 70
     1
  0
VERTEX
  5
7DD6
  8
1
  6
CONTINUOUS
 10
2996.0806280000002
 20
2033.767241
 30
0.0
  0
VERTEX
  5
7DD7
  8
1
  6
CONTINUOUS
 10
3236.0806280000002
 20
2033.767241
 30
0.0
  0
VERTEX
  5
7DD8
  8
1
  6
CONTINUOUS
 10
3236.0806280000002
 20
2353.7672409999991
 30
0.0
  0
VERTEX
  5
7DD9
  8
1
  6
CONTINUOUS
 10
2996.0806280000002
 20
2353.7672409999991
 30
0.0
  0
SEQEND
  5
7DDA
  8
1
  6
CONTINUOUS
  0
LINE
  5
7A8E
  8
1
  6
CONTINUOUS
 10
3466.0806280000002
 20
1923.767241
 30
0.0
 11
3466.0806280000002
 21
2588.7672409999991
 31
0.0
  0
LINE
  5
7A90
  8
1
  6
CONTINUOUS
 10
3451.0806280000002
 20
1843.767241
 30
0.0
 11
3451.0806280000002
 21
1923.767241
 31
0.0
  0
LINE
  5
7AA5
  8
2
  6
CENTER
 10
1996.6474199999991
 20
2193.767241
 30
0.0
 11
807.1844259999998
 21
2193.767241
 31
0.0
  0
DIMENSION
  5
7AB2
  8
3
  6
CONTINUOUS
  2
*D1
 10
866.97369500000002
 20
1657.7869880000001
 30
0.0
 11
1357.7465739999991
 21
1657.7869880000001
 31
0.0
 70
   128
 13
1936.9736949999999
 23
1843.7672409999991
 33
0.0
 14
866.97369500000002
 24
1843.767241
 34
0.0
1001
ACAD
1000
DSTYLE
1002
{
1070
   287
1070
     3
1070
   287
1070
     3
1070
   287
1070
     3
1070
    40
1040
20.0
1070
   143
1040
0.039
1070
   172
1070
     1
1070
   271
1070
     0
1070
   279
1070
     0
1070
   288
1070
     1
1002
}
  0
DIMENSION
  5
7ABF
  8
3
  6
CONTINUOUS
  2
*D2
 10
2031.1433159999999
 20
1843.767241
 30
0.0
 11
2031.143315999999
 21
2008.4596690000001
 31
0.0
 70
   128
 13
1996.6474199999991
 23
2193.767241
 33
0.0
 14
1941.9736949999999
 24
1843.767241
 34
0.0
 50
270.0
1001
ACAD
1000
DSTYLE
1002
{
1070
   287
1070
     3
1070
   287
1070
     3
1070
   287
1070
     3
1070
    40
1040
20.0
1070
   143
1040
0.039
1070
   172
1070
     1
1070
   271
1070
     0
1070
   279
1070
     0
1070
   288
1070
     1
1002
}
  0
DIMENSION
  5
7ACC
  8
3
  6
CONTINUOUS
  2
*D3
 10
2160.5583310000002
 20
1843.767241
 30
0.0
 11
2160.5583309999988
 21
2196.9462399999989
 31
0.0
 70
   128
 13
1846.973694999999
 23
2588.767241
 33
0.0
 14
1941.9736949999999
 24
1843.767241
 34
0.0
 50
270.0
1001
ACAD
1000
DSTYLE
1002
{
1070
   287
1070
     3
1070
   287
1070
     3
1070
   287
1070
     3
1070
    40
1040
20.0
1070
   143
1040
0.039
1070
   172
1070
     1
1070
   271
1070
     0
1070
   279
1070
     0
1070
   288
1070
     1
1002
}
  0
DIMENSION
  5
7AD9
  8
3
  6
CONTINUOUS
  2
*D4
 10
956.97369499999991
 20
2716.201896999999
 30
0.0
 11
1419.163871
 21
2716.201896999999
 31
0.0
 70
   128
 13
1846.973694999999
 23
2588.767241
 33
0.0
 14
956.97369499999991
 24
2588.767241
 34
0.0
1001
ACAD
1000
DSTYLE
1002
{
1070
   287
1070
     3
1070
   287
1070
     3
1070
   287
1070
     3
1070
    40
1040
20.0
1070
   143
1040
0.039
1070
   172
1070
     1
1070
   271
1070
     0
1070
   279
1070
     0
1070
   288
1070
     1
1002
}
  0
DIMENSION
  5
7AE6
  8
3
  6
CONTINUOUS
  2
*D5
 10
1846.886714
 20
3209.5135859999991
 30
0.0
 11
1424.2660519999999
 21
3209.5135859999991
 31
0.0
 70
   128
 13
956.8867140000001
 23
3396.372766
 33
0.0
 14
1846.886714
 24
3396.372766
 34
0.0
1001
ACAD
1000
DSTYLE
1002
{
1070
   287
1070
     3
1070
   287
1070
     3
1070
   287
1070
     3
1070
    40
1040
20.0
1070
   143
1040
0.039
1070
   172
1070
     1
1070
   271
1070
     0
1070
   279
1070
     0
1070
   288
1070
     1
1002
}
  0
DIMENSION
  5
7AF3
  8
3
  6
CONTINUOUS
  2
*D6
 10
2088.8888969999998
 20
3396.372765999999
 30
0.0
 11
2088.8888969999989
 21
3755.9054420000002
 31
0.0
 70
   128
 13
1846.8867139999991
 23
4096.3727659999986
 33
0.0
 14
1846.886714
 24
3396.372765999999
 34
0.0
 50
90.0
1001
ACAD
1000
DSTYLE
1002
{
1070
   287
1070
     3
1070
   287
1070
     3
1070
   287
1070
     3
1070
    40
1040
20.0
1070
   143
1040
0.039
1070
   172
1070
     1
1070
   271
1070
     0
1070
   279
1070
     0
1070
   288
1070
     1
1002
}
  0
LINE
  5
7AF4
  8
2
  6
CENTER
 10
883.98458000000005
 20
3746.372765999999
 30
0.0
 11
1922.1848
 21
3746.372765999999
 31
0.0
  0
LINE
  5
7AF5
  8
2
  6
CENTER
 10
3116.0806280000002
 20
2671.2310569999991
 30
0.0
 11
3116.0806280000002
 21
2555.2883637307732
 31
0.0
  0
DIMENSION
  5
7B03
  8
3
  6
CONTINUOUS
  2
*D7
 10
3116.0806280000002
 20
2721.0236690000002
 30
0.0
 11
2978.9377708571428
 21
2721.0236690000002
 31
0.0
 70
   128
 13
2766.0806280000002
 23
2588.767241
 33
0.0
 14
3116.0806280000002
 24
2666.231057
 34
0.0
1001
ACAD
1000
DSTYLE
1002
{
1070
   287
1070
     3
1070
   287
1070
     3
1070
   287
1070
     3
1070
    40
1040
20.0
1070
   143
1040
0.039
1070
   172
1070
     1
1070
   271
1070
     0
1070
   279
1070
     0
1070
   288
1070
     1
1002
}
  0
DIMENSION
  5
7B0F
  8
3
  6
CONTINUOUS
  2
*D8
 10
3466.0806280000002
 20
2721.0236690000002
 30
0.0
 11
3291.0806280000002
 21
2771.0236690000002
 31
0.0
 70
     0
 13
3116.0806280000002
 23
2666.231057
 33
0.0
 14
3466.0806280000002
 24
2588.767241
 34
0.0
1001
ACAD
1000
DSTYLE
1002
{
1070
   287
1070
     4
1070
   287
1070
     4
1070
   287
1070
     4
1070
    40
1040
20.0
1070
    75
1070
     1
1070
   143
1040
0.039
1070
   172
1070
     1
1070
   271
1070
     0
1070
   279
1070
     1
1070
   288
1070
     1
1002
}
  0
DIMENSION
  5
7B1E
  8
3
  6
CONTINUOUS
  2
*D9
 10
3236.0806280000002
 20
2455.4855160000002
 30
0.0
 11
3116.0806280000002
 21
2455.4855160000002
 31
0.0
 70
   128
 13
2996.0806280000002
 23
2353.7672409999991
 33
0.0
 14
3236.0806280000002
 24
2353.7672409999991
 34
0.0
1001
ACAD
1000
DSTYLE
1002
{
1070
   287
1070
     3
1070
   287
1070
     3
1070
   287
1070
     3
1070
    40
1040
20.0
1070
   143
1040
0.039
1070
   172
1070
     1
1070
   271
1070
     0
1070
   279
1070
     0
1070
   288
1070
     1
1002
}
  0
DIMENSION
  5
7B2B
  8
3
  6
CONTINUOUS
  2
*D10
 10
2909.2849120000001
 20
2033.767241
 30
0.0
 11
2909.2849120000001
 21
2191.6043519999998
 31
0.0
 70
   128
 13
2996.0806280000002
 23
2353.7672409999991
 33
0.0
 14
2996.0806280000002
 24
2033.767241
 34
0.0
 50
90.0
1001
ACAD
1000
DSTYLE
1002
{
1070
   287
1070
     3
1070
   287
1070
     3
1070
   287
1070
     3
1070
    40
1040
20.0
1070
   143
1040
0.039
1070
   172
1070
     1
1070
   271
1070
     0
1070
   279
1070
     0
1070
   288
1070
     1
1002
}
  0
DIMENSION
  5
7B38
  8
3
  6
CONTINUOUS
  2
*D11
 10
3451.0806280000002
 20
1675.3206720000001
 30
0.0
 11
3145.4715190000002
 21
1675.3206720000001
 31
0.0
 70
   128
 13
2781.0806280000002
 23
1843.767241
 33
0.0
 14
3451.0806280000002
 24
1843.767241
 34
0.0
1001
ACAD
1000
DSTYLE
1002
{
1070
   287
1070
     3
1070
   287
1070
     3
1070
   287
1070
     3
1070
    40
1040
20.0
1070
   143
1040
0.039
1070
   172
1070
     1
1070
   271
1070
     0
1070
   279
1070
     0
1070
   288
1070
     1
1002
}
  0
LINE
  5
7B3A
  8
4
  6
CONTINUOUS
 10
3700.0
 20
1000.0
 30
0.0
 11
3700.0
 21
600.0
 31
0.0
  0
LINE
  5
7B3B
  8
4
  6
CONTINUOUS
 10
2300.0
 20
1000.0
 30
0.0
 11
2300.0
 21
600.0
 31
0.0
  0
LINE
  5
7B3C
  8
4
  6
CONTINUOUS
 10
1300.0
 20
1000.0
 30
0.0
 11
1300.0
 21
600.0
 31
0.0
  0
LINE
  5
7B3F
  8
4
  6
CONTINUOUS
 10
1300.0
 20
600.0
 30
0.0
 11
3700.0
 21
600.0
 31
0.0
  0
LINE
  5
7B40
  8
4
  6
CONTINUOUS
 10
1300.0
 20
800.0
 30
0.0
 11
3700.0
 21
800.0
 31
0.0
  0
TEXT
  5
7B41
  8
4
  6
CONTINUOUS
 10
1377.004162
 20
863.086052
 30
0.0
 40
100.0
  1
機器名称
  0
TEXT
  5
7B42
  8
4
  6
CONTINUOUS
 10
1372.516212
 20
643.29031299999986
 30
0.0
 40
100.0
  1
機器型番
  0
TEXT
  5
7B43
  8
4
  6
CONTINUOUS
 10
2355.3574910000002
 20
845.14353800000015
 30
0.0
 40
100.0
  1
ミツヤファンユニット
  0
TEXT
  5
7B44
  8
4
  6
CONTINUOUS
 10
2373.3089909999999
 20
634.31916899999999
 30
0.0
 40
100.0
  1
MFU#1501-1
  0
TEXT
  5
7B46
  8
4
  6
CONTINUOUS
 10
1403.5429770000001
 20
4766.8576830000002
 30
0.0
 40
100.0
  1
天井吊ベット・床置ベット
  0
TEXT
  5
7B47
  8
4
  6
CONTINUOUS
 10
632.33518700000002
 20
5067.7619520000007
 30
0.0
 40
120.0
  1
ベルト駆動式消音ボックス付き多翼ファン
  0
LINE
  5
7B48
  8
4
  6
CONTINUOUS
 10
500.0
 20
4938.8175090000004
 30
0.0
 11
3700.0
 21
4938.8175090000004
 31
0.0
  0
LINE
  5
7B49
  8
4
  6
CONTINUOUS
 10
500.0
 20
5338.8175090000004
 30
0.0
 11
3700.0
 21
5338.8175090000004
 31
0.0
  0
LINE
  5
7B4A
  8
4
  6
CONTINUOUS
 10
1300.0
 20
1000.0
 30
0.0
 11
3700.0
 21
1000.0
 31
0.0
  0
LINE
  5
7B4B
  8
4
  6
CONTINUOUS
 10
500.0
 20
5338.8175090000004
 30
0.0
 11
500.0
 21
4938.8175090000004
 31
0.0
  0
TEXT
  5
7B4C
  8
4
  6
CONTINUOUS
 10
602.74974400000008
 20
4764.6389549999994
 30
0.0
 40
100.0
  1
左回転右吐出
  0
TEXT
  5
7B4D
  8
4
  6
CONTINUOUS
 10
2937.9391179999998
 20
5412.122163
 30
0.0
 40
112.0
  1
No.
  0
TEXT
  5
7B4E
  8
4
  6
CONTINUOUS
 10
2946.1409440000002
 20
4766.8576830000002
 30
0.0
 40
100.0
  1
縮尺：1/20
  0
LINE
  5
7B4F
  8
4
  6
CONTINUOUS
 10
3700.0
 20
5338.8175090000004
 30
0.0
 11
3700.0
 21
4938.8175090000004
 31
0.0
  0
LINE
  5
7B51
  8
4
  6
CONTINUOUS
 10
2881.234845
 20
5362.5271659999999
 30
0.0
 11
2881.234845
 21
5573.3045229999998
 31
0.0
  0
LINE
  5
7B52
  8
4
  6
CONTINUOUS
 10
2881.234845
 20
5573.3045229999998
 30
0.0
 11
3700.0
 21
5573.3045229999998
 31
0.0
  0
LINE
  5
7B53
  8
4
  6
CONTINUOUS
 10
3700.0
 20
5573.3045229999998
 30
0.0
 11
3700.0
 21
5362.5271659999999
 31
0.0
  0
LINE
  5
7B54
  8
4
  6
CONTINUOUS
 10
3700.0
 20
5362.5271659999999
 30
0.0
 11
2881.234845
 21
5362.5271659999999
 31
0.0
  0
DIMENSION
  5
7C0E
  8
3
  2
*D12
 10
666.30389411697865
 20
2193.767241
 30
0.0
 11
666.30389411697843
 21
2003.2101879810691
 31
0.0
 70
   128
 13
866.97369500000002
 23
1843.767241
 33
0.0
 14
807.1844259999998
 24
2193.767241
 34
0.0
 50
270.0
1001
ACAD
1000
DSTYLE
1002
{
1070
   287
1070
     3
1070
   287
1070
     3
1070
   287
1070
     3
1070
    40
1040
20.0
1070
   143
1040
0.039
1070
   172
1070
     1
1070
   271
1070
     0
1070
   279
1070
     0
1070
   288
1070
     1
1002
}
  0
LINE
  5
7D14
  8
2
  6
CENTER
 10
3116.0806280000002
 20
2442.305567187364
 30
0.0
 11
3116.0806280000002
 21
1784.9058809999999
 31
0.0
  0
ENDSEC
  0
EOF
