  0
SECTION
  2
HEADER
  9
$ACADVER
  1
AC1015
  9
$ACADMAINTVER
 70
     6
  9
$DWGCODEPAGE
  3
ANSI_932
  9
$INSBASE
 10
0.0
 20
0.0
 30
0.0
  9
$EXTMIN
 10
-3452.677878
 20
-2113.126285
 30
0.0
  9
$EXTMAX
 10
-252.6778779999999
 20
2860.178237999999
 30
0.0
  9
$LIMMIN
 10
0.0
 20
0.0
  9
$LIMMAX
 10
297.0
 20
210.0
  9
$ORTHOMODE
 70
     1
  9
$REGENMODE
 70
     1
  9
$FILLMODE
 70
     0
  9
$QTEXTMODE
 70
     0
  9
$MIRRTEXT
 70
     1
  9
$LTSCALE
 40
5.0
  9
$ATTMODE
 70
     1
  9
$TEXTSIZE
 40
180.0
  9
$TRACEWID
 40
0.05
  9
$TEXTSTYLE
  7
STANDARD
  9
$CLAYER
  8
3
  9
$CELTYPE
  6
BYLAYER
  9
$CECOLOR
 62
   256
  9
$CELTSCALE
 40
1.0
  9
$DISPSILH
 70
     0
  9
$DIMSCALE
 40
20.0
  9
$DIMASZ
 40
2.0
  9
$DIMEXO
 40
0.5
  9
$DIMDLI
 40
10.0
  9
$DIMRND
 40
0.0
  9
$DIMDLE
 40
0.0
  9
$DIMEXE
 40
1.0
  9
$DIMTP
 40
1.0
  9
$DIMTM
 40
1.0
  9
$DIMTXT
 40
3.0
  9
$DIMCEN
 40
0.0
  9
$DIMTSZ
 40
0.0
  9
$DIMTOL
 70
     0
  9
$DIMLIM
 70
     0
  9
$DIMTIH
 70
     0
  9
$DIMTOH
 70
     0
  9
$DIMSE1
 70
     0
  9
$DIMSE2
 70
     0
  9
$DIMTAD
 70
     1
  9
$DIMZIN
 70
     8
  9
$DIMBLK
  1

  9
$DIMASO
 70
     1
  9
$DIMSHO
 70
     1
  9
$DIMPOST
  1

  9
$DIMAPOST
  1

  9
$DIMALT
 70
     0
  9
$DIMALTD
 70
     2
  9
$DIMALTF
 40
0.039
  9
$DIMLFAC
 40
1.0
  9
$DIMTOFL
 70
     1
  9
$DIMTVP
 40
0.0
  9
$DIMTIX
 70
     0
  9
$DIMSOXD
 70
     0
  9
$DIMSAH
 70
     1
  9
$DIMBLK1
  1
OPEN
  9
$DIMBLK2
  1
OPEN
  9
$DIMSTYLE
  2
IGA
  9
$DIMCLRD
 70
     0
  9
$DIMCLRE
 70
     0
  9
$DIMCLRT
 70
     0
  9
$DIMTFAC
 40
10.0
  9
$DIMGAP
 40
1.0
  9
$DIMJUST
 70
     0
  9
$DIMSD1
 70
     0
  9
$DIMSD2
 70
     0
  9
$DIMTOLJ
 70
     1
  9
$DIMTZIN
 70
     8
  9
$DIMALTZ
 70
     0
  9
$DIMALTTZ
 70
     0
  9
$DIMUPT
 70
     1
  9
$DIMDEC
 70
     0
  9
$DIMTDEC
 70
     0
  9
$DIMALTU
 70
     2
  9
$DIMALTTD
 70
     2
  9
$DIMTXSTY
  7
STANDARD
  9
$DIMAUNIT
 70
     0
  9
$DIMADEC
 70
     0
  9
$DIMALTRND
 40
0.0
  9
$DIMAZIN
 70
     0
  9
$DIMDSEP
 70
    46
  9
$DIMATFIT
 70
     3
  9
$DIMFRAC
 70
     0
  9
$DIMLDRBLK
  1
OPEN
  9
$DIMLUNIT
 70
     2
  9
$DIMLWD
 70
    -2
  9
$DIMLWE
 70
    -2
  9
$DIMTMOVE
 70
     0
  9
$LUNITS
 70
     2
  9
$LUPREC
 70
     3
  9
$SKETCHINC
 40
0.1
  9
$FILLETRAD
 40
50.0
  9
$AUNITS
 70
     0
  9
$AUPREC
 70
     0
  9
$MENU
  1
acad
  9
$ELEVATION
 40
0.0
  9
$PELEVATION
 40
0.0
  9
$THICKNESS
 40
0.0
  9
$LIMCHECK
 70
     0
  9
$CHAMFERA
 40
0.5
  9
$CHAMFERB
 40
0.5
  9
$CHAMFERC
 40
20.0
  9
$CHAMFERD
 40
0.0
  9
$SKPOLY
 70
     0
  9
$TDCREATE
 40
2450785.679291666
  9
$TDUCREATE
 40
2450785.304291666
  9
$TDUPDATE
 40
2456463.541361273
  9
$TDUUPDATE
 40
2456463.166361273
  9
$TDINDWG
 40
0.0145944213
  9
$TDUSRTIMER
 40
0.0145944213
  9
$USRTIMER
 70
     1
  9
$ANGBASE
 50
0.0
  9
$ANGDIR
 70
     0
  9
$PDMODE
 70
     0
  9
$PDSIZE
 40
0.0
  9
$PLINEWID
 40
0.0
  9
$SPLFRAME
 70
     0
  9
$SPLINETYPE
 70
     6
  9
$SPLINESEGS
 70
     8
  9
$HANDSEED
  5
7E50
  9
$SURFTAB1
 70
     6
  9
$SURFTAB2
 70
     6
  9
$SURFTYPE
 70
     6
  9
$SURFU
 70
     6
  9
$SURFV
 70
     6
  9
$UCSBASE
  2

  9
$UCSNAME
  2

  9
$UCSORG
 10
0.0
 20
0.0
 30
0.0
  9
$UCSXDIR
 10
1.0
 20
0.0
 30
0.0
  9
$UCSYDIR
 10
0.0
 20
1.0
 30
0.0
  9
$UCSORTHOREF
  2

  9
$UCSORTHOVIEW
 70
     0
  9
$UCSORGTOP
 10
0.0
 20
0.0
 30
0.0
  9
$UCSORGBOTTOM
 10
0.0
 20
0.0
 30
0.0
  9
$UCSORGLEFT
 10
0.0
 20
0.0
 30
0.0
  9
$UCSORGRIGHT
 10
0.0
 20
0.0
 30
0.0
  9
$UCSORGFRONT
 10
0.0
 20
0.0
 30
0.0
  9
$UCSORGBACK
 10
0.0
 20
0.0
 30
0.0
  9
$PUCSBASE
  2

  9
$PUCSNAME
  2

  9
$PUCSORG
 10
0.0
 20
0.0
 30
0.0
  9
$PUCSXDIR
 10
1.0
 20
0.0
 30
0.0
  9
$PUCSYDIR
 10
0.0
 20
1.0
 30
0.0
  9
$PUCSORTHOREF
  2

  9
$PUCSORTHOVIEW
 70
     0
  9
$PUCSORGTOP
 10
0.0
 20
0.0
 30
0.0
  9
$PUCSORGBOTTOM
 10
0.0
 20
0.0
 30
0.0
  9
$PUCSORGLEFT
 10
0.0
 20
0.0
 30
0.0
  9
$PUCSORGRIGHT
 10
0.0
 20
0.0
 30
0.0
  9
$PUCSORGFRONT
 10
0.0
 20
0.0
 30
0.0
  9
$PUCSORGBACK
 10
0.0
 20
0.0
 30
0.0
  9
$USERI1
 70
     0
  9
$USERI2
 70
     0
  9
$USERI3
 70
     0
  9
$USERI4
 70
     0
  9
$USERI5
 70
     0
  9
$USERR1
 40
0.0
  9
$USERR2
 40
0.0
  9
$USERR3
 40
0.0
  9
$USERR4
 40
0.0
  9
$USERR5
 40
0.0
  9
$WORLDVIEW
 70
     1
  9
$SHADEDGE
 70
     3
  9
$SHADEDIF
 70
    70
  9
$TILEMODE
 70
     1
  9
$MAXACTVP
 70
    16
  9
$PINSBASE
 10
0.0
 20
0.0
 30
0.0
  9
$PLIMCHECK
 70
     0
  9
$PEXTMIN
 10
1.000000000000000E+20
 20
1.000000000000000E+20
 30
1.000000000000000E+20
  9
$PEXTMAX
 10
-1.000000000000000E+20
 20
-1.000000000000000E+20
 30
-1.000000000000000E+20
  9
$PLIMMIN
 10
0.0
 20
0.0
  9
$PLIMMAX
 10
12.0
 20
9.0
  9
$UNITMODE
 70
     0
  9
$VISRETAIN
 70
     0
  9
$PLINEGEN
 70
     0
  9
$PSLTSCALE
 70
     1
  9
$TREEDEPTH
 70
  3020
  9
$CMLSTYLE
  2
STANDARD
  9
$CMLJUST
 70
     0
  9
$CMLSCALE
 40
20.0
  9
$PROXYGRAPHICS
 70
     1
  9
$MEASUREMENT
 70
     0
  9
$CELWEIGHT
370
    -1
  9
$ENDCAPS
280
     0
  9
$JOINSTYLE
280
     0
  9
$LWDISPLAY
290
     0
  9
$INSUNITS
 70
     0
  9
$HYPERLINKBASE
  1

  9
$STYLESHEET
  1

  9
$XEDIT
290
     1
  9
$CEPSNTYPE
380
     0
  9
$PSTYLEMODE
290
     1
  9
$FINGERPRINTGUID
  2
{A276ECC0-75B9-11D5-A85E-0080AD788799}
  9
$VERSIONGUID
  2
{ACEA3609-81FF-40D9-8D30-7F75942E6BA7}
  9
$EXTNAMES
290
     1
  9
$PSVPSCALE
 40
0.0
  9
$OLESTARTUP
290
     0
  0
ENDSEC
  0
SECTION
  2
CLASSES
  0
CLASS
  1
ACDBDICTIONARYWDFLT
  2
AcDbDictionaryWithDefault
  3
AutoCAD 2000
 90
        0
280
     0
281
     0
  0
CLASS
  1
ACDBPLACEHOLDER
  2
AcDbPlaceHolder
  3
AutoCAD 2000
 90
        0
280
     0
281
     0
  0
CLASS
  1
LAYOUT
  2
AcDbLayout
  3
AutoCAD 2000
 90
        0
280
     0
281
     0
  0
CLASS
  1
LONG_TRANSACTION
  2
AcDbLongTransaction
  3
AutoCAD 2000
 90
    32768
280
     0
281
     0
  0
CLASS
  1
LWPOLYLINE
  2
AcDbPolyline
  3
AutoCAD 2000
 90
    32768
280
     0
281
     1
  0
CLASS
  1
HATCH
  2
AcDbHatch
  3
AutoCAD 2000
 90
    32768
280
     0
281
     1
  0
CLASS
  1
XRECORD
  2
AcDbXrecord
  3
AutoCAD 2000
 90
    32768
280
     0
281
     0
  0
CLASS
  1
DICTIONARYVAR
  2
AcDbDictionaryVar
  3
AutoCAD 2000
 90
        0
280
     0
281
     0
  0
CLASS
  1
LONG_TRANSACTION
  2
AcDbLongTransaction
  3
AutoCAD 2000
 90
    32768
280
     0
281
     0
  0
CLASS
  1
LWPOLYLINE
  2
AcDbPolyline
  3
AutoCAD 2000
 90
    32768
280
     0
281
     1
  0
CLASS
  1
HATCH
  2
AcDbHatch
  3
AutoCAD 2000
 90
    32768
280
     0
281
     1
  0
CLASS
  1
XRECORD
  2
AcDbXrecord
  3
AutoCAD 2000
 90
    32768
280
     0
281
     0
  0
ENDSEC
  0
SECTION
  2
TABLES
  0
TABLE
  2
VPORT
  5
8
330
0
100
AcDbSymbolTable
 70
     3
  0
VPORT
  5
7E4F
330
8
100
AcDbSymbolTableRecord
100
AcDbViewportTableRecord
  2
*Active
 70
     0
 10
0.0
 20
0.0
 11
1.0
 21
1.0
 12
511.4170713120947
 22
375.3924938005811
 13
0.0
 23
0.0
 14
10.0
 24
10.0
 15
10.0
 25
10.0
 16
0.0
 26
0.0
 36
1.0
 17
0.0
 27
0.0
 37
0.0
 40
4972.909150001977
 41
1.73997233748271
 42
50.0
 43
0.0
 44
0.0
 50
0.0
 51
0.0
 71
     0
 72
   100
 73
     1
 74
     0
 75
     0
 76
     0
 77
     0
 78
     0
281
     0
 65
     1
110
0.0
120
0.0
130
0.0
111
1.0
121
0.0
131
0.0
112
0.0
122
1.0
132
0.0
 79
     0
146
0.0
  0
ENDTAB
  0
TABLE
  2
LTYPE
  5
5
330
0
100
AcDbSymbolTable
 70
     2
  0
LTYPE
  5
13
330
5
100
AcDbSymbolTableRecord
100
AcDbLinetypeTableRecord
  2
BYBLOCK
 70
     0
  3

 72
    65
 73
     0
 40
0.0
  0
LTYPE
  5
14
330
5
100
AcDbSymbolTableRecord
100
AcDbLinetypeTableRecord
  2
BYLAYER
 70
     0
  3

 72
    65
 73
     0
 40
0.0
  0
LTYPE
  5
15
330
5
100
AcDbSymbolTableRecord
100
AcDbLinetypeTableRecord
  2
CONTINUOUS
 70
     0
  3
Solid line
 72
    65
 73
     0
 40
0.0
  0
LTYPE
  5
1F
330
5
100
AcDbSymbolTableRecord
100
AcDbLinetypeTableRecord
  2
CENTER
 70
     0
  3
____ _ ____ _ ____ _ ____ _ ____ _ ____ _ ____ 
 72
    65
 73
     4
 40
2.0
 49
1.25
 74
     0
 49
-0.25
 74
     0
 49
0.25
 74
     0
 49
-0.25
 74
     0
  0
ENDTAB
  0
TABLE
  2
LAYER
  5
2
330
0
100
AcDbSymbolTable
 70
     6
  0
LAYER
  5
F
330
2
100
AcDbSymbolTableRecord
100
AcDbLayerTableRecord
  2
0
 70
     0
 62
     7
  6
CONTINUOUS
370
    -3
390
7CC3
  0
LAYER
  5
31
330
2
100
AcDbSymbolTableRecord
100
AcDbLayerTableRecord
  2
3
 70
     0
 62
     2
  6
CONTINUOUS
370
    -3
390
7CC3
  0
LAYER
  5
76D0
330
2
100
AcDbSymbolTableRecord
100
AcDbLayerTableRecord
  2
2
 70
     0
 62
     3
  6
CENTER
370
    -3
390
7CC3
  0
LAYER
  5
76D1
330
2
100
AcDbSymbolTableRecord
100
AcDbLayerTableRecord
  2
1
 70
     0
 62
     4
  6
CONTINUOUS
370
    -3
390
7CC3
  0
LAYER
  5
76D2
330
2
100
AcDbSymbolTableRecord
100
AcDbLayerTableRecord
  2
4
 70
     0
 62
     7
  6
CONTINUOUS
370
    -3
390
7CC3
  0
LAYER
  5
7A99
330
2
100
AcDbSymbolTableRecord
100
AcDbLayerTableRecord
  2
DEFPOINTS
 70
     0
 62
     7
  6
CONTINUOUS
290
     0
370
    -3
390
7CC3
  0
ENDTAB
  0
TABLE
  2
STYLE
  5
3
330
0
100
AcDbSymbolTable
 70
     1
  0
STYLE
  5
10
330
3
100
AcDbSymbolTableRecord
100
AcDbTextStyleTableRecord
  2
STANDARD
 70
     0
 40
0.0
 41
1.0
 50
0.0
 71
     0
 42
180.0
  3
simplex.shx
  4
extfont.shx
  0
ENDTAB
  0
TABLE
  2
VIEW
  5
6
330
0
100
AcDbSymbolTable
 70
     0
  0
ENDTAB
  0
TABLE
  2
UCS
  5
7
330
0
100
AcDbSymbolTable
 70
     0
  0
ENDTAB
  0
TABLE
  2
APPID
  5
9
330
0
100
AcDbSymbolTable
 70
     1
  0
APPID
  5
11
330
9
100
AcDbSymbolTableRecord
100
AcDbRegAppTableRecord
  2
ACAD
 70
     0
  0
ENDTAB
  0
TABLE
  2
DIMSTYLE
  5
A
330
0
100
AcDbSymbolTable
 70
     1
100
AcDbDimStyleTable
 71
     1
340
1D
  0
DIMSTYLE
105
1D
102
{ACAD_REACTORS
330
7AAB
330
7AB8
330
7AC6
330
7AD3
330
7AE0
330
7AED
330
7B44
330
7B90
330
7B9D
330
7CB2
330
7B53
330
7B61
330
7E34
330
7E41
102
}
330
A
100
AcDbSymbolTableRecord
100
AcDbDimStyleTableRecord
  2
IGA
 70
     0
 40
2.0
 41
2.0
 42
0.5
 43
10.0
 44
1.0
 47
1.0
 48
1.0
 73
     0
 74
     0
 77
     1
 78
     8
140
3.0
141
0.0
143
0.03937
146
10.0
147
1.0
173
     1
271
     1
272
     0
279
     2
284
     8
340
10
341
7A8B
343
7A8B
344
7A8B
  0
ENDTAB
  0
TABLE
  2
BLOCK_RECORD
  5
1
330
0
100
AcDbSymbolTable
 70
    15
  0
BLOCK_RECORD
  5
19
102
{ACAD_XDICTIONARY
360
7CF1
102
}
330
1
100
AcDbSymbolTableRecord
100
AcDbBlockTableRecord
  2
*MODEL_SPACE
340
7CC6
  0
BLOCK_RECORD
  5
16
102
{ACAD_XDICTIONARY
360
7CEF
102
}
330
1
100
AcDbSymbolTableRecord
100
AcDbBlockTableRecord
  2
*PAPER_SPACE
340
7CC7
  0
BLOCK_RECORD
  5
7A8B
330
1
100
AcDbSymbolTableRecord
100
AcDbBlockTableRecord
  2
_OPEN
340
0
102
{BLKREFS
331
7DBE
331
7DBF
331
7DC7
331
7DC8
331
7DD0
331
7DD1
331
7DD9
331
7DDA
331
7DE2
331
7DE3
331
7DEB
331
7DEC
331
7DF4
331
7DF5
331
7DFD
331
7DFE
331
7E06
331
7E07
331
7E0E
331
7E0F
331
7E17
331
7E18
331
7E20
331
7E21
331
7E39
331
7E3A
331
7E46
331
7E47
102
}
  0
BLOCK_RECORD
  5
7A9F
330
1
100
AcDbSymbolTableRecord
100
AcDbBlockTableRecord
  2
*D1
340
0
  0
BLOCK_RECORD
  5
7AAC
330
1
100
AcDbSymbolTableRecord
100
AcDbBlockTableRecord
  2
*D2
340
0
  0
BLOCK_RECORD
  5
7ABA
330
1
100
AcDbSymbolTableRecord
100
AcDbBlockTableRecord
  2
*D3
340
0
  0
BLOCK_RECORD
  5
7AC7
330
1
100
AcDbSymbolTableRecord
100
AcDbBlockTableRecord
  2
*D4
340
0
  0
BLOCK_RECORD
  5
7AD4
330
1
100
AcDbSymbolTableRecord
100
AcDbBlockTableRecord
  2
*D5
340
0
  0
BLOCK_RECORD
  5
7AE1
330
1
100
AcDbSymbolTableRecord
100
AcDbBlockTableRecord
  2
*D6
340
0
  0
BLOCK_RECORD
  5
7B38
330
1
100
AcDbSymbolTableRecord
100
AcDbBlockTableRecord
  2
*D7
340
0
  0
BLOCK_RECORD
  5
7B47
330
1
100
AcDbSymbolTableRecord
100
AcDbBlockTableRecord
  2
*D8
340
0
  0
BLOCK_RECORD
  5
7B54
330
1
100
AcDbSymbolTableRecord
100
AcDbBlockTableRecord
  2
*D9
340
0
  0
BLOCK_RECORD
  5
7B82
330
1
100
AcDbSymbolTableRecord
100
AcDbBlockTableRecord
  2
*D10
340
0
  0
BLOCK_RECORD
  5
7B91
330
1
100
AcDbSymbolTableRecord
100
AcDbBlockTableRecord
  2
*D11
340
0
  0
BLOCK_RECORD
  5
7CA6
330
1
100
AcDbSymbolTableRecord
100
AcDbBlockTableRecord
  2
*D12
340
0
  0
BLOCK_RECORD
  5
7E35
330
1
100
AcDbSymbolTableRecord
100
AcDbBlockTableRecord
  2
*D13
340
0
  0
BLOCK_RECORD
  5
7E42
330
1
100
AcDbSymbolTableRecord
100
AcDbBlockTableRecord
  2
*D14
340
0
  0
ENDTAB
  0
ENDSEC
  0
SECTION
  2
BLOCKS
  0
BLOCK
  5
1A
330
19
100
AcDbEntity
  8
0
100
AcDbBlockBegin
  2
*MODEL_SPACE
 70
     0
 10
0.0
 20
0.0
 30
0.0
  3
*MODEL_SPACE
  1

  0
ENDBLK
  5
1B
330
19
100
AcDbEntity
  8
0
100
AcDbBlockEnd
  0
BLOCK
  5
17
330
16
100
AcDbEntity
 67
     1
  8
0
100
AcDbBlockBegin
  2
*PAPER_SPACE
 70
     0
 10
0.0
 20
0.0
 30
0.0
  3
*PAPER_SPACE
  1

  0
ENDBLK
  5
18
330
16
100
AcDbEntity
 67
     1
  8
0
100
AcDbBlockEnd
  0
BLOCK
  5
7A8C
330
7A8B
100
AcDbEntity
  8
0
100
AcDbBlockBegin
  2
_OPEN
 70
     0
 10
0.0
 20
0.0
 30
0.0
  3
_OPEN
  1

  0
LINE
  5
7A8D
330
7A8B
100
AcDbEntity
  8
0
  6
ByBlock
 62
     0
100
AcDbLine
 10
-1.0
 20
0.166667
 30
0.0
 11
0.0
 21
0.0
 31
0.0
  0
LINE
  5
7A8E
330
7A8B
100
AcDbEntity
  8
0
  6
ByBlock
 62
     0
100
AcDbLine
 10
0.0
 20
0.0
 30
0.0
 11
-1.0
 21
-0.166667
 31
0.0
  0
LINE
  5
7A8F
330
7A8B
100
AcDbEntity
  8
0
  6
ByBlock
 62
     0
100
AcDbLine
 10
0.0
 20
0.0
 30
0.0
 11
-1.0
 21
0.0
 31
0.0
  0
ENDBLK
  5
7A90
330
7A8B
100
AcDbEntity
  8
0
100
AcDbBlockEnd
  0
BLOCK
  5
7C0D
330
7A9F
100
AcDbEntity
  8
0
100
AcDbBlockBegin
  2
*D1
 70
     1
 10
0.0
 20
0.0
 30
0.0
  3
*D1
  1

  0
LINE
  5
7DBB
330
7A9F
100
AcDbEntity
  8
3
  6
Continuous
 62
     0
100
AcDbLine
 10
-2835.582935
 20
-831.3182170000001
 30
0.0
 11
-2835.582935
 21
-993.3311449999999
 31
0.0
  0
LINE
  5
7DBC
330
7A9F
100
AcDbEntity
  8
3
  6
Continuous
 62
     0
100
AcDbLine
 10
-1865.582935
 20
-831.3182170000001
 30
0.0
 11
-1865.582935
 21
-993.3311449999999
 31
0.0
  0
LINE
  5
7DBD
330
7A9F
100
AcDbEntity
  8
3
  6
Continuous
 62
     0
100
AcDbLine
 10
-2795.582935
 20
-973.3311449999998
 30
0.0
 11
-1905.582935
 21
-973.3311449999998
 31
0.0
  0
INSERT
  5
7DBE
330
7A9F
100
AcDbEntity
  8
3
  6
Continuous
 62
     0
100
AcDbBlockReference
  2
_OPEN
 10
-2835.582935
 20
-973.3311449999998
 30
0.0
 41
40.0
 42
40.0
 43
40.0
 50
180.0
  0
INSERT
  5
7DBF
330
7A9F
100
AcDbEntity
  8
3
  6
Continuous
 62
     0
100
AcDbBlockReference
  2
_OPEN
 10
-1865.582935
 20
-973.3311449999998
 30
0.0
 41
40.0
 42
40.0
 43
40.0
  0
MTEXT
  5
7DC0
330
7A9F
100
AcDbEntity
  8
3
  6
Continuous
 62
     0
100
AcDbMText
 10
-2357.806987999999
 20
-923.3311449999998
 30
0.0
 40
60.0
 41
0.0
 71
     5
 72
     5
  1
\A1;970
 73
     1
 44
1.0
  0
POINT
  5
7DC1
330
7A9F
100
AcDbEntity
  8
DEFPOINTS
  6
Continuous
 62
     0
100
AcDbPoint
 10
-2835.582935
 20
-821.3182169999999
 30
0.0
  0
POINT
  5
7DC2
330
7A9F
100
AcDbEntity
  8
DEFPOINTS
  6
Continuous
 62
     0
100
AcDbPoint
 10
-1865.582935
 20
-821.3182170000001
 30
0.0
  0
POINT
  5
7DC3
330
7A9F
100
AcDbEntity
  8
DEFPOINTS
  6
Continuous
 62
     0
100
AcDbPoint
 10
-1865.582935
 20
-973.3311449999998
 30
0.0
  0
ENDBLK
  5
7C17
330
7A9F
100
AcDbEntity
  8
0
100
AcDbBlockEnd
  0
BLOCK
  5
7C9B
330
7AAC
100
AcDbEntity
  8
0
100
AcDbBlockBegin
  2
*D2
 70
     1
 10
0.0
 20
0.0
 30
0.0
  3
*D2
  1

  0
LINE
  5
7DC4
330
7AAC
100
AcDbEntity
  8
3
  6
Continuous
 62
     0
100
AcDbLine
 10
-2755.582935
 20
-146.3182169999999
 30
0.0
 11
-3156.774513537973
 21
-146.3182169999998
 31
0.0
  0
LINE
  5
7DC5
330
7AAC
100
AcDbEntity
  8
3
  6
Continuous
 62
     0
100
AcDbLine
 10
-2845.582935
 20
-821.3182169999999
 30
0.0
 11
-3156.774513537973
 21
-821.3182169999999
 31
0.0
  0
LINE
  5
7DC6
330
7AAC
100
AcDbEntity
  8
3
  6
Continuous
 62
     0
100
AcDbLine
 10
-3136.774513537973
 20
-186.3182169999998
 30
0.0
 11
-3136.774513537973
 21
-781.318217
 31
0.0
  0
INSERT
  5
7DC7
330
7AAC
100
AcDbEntity
  8
3
  6
Continuous
 62
     0
100
AcDbBlockReference
  2
_OPEN
 10
-3136.774513537973
 20
-146.3182169999998
 30
0.0
 41
40.0
 42
40.0
 43
40.0
 50
90.0
  0
INSERT
  5
7DC8
330
7AAC
100
AcDbEntity
  8
3
  6
Continuous
 62
     0
100
AcDbBlockReference
  2
_OPEN
 10
-3136.774513537973
 20
-821.3182169999999
 30
0.0
 41
40.0
 42
40.0
 43
40.0
 50
270.0
  0
MTEXT
  5
7DC9
330
7AAC
100
AcDbEntity
  8
3
  6
Continuous
 62
     0
100
AcDbMText
 10
-3186.774513537974
 20
-483.1124289999999
 30
0.0
 40
60.0
 41
0.0
 71
     5
 72
     5
  1
\A1;675
 11
0.0000000000000001
 21
1.0
 31
0.0
 73
     1
 44
1.0
  0
POINT
  5
7DCA
330
7AAC
100
AcDbEntity
  8
DEFPOINTS
  6
Continuous
 62
     0
100
AcDbPoint
 10
-2745.582934999999
 20
-146.318217
 30
0.0
  0
POINT
  5
7DCB
330
7AAC
100
AcDbEntity
  8
DEFPOINTS
  6
Continuous
 62
     0
100
AcDbPoint
 10
-2835.582935
 20
-821.3182169999999
 30
0.0
  0
POINT
  5
7DCC
330
7AAC
100
AcDbEntity
  8
DEFPOINTS
  6
Continuous
 62
     0
100
AcDbPoint
 10
-3136.774513537973
 20
-821.3182169999999
 30
0.0
  0
ENDBLK
  5
7CA5
330
7AAC
100
AcDbEntity
  8
0
100
AcDbBlockEnd
  0
BLOCK
  5
7C5A
330
7ABA
100
AcDbEntity
  8
0
100
AcDbBlockBegin
  2
*D3
 70
     1
 10
0.0
 20
0.0
 30
0.0
  3
*D3
  1

  0
LINE
  5
7DCD
330
7ABA
100
AcDbEntity
  8
3
  6
Continuous
 62
     0
100
AcDbLine
 10
-1848.508852
 20
-486.3182169999999
 30
0.0
 11
-1671.352517999999
 21
-486.3182169999999
 31
0.0
  0
LINE
  5
7DCE
330
7ABA
100
AcDbEntity
  8
3
  6
Continuous
 62
     0
100
AcDbLine
 10
-1855.582935
 20
-821.3182169999999
 30
0.0
 11
-1671.352518
 21
-821.3182170000001
 31
0.0
  0
LINE
  5
7DCF
330
7ABA
100
AcDbEntity
  8
3
  6
Continuous
 62
     0
100
AcDbLine
 10
-1691.352518
 20
-526.3182170000001
 30
0.0
 11
-1691.352518
 21
-781.3182170000001
 31
0.0
  0
INSERT
  5
7DD0
330
7ABA
100
AcDbEntity
  8
3
  6
Continuous
 62
     0
100
AcDbBlockReference
  2
_OPEN
 10
-1691.352518
 20
-486.3182169999999
 30
0.0
 41
40.0
 42
40.0
 43
40.0
 50
90.0
  0
INSERT
  5
7DD1
330
7ABA
100
AcDbEntity
  8
3
  6
Continuous
 62
     0
100
AcDbBlockReference
  2
_OPEN
 10
-1691.352518
 20
-821.3182170000001
 30
0.0
 41
40.0
 42
40.0
 43
40.0
 50
270.0
  0
MTEXT
  5
7DD2
330
7ABA
100
AcDbEntity
  8
3
  6
Continuous
 62
     0
100
AcDbMText
 10
-1741.352518
 20
-623.461074142857
 30
0.0
 40
60.0
 41
0.0
 71
     5
 72
     5
  1
\A1;335
 11
0.0000000000000001
 21
1.0
 31
0.0
 73
     1
 44
1.0
  0
POINT
  5
7DD3
330
7ABA
100
AcDbEntity
  8
DEFPOINTS
  6
Continuous
 62
     0
100
AcDbPoint
 10
-1858.508851999999
 20
-486.3182169999999
 30
0.0
  0
POINT
  5
7DD4
330
7ABA
100
AcDbEntity
  8
DEFPOINTS
  6
Continuous
 62
     0
100
AcDbPoint
 10
-1865.582935
 20
-821.3182169999999
 30
0.0
  0
POINT
  5
7DD5
330
7ABA
100
AcDbEntity
  8
DEFPOINTS
  6
Continuous
 62
     0
100
AcDbPoint
 10
-1691.352518
 20
-821.3182170000001
 30
0.0
  0
ENDBLK
  5
7C64
330
7ABA
100
AcDbEntity
  8
0
100
AcDbBlockEnd
  0
BLOCK
  5
7C23
330
7AC7
100
AcDbEntity
  8
0
100
AcDbBlockBegin
  2
*D4
 70
     1
 10
0.0
 20
0.0
 30
0.0
  3
*D4
  1

  0
LINE
  5
7DD6
330
7AC7
100
AcDbEntity
  8
3
  6
Continuous
 62
     0
100
AcDbLine
 10
-2745.582935
 20
-136.3182169999999
 30
0.0
 11
-2745.582935
 21
9.308547000000004
 31
0.0
  0
LINE
  5
7DD7
330
7AC7
100
AcDbEntity
  8
3
  6
Continuous
 62
     0
100
AcDbLine
 10
-1955.582935
 20
-136.3182169999999
 30
0.0
 11
-1955.582935
 21
9.308547000000004
 31
0.0
  0
LINE
  5
7DD8
330
7AC7
100
AcDbEntity
  8
3
  6
Continuous
 62
     0
100
AcDbLine
 10
-2705.582935
 20
-10.69145299999999
 30
0.0
 11
-1995.582935
 21
-10.69145299999999
 31
0.0
  0
INSERT
  5
7DD9
330
7AC7
100
AcDbEntity
  8
3
  6
Continuous
 62
     0
100
AcDbBlockReference
  2
_OPEN
 10
-2745.582935
 20
-10.69145299999999
 30
0.0
 41
40.0
 42
40.0
 43
40.0
 50
180.0
  0
INSERT
  5
7DDA
330
7AC7
100
AcDbEntity
  8
3
  6
Continuous
 62
     0
100
AcDbBlockReference
  2
_OPEN
 10
-1955.582935
 20
-10.69145299999999
 30
0.0
 41
40.0
 42
40.0
 43
40.0
  0
MTEXT
  5
7DDB
330
7AC7
100
AcDbEntity
  8
3
  6
Continuous
 62
     0
100
AcDbMText
 10
-2366.490451
 20
39.30854700000001
 30
0.0
 40
60.0
 41
0.0
 71
     5
 72
     5
  1
\A1;790
 73
     1
 44
1.0
  0
POINT
  5
7DDC
330
7AC7
100
AcDbEntity
  8
DEFPOINTS
  6
Continuous
 62
     0
100
AcDbPoint
 10
-2745.582935
 20
-146.318217
 30
0.0
  0
POINT
  5
7DDD
330
7AC7
100
AcDbEntity
  8
DEFPOINTS
  6
Continuous
 62
     0
100
AcDbPoint
 10
-1955.582935
 20
-146.318217
 30
0.0
  0
POINT
  5
7DDE
330
7AC7
100
AcDbEntity
  8
DEFPOINTS
  6
Continuous
 62
     0
100
AcDbPoint
 10
-1955.582935
 20
-10.69145299999999
 30
0.0
  0
ENDBLK
  5
7C2D
330
7AC7
100
AcDbEntity
  8
0
100
AcDbBlockEnd
  0
BLOCK
  5
7C87
330
7AD4
100
AcDbEntity
  8
0
100
AcDbBlockBegin
  2
*D5
 70
     1
 10
0.0
 20
0.0
 30
0.0
  3
*D5
  1

  0
LINE
  5
7DDF
330
7AD4
100
AcDbEntity
  8
3
  6
Continuous
 62
     0
100
AcDbLine
 10
-2745.520126
 20
642.0230889999998
 30
0.0
 11
-2745.520126
 21
442.402341
 31
0.0
  0
LINE
  5
7DE0
330
7AD4
100
AcDbEntity
  8
3
  6
Continuous
 62
     0
100
AcDbLine
 10
-1955.520126
 20
642.0230889999999
 30
0.0
 11
-1955.520126
 21
442.402341
 31
0.0
  0
LINE
  5
7DE1
330
7AD4
100
AcDbEntity
  8
3
  6
Continuous
 62
     0
100
AcDbLine
 10
-2705.520126
 20
462.402341
 30
0.0
 11
-1995.520126
 21
462.402341
 31
0.0
  0
INSERT
  5
7DE2
330
7AD4
100
AcDbEntity
  8
3
  6
Continuous
 62
     0
100
AcDbBlockReference
  2
_OPEN
 10
-2745.520126
 20
462.402341
 30
0.0
 41
40.0
 42
40.0
 43
40.0
 50
180.0
  0
INSERT
  5
7DE3
330
7AD4
100
AcDbEntity
  8
3
  6
Continuous
 62
     0
100
AcDbBlockReference
  2
_OPEN
 10
-1955.520126
 20
462.402341
 30
0.0
 41
40.0
 42
40.0
 43
40.0
  0
MTEXT
  5
7DE4
330
7AD4
100
AcDbEntity
  8
3
  6
Continuous
 62
     0
100
AcDbMText
 10
-2344.781817
 20
512.4023410000001
 30
0.0
 40
60.0
 41
0.0
 71
     5
 72
     5
  1
\A1;790
 73
     1
 44
1.0
  0
POINT
  5
7DE5
330
7AD4
100
AcDbEntity
  8
DEFPOINTS
  6
Continuous
 62
     0
100
AcDbPoint
 10
-2745.520126
 20
652.0230889999997
 30
0.0
  0
POINT
  5
7DE6
330
7AD4
100
AcDbEntity
  8
DEFPOINTS
  6
Continuous
 62
     0
100
AcDbPoint
 10
-1955.520126
 20
652.0230889999999
 30
0.0
  0
POINT
  5
7DE7
330
7AD4
100
AcDbEntity
  8
DEFPOINTS
  6
Continuous
 62
     0
100
AcDbPoint
 10
-1955.520126
 20
462.402341
 30
0.0
  0
ENDBLK
  5
7C91
330
7AD4
100
AcDbEntity
  8
0
100
AcDbBlockEnd
  0
BLOCK
  5
7C71
330
7AE1
100
AcDbEntity
  8
0
100
AcDbBlockBegin
  2
*D6
 70
     1
 10
0.0
 20
0.0
 30
0.0
  3
*D6
  1

  0
LINE
  5
7DE8
330
7AE1
100
AcDbEntity
  8
3
  6
Continuous
 62
     0
100
AcDbLine
 10
-1855.520126
 20
1252.023089
 30
0.0
 11
-1694.377665999999
 21
1252.023089
 31
0.0
  0
LINE
  5
7DE9
330
7AE1
100
AcDbEntity
  8
3
  6
Continuous
 62
     0
100
AcDbLine
 10
-1855.520126
 20
652.0230889999999
 30
0.0
 11
-1694.377665999999
 21
652.0230889999997
 31
0.0
  0
LINE
  5
7DEA
330
7AE1
100
AcDbEntity
  8
3
  6
Continuous
 62
     0
100
AcDbLine
 10
-1714.377666
 20
1212.023089
 30
0.0
 11
-1714.377666
 21
692.0230889999998
 31
0.0
  0
INSERT
  5
7DEB
330
7AE1
100
AcDbEntity
  8
3
  6
Continuous
 62
     0
100
AcDbBlockReference
  2
_OPEN
 10
-1714.377666
 20
1252.023089
 30
0.0
 41
40.0
 42
40.0
 43
40.0
 50
90.0
  0
INSERT
  5
7DEC
330
7AE1
100
AcDbEntity
  8
3
  6
Continuous
 62
     0
100
AcDbBlockReference
  2
_OPEN
 10
-1714.377666
 20
652.0230889999997
 30
0.0
 41
40.0
 42
40.0
 43
40.0
 50
270.0
  0
MTEXT
  5
7DED
330
7AE1
100
AcDbEntity
  8
3
  6
Continuous
 62
     0
100
AcDbMText
 10
-1764.377666
 20
964.117326
 30
0.0
 40
60.0
 41
0.0
 71
     5
 72
     5
  1
\A1;600
 11
0.0000000000000001
 21
1.0
 31
0.0
 73
     1
 44
1.0
  0
POINT
  5
7DEE
330
7AE1
100
AcDbEntity
  8
DEFPOINTS
  6
Continuous
 62
     0
100
AcDbPoint
 10
-1865.520126
 20
1252.023089
 30
0.0
  0
POINT
  5
7DEF
330
7AE1
100
AcDbEntity
  8
DEFPOINTS
  6
Continuous
 62
     0
100
AcDbPoint
 10
-1865.520126
 20
652.0230889999999
 30
0.0
  0
POINT
  5
7DF0
330
7AE1
100
AcDbEntity
  8
DEFPOINTS
  6
Continuous
 62
     0
100
AcDbPoint
 10
-1714.377666
 20
652.0230889999997
 30
0.0
  0
ENDBLK
  5
7C7B
330
7AE1
100
AcDbEntity
  8
0
100
AcDbBlockEnd
  0
BLOCK
  5
7BF7
330
7B38
100
AcDbEntity
  8
0
100
AcDbBlockBegin
  2
*D7
 70
     1
 10
0.0
 20
0.0
 30
0.0
  3
*D7
  1

  0
LINE
  5
7DF1
330
7B38
100
AcDbEntity
  8
3
  6
Continuous
 62
     0
100
AcDbLine
 10
-1108.676635
 20
-831.3182169999999
 30
0.0
 11
-1108.676635
 21
-1026.99753
 31
0.0
  0
LINE
  5
7DF2
330
7B38
100
AcDbEntity
  8
3
  6
Continuous
 62
     0
100
AcDbLine
 10
-508.6766349999999
 20
-831.3182170000001
 30
0.0
 11
-508.6766349999999
 21
-1026.99753
 31
0.0
  0
LINE
  5
7DF3
330
7B38
100
AcDbEntity
  8
3
  6
Continuous
 62
     0
100
AcDbLine
 10
-1068.676635
 20
-1006.99753
 30
0.0
 11
-548.676635
 21
-1006.99753
 31
0.0
  0
INSERT
  5
7DF4
330
7B38
100
AcDbEntity
  8
3
  6
Continuous
 62
     0
100
AcDbBlockReference
  2
_OPEN
 10
-1108.676635
 20
-1006.99753
 30
0.0
 41
40.0
 42
40.0
 43
40.0
 50
180.0
  0
INSERT
  5
7DF5
330
7B38
100
AcDbEntity
  8
3
  6
Continuous
 62
     0
100
AcDbBlockReference
  2
_OPEN
 10
-508.6766349999999
 20
-1006.99753
 30
0.0
 41
40.0
 42
40.0
 43
40.0
  0
MTEXT
  5
7DF6
330
7B38
100
AcDbEntity
  8
3
  6
Continuous
 62
     0
100
AcDbMText
 10
-793.9274230000001
 20
-956.9975300000001
 30
0.0
 40
60.0
 41
0.0
 71
     5
 72
     5
  1
\A1;600
 73
     1
 44
1.0
  0
POINT
  5
7DF7
330
7B38
100
AcDbEntity
  8
DEFPOINTS
  6
Continuous
 62
     0
100
AcDbPoint
 10
-1108.676635
 20
-821.3182169999999
 30
0.0
  0
POINT
  5
7DF8
330
7B38
100
AcDbEntity
  8
DEFPOINTS
  6
Continuous
 62
     0
100
AcDbPoint
 10
-508.6766349999999
 20
-821.3182169999999
 30
0.0
  0
POINT
  5
7DF9
330
7B38
100
AcDbEntity
  8
DEFPOINTS
  6
Continuous
 62
     0
100
AcDbPoint
 10
-508.6766349999999
 20
-1006.99753
 30
0.0
  0
ENDBLK
  5
7C01
330
7B38
100
AcDbEntity
  8
0
100
AcDbBlockEnd
  0
BLOCK
  5
7BEC
330
7B47
100
AcDbEntity
  8
0
100
AcDbBlockBegin
  2
*D8
 70
     1
 10
0.0
 20
0.0
 30
0.0
  3
*D8
  1

  0
LINE
  5
7DFA
330
7B47
100
AcDbEntity
  8
3
  6
Continuous
 62
     0
100
AcDbLine
 10
-1123.676635
 20
-136.3182169999999
 30
0.0
 11
-1123.676635
 21
8.165669000000008
 31
0.0
  0
LINE
  5
7DFB
330
7B47
100
AcDbEntity
  8
3
  6
Continuous
 62
     0
100
AcDbLine
 10
-808.6766349999999
 20
-105.0830159999999
 30
0.0
 11
-808.6766349999999
 21
8.165669000000008
 31
0.0
  0
LINE
  5
7DFC
330
7B47
100
AcDbEntity
  8
3
  6
Continuous
 62
     0
100
AcDbLine
 10
-1083.676635
 20
-11.834331
 30
0.0
 11
-848.6766349999999
 21
-11.834331
 31
0.0
  0
INSERT
  5
7DFD
330
7B47
100
AcDbEntity
  8
3
  6
Continuous
 62
     0
100
AcDbBlockReference
  2
_OPEN
 10
-1123.676635
 20
-11.834331
 30
0.0
 41
40.0
 42
40.0
 43
40.0
 50
180.0
  0
INSERT
  5
7DFE
330
7B47
100
AcDbEntity
  8
3
  6
Continuous
 62
     0
100
AcDbBlockReference
  2
_OPEN
 10
-808.6766349999999
 20
-11.834331
 30
0.0
 41
40.0
 42
40.0
 43
40.0
  0
MTEXT
  5
7DFF
330
7B47
100
AcDbEntity
  8
3
  6
Continuous
 62
     0
100
AcDbMText
 10
-940.1052064285714
 20
38.165669
 30
0.0
 40
60.0
 41
0.0
 71
     5
 72
     5
  1
\A1;315
 73
     1
 44
1.0
  0
POINT
  5
7E00
330
7B47
100
AcDbEntity
  8
DEFPOINTS
  6
Continuous
 62
     0
100
AcDbPoint
 10
-1123.676635
 20
-146.318217
 30
0.0
  0
POINT
  5
7E01
330
7B47
100
AcDbEntity
  8
DEFPOINTS
  6
Continuous
 62
     0
100
AcDbPoint
 10
-808.6766349999999
 20
-115.0830159999999
 30
0.0
  0
POINT
  5
7E02
330
7B47
100
AcDbEntity
  8
DEFPOINTS
  6
Continuous
 62
     0
100
AcDbPoint
 10
-808.6766349999999
 20
-11.834331
 30
0.0
  0
ENDBLK
  5
7BF6
330
7B47
100
AcDbEntity
  8
0
100
AcDbBlockEnd
  0
BLOCK
  5
7BE2
330
7B54
100
AcDbEntity
  8
0
100
AcDbBlockBegin
  2
*D9
 70
     1
 10
0.0
 20
0.0
 30
0.0
  3
*D9
  1

  0
LINE
  5
7E03
330
7B54
100
AcDbEntity
  8
3
  6
Continuous
 62
     0
100
AcDbLine
 10
-493.676635
 20
-136.3182169999999
 30
0.0
 11
-493.676635
 21
8.165669000000008
 31
0.0
  0
LINE
  5
7E04
330
7B54
100
AcDbEntity
  8
3
  6
Continuous
 62
     0
100
AcDbLine
 10
-768.6766349999999
 20
-11.834331
 30
0.0
 11
-533.676635
 21
-11.834331
 31
0.0
  0
MTEXT
  5
7E05
330
7B54
100
AcDbEntity
  8
3
  6
Continuous
 62
     0
100
AcDbMText
 10
-630.491594
 20
41.633453
 30
0.0
 40
60.0
 41
0.0
 71
     5
 72
     5
  1
\A1;315
 73
     1
 44
1.0
  0
INSERT
  5
7E06
330
7B54
100
AcDbEntity
  8
3
  6
Continuous
 62
     0
100
AcDbBlockReference
  2
_OPEN
 10
-808.6766349999999
 20
-11.834331
 30
0.0
 41
40.0
 42
40.0
 43
40.0
 50
180.0
  0
INSERT
  5
7E07
330
7B54
100
AcDbEntity
  8
3
  6
Continuous
 62
     0
100
AcDbBlockReference
  2
_OPEN
 10
-493.676635
 20
-11.834331
 30
0.0
 41
40.0
 42
40.0
 43
40.0
  0
POINT
  5
7E08
330
7B54
100
AcDbEntity
  8
DEFPOINTS
  6
Continuous
 62
     0
100
AcDbPoint
 10
-808.6766349999999
 20
-115.0830159999999
 30
0.0
  0
POINT
  5
7E09
330
7B54
100
AcDbEntity
  8
DEFPOINTS
  6
Continuous
 62
     0
100
AcDbPoint
 10
-493.676635
 20
-146.318217
 30
0.0
  0
POINT
  5
7E0A
330
7B54
100
AcDbEntity
  8
DEFPOINTS
  6
Continuous
 62
     0
100
AcDbPoint
 10
-493.676635
 20
-11.834331
 30
0.0
  0
ENDBLK
  5
7BEB
330
7B54
100
AcDbEntity
  8
0
100
AcDbBlockEnd
  0
BLOCK
  5
7B83
330
7B82
100
AcDbEntity
  8
0
100
AcDbBlockBegin
  2
*D10
 70
     1
 10
0.0
 20
0.0
 30
0.0
  3
*D10
  1

  0
LINE
  5
7E0B
330
7B82
100
AcDbEntity
  8
3
  6
Continuous
 62
     0
100
AcDbLine
 10
-913.676635
 20
-336.3182169999999
 30
0.0
 11
-913.676635
 21
-240.6526769999999
 31
0.0
  0
LINE
  5
7E0C
330
7B82
100
AcDbEntity
  8
3
  6
Continuous
 62
     0
100
AcDbLine
 10
-703.6766349999999
 20
-336.3182169999999
 30
0.0
 11
-703.6766349999999
 21
-240.6526769999999
 31
0.0
  0
LINE
  5
7E0D
330
7B82
100
AcDbEntity
  8
3
  6
Continuous
 62
     0
100
AcDbLine
 10
-873.6766349999999
 20
-260.6526769999999
 30
0.0
 11
-743.6766349999999
 21
-260.6526769999999
 31
0.0
  0
INSERT
  5
7E0E
330
7B82
100
AcDbEntity
  8
3
  6
Continuous
 62
     0
100
AcDbBlockReference
  2
_OPEN
 10
-913.676635
 20
-260.6526769999999
 30
0.0
 41
40.0
 42
40.0
 43
40.0
 50
180.0
  0
INSERT
  5
7E0F
330
7B82
100
AcDbEntity
  8
3
  6
Continuous
 62
     0
100
AcDbBlockReference
  2
_OPEN
 10
-703.6766349999999
 20
-260.6526769999999
 30
0.0
 41
40.0
 42
40.0
 43
40.0
  0
MTEXT
  5
7E10
330
7B82
100
AcDbEntity
  8
3
  6
Continuous
 62
     0
100
AcDbMText
 10
-808.6766349999999
 20
-210.6526769999999
 30
0.0
 40
60.0
 41
0.0
 71
     5
 72
     5
  1
\A1;210
 73
     1
 44
1.0
  0
POINT
  5
7E11
330
7B82
100
AcDbEntity
  8
DEFPOINTS
  6
Continuous
 62
     0
100
AcDbPoint
 10
-913.676635
 20
-346.318217
 30
0.0
  0
POINT
  5
7E12
330
7B82
100
AcDbEntity
  8
DEFPOINTS
  6
Continuous
 62
     0
100
AcDbPoint
 10
-703.6766349999999
 20
-346.318217
 30
0.0
  0
POINT
  5
7E13
330
7B82
100
AcDbEntity
  8
DEFPOINTS
  6
Continuous
 62
     0
100
AcDbPoint
 10
-703.6766349999999
 20
-260.6526769999999
 30
0.0
  0
ENDBLK
  5
7B8F
330
7B82
100
AcDbEntity
  8
0
100
AcDbBlockEnd
  0
BLOCK
  5
7B92
330
7B91
100
AcDbEntity
  8
0
100
AcDbBlockBegin
  2
*D11
 70
     1
 10
0.0
 20
0.0
 30
0.0
  3
*D11
  1

  0
LINE
  5
7E14
330
7B91
100
AcDbEntity
  8
3
  6
Continuous
 62
     0
100
AcDbLine
 10
-923.6766349999999
 20
-346.318217
 30
0.0
 11
-1009.101266
 21
-346.318217
 31
0.0
  0
LINE
  5
7E15
330
7B91
100
AcDbEntity
  8
3
  6
Continuous
 62
     0
100
AcDbLine
 10
-923.6766349999999
 20
-626.318217
 30
0.0
 11
-1009.101266
 21
-626.318217
 31
0.0
  0
LINE
  5
7E16
330
7B91
100
AcDbEntity
  8
3
  6
Continuous
 62
     0
100
AcDbLine
 10
-989.1012660000003
 20
-386.3182169999999
 30
0.0
 11
-989.1012660000003
 21
-586.3182169999999
 31
0.0
  0
INSERT
  5
7E17
330
7B91
100
AcDbEntity
  8
3
  6
Continuous
 62
     0
100
AcDbBlockReference
  2
_OPEN
 10
-989.1012660000003
 20
-346.318217
 30
0.0
 41
40.0
 42
40.0
 43
40.0
 50
90.0
  0
INSERT
  5
7E18
330
7B91
100
AcDbEntity
  8
3
  6
Continuous
 62
     0
100
AcDbBlockReference
  2
_OPEN
 10
-989.1012660000003
 20
-626.318217
 30
0.0
 41
40.0
 42
40.0
 43
40.0
 50
270.0
  0
MTEXT
  5
7E19
330
7B91
100
AcDbEntity
  8
3
  6
Continuous
 62
     0
100
AcDbMText
 10
-1039.101266
 20
-483.461074
 30
0.0
 40
60.0
 41
0.0
 71
     5
 72
     5
  1
\A1;280
 11
0.0000000000000001
 21
1.0
 31
0.0
 73
     1
 44
1.0
  0
POINT
  5
7E1A
330
7B91
100
AcDbEntity
  8
DEFPOINTS
  6
Continuous
 62
     0
100
AcDbPoint
 10
-913.676635
 20
-346.318217
 30
0.0
  0
POINT
  5
7E1B
330
7B91
100
AcDbEntity
  8
DEFPOINTS
  6
Continuous
 62
     0
100
AcDbPoint
 10
-913.676635
 20
-626.318217
 30
0.0
  0
POINT
  5
7E1C
330
7B91
100
AcDbEntity
  8
DEFPOINTS
  6
Continuous
 62
     0
100
AcDbPoint
 10
-989.1012660000003
 20
-626.318217
 30
0.0
  0
ENDBLK
  5
7B9C
330
7B91
100
AcDbEntity
  8
0
100
AcDbBlockEnd
  0
BLOCK
  5
7CA7
330
7CA6
100
AcDbEntity
  8
0
100
AcDbBlockBegin
  2
*D12
 70
     1
 10
0.0
 20
0.0
 30
0.0
  3
*D12
  1

  0
LINE
  5
7E1D
330
7CA6
100
AcDbEntity
  8
3
 62
     0
100
AcDbLine
 10
-2845.582935
 20
-821.3182169999999
 30
0.0
 11
-2954.648924115896
 21
-821.3182169999999
 31
0.0
  0
LINE
  5
7E1E
330
7CA6
100
AcDbEntity
  8
3
 62
     0
100
AcDbLine
 10
-2859.196192
 20
-486.3182169999999
 30
0.0
 11
-2954.648924115896
 21
-486.3182169999999
 31
0.0
  0
LINE
  5
7E1F
330
7CA6
100
AcDbEntity
  8
3
 62
     0
100
AcDbLine
 10
-2934.648924115896
 20
-781.318217
 30
0.0
 11
-2934.648924115896
 21
-526.318217
 31
0.0
  0
INSERT
  5
7E20
330
7CA6
100
AcDbEntity
  8
3
 62
     0
100
AcDbBlockReference
  2
_OPEN
 10
-2934.648924115896
 20
-821.3182169999999
 30
0.0
 41
40.0
 42
40.0
 43
40.0
 50
270.0
  0
INSERT
  5
7E21
330
7CA6
100
AcDbEntity
  8
3
 62
     0
100
AcDbBlockReference
  2
_OPEN
 10
-2934.648924115896
 20
-486.3182169999999
 30
0.0
 41
40.0
 42
40.0
 43
40.0
 50
90.0
  0
MTEXT
  5
7E22
330
7CA6
100
AcDbEntity
  8
3
 62
     0
100
AcDbMText
 10
-2984.648924115896
 20
-623.461074142857
 30
0.0
 40
60.0
 41
0.0
 71
     5
 72
     5
  1
\A1;335
 11
0.0000000000000001
 21
1.0
 31
0.0
 73
     1
 44
1.0
  0
POINT
  5
7E23
330
7CA6
100
AcDbEntity
  8
DEFPOINTS
 62
     0
100
AcDbPoint
 10
-2835.582935
 20
-821.3182169999999
 30
0.0
  0
POINT
  5
7E24
330
7CA6
100
AcDbEntity
  8
DEFPOINTS
 62
     0
100
AcDbPoint
 10
-2849.196192
 20
-486.3182169999999
 30
0.0
  0
POINT
  5
7E25
330
7CA6
100
AcDbEntity
  8
DEFPOINTS
 62
     0
100
AcDbPoint
 10
-2934.648924115896
 20
-486.3182169999999
 30
0.0
  0
ENDBLK
  5
7CB1
330
7CA6
100
AcDbEntity
  8
0
100
AcDbBlockEnd
  0
BLOCK
  5
7E3F
330
7E35
100
AcDbEntity
  8
0
100
AcDbBlockBegin
  2
*D13
 70
     1
 10
0.0
 20
0.0
 30
0.0
  3
*D13
  1

  0
LINE
  5
7E36
330
7E35
100
AcDbEntity
  8
3
 62
     0
370
    -2
100
AcDbLine
 10
-1108.676635
 20
-136.3182169999999
 30
0.0
 11
-1108.676635
 21
9.969031023640127
 31
0.0
  0
LINE
  5
7E37
330
7E35
100
AcDbEntity
  8
3
 62
     0
370
    -2
100
AcDbLine
 10
-808.6766349999999
 20
-100.0830159999999
 30
0.0
 11
-808.6766349999999
 21
9.969031023640127
 31
0.0
  0
LINE
  5
7E38
330
7E35
100
AcDbEntity
  8
3
 62
     0
370
    -2
100
AcDbLine
 10
-1068.676635
 20
-10.03096897635987
 30
0.0
 11
-848.6766349999999
 21
-10.03096897635987
 31
0.0
  0
INSERT
  5
7E39
330
7E35
100
AcDbEntity
  8
3
 62
     0
370
    -2
100
AcDbBlockReference
  2
_OPEN
 10
-1108.676635
 20
-10.03096897635987
 30
0.0
 41
40.0
 42
40.0
 43
40.0
 50
180.0
  0
INSERT
  5
7E3A
330
7E35
100
AcDbEntity
  8
3
 62
     0
370
    -2
100
AcDbBlockReference
  2
_OPEN
 10
-808.6766349999999
 20
-10.03096897635987
 30
0.0
 41
40.0
 42
40.0
 43
40.0
  0
MTEXT
  5
7E3B
330
7E35
100
AcDbEntity
  8
3
 62
     0
100
AcDbMText
 10
-956.865258422189
 20
39.96903102364012
 30
0.0
 40
60.0
 41
0.0
 71
     5
 72
     1
  1
\A1;300
 73
     1
 44
1.0
  0
POINT
  5
7E3C
330
7E35
100
AcDbEntity
  8
DEFPOINTS
 62
     0
100
AcDbPoint
 10
-1108.676635
 20
-146.318217
 30
0.0
  0
POINT
  5
7E3D
330
7E35
100
AcDbEntity
  8
DEFPOINTS
 62
     0
100
AcDbPoint
 10
-808.6766349999999
 20
-110.0830159999999
 30
0.0
  0
POINT
  5
7E3E
330
7E35
100
AcDbEntity
  8
DEFPOINTS
 62
     0
100
AcDbPoint
 10
-808.6766349999999
 20
-10.03096897635987
 30
0.0
  0
ENDBLK
  5
7E40
330
7E35
100
AcDbEntity
  8
0
100
AcDbBlockEnd
  0
BLOCK
  5
7E4C
330
7E42
100
AcDbEntity
  8
0
100
AcDbBlockBegin
  2
*D14
 70
     1
 10
0.0
 20
0.0
 30
0.0
  3
*D14
  1

  0
LINE
  5
7E43
330
7E42
100
AcDbEntity
  8
3
 62
     0
370
    -2
100
AcDbLine
 10
-808.6766349999999
 20
-100.0830159999999
 30
0.0
 11
-808.6766349999999
 21
9.969031023640127
 31
0.0
  0
LINE
  5
7E44
330
7E42
100
AcDbEntity
  8
3
 62
     0
370
    -2
100
AcDbLine
 10
-508.6766350000001
 20
-136.3182169999999
 30
0.0
 11
-508.6766350000001
 21
9.969031023640127
 31
0.0
  0
LINE
  5
7E45
330
7E42
100
AcDbEntity
  8
3
 62
     0
370
    -2
100
AcDbLine
 10
-768.6766349999999
 20
-10.03096897635987
 30
0.0
 11
-548.676635
 21
-10.03096897635987
 31
0.0
  0
INSERT
  5
7E46
330
7E42
100
AcDbEntity
  8
3
 62
     0
370
    -2
100
AcDbBlockReference
  2
_OPEN
 10
-808.6766349999999
 20
-10.03096897635987
 30
0.0
 41
40.0
 42
40.0
 43
40.0
 50
180.0
  0
INSERT
  5
7E47
330
7E42
100
AcDbEntity
  8
3
 62
     0
370
    -2
100
AcDbBlockReference
  2
_OPEN
 10
-508.6766350000001
 20
-10.03096897635987
 30
0.0
 41
40.0
 42
40.0
 43
40.0
  0
MTEXT
  5
7E48
330
7E42
100
AcDbEntity
  8
3
 62
     0
100
AcDbMText
 10
-658.676635
 20
39.96903102364012
 30
0.0
 40
60.0
 41
0.0
 71
     5
 72
     1
  1
\A1;300
 73
     1
 44
1.0
  0
POINT
  5
7E49
330
7E42
100
AcDbEntity
  8
DEFPOINTS
 62
     0
100
AcDbPoint
 10
-808.6766349999999
 20
-110.0830159999999
 30
0.0
  0
POINT
  5
7E4A
330
7E42
100
AcDbEntity
  8
DEFPOINTS
 62
     0
100
AcDbPoint
 10
-508.6766350000001
 20
-146.318217
 30
0.0
  0
POINT
  5
7E4B
330
7E42
100
AcDbEntity
  8
DEFPOINTS
 62
     0
100
AcDbPoint
 10
-508.6766350000001
 20
-10.03096897635987
 30
0.0
  0
ENDBLK
  5
7E4D
330
7E42
100
AcDbEntity
  8
0
100
AcDbBlockEnd
  0
ENDSEC
  0
SECTION
  2
ENTITIES
  0
LINE
  5
7A48
330
19
100
AcDbEntity
  8
1
  6
Continuous
 48
20.0
100
AcDbLine
 10
-1955.582935
 20
-146.318217
 30
0.0
 11
-2745.582935
 21
-146.318217
 31
0.0
  0
LINE
  5
7A49
330
19
100
AcDbEntity
  8
1
  6
Continuous
 48
20.0
100
AcDbLine
 10
-2835.582935
 20
-821.3182169999999
 30
0.0
 11
-1865.582935
 21
-821.3182170000001
 31
0.0
  0
LINE
  5
7A4A
330
19
100
AcDbEntity
  8
1
  6
Continuous
 48
20.0
100
AcDbLine
 10
-2835.582935
 20
-746.318217
 30
0.0
 11
-1865.582935
 21
-746.3182170000001
 31
0.0
  0
LINE
  5
7A4B
330
19
100
AcDbEntity
  8
1
  6
Continuous
 48
20.0
100
AcDbLine
 10
-2835.582935
 20
-821.3182169999999
 30
0.0
 11
-1865.582935
 21
-821.3182170000001
 31
0.0
  0
ARC
  5
7A4C
330
19
100
AcDbEntity
  8
1
  6
Continuous
 48
20.0
100
AcDbCircle
 10
-2474.582935
 20
-383.318217
 30
0.0
 40
131.410519
100
AcDbArc
 50
96.84277299999999
 51
185.710593
  0
LINE
  5
7A4D
330
19
100
AcDbEntity
  8
1
  6
Continuous
 48
20.0
100
AcDbLine
 10
-2745.582935
 20
-594.318217
 30
0.0
 11
-2485.582935
 21
-594.318217
 31
0.0
  0
LINE
  5
7A4E
330
19
100
AcDbEntity
  8
1
  6
Continuous
 48
20.0
100
AcDbLine
 10
-2745.582934999999
 20
-146.318217
 30
0.0
 11
-2745.582935
 21
-741.3182169999999
 31
0.0
  0
LINE
  5
7A4F
330
19
100
AcDbEntity
  8
1
  6
Continuous
 48
20.0
100
AcDbLine
 10
-2745.582935000001
 20
-746.3182170000001
 30
0.0
 11
-2745.582934999999
 21
-146.318217
 31
0.0
  0
LINE
  5
7A52
330
19
100
AcDbEntity
  8
1
  6
Continuous
 48
20.0
100
AcDbLine
 10
-2835.582935
 20
-821.3182169999999
 30
0.0
 11
-2835.582935
 21
-746.3182170000001
 31
0.0
  0
LINE
  5
7A53
330
19
100
AcDbEntity
  8
1
  6
Continuous
 48
20.0
100
AcDbLine
 10
-2605.532256
 20
-394.318217
 30
0.0
 11
-2745.582935
 21
-394.318217
 31
0.0
  0
LINE
  5
7A54
330
19
100
AcDbEntity
  8
1
  6
Continuous
 48
20.0
100
AcDbLine
 10
-2770.582935
 20
-321.318217
 30
0.0
 11
-2745.582935
 21
-321.318217
 31
0.0
  0
LINE
  5
7A55
330
19
100
AcDbEntity
  8
1
  6
Continuous
 48
20.0
100
AcDbLine
 10
-2770.582935
 20
-651.318217
 30
0.0
 11
-2745.582935
 21
-651.318217
 31
0.0
  0
LINE
  5
7A56
330
19
100
AcDbEntity
  8
1
  6
Continuous
 48
20.0
100
AcDbLine
 10
-2770.582935
 20
-321.318217
 30
0.0
 11
-2770.582935
 21
-651.318217
 31
0.0
  0
LINE
  5
7A57
330
19
100
AcDbEntity
  8
1
  6
Continuous
 48
20.0
100
AcDbLine
 10
-2645.582935
 20
-394.318217
 30
0.0
 11
-2645.582935
 21
-594.318217
 31
0.0
  0
ARC
  5
7A58
330
19
100
AcDbEntity
  8
1
  6
Continuous
 48
20.0
100
AcDbCircle
 10
-2471.582935
 20
-408.3182169999999
 30
0.0
 40
156.589876
100
AcDbArc
 50
1.974933999999999
 51
96.84277299999999
  0
ARC
  5
7A59
330
19
100
AcDbEntity
  8
1
  6
Continuous
 48
20.0
100
AcDbCircle
 10
-2500.582935
 20
-409.318217
 30
0.0
 40
185.607112
100
AcDbArc
 50
274.635463
 51
1.974933999999999
  0
LINE
  5
7A5A
330
19
100
AcDbEntity
  8
1
  6
Continuous
 48
20.0
100
AcDbLine
 10
-1955.582935
 20
-746.3182170000002
 30
0.0
 11
-1955.582935
 21
-146.318217
 31
0.0
  0
LINE
  5
7A5C
330
19
100
AcDbEntity
  8
1
  6
Continuous
 48
20.0
100
AcDbLine
 10
-1865.582935
 20
-821.3182169999999
 30
0.0
 11
-1865.582935
 21
-746.3182170000001
 31
0.0
  0
LINE
  5
7A5D
330
19
100
AcDbEntity
  8
1
  6
Continuous
 48
20.0
100
AcDbLine
 10
-1930.582935
 20
-321.318217
 30
0.0
 11
-1930.582935
 21
-651.318217
 31
0.0
  0
LINE
  5
7A5E
330
19
100
AcDbEntity
  8
1
  6
Continuous
 48
20.0
100
AcDbLine
 10
-1930.582935
 20
-651.318217
 30
0.0
 11
-1955.582935
 21
-651.318217
 31
0.0
  0
LINE
  5
7A5F
330
19
100
AcDbEntity
  8
1
  6
Continuous
 48
20.0
100
AcDbLine
 10
-1930.582935
 20
-321.318217
 30
0.0
 11
-1955.582935
 21
-321.318217
 31
0.0
  0
LINE
  5
7A60
330
19
100
AcDbEntity
  8
1
  6
Continuous
 48
20.0
100
AcDbLine
 10
-2745.520126
 20
1252.023089
 30
0.0
 11
-2745.520126000001
 21
652.0230889999999
 31
0.0
  0
LINE
  5
7A61
330
19
100
AcDbEntity
  8
1
  6
Continuous
 48
20.0
100
AcDbLine
 10
-1955.520126
 20
652.0230889999999
 30
0.0
 11
-1955.520126
 21
1252.023089
 31
0.0
  0
LINE
  5
7A62
330
19
100
AcDbEntity
  8
1
  6
Continuous
 48
20.0
100
AcDbLine
 10
-2745.520126
 20
652.0230889999997
 30
0.0
 11
-1955.520126
 21
652.0230889999999
 31
0.0
  0
LINE
  5
7A63
330
19
100
AcDbEntity
  8
1
  6
Continuous
 48
20.0
100
AcDbLine
 10
-2835.520126
 20
692.0230889999999
 30
0.0
 11
-2745.520126
 21
692.0230889999999
 31
0.0
  0
LINE
  5
7A64
330
19
100
AcDbEntity
  8
1
  6
Continuous
 48
20.0
100
AcDbLine
 10
-2835.520126
 20
652.0230889999999
 30
0.0
 11
-2745.520126
 21
652.0230889999999
 31
0.0
  0
LINE
  5
7A65
330
19
100
AcDbEntity
  8
1
  6
Continuous
 48
20.0
100
AcDbLine
 10
-2835.520126
 20
692.0230889999999
 30
0.0
 11
-2835.520126
 21
652.0230889999999
 31
0.0
  0
LINE
  5
7A66
330
19
100
AcDbEntity
  8
1
  6
Continuous
 48
20.0
100
AcDbLine
 10
-1865.520126
 20
652.0230889999999
 30
0.0
 11
-1955.520126
 21
652.0230889999999
 31
0.0
  0
LINE
  5
7A67
330
19
100
AcDbEntity
  8
1
  6
Continuous
 48
20.0
100
AcDbLine
 10
-1865.520126
 20
692.0230889999999
 30
0.0
 11
-1865.520126
 21
652.0230889999999
 31
0.0
  0
LINE
  5
7A68
330
19
100
AcDbEntity
  8
1
  6
Continuous
 48
20.0
100
AcDbLine
 10
-1865.520126
 20
692.0230889999999
 30
0.0
 11
-1955.520126
 21
692.0230889999999
 31
0.0
  0
LINE
  5
7A69
330
19
100
AcDbEntity
  8
1
  6
Continuous
 48
20.0
100
AcDbLine
 10
-1955.520126
 20
1252.023089
 30
0.0
 11
-2745.520126
 21
1252.023089
 31
0.0
  0
LINE
  5
7A6A
330
19
100
AcDbEntity
  8
1
  6
Continuous
 48
20.0
100
AcDbLine
 10
-2835.520126
 20
1212.023089
 30
0.0
 11
-2745.520126
 21
1212.023089
 31
0.0
  0
LINE
  5
7A6B
330
19
100
AcDbEntity
  8
1
  6
Continuous
 48
20.0
100
AcDbLine
 10
-2835.520126
 20
1252.023089
 30
0.0
 11
-2745.520126
 21
1252.023089
 31
0.0
  0
LINE
  5
7A6C
330
19
100
AcDbEntity
  8
1
  6
Continuous
 48
20.0
100
AcDbLine
 10
-2835.520126
 20
1252.023089
 30
0.0
 11
-2835.520126
 21
1212.023089
 31
0.0
  0
LINE
  5
7A6D
330
19
100
AcDbEntity
  8
1
  6
Continuous
 48
20.0
100
AcDbLine
 10
-2770.520126
 20
1082.023089
 30
0.0
 11
-2745.520126
 21
1082.023089
 31
0.0
  0
LINE
  5
7A6E
330
19
100
AcDbEntity
  8
1
  6
Continuous
 48
20.0
100
AcDbLine
 10
-2770.520126
 20
822.0230889999999
 30
0.0
 11
-2745.520126
 21
822.0230889999999
 31
0.0
  0
LINE
  5
7A6F
330
19
100
AcDbEntity
  8
1
  6
Continuous
 48
20.0
100
AcDbLine
 10
-2770.520126
 20
1082.023089
 30
0.0
 11
-2770.520126
 21
822.0230889999999
 31
0.0
  0
LINE
  5
7A70
330
19
100
AcDbEntity
  8
1
  6
Continuous
 48
20.0
100
AcDbLine
 10
-1930.520126
 20
1082.023089
 30
0.0
 11
-1930.520126
 21
822.0230889999999
 31
0.0
  0
LINE
  5
7A71
330
19
100
AcDbEntity
  8
1
  6
Continuous
 48
20.0
100
AcDbLine
 10
-1930.520126
 20
822.0230889999999
 30
0.0
 11
-1955.520126
 21
822.0230889999999
 31
0.0
  0
LINE
  5
7A72
330
19
100
AcDbEntity
  8
1
  6
Continuous
 48
20.0
100
AcDbLine
 10
-1930.520126
 20
1082.023089
 30
0.0
 11
-1955.520126
 21
1082.023089
 31
0.0
  0
LINE
  5
7A73
330
19
100
AcDbEntity
  8
1
  6
Continuous
 48
20.0
100
AcDbLine
 10
-1865.520126
 20
1252.023089
 30
0.0
 11
-1955.520126
 21
1252.023089
 31
0.0
  0
LINE
  5
7A74
330
19
100
AcDbEntity
  8
1
  6
Continuous
 48
20.0
100
AcDbLine
 10
-1865.520126
 20
1252.023089
 30
0.0
 11
-1865.520126
 21
1212.023089
 31
0.0
  0
LINE
  5
7A75
330
19
100
AcDbEntity
  8
1
  6
Continuous
 48
20.0
100
AcDbLine
 10
-1865.520126
 20
1212.023089
 30
0.0
 11
-1955.520126
 21
1212.023089
 31
0.0
  0
LINE
  5
7A76
330
19
100
AcDbEntity
  8
1
  6
Continuous
 48
20.0
100
AcDbLine
 10
-913.676635
 20
-346.318217
 30
0.0
 11
-703.6766349999999
 21
-626.318217
 31
0.0
  0
LINE
  5
7A77
330
19
100
AcDbEntity
  8
1
  6
Continuous
 48
20.0
100
AcDbLine
 10
-913.676635
 20
-626.318217
 30
0.0
 11
-703.6766349999999
 21
-346.318217
 31
0.0
  0
LWPOLYLINE
  5
7A78
330
19
100
AcDbEntity
  8
1
  6
Continuous
 48
20.0
100
AcDbPolyline
 90
        4
 70
     1
 43
0.0
 10
-938.676635
 20
-651.318217
 10
-678.6766349999999
 20
-651.318217
 10
-678.6766349999999
 20
-321.318217
 10
-938.676635
 20
-321.318217
  0
LWPOLYLINE
  5
7A7E
330
19
100
AcDbEntity
  8
1
  6
Continuous
 48
20.0
100
AcDbPolyline
 90
        4
 70
     1
 43
0.0
 10
-913.676635
 20
-626.318217
 10
-703.6766349999999
 20
-626.318217
 10
-703.6766349999999
 20
-346.318217
 10
-913.676635
 20
-346.318217
  0
LINE
  5
7A85
330
19
100
AcDbEntity
  8
1
  6
Continuous
 48
20.0
100
AcDbLine
 10
-508.6766349999999
 20
-746.318217
 30
0.0
 11
-1108.676635
 21
-746.318217
 31
0.0
  0
LINE
  5
7A86
330
19
100
AcDbEntity
  8
1
  6
Continuous
 48
20.0
100
AcDbLine
 10
-1108.676635
 20
-821.3182169999999
 30
0.0
 11
-508.6766349999999
 21
-821.3182169999999
 31
0.0
  0
LINE
  5
7A87
330
19
100
AcDbEntity
  8
1
  6
Continuous
 48
20.0
100
AcDbLine
 10
-1108.676635
 20
-146.318217
 30
0.0
 11
-1108.676635
 21
-746.318217
 31
0.0
  0
LINE
  5
7A89
330
19
100
AcDbEntity
  8
1
  6
Continuous
 48
20.0
100
AcDbLine
 10
-508.6766349999999
 20
-746.318217
 30
0.0
 11
-508.6766349999999
 21
-146.318217
 31
0.0
  0
DIMENSION
  5
7AAB
330
19
100
AcDbEntity
  8
3
  6
Continuous
 48
20.0
100
AcDbDimension
  2
*D1
 10
-1865.582935
 20
-973.3311449999998
 30
0.0
 11
-2357.806987999999
 21
-973.3311449999998
 31
0.0
 70
   160
 71
     5
 42
-1.0
  3
IGA
100
AcDbAlignedDimension
 13
-2835.582935
 23
-821.3182169999999
 33
0.0
 14
-1865.582935
 24
-821.3182170000001
 34
0.0
100
AcDbRotatedDimension
1001
ACAD
1000
DSTYLE
1002
{
1070
   287
1070
     3
1070
   287
1070
     3
1070
    40
1040
20.0
1070
   143
1040
0.039
1070
   172
1070
     1
1070
   271
1070
     0
1070
   279
1070
     0
1070
   288
1070
     1
1002
}
  0
DIMENSION
  5
7AB8
330
19
100
AcDbEntity
  8
3
  6
Continuous
 48
20.0
100
AcDbDimension
  2
*D2
 10
-3136.774513537973
 20
-821.3182169999999
 30
0.0
 11
-3136.774513537973
 21
-483.1124289999999
 31
0.0
 70
   160
 71
     5
 42
-1.0
  3
IGA
100
AcDbAlignedDimension
 13
-2745.582934999999
 23
-146.318217
 33
0.0
 14
-2835.582935
 24
-821.3182169999999
 34
0.0
 50
90.0
100
AcDbRotatedDimension
1001
ACAD
1000
DSTYLE
1002
{
1070
   287
1070
     3
1070
   287
1070
     3
1070
    40
1040
20.0
1070
   143
1040
0.039
1070
   172
1070
     1
1070
   271
1070
     0
1070
   279
1070
     0
1070
   288
1070
     1
1002
}
  0
LINE
  5
7AB9
330
19
100
AcDbEntity
  8
2
  6
CENTER
 48
20.0
100
AcDbLine
 10
-2849.196192
 20
-486.3182169999999
 30
0.0
 11
-1858.508851999999
 21
-486.3182169999999
 31
0.0
  0
DIMENSION
  5
7AC6
330
19
100
AcDbEntity
  8
3
  6
Continuous
 48
20.0
100
AcDbDimension
  2
*D3
 10
-1691.352518
 20
-821.3182170000001
 30
0.0
 11
-1691.352518
 21
-623.461074142857
 31
0.0
 70
   160
 71
     5
 42
-1.0
  3
IGA
100
AcDbAlignedDimension
 13
-1858.508851999999
 23
-486.3182169999999
 33
0.0
 14
-1865.582935
 24
-821.3182169999999
 34
0.0
 50
90.0
100
AcDbRotatedDimension
1001
ACAD
1000
DSTYLE
1002
{
1070
   287
1070
     3
1070
   287
1070
     3
1070
    40
1040
20.0
1070
   143
1040
0.039
1070
   172
1070
     1
1070
   271
1070
     0
1070
   279
1070
     0
1070
   288
1070
     1
1002
}
  0
DIMENSION
  5
7AD3
330
19
100
AcDbEntity
  8
3
  6
Continuous
 48
20.0
100
AcDbDimension
  2
*D4
 10
-1955.582935
 20
-10.69145299999999
 30
0.0
 11
-2366.490451
 21
-10.69145299999999
 31
0.0
 70
   160
 71
     5
 42
-1.0
  3
IGA
100
AcDbAlignedDimension
 13
-2745.582935
 23
-146.318217
 33
0.0
 14
-1955.582935
 24
-146.318217
 34
0.0
100
AcDbRotatedDimension
1001
ACAD
1000
DSTYLE
1002
{
1070
   287
1070
     3
1070
   287
1070
     3
1070
    40
1040
20.0
1070
   143
1040
0.039
1070
   172
1070
     1
1070
   271
1070
     0
1070
   279
1070
     0
1070
   288
1070
     1
1002
}
  0
DIMENSION
  5
7AE0
330
19
100
AcDbEntity
  8
3
  6
Continuous
 48
20.0
100
AcDbDimension
  2
*D5
 10
-1955.520126
 20
462.402341
 30
0.0
 11
-2344.781817
 21
462.402341
 31
0.0
 70
   160
 71
     5
 42
-1.0
  3
IGA
100
AcDbAlignedDimension
 13
-2745.520126
 23
652.0230889999997
 33
0.0
 14
-1955.520126
 24
652.0230889999999
 34
0.0
100
AcDbRotatedDimension
1001
ACAD
1000
DSTYLE
1002
{
1070
   287
1070
     3
1070
   287
1070
     3
1070
    40
1040
20.0
1070
   143
1040
0.039
1070
   172
1070
     1
1070
   271
1070
     0
1070
   279
1070
     0
1070
   288
1070
     1
1002
}
  0
DIMENSION
  5
7AED
330
19
100
AcDbEntity
  8
3
  6
Continuous
 48
20.0
100
AcDbDimension
  2
*D6
 10
-1714.377666
 20
652.0230889999997
 30
0.0
 11
-1714.377666
 21
964.117326
 31
0.0
 70
   160
 71
     5
 42
-1.0
  3
IGA
100
AcDbAlignedDimension
 13
-1865.520126
 23
1252.023089
 33
0.0
 14
-1865.520126
 24
652.0230889999999
 34
0.0
 50
90.0
100
AcDbRotatedDimension
1001
ACAD
1000
DSTYLE
1002
{
1070
   287
1070
     3
1070
   287
1070
     3
1070
    40
1040
20.0
1070
   143
1040
0.039
1070
   172
1070
     1
1070
   271
1070
     0
1070
   279
1070
     0
1070
   288
1070
     1
1002
}
  0
LINE
  5
7AEE
330
19
100
AcDbEntity
  8
2
  6
CENTER
 48
20.0
100
AcDbLine
 10
-808.6766349999999
 20
-110.0830159999999
 30
0.0
 11
-808.6766349999999
 21
-158.434314560498
 31
0.0
  0
LINE
  5
7B30
330
19
100
AcDbEntity
  8
1
  6
Continuous
 48
20.0
100
AcDbLine
 10
-1108.676635
 20
-746.318217
 30
0.0
 11
-1108.676635
 21
-821.3182169999999
 31
0.0
  0
LINE
  5
7B32
330
19
100
AcDbEntity
  8
1
  6
Continuous
 48
20.0
100
AcDbLine
 10
-508.6766349999999
 20
-746.318217
 30
0.0
 11
-508.6766349999999
 21
-821.3182169999999
 31
0.0
  0
LINE
  5
7B36
330
19
100
AcDbEntity
  8
3
  6
Continuous
 48
20.0
100
AcDbLine
 10
-1930.520126
 20
952.023089
 30
0.0
 11
-1930.520126
 21
952.023089
 31
0.0
  0
LINE
  5
7B37
330
19
100
AcDbEntity
  8
2
  6
CENTER
 48
20.0
100
AcDbLine
 10
-2834.480858
 20
952.023089
 30
0.0
 11
-1864.058035999999
 21
952.023089
 31
0.0
  0
DIMENSION
  5
7B44
330
19
100
AcDbEntity
  8
3
  6
Continuous
 48
20.0
100
AcDbDimension
  2
*D7
 10
-508.6766349999999
 20
-1006.99753
 30
0.0
 11
-793.9274230000001
 21
-1006.99753
 31
0.0
 70
   160
 71
     5
 42
-1.0
  3
IGA
100
AcDbAlignedDimension
 13
-1108.676635
 23
-821.3182169999999
 33
0.0
 14
-508.6766349999999
 24
-821.3182169999999
 34
0.0
100
AcDbRotatedDimension
1001
ACAD
1000
DSTYLE
1002
{
1070
   287
1070
     3
1070
   287
1070
     3
1070
    40
1040
20.0
1070
   143
1040
0.039
1070
   172
1070
     1
1070
   271
1070
     0
1070
   279
1070
     0
1070
   288
1070
     1
1002
}
  0
LINE
  5
7B45
330
19
100
AcDbEntity
  8
2
  6
CENTER
 48
20.0
100
AcDbLine
 10
-569.3239489999999
 20
-486.3182169999999
 30
0.0
 11
-998.3734699999999
 21
-486.3182169999999
 31
0.0
  0
LINE
  5
7B46
330
19
100
AcDbEntity
  8
1
  6
Continuous
 48
20.0
100
AcDbLine
 10
-1108.676635
 20
-146.318217
 30
0.0
 11
-508.6766350000001
 21
-146.318217
 31
0.0
  0
DIMENSION
  5
7B90
330
19
100
AcDbEntity
  8
3
  6
Continuous
 48
20.0
100
AcDbDimension
  2
*D10
 10
-703.6766349999999
 20
-260.6526769999999
 30
0.0
 11
-808.6766349999999
 21
-260.6526769999999
 31
0.0
 70
   160
 71
     5
 42
-1.0
  3
IGA
100
AcDbAlignedDimension
 13
-913.676635
 23
-346.318217
 33
0.0
 14
-703.6766349999999
 24
-346.318217
 34
0.0
100
AcDbRotatedDimension
1001
ACAD
1000
DSTYLE
1002
{
1070
   287
1070
     3
1070
   287
1070
     3
1070
    40
1040
20.0
1070
   143
1040
0.039
1070
   172
1070
     1
1070
   271
1070
     0
1070
   279
1070
     0
1070
   288
1070
     1
1002
}
  0
DIMENSION
  5
7B9D
330
19
100
AcDbEntity
  8
3
  6
Continuous
 48
20.0
100
AcDbDimension
  2
*D11
 10
-989.1012660000003
 20
-626.318217
 30
0.0
 11
-989.1012660000001
 21
-483.461074
 31
0.0
 70
   160
 71
     5
 42
-1.0
  3
IGA
100
AcDbAlignedDimension
 13
-913.676635
 23
-346.318217
 33
0.0
 14
-913.676635
 24
-626.318217
 34
0.0
 50
90.0
100
AcDbRotatedDimension
1001
ACAD
1000
DSTYLE
1002
{
1070
   287
1070
     3
1070
   287
1070
     3
1070
    40
1040
20.0
1070
   143
1040
0.039
1070
   172
1070
     1
1070
   271
1070
     0
1070
   279
1070
     0
1070
   288
1070
     1
1002
}
  0
LINE
  5
7B9E
330
19
100
AcDbEntity
  8
4
  6
Continuous
 48
20.0
100
AcDbLine
 10
-252.6778779999999
 20
-1713.126285
 30
0.0
 11
-252.677878
 21
-2113.126285
 31
0.0
  0
LINE
  5
7B9F
330
19
100
AcDbEntity
  8
4
  6
Continuous
 48
20.0
100
AcDbLine
 10
-1652.677878
 20
-1713.126285
 30
0.0
 11
-1652.677878
 21
-2113.126285
 31
0.0
  0
LINE
  5
7BA0
330
19
100
AcDbEntity
  8
4
  6
Continuous
 48
20.0
100
AcDbLine
 10
-2652.677878
 20
-1713.126285
 30
0.0
 11
-2652.677878
 21
-2113.126285
 31
0.0
  0
LINE
  5
7BA3
330
19
100
AcDbEntity
  8
4
  6
Continuous
 48
20.0
100
AcDbLine
 10
-2652.677878
 20
-2113.126285
 30
0.0
 11
-252.6778779999999
 21
-2113.126285
 31
0.0
  0
LINE
  5
7BA4
330
19
100
AcDbEntity
  8
4
  6
Continuous
 48
20.0
100
AcDbLine
 10
-2652.677878
 20
-1913.126285
 30
0.0
 11
-252.6778779999999
 21
-1913.126285
 31
0.0
  0
TEXT
  5
7BA5
330
19
100
AcDbEntity
  8
4
  6
Continuous
 48
20.0
100
AcDbText
 10
-2575.673716
 20
-1850.040234
 30
0.0
 40
100.0
  1
機器名称
100
AcDbText
  0
TEXT
  5
7BA6
330
19
100
AcDbEntity
  8
4
  6
Continuous
 48
20.0
100
AcDbText
 10
-2580.161666
 20
-2069.835971999999
 30
0.0
 40
100.0
  1
機器型番
100
AcDbText
  0
TEXT
  5
7BA7
330
19
100
AcDbEntity
  8
4
  6
Continuous
 48
20.0
100
AcDbText
 10
-1597.320387
 20
-1867.982748
 30
0.0
 40
100.0
  1
ミツヤファンユニット
100
AcDbText
  0
TEXT
  5
7BA8
330
19
100
AcDbEntity
  8
4
  6
Continuous
 48
20.0
100
AcDbText
 10
-1579.368887
 20
-2078.807117
 30
0.0
 40
100.0
  1
MFU#1201-1
100
AcDbText
  0
TEXT
  5
7BAA
330
19
100
AcDbEntity
  8
4
  6
Continuous
 48
20.0
100
AcDbText
 10
-2524.431728999999
 20
2053.731396999999
 30
0.0
 40
100.0
  1
床置ベット
100
AcDbText
  0
TEXT
  5
7BAB
330
19
100
AcDbEntity
  8
4
  6
Continuous
 48
20.0
100
AcDbText
 10
-3320.342691
 20
2354.635667
 30
0.0
 40
120.0
  1
ベルト駆動式消音ボックス付き多翼ファン
100
AcDbText
  0
LINE
  5
7BAC
330
19
100
AcDbEntity
  8
4
  6
Continuous
 48
20.0
100
AcDbLine
 10
-3452.677878
 20
2225.691223
 30
0.0
 11
-252.6778779999999
 21
2225.691223
 31
0.0
  0
LINE
  5
7BAD
330
19
100
AcDbEntity
  8
4
  6
Continuous
 48
20.0
100
AcDbLine
 10
-3452.677878
 20
2625.691223
 30
0.0
 11
-252.6778779999999
 21
2625.691223
 31
0.0
  0
LINE
  5
7BAE
330
19
100
AcDbEntity
  8
4
  6
Continuous
 48
20.0
100
AcDbLine
 10
-2652.677878
 20
-1713.126285
 30
0.0
 11
-252.6778779999999
 21
-1713.126285
 31
0.0
  0
LINE
  5
7BAF
330
19
100
AcDbEntity
  8
4
  6
Continuous
 48
20.0
100
AcDbLine
 10
-3452.677878
 20
2625.691223
 30
0.0
 11
-3452.677878
 21
2225.691223
 31
0.0
  0
TEXT
  5
7BB0
330
19
100
AcDbEntity
  8
4
  6
Continuous
 48
20.0
100
AcDbText
 10
-3396.149393
 20
2051.51267
 30
0.0
 40
100.0
  1
右回転左吐出
100
AcDbText
  0
TEXT
  5
7BB1
330
19
100
AcDbEntity
  8
4
  6
Continuous
 48
20.0
100
AcDbText
 10
-1014.738758999999
 20
2698.995878
 30
0.0
 40
112.0
  1
No.
100
AcDbText
  0
TEXT
  5
7BB2
330
19
100
AcDbEntity
  8
4
  6
Continuous
 48
20.0
100
AcDbText
 10
-1006.536934
 20
2053.731396999999
 30
0.0
 40
100.0
  1
縮尺：1/20
100
AcDbText
  0
LINE
  5
7BB3
330
19
100
AcDbEntity
  8
4
  6
Continuous
 48
20.0
100
AcDbLine
 10
-252.6778779999999
 20
2625.691223
 30
0.0
 11
-252.6778779999999
 21
2225.691223
 31
0.0
  0
LINE
  5
7BB5
330
19
100
AcDbEntity
  8
4
  6
Continuous
 48
20.0
100
AcDbLine
 10
-1071.443033
 20
2649.400881
 30
0.0
 11
-1071.443033
 21
2860.178237999999
 31
0.0
  0
LINE
  5
7BB6
330
19
100
AcDbEntity
  8
4
  6
Continuous
 48
20.0
100
AcDbLine
 10
-1071.443033
 20
2860.178237999999
 30
0.0
 11
-252.6778779999999
 21
2860.178237999999
 31
0.0
  0
LINE
  5
7BB7
330
19
100
AcDbEntity
  8
4
  6
Continuous
 48
20.0
100
AcDbLine
 10
-252.6778779999999
 20
2860.178237999999
 30
0.0
 11
-252.6778779999999
 21
2649.400881
 31
0.0
  0
LINE
  5
7BB8
330
19
100
AcDbEntity
  8
4
  6
Continuous
 48
20.0
100
AcDbLine
 10
-252.6778779999999
 20
2649.400881
 30
0.0
 11
-1071.443033
 21
2649.400881
 31
0.0
  0
DIMENSION
  5
7CB2
330
19
100
AcDbEntity
  8
3
 48
20.0
100
AcDbDimension
  2
*D12
 10
-2934.648924115896
 20
-486.3182169999999
 30
0.0
 11
-2934.648924115896
 21
-623.461074142857
 31
0.0
 70
   160
 71
     5
 42
-1.0
  3
IGA
100
AcDbAlignedDimension
 13
-2835.582935
 23
-821.3182169999999
 33
0.0
 14
-2849.196192
 24
-486.3182169999999
 34
0.0
 50
90.0
100
AcDbRotatedDimension
1001
ACAD
1000
DSTYLE
1002
{
1070
   287
1070
     3
1070
   287
1070
     3
1070
    40
1040
20.0
1070
   143
1040
0.039
1070
   172
1070
     1
1070
   271
1070
     0
1070
   279
1070
     0
1070
   288
1070
     1
1002
}
  0
LINE
  5
7D79
330
19
100
AcDbEntity
  8
2
  6
CENTER
 48
20.0
100
AcDbLine
 10
-808.6766349999999
 20
-252.1744026194355
 30
0.0
 11
-808.6766349999999
 21
-864.8896380000001
 31
0.0
  0
DIMENSION
  5
7E34
330
19
100
AcDbEntity
  8
3
100
AcDbDimension
  2
*D13
 10
-808.6766349999999
 20
-10.03096897635987
 30
0.0
 11
-956.865258422189
 21
-10.03096897635987
 31
0.0
 70
   160
 71
     5
 42
300.0000000000001
  3
IGA
100
AcDbAlignedDimension
 13
-1108.676635
 23
-146.318217
 33
0.0
 14
-808.6766349999999
 24
-110.0830159999999
 34
0.0
100
AcDbRotatedDimension
1001
ACAD
1000
DSTYLE
1002
{
1070
    40
1040
20.0
1070
   143
1040
0.039
1070
   172
1070
     1
1070
   271
1070
     0
1070
   279
1070
     0
1070
   288
1070
     1
1002
}
  0
DIMENSION
  5
7E41
330
19
100
AcDbEntity
  8
3
100
AcDbDimension
  2
*D14
 10
-508.6766350000001
 20
-10.03096897635987
 30
0.0
 11
-658.676635
 21
39.96903102364012
 31
0.0
 70
    32
 71
     5
 42
299.9999999999998
  3
IGA
100
AcDbAlignedDimension
 13
-808.6766349999999
 23
-110.0830159999999
 33
0.0
 14
-508.6766350000001
 24
-146.318217
 34
0.0
100
AcDbRotatedDimension
1001
ACAD
1000
DSTYLE
1002
{
1070
    40
1040
20.0
1070
   143
1040
0.039
1070
   172
1070
     1
1070
   271
1070
     0
1070
   279
1070
     1
1070
   288
1070
     1
1002
}
  0
ENDSEC
  0
SECTION
  2
OBJECTS
  0
DICTIONARY
  5
C
330
0
100
AcDbDictionary
281
     1
  3
ACAD_GROUP
350
D
  3
ACAD_LAYOUT
350
7CC4
  3
ACAD_MLINESTYLE
350
E
  3
ACAD_PLOTSETTINGS
350
7CC5
  3
ACAD_PLOTSTYLENAME
350
7CC2
  3
AcDbVariableDictionary
350
7E28
  0
DICTIONARY
  5
7CF1
330
19
100
AcDbDictionary
280
     1
281
     1
  3
ACAD_LAYOUTSELFREF
360
7DAC
  0
DICTIONARY
  5
7CEF
330
16
100
AcDbDictionary
280
     1
281
     1
  3
ACAD_LAYOUTSELFREF
360
7DAB
  0
DICTIONARY
  5
D
102
{ACAD_REACTORS
330
C
102
}
330
0
100
AcDbDictionary
281
     1
  0
DICTIONARY
  5
7CC4
102
{ACAD_REACTORS
330
C
102
}
330
C
100
AcDbDictionary
281
     1
  3
Model
350
7CC6
  3
ﾚｲｱｳﾄ1
350
7CC7
  0
DICTIONARY
  5
E
102
{ACAD_REACTORS
330
C
102
}
330
0
100
AcDbDictionary
281
     1
  3
STANDARD
350
1C
  0
DICTIONARY
  5
7CC5
102
{ACAD_REACTORS
330
C
102
}
330
C
100
AcDbDictionary
281
     1
  0
ACDBDICTIONARYWDFLT
  5
7CC2
102
{ACAD_REACTORS
330
C
102
}
330
C
100
AcDbDictionary
281
     1
  3
Normal
350
7CC3
100
AcDbDictionaryWithDefault
340
7CC3
1001
ACAD
1000
TREAT_AS_HARD
1070
     0
1000
TREAT_AS_HARD
1070
     0
  0
DICTIONARY
  5
7E28
102
{ACAD_REACTORS
330
C
102
}
330
C
100
AcDbDictionary
281
     1
  3
DIMASSOC
350
7E29
  0
XRECORD
  5
7DAC
102
{ACAD_REACTORS
330
7CF1
102
}
330
7CF1
100
AcDbXrecord
280
     1
340
19
  0
XRECORD
  5
7DAB
102
{ACAD_REACTORS
330
7CEF
102
}
330
7CEF
100
AcDbXrecord
280
     1
340
16
  0
LAYOUT
  5
7CC6
102
{ACAD_REACTORS
330
7CC4
102
}
330
7CC4
100
AcDbPlotSettings
  1

  2
EPSON LP-9300
  4

  6

 40
0.0
 41
0.0
 42
0.0
 43
0.0
 44
0.0
 45
0.0
 46
0.0
 47
0.0
 48
0.0
 49
0.0
140
0.0
141
0.0
142
1.0
143
1.0
 70
  1712
 72
     0
 73
     0
 74
     0
  7

 75
     0
147
1.0
148
0.0
149
0.0
100
AcDbLayout
  1
Model
 70
     1
 71
     0
 10
0.0
 20
0.0
 11
12.0
 21
9.0
 12
0.0
 22
0.0
 32
0.0
 14
0.0
 24
0.0
 34
0.0
 15
0.0
 25
0.0
 35
0.0
146
0.0
 13
0.0
 23
0.0
 33
0.0
 16
1.0
 26
0.0
 36
0.0
 17
0.0
 27
1.0
 37
0.0
 76
     0
330
19
  0
LAYOUT
  5
7CC7
102
{ACAD_REACTORS
330
7CC4
102
}
330
7CC4
100
AcDbPlotSettings
  1

  2
EPSON LP-9300
  4

  6

 40
0.0
 41
0.0
 42
0.0
 43
0.0
 44
0.0
 45
0.0
 46
0.0
 47
0.0
 48
0.0
 49
0.0
140
0.0
141
0.0
142
1.0
143
1.0
 70
   688
 72
     0
 73
     0
 74
     5
  7

 75
    16
147
1.0
148
0.0
149
0.0
100
AcDbLayout
  1
ﾚｲｱｳﾄ1
 70
     1
 71
     1
 10
0.0
 20
0.0
 11
12.0
 21
9.0
 12
0.0
 22
0.0
 32
0.0
 14
1.000000000000000E+20
 24
1.000000000000000E+20
 34
1.000000000000000E+20
 15
-1.000000000000000E+20
 25
-1.000000000000000E+20
 35
-1.000000000000000E+20
146
0.0
 13
0.0
 23
0.0
 33
0.0
 16
1.0
 26
0.0
 36
0.0
 17
0.0
 27
1.0
 37
0.0
 76
     0
330
16
  0
MLINESTYLE
  5
1C
102
{ACAD_REACTORS
330
E
102
}
330
0
100
AcDbMlineStyle
  2
STANDARD
 70
     0
  3

 62
     0
 51
90.0
 52
90.0
 71
     2
 49
0.5
 62
   256
  6
BYLAYER
 49
-0.5
 62
   256
  6
BYLAYER
  0
ACDBPLACEHOLDER
  5
7CC3
102
{ACAD_REACTORS
330
7CC2
102
}
330
7CC2
  0
DICTIONARYVAR
  5
7E29
102
{ACAD_REACTORS
330
7E28
102
}
330
7E28
100
DictionaryVariables
280
     0
  1
1
  0
ENDSEC
  0
EOF
