  0
SECTION
  2
HEADER
  9
$ACADVER
  1
AC1015
  9
$ACADMAINTVER
 70
     6
  9
$DWGCODEPAGE
  3
ANSI_932
  9
$INSBASE
 10
0.0
 20
0.0
 30
0.0
  9
$EXTMIN
 10
500.0
 20
600.0
 30
0.0
  9
$EXTMAX
 10
3700.0
 20
5573.304523
 30
0.0
  9
$LIMMIN
 10
0.0
 20
0.0
  9
$LIMMAX
 10
297.0
 20
210.0
  9
$ORTHOMODE
 70
     1
  9
$REGENMODE
 70
     1
  9
$FILLMODE
 70
     0
  9
$QTEXTMODE
 70
     0
  9
$MIRRTEXT
 70
     1
  9
$LTSCALE
 40
5.0
  9
$ATTMODE
 70
     1
  9
$TEXTSIZE
 40
180.0
  9
$TRACEWID
 40
0.05
  9
$TEXTSTYLE
  7
STANDARD
  9
$CLAYER
  8
3
  9
$CELTYPE
  6
BYLAYER
  9
$CECOLOR
 62
   256
  9
$CELTSCALE
 40
1.0
  9
$DISPSILH
 70
     0
  9
$DIMSCALE
 40
20.0
  9
$DIMASZ
 40
2.0
  9
$DIMEXO
 40
0.5
  9
$DIMDLI
 40
10.0
  9
$DIMRND
 40
0.0
  9
$DIMDLE
 40
0.0
  9
$DIMEXE
 40
1.0
  9
$DIMTP
 40
1.0
  9
$DIMTM
 40
1.0
  9
$DIMTXT
 40
3.0
  9
$DIMCEN
 40
0.0
  9
$DIMTSZ
 40
0.0
  9
$DIMTOL
 70
     0
  9
$DIMLIM
 70
     0
  9
$DIMTIH
 70
     0
  9
$DIMTOH
 70
     0
  9
$DIMSE1
 70
     0
  9
$DIMSE2
 70
     0
  9
$DIMTAD
 70
     1
  9
$DIMZIN
 70
     8
  9
$DIMBLK
  1

  9
$DIMASO
 70
     1
  9
$DIMSHO
 70
     1
  9
$DIMPOST
  1

  9
$DIMAPOST
  1

  9
$DIMALT
 70
     0
  9
$DIMALTD
 70
     2
  9
$DIMALTF
 40
0.039
  9
$DIMLFAC
 40
1.0
  9
$DIMTOFL
 70
     1
  9
$DIMTVP
 40
0.0
  9
$DIMTIX
 70
     0
  9
$DIMSOXD
 70
     0
  9
$DIMSAH
 70
     1
  9
$DIMBLK1
  1
OPEN
  9
$DIMBLK2
  1
OPEN
  9
$DIMSTYLE
  2
IGA
  9
$DIMCLRD
 70
     0
  9
$DIMCLRE
 70
     0
  9
$DIMCLRT
 70
     0
  9
$DIMTFAC
 40
10.0
  9
$DIMGAP
 40
1.0
  9
$DIMJUST
 70
     0
  9
$DIMSD1
 70
     0
  9
$DIMSD2
 70
     0
  9
$DIMTOLJ
 70
     1
  9
$DIMTZIN
 70
     8
  9
$DIMALTZ
 70
     0
  9
$DIMALTTZ
 70
     0
  9
$DIMUPT
 70
     1
  9
$DIMDEC
 70
     0
  9
$DIMTDEC
 70
     0
  9
$DIMALTU
 70
     2
  9
$DIMALTTD
 70
     2
  9
$DIMTXSTY
  7
STANDARD
  9
$DIMAUNIT
 70
     0
  9
$DIMADEC
 70
     0
  9
$DIMALTRND
 40
0.0
  9
$DIMAZIN
 70
     0
  9
$DIMDSEP
 70
    46
  9
$DIMATFIT
 70
     3
  9
$DIMFRAC
 70
     0
  9
$DIMLDRBLK
  1
OPEN
  9
$DIMLUNIT
 70
     2
  9
$DIMLWD
 70
    -2
  9
$DIMLWE
 70
    -2
  9
$DIMTMOVE
 70
     0
  9
$LUNITS
 70
     2
  9
$LUPREC
 70
     3
  9
$SKETCHINC
 40
0.1
  9
$FILLETRAD
 40
50.0
  9
$AUNITS
 70
     0
  9
$AUPREC
 70
     0
  9
$MENU
  1
acad
  9
$ELEVATION
 40
0.0
  9
$PELEVATION
 40
0.0
  9
$THICKNESS
 40
0.0
  9
$LIMCHECK
 70
     0
  9
$CHAMFERA
 40
0.5
  9
$CHAMFERB
 40
0.5
  9
$CHAMFERC
 40
20.0
  9
$CHAMFERD
 40
0.0
  9
$SKPOLY
 70
     0
  9
$TDCREATE
 40
2450786.337611805
  9
$TDUCREATE
 40
2450785.962611805
  9
$TDUPDATE
 40
2456463.543962049
  9
$TDUUPDATE
 40
2456463.168962049
  9
$TDINDWG
 40
0.0165087384
  9
$TDUSRTIMER
 40
0.0165087384
  9
$USRTIMER
 70
     1
  9
$ANGBASE
 50
0.0
  9
$ANGDIR
 70
     0
  9
$PDMODE
 70
     0
  9
$PDSIZE
 40
0.0
  9
$PLINEWID
 40
0.0
  9
$SPLFRAME
 70
     0
  9
$SPLINETYPE
 70
     6
  9
$SPLINESEGS
 70
     8
  9
$HANDSEED
  5
80D0
  9
$SURFTAB1
 70
     6
  9
$SURFTAB2
 70
     6
  9
$SURFTYPE
 70
     6
  9
$SURFU
 70
     6
  9
$SURFV
 70
     6
  9
$UCSBASE
  2

  9
$UCSNAME
  2

  9
$UCSORG
 10
0.0
 20
0.0
 30
0.0
  9
$UCSXDIR
 10
1.0
 20
0.0
 30
0.0
  9
$UCSYDIR
 10
0.0
 20
1.0
 30
0.0
  9
$UCSORTHOREF
  2

  9
$UCSORTHOVIEW
 70
     0
  9
$UCSORGTOP
 10
0.0
 20
0.0
 30
0.0
  9
$UCSORGBOTTOM
 10
0.0
 20
0.0
 30
0.0
  9
$UCSORGLEFT
 10
0.0
 20
0.0
 30
0.0
  9
$UCSORGRIGHT
 10
0.0
 20
0.0
 30
0.0
  9
$UCSORGFRONT
 10
0.0
 20
0.0
 30
0.0
  9
$UCSORGBACK
 10
0.0
 20
0.0
 30
0.0
  9
$PUCSBASE
  2

  9
$PUCSNAME
  2

  9
$PUCSORG
 10
0.0
 20
0.0
 30
0.0
  9
$PUCSXDIR
 10
1.0
 20
0.0
 30
0.0
  9
$PUCSYDIR
 10
0.0
 20
1.0
 30
0.0
  9
$PUCSORTHOREF
  2

  9
$PUCSORTHOVIEW
 70
     0
  9
$PUCSORGTOP
 10
0.0
 20
0.0
 30
0.0
  9
$PUCSORGBOTTOM
 10
0.0
 20
0.0
 30
0.0
  9
$PUCSORGLEFT
 10
0.0
 20
0.0
 30
0.0
  9
$PUCSORGRIGHT
 10
0.0
 20
0.0
 30
0.0
  9
$PUCSORGFRONT
 10
0.0
 20
0.0
 30
0.0
  9
$PUCSORGBACK
 10
0.0
 20
0.0
 30
0.0
  9
$USERI1
 70
     0
  9
$USERI2
 70
     0
  9
$USERI3
 70
     0
  9
$USERI4
 70
     0
  9
$USERI5
 70
     0
  9
$USERR1
 40
0.0
  9
$USERR2
 40
0.0
  9
$USERR3
 40
0.0
  9
$USERR4
 40
0.0
  9
$USERR5
 40
0.0
  9
$WORLDVIEW
 70
     1
  9
$SHADEDGE
 70
     3
  9
$SHADEDIF
 70
    70
  9
$TILEMODE
 70
     1
  9
$MAXACTVP
 70
    16
  9
$PINSBASE
 10
0.0
 20
0.0
 30
0.0
  9
$PLIMCHECK
 70
     0
  9
$PEXTMIN
 10
1.000000000000000E+20
 20
1.000000000000000E+20
 30
1.000000000000000E+20
  9
$PEXTMAX
 10
-1.000000000000000E+20
 20
-1.000000000000000E+20
 30
-1.000000000000000E+20
  9
$PLIMMIN
 10
0.0
 20
0.0
  9
$PLIMMAX
 10
12.0
 20
9.0
  9
$UNITMODE
 70
     0
  9
$VISRETAIN
 70
     0
  9
$PLINEGEN
 70
     0
  9
$PSLTSCALE
 70
     1
  9
$TREEDEPTH
 70
  3020
  9
$CMLSTYLE
  2
STANDARD
  9
$CMLJUST
 70
     0
  9
$CMLSCALE
 40
20.0
  9
$PROXYGRAPHICS
 70
     1
  9
$MEASUREMENT
 70
     0
  9
$CELWEIGHT
370
    -1
  9
$ENDCAPS
280
     0
  9
$JOINSTYLE
280
     0
  9
$LWDISPLAY
290
     0
  9
$INSUNITS
 70
     0
  9
$HYPERLINKBASE
  1

  9
$STYLESHEET
  1

  9
$XEDIT
290
     1
  9
$CEPSNTYPE
380
     0
  9
$PSTYLEMODE
290
     1
  9
$FINGERPRINTGUID
  2
{A276ECC3-75B9-11D5-A85E-0080AD788799}
  9
$VERSIONGUID
  2
{88E07B6B-2220-4A2F-989E-E33AEF19C90F}
  9
$EXTNAMES
290
     1
  9
$PSVPSCALE
 40
0.0
  9
$OLESTARTUP
290
     0
  0
ENDSEC
  0
SECTION
  2
CLASSES
  0
CLASS
  1
ACDBDICTIONARYWDFLT
  2
AcDbDictionaryWithDefault
  3
AutoCAD 2000
 90
        0
280
     0
281
     0
  0
CLASS
  1
ACDBPLACEHOLDER
  2
AcDbPlaceHolder
  3
AutoCAD 2000
 90
        0
280
     0
281
     0
  0
CLASS
  1
LAYOUT
  2
AcDbLayout
  3
AutoCAD 2000
 90
        0
280
     0
281
     0
  0
CLASS
  1
LONG_TRANSACTION
  2
AcDbLongTransaction
  3
AutoCAD 2000
 90
    32768
280
     0
281
     0
  0
CLASS
  1
LWPOLYLINE
  2
AcDbPolyline
  3
AutoCAD 2000
 90
    32768
280
     0
281
     1
  0
CLASS
  1
HATCH
  2
AcDbHatch
  3
AutoCAD 2000
 90
    32768
280
     0
281
     1
  0
CLASS
  1
XRECORD
  2
AcDbXrecord
  3
AutoCAD 2000
 90
    32768
280
     0
281
     0
  0
CLASS
  1
DICTIONARYVAR
  2
AcDbDictionaryVar
  3
AutoCAD 2000
 90
        0
280
     0
281
     0
  0
CLASS
  1
LONG_TRANSACTION
  2
AcDbLongTransaction
  3
AutoCAD 2000
 90
    32768
280
     0
281
     0
  0
CLASS
  1
LWPOLYLINE
  2
AcDbPolyline
  3
AutoCAD 2000
 90
    32768
280
     0
281
     1
  0
CLASS
  1
HATCH
  2
AcDbHatch
  3
AutoCAD 2000
 90
    32768
280
     0
281
     1
  0
CLASS
  1
XRECORD
  2
AcDbXrecord
  3
AutoCAD 2000
 90
    32768
280
     0
281
     0
  0
ENDSEC
  0
SECTION
  2
TABLES
  0
TABLE
  2
VPORT
  5
8
330
0
100
AcDbSymbolTable
 70
     3
  0
VPORT
  5
80CF
330
8
100
AcDbSymbolTableRecord
100
AcDbViewportTableRecord
  2
*Active
 70
     0
 10
0.0
 20
0.0
 11
1.0
 21
1.0
 12
2670.237384373767
 22
3264.382914915333
 13
0.0
 23
0.0
 14
10.0
 24
10.0
 15
10.0
 25
10.0
 16
0.0
 26
0.0
 36
1.0
 17
0.0
 27
0.0
 37
0.0
 40
3953.180399045646
 41
1.73997233748271
 42
50.0
 43
0.0
 44
0.0
 50
0.0
 51
0.0
 71
     0
 72
   100
 73
     1
 74
     0
 75
     0
 76
     0
 77
     0
 78
     0
281
     0
 65
     1
110
0.0
120
0.0
130
0.0
111
1.0
121
0.0
131
0.0
112
0.0
122
1.0
132
0.0
 79
     0
146
0.0
  0
ENDTAB
  0
TABLE
  2
LTYPE
  5
5
330
0
100
AcDbSymbolTable
 70
     2
  0
LTYPE
  5
13
330
5
100
AcDbSymbolTableRecord
100
AcDbLinetypeTableRecord
  2
BYBLOCK
 70
     0
  3

 72
    65
 73
     0
 40
0.0
  0
LTYPE
  5
14
330
5
100
AcDbSymbolTableRecord
100
AcDbLinetypeTableRecord
  2
BYLAYER
 70
     0
  3

 72
    65
 73
     0
 40
0.0
  0
LTYPE
  5
15
330
5
100
AcDbSymbolTableRecord
100
AcDbLinetypeTableRecord
  2
CONTINUOUS
 70
     0
  3
Solid line
 72
    65
 73
     0
 40
0.0
  0
LTYPE
  5
1F
330
5
100
AcDbSymbolTableRecord
100
AcDbLinetypeTableRecord
  2
CENTER
 70
     0
  3
____ _ ____ _ ____ _ ____ _ ____ _ ____ _ ____ 
 72
    65
 73
     4
 40
2.0
 49
1.25
 74
     0
 49
-0.25
 74
     0
 49
0.25
 74
     0
 49
-0.25
 74
     0
  0
ENDTAB
  0
TABLE
  2
LAYER
  5
2
330
0
100
AcDbSymbolTable
 70
     6
  0
LAYER
  5
F
330
2
100
AcDbSymbolTableRecord
100
AcDbLayerTableRecord
  2
0
 70
     0
 62
     7
  6
CONTINUOUS
370
    -3
390
7F46
  0
LAYER
  5
31
330
2
100
AcDbSymbolTableRecord
100
AcDbLayerTableRecord
  2
3
 70
     0
 62
     2
  6
CONTINUOUS
370
    -3
390
7F46
  0
LAYER
  5
76D0
330
2
100
AcDbSymbolTableRecord
100
AcDbLayerTableRecord
  2
2
 70
     0
 62
     3
  6
CENTER
370
    -3
390
7F46
  0
LAYER
  5
76D1
330
2
100
AcDbSymbolTableRecord
100
AcDbLayerTableRecord
  2
1
 70
     0
 62
     4
  6
CONTINUOUS
370
    -3
390
7F46
  0
LAYER
  5
76D2
330
2
100
AcDbSymbolTableRecord
100
AcDbLayerTableRecord
  2
4
 70
     0
 62
     7
  6
CONTINUOUS
370
    -3
390
7F46
  0
LAYER
  5
7A9A
330
2
100
AcDbSymbolTableRecord
100
AcDbLayerTableRecord
  2
DEFPOINTS
 70
     0
 62
     7
  6
CONTINUOUS
290
     0
370
    -3
390
7F46
  0
ENDTAB
  0
TABLE
  2
STYLE
  5
3
330
0
100
AcDbSymbolTable
 70
     1
  0
STYLE
  5
10
330
3
100
AcDbSymbolTableRecord
100
AcDbTextStyleTableRecord
  2
STANDARD
 70
     0
 40
0.0
 41
1.0
 50
0.0
 71
     0
 42
180.0
  3
simplex.shx
  4
extfont.shx
  0
ENDTAB
  0
TABLE
  2
VIEW
  5
6
330
0
100
AcDbSymbolTable
 70
     0
  0
ENDTAB
  0
TABLE
  2
UCS
  5
7
330
0
100
AcDbSymbolTable
 70
     0
  0
ENDTAB
  0
TABLE
  2
APPID
  5
9
330
0
100
AcDbSymbolTable
 70
     1
  0
APPID
  5
11
330
9
100
AcDbSymbolTableRecord
100
AcDbRegAppTableRecord
  2
ACAD
 70
     0
  0
ENDTAB
  0
TABLE
  2
DIMSTYLE
  5
A
330
0
100
AcDbSymbolTable
 70
     1
100
AcDbDimStyleTable
 71
     1
340
1D
  0
DIMSTYLE
105
1D
102
{ACAD_REACTORS
330
7CAA
330
7CAB
330
7CAD
330
7CAE
330
7CAF
330
7CB0
330
7CB6
330
7CBB
330
7CBC
330
7EF8
330
7CBA
330
7CB9
330
80B4
330
80C1
102
}
330
A
100
AcDbSymbolTableRecord
100
AcDbDimStyleTableRecord
  2
IGA
 70
     0
 40
2.0
 41
2.0
 42
0.5
 43
10.0
 44
1.0
 47
1.0
 48
1.0
 73
     0
 74
     0
 77
     1
 78
     8
140
3.0
141
0.0
143
0.03937
146
10.0
147
1.0
173
     1
271
     1
272
     0
279
     2
284
     8
340
10
341
7A8C
343
7A8C
344
7A8C
  0
ENDTAB
  0
TABLE
  2
BLOCK_RECORD
  5
1
330
0
100
AcDbSymbolTable
 70
    15
  0
BLOCK_RECORD
  5
19
102
{ACAD_XDICTIONARY
360
7F74
102
}
330
1
100
AcDbSymbolTableRecord
100
AcDbBlockTableRecord
  2
*MODEL_SPACE
340
7F49
  0
BLOCK_RECORD
  5
16
102
{ACAD_XDICTIONARY
360
7F72
102
}
330
1
100
AcDbSymbolTableRecord
100
AcDbBlockTableRecord
  2
*PAPER_SPACE
340
7F4A
  0
BLOCK_RECORD
  5
7A8C
330
1
100
AcDbSymbolTableRecord
100
AcDbBlockTableRecord
  2
_OPEN
340
0
102
{BLKREFS
331
803F
331
8040
331
8048
331
8049
331
8051
331
8052
331
805A
331
805B
331
8063
331
8064
331
806C
331
806D
331
8075
331
8076
331
807E
331
807F
331
8087
331
8088
331
808F
331
8090
331
8098
331
8099
331
80A1
331
80A2
331
80B9
331
80BA
331
80C6
331
80C7
102
}
  0
BLOCK_RECORD
  5
7CD7
330
1
100
AcDbSymbolTableRecord
100
AcDbBlockTableRecord
  2
*D1
340
0
  0
BLOCK_RECORD
  5
7CE3
330
1
100
AcDbSymbolTableRecord
100
AcDbBlockTableRecord
  2
*D2
340
0
  0
BLOCK_RECORD
  5
7CEF
330
1
100
AcDbSymbolTableRecord
100
AcDbBlockTableRecord
  2
*D3
340
0
  0
BLOCK_RECORD
  5
7CFB
330
1
100
AcDbSymbolTableRecord
100
AcDbBlockTableRecord
  2
*D4
340
0
  0
BLOCK_RECORD
  5
7D07
330
1
100
AcDbSymbolTableRecord
100
AcDbBlockTableRecord
  2
*D5
340
0
  0
BLOCK_RECORD
  5
7D13
330
1
100
AcDbSymbolTableRecord
100
AcDbBlockTableRecord
  2
*D6
340
0
  0
BLOCK_RECORD
  5
7D1F
330
1
100
AcDbSymbolTableRecord
100
AcDbBlockTableRecord
  2
*D7
340
0
  0
BLOCK_RECORD
  5
7D2B
330
1
100
AcDbSymbolTableRecord
100
AcDbBlockTableRecord
  2
*D8
340
0
  0
BLOCK_RECORD
  5
7D37
330
1
100
AcDbSymbolTableRecord
100
AcDbBlockTableRecord
  2
*D9
340
0
  0
BLOCK_RECORD
  5
7D42
330
1
100
AcDbSymbolTableRecord
100
AcDbBlockTableRecord
  2
*D10
340
0
  0
BLOCK_RECORD
  5
7D50
330
1
100
AcDbSymbolTableRecord
100
AcDbBlockTableRecord
  2
*D11
340
0
  0
BLOCK_RECORD
  5
7EEC
330
1
100
AcDbSymbolTableRecord
100
AcDbBlockTableRecord
  2
*D12
340
0
  0
BLOCK_RECORD
  5
80B5
330
1
100
AcDbSymbolTableRecord
100
AcDbBlockTableRecord
  2
*D13
340
0
  0
BLOCK_RECORD
  5
80C2
330
1
100
AcDbSymbolTableRecord
100
AcDbBlockTableRecord
  2
*D14
340
0
  0
ENDTAB
  0
ENDSEC
  0
SECTION
  2
BLOCKS
  0
BLOCK
  5
1A
330
19
100
AcDbEntity
  8
0
100
AcDbBlockBegin
  2
*MODEL_SPACE
 70
     0
 10
0.0
 20
0.0
 30
0.0
  3
*MODEL_SPACE
  1

  0
ENDBLK
  5
1B
330
19
100
AcDbEntity
  8
0
100
AcDbBlockEnd
  0
BLOCK
  5
17
330
16
100
AcDbEntity
 67
     1
  8
0
100
AcDbBlockBegin
  2
*PAPER_SPACE
 70
     0
 10
0.0
 20
0.0
 30
0.0
  3
*PAPER_SPACE
  1

  0
ENDBLK
  5
18
330
16
100
AcDbEntity
 67
     1
  8
0
100
AcDbBlockEnd
  0
BLOCK
  5
7A8D
330
7A8C
100
AcDbEntity
  8
0
100
AcDbBlockBegin
  2
_OPEN
 70
     0
 10
0.0
 20
0.0
 30
0.0
  3
_OPEN
  1

  0
LINE
  5
7A8E
330
7A8C
100
AcDbEntity
  8
0
  6
ByBlock
 62
     0
100
AcDbLine
 10
-1.0
 20
0.166667
 30
0.0
 11
0.0
 21
0.0
 31
0.0
  0
LINE
  5
7A8F
330
7A8C
100
AcDbEntity
  8
0
  6
ByBlock
 62
     0
100
AcDbLine
 10
0.0
 20
0.0
 30
0.0
 11
-1.0
 21
-0.166667
 31
0.0
  0
LINE
  5
7A90
330
7A8C
100
AcDbEntity
  8
0
  6
ByBlock
 62
     0
100
AcDbLine
 10
0.0
 20
0.0
 30
0.0
 11
-1.0
 21
0.0
 31
0.0
  0
ENDBLK
  5
7A91
330
7A8C
100
AcDbEntity
  8
0
100
AcDbBlockEnd
  0
BLOCK
  5
7EFE
330
7CD7
100
AcDbEntity
  8
0
100
AcDbBlockBegin
  2
*D1
 70
     1
 10
0.0
 20
0.0
 30
0.0
  3
*D1
  1

  0
LINE
  5
803C
330
7CD7
100
AcDbEntity
  8
3
  6
Continuous
 62
     0
100
AcDbLine
 10
1935.23517208373
 20
1957.448080778258
 30
0.0
 11
1935.23517208373
 21
1795.435152778258
 31
0.0
  0
LINE
  5
803D
330
7CD7
100
AcDbEntity
  8
3
  6
Continuous
 62
     0
100
AcDbLine
 10
965.2351720837305
 20
1957.448080778258
 30
0.0
 11
965.2351720837305
 21
1795.435152778258
 31
0.0
  0
LINE
  5
803E
330
7CD7
100
AcDbEntity
  8
3
  6
Continuous
 62
     0
100
AcDbLine
 10
1895.23517208373
 20
1815.435152778258
 30
0.0
 11
1005.23517208373
 21
1815.435152778258
 31
0.0
  0
INSERT
  5
803F
330
7CD7
100
AcDbEntity
  8
3
  6
Continuous
 62
     0
100
AcDbBlockReference
  2
_OPEN
 10
1935.23517208373
 20
1815.435152778258
 30
0.0
 41
40.0
 42
40.0
 43
40.0
  0
INSERT
  5
8040
330
7CD7
100
AcDbEntity
  8
3
  6
Continuous
 62
     0
100
AcDbBlockReference
  2
_OPEN
 10
965.2351720837305
 20
1815.435152778258
 30
0.0
 41
40.0
 42
40.0
 43
40.0
 50
180.0
  0
MTEXT
  5
8041
330
7CD7
100
AcDbEntity
  8
3
  6
Continuous
 62
     0
100
AcDbMText
 10
1457.45922508373
 20
1865.435152778258
 30
0.0
 40
60.0
 41
0.0
 71
     5
 72
     5
  1
\A1;970
 73
     1
 44
1.0
  0
POINT
  5
8042
330
7CD7
100
AcDbEntity
  8
DEFPOINTS
  6
Continuous
 62
     0
100
AcDbPoint
 10
1935.23517208373
 20
1967.448080778258
 30
0.0
  0
POINT
  5
8043
330
7CD7
100
AcDbEntity
  8
DEFPOINTS
  6
Continuous
 62
     0
100
AcDbPoint
 10
965.2351720837305
 20
1967.448080778258
 30
0.0
  0
POINT
  5
8044
330
7CD7
100
AcDbEntity
  8
DEFPOINTS
  6
Continuous
 62
     0
100
AcDbPoint
 10
965.2351720837305
 20
1815.435152778258
 30
0.0
  0
ENDBLK
  5
7F08
330
7CD7
100
AcDbEntity
  8
0
100
AcDbBlockEnd
  0
BLOCK
  5
7F14
330
7CE3
100
AcDbEntity
  8
0
100
AcDbBlockBegin
  2
*D2
 70
     1
 10
0.0
 20
0.0
 30
0.0
  3
*D2
  1

  0
LINE
  5
8045
330
7CE3
100
AcDbEntity
  8
3
  6
Continuous
 62
     0
100
AcDbLine
 10
1855.23517208373
 20
2642.448080778258
 30
0.0
 11
2206.065978532348
 21
2642.448080778258
 31
0.0
  0
LINE
  5
8046
330
7CE3
100
AcDbEntity
  8
3
  6
Continuous
 62
     0
100
AcDbLine
 10
1945.23517208373
 20
1967.448080778258
 30
0.0
 11
2206.065978532348
 21
1967.448080778258
 31
0.0
  0
LINE
  5
8047
330
7CE3
100
AcDbEntity
  8
3
  6
Continuous
 62
     0
100
AcDbLine
 10
2186.065978532348
 20
2602.448080778258
 30
0.0
 11
2186.065978532348
 21
2007.448080778258
 31
0.0
  0
INSERT
  5
8048
330
7CE3
100
AcDbEntity
  8
3
  6
Continuous
 62
     0
100
AcDbBlockReference
  2
_OPEN
 10
2186.065978532348
 20
2642.448080778258
 30
0.0
 41
40.0
 42
40.0
 43
40.0
 50
90.0
  0
INSERT
  5
8049
330
7CE3
100
AcDbEntity
  8
3
  6
Continuous
 62
     0
100
AcDbBlockReference
  2
_OPEN
 10
2186.065978532348
 20
1967.448080778258
 30
0.0
 41
40.0
 42
40.0
 43
40.0
 50
270.0
  0
MTEXT
  5
804A
330
7CE3
100
AcDbEntity
  8
3
  6
Continuous
 62
     0
100
AcDbMText
 10
2136.065978532347
 20
2305.653868778259
 30
0.0
 40
60.0
 41
0.0
 71
     5
 72
     5
  1
\A1;675
 11
0.0000000000000001
 21
1.0
 31
0.0
 73
     1
 44
1.0
  0
POINT
  5
804B
330
7CE3
100
AcDbEntity
  8
DEFPOINTS
  6
Continuous
 62
     0
100
AcDbPoint
 10
1845.23517208373
 20
2642.448080778258
 30
0.0
  0
POINT
  5
804C
330
7CE3
100
AcDbEntity
  8
DEFPOINTS
  6
Continuous
 62
     0
100
AcDbPoint
 10
1935.23517208373
 20
1967.448080778258
 30
0.0
  0
POINT
  5
804D
330
7CE3
100
AcDbEntity
  8
DEFPOINTS
  6
Continuous
 62
     0
100
AcDbPoint
 10
2186.065978532348
 20
1967.448080778258
 30
0.0
  0
ENDBLK
  5
7F1E
330
7CE3
100
AcDbEntity
  8
0
100
AcDbBlockEnd
  0
BLOCK
  5
7F2A
330
7CEF
100
AcDbEntity
  8
0
100
AcDbBlockBegin
  2
*D3
 70
     1
 10
0.0
 20
0.0
 30
0.0
  3
*D3
  1

  0
LINE
  5
804E
330
7CEF
100
AcDbEntity
  8
3
  6
Continuous
 62
     0
100
AcDbLine
 10
948.16108908373
 20
2302.448080778258
 30
0.0
 11
771.0047550837302
 21
2302.448080778258
 31
0.0
  0
LINE
  5
804F
330
7CEF
100
AcDbEntity
  8
3
  6
Continuous
 62
     0
100
AcDbLine
 10
955.2351720837306
 20
1967.448080778258
 30
0.0
 11
771.0047550837302
 21
1967.448080778258
 31
0.0
  0
LINE
  5
8050
330
7CEF
100
AcDbEntity
  8
3
  6
Continuous
 62
     0
100
AcDbLine
 10
791.0047550837301
 20
2262.448080778258
 30
0.0
 11
791.0047550837301
 21
2007.448080778258
 31
0.0
  0
INSERT
  5
8051
330
7CEF
100
AcDbEntity
  8
3
  6
Continuous
 62
     0
100
AcDbBlockReference
  2
_OPEN
 10
791.0047550837301
 20
2302.448080778258
 30
0.0
 41
40.0
 42
40.0
 43
40.0
 50
90.0
  0
INSERT
  5
8052
330
7CEF
100
AcDbEntity
  8
3
  6
Continuous
 62
     0
100
AcDbBlockReference
  2
_OPEN
 10
791.0047550837301
 20
1967.448080778258
 30
0.0
 41
40.0
 42
40.0
 43
40.0
 50
270.0
  0
MTEXT
  5
8053
330
7CEF
100
AcDbEntity
  8
3
  6
Continuous
 62
     0
100
AcDbMText
 10
741.0047550837298
 20
2165.305223635401
 30
0.0
 40
60.0
 41
0.0
 71
     5
 72
     5
  1
\A1;335
 11
0.0000000000000001
 21
1.0
 31
0.0
 73
     1
 44
1.0
  0
POINT
  5
8054
330
7CEF
100
AcDbEntity
  8
DEFPOINTS
  6
Continuous
 62
     0
100
AcDbPoint
 10
958.16108908373
 20
2302.448080778258
 30
0.0
  0
POINT
  5
8055
330
7CEF
100
AcDbEntity
  8
DEFPOINTS
  6
Continuous
 62
     0
100
AcDbPoint
 10
965.2351720837305
 20
1967.448080778258
 30
0.0
  0
POINT
  5
8056
330
7CEF
100
AcDbEntity
  8
DEFPOINTS
  6
Continuous
 62
     0
100
AcDbPoint
 10
791.0047550837301
 20
1967.448080778258
 30
0.0
  0
ENDBLK
  5
7F34
330
7CEF
100
AcDbEntity
  8
0
100
AcDbBlockEnd
  0
BLOCK
  5
7F09
330
7CFB
100
AcDbEntity
  8
0
100
AcDbBlockBegin
  2
*D4
 70
     1
 10
0.0
 20
0.0
 30
0.0
  3
*D4
  1

  0
LINE
  5
8057
330
7CFB
100
AcDbEntity
  8
3
  6
Continuous
 62
     0
100
AcDbLine
 10
1845.23517208373
 20
2652.448080778258
 30
0.0
 11
1845.23517208373
 21
2798.074844778258
 31
0.0
  0
LINE
  5
8058
330
7CFB
100
AcDbEntity
  8
3
  6
Continuous
 62
     0
100
AcDbLine
 10
1055.23517208373
 20
2652.448080778258
 30
0.0
 11
1055.23517208373
 21
2798.074844778258
 31
0.0
  0
LINE
  5
8059
330
7CFB
100
AcDbEntity
  8
3
  6
Continuous
 62
     0
100
AcDbLine
 10
1805.23517208373
 20
2778.074844778258
 30
0.0
 11
1095.23517208373
 21
2778.074844778258
 31
0.0
  0
INSERT
  5
805A
330
7CFB
100
AcDbEntity
  8
3
  6
Continuous
 62
     0
100
AcDbBlockReference
  2
_OPEN
 10
1845.23517208373
 20
2778.074844778258
 30
0.0
 41
40.0
 42
40.0
 43
40.0
  0
INSERT
  5
805B
330
7CFB
100
AcDbEntity
  8
3
  6
Continuous
 62
     0
100
AcDbBlockReference
  2
_OPEN
 10
1055.23517208373
 20
2778.074844778258
 30
0.0
 41
40.0
 42
40.0
 43
40.0
 50
180.0
  0
MTEXT
  5
805C
330
7CFB
100
AcDbEntity
  8
3
  6
Continuous
 62
     0
100
AcDbMText
 10
1466.14268808373
 20
2828.074844778258
 30
0.0
 40
60.0
 41
0.0
 71
     5
 72
     5
  1
\A1;790
 73
     1
 44
1.0
  0
POINT
  5
805D
330
7CFB
100
AcDbEntity
  8
DEFPOINTS
  6
Continuous
 62
     0
100
AcDbPoint
 10
1845.23517208373
 20
2642.448080778258
 30
0.0
  0
POINT
  5
805E
330
7CFB
100
AcDbEntity
  8
DEFPOINTS
  6
Continuous
 62
     0
100
AcDbPoint
 10
1055.23517208373
 20
2642.448080778258
 30
0.0
  0
POINT
  5
805F
330
7CFB
100
AcDbEntity
  8
DEFPOINTS
  6
Continuous
 62
     0
100
AcDbPoint
 10
1055.23517208373
 20
2778.074844778258
 30
0.0
  0
ENDBLK
  5
7F13
330
7CFB
100
AcDbEntity
  8
0
100
AcDbBlockEnd
  0
BLOCK
  5
7E80
330
7D07
100
AcDbEntity
  8
0
100
AcDbBlockBegin
  2
*D5
 70
     1
 10
0.0
 20
0.0
 30
0.0
  3
*D5
  1

  0
LINE
  5
8060
330
7D07
100
AcDbEntity
  8
3
  6
Continuous
 62
     0
100
AcDbLine
 10
1050.247855621039
 20
3430.789386778258
 30
0.0
 11
1050.247855621039
 21
3231.168638778258
 31
0.0
  0
LINE
  5
8061
330
7D07
100
AcDbEntity
  8
3
  6
Continuous
 62
     0
100
AcDbLine
 10
1840.24785562104
 20
3430.789386778258
 30
0.0
 11
1840.24785562104
 21
3231.168638778258
 31
0.0
  0
LINE
  5
8062
330
7D07
100
AcDbEntity
  8
3
  6
Continuous
 62
     0
100
AcDbLine
 10
1090.247855621039
 20
3251.168638778258
 30
0.0
 11
1800.247855621039
 21
3251.168638778258
 31
0.0
  0
INSERT
  5
8063
330
7D07
100
AcDbEntity
  8
3
  6
Continuous
 62
     0
100
AcDbBlockReference
  2
_OPEN
 10
1050.247855621039
 20
3251.168638778258
 30
0.0
 41
40.0
 42
40.0
 43
40.0
 50
180.0
  0
INSERT
  5
8064
330
7D07
100
AcDbEntity
  8
3
  6
Continuous
 62
     0
100
AcDbBlockReference
  2
_OPEN
 10
1840.24785562104
 20
3251.168638778258
 30
0.0
 41
40.0
 42
40.0
 43
40.0
  0
MTEXT
  5
8065
330
7D07
100
AcDbEntity
  8
3
  6
Continuous
 62
     0
100
AcDbMText
 10
1450.98616462104
 20
3301.168638778258
 30
0.0
 40
60.0
 41
0.0
 71
     5
 72
     5
  1
\A1;790
 73
     1
 44
1.0
  0
POINT
  5
8066
330
7D07
100
AcDbEntity
  8
DEFPOINTS
  6
Continuous
 62
     0
100
AcDbPoint
 10
1050.247855621039
 20
3440.789386778258
 30
0.0
  0
POINT
  5
8067
330
7D07
100
AcDbEntity
  8
DEFPOINTS
  6
Continuous
 62
     0
100
AcDbPoint
 10
1840.24785562104
 20
3440.789386778258
 30
0.0
  0
POINT
  5
8068
330
7D07
100
AcDbEntity
  8
DEFPOINTS
  6
Continuous
 62
     0
100
AcDbPoint
 10
1840.24785562104
 20
3251.168638778258
 30
0.0
  0
ENDBLK
  5
7E8A
330
7D07
100
AcDbEntity
  8
0
100
AcDbBlockEnd
  0
BLOCK
  5
7E8B
330
7D13
100
AcDbEntity
  8
0
100
AcDbBlockBegin
  2
*D6
 70
     1
 10
0.0
 20
0.0
 30
0.0
  3
*D6
  1

  0
LINE
  5
8069
330
7D13
100
AcDbEntity
  8
3
  6
Continuous
 62
     0
100
AcDbLine
 10
1940.24785562104
 20
4040.789386778259
 30
0.0
 11
2101.39031562104
 21
4040.789386778259
 31
0.0
  0
LINE
  5
806A
330
7D13
100
AcDbEntity
  8
3
  6
Continuous
 62
     0
100
AcDbLine
 10
1940.24785562104
 20
3440.789386778258
 30
0.0
 11
2101.39031562104
 21
3440.789386778258
 31
0.0
  0
LINE
  5
806B
330
7D13
100
AcDbEntity
  8
3
  6
Continuous
 62
     0
100
AcDbLine
 10
2081.39031562104
 20
4000.789386778258
 30
0.0
 11
2081.39031562104
 21
3480.789386778258
 31
0.0
  0
INSERT
  5
806C
330
7D13
100
AcDbEntity
  8
3
  6
Continuous
 62
     0
100
AcDbBlockReference
  2
_OPEN
 10
2081.39031562104
 20
4040.789386778259
 30
0.0
 41
40.0
 42
40.0
 43
40.0
 50
90.0
  0
INSERT
  5
806D
330
7D13
100
AcDbEntity
  8
3
  6
Continuous
 62
     0
100
AcDbBlockReference
  2
_OPEN
 10
2081.39031562104
 20
3440.789386778258
 30
0.0
 41
40.0
 42
40.0
 43
40.0
 50
270.0
  0
MTEXT
  5
806E
330
7D13
100
AcDbEntity
  8
3
  6
Continuous
 62
     0
100
AcDbMText
 10
2031.390315621039
 20
3752.883623778258
 30
0.0
 40
60.0
 41
0.0
 71
     5
 72
     5
  1
\A1;600
 11
0.0000000000000001
 21
1.0
 31
0.0
 73
     1
 44
1.0
  0
POINT
  5
806F
330
7D13
100
AcDbEntity
  8
DEFPOINTS
  6
Continuous
 62
     0
100
AcDbPoint
 10
1930.24785562104
 20
4040.789386778259
 30
0.0
  0
POINT
  5
8070
330
7D13
100
AcDbEntity
  8
DEFPOINTS
  6
Continuous
 62
     0
100
AcDbPoint
 10
1930.24785562104
 20
3440.789386778258
 30
0.0
  0
POINT
  5
8071
330
7D13
100
AcDbEntity
  8
DEFPOINTS
  6
Continuous
 62
     0
100
AcDbPoint
 10
2081.39031562104
 20
3440.789386778258
 30
0.0
  0
ENDBLK
  5
7E95
330
7D13
100
AcDbEntity
  8
0
100
AcDbBlockEnd
  0
BLOCK
  5
7E96
330
7D1F
100
AcDbEntity
  8
0
100
AcDbBlockBegin
  2
*D7
 70
     1
 10
0.0
 20
0.0
 30
0.0
  3
*D7
  1

  0
LINE
  5
8072
330
7D1F
100
AcDbEntity
  8
3
  6
Continuous
 62
     0
100
AcDbLine
 10
2687.09134662104
 20
1957.448080778258
 30
0.0
 11
2687.09134662104
 21
1761.768767778258
 31
0.0
  0
LINE
  5
8073
330
7D1F
100
AcDbEntity
  8
3
  6
Continuous
 62
     0
100
AcDbLine
 10
3287.09134662104
 20
1957.448080778258
 30
0.0
 11
3287.09134662104
 21
1761.768767778258
 31
0.0
  0
LINE
  5
8074
330
7D1F
100
AcDbEntity
  8
3
  6
Continuous
 62
     0
100
AcDbLine
 10
2727.09134662104
 20
1781.768767778258
 30
0.0
 11
3247.09134662104
 21
1781.768767778258
 31
0.0
  0
INSERT
  5
8075
330
7D1F
100
AcDbEntity
  8
3
  6
Continuous
 62
     0
100
AcDbBlockReference
  2
_OPEN
 10
2687.09134662104
 20
1781.768767778258
 30
0.0
 41
40.0
 42
40.0
 43
40.0
 50
180.0
  0
INSERT
  5
8076
330
7D1F
100
AcDbEntity
  8
3
  6
Continuous
 62
     0
100
AcDbBlockReference
  2
_OPEN
 10
3287.09134662104
 20
1781.768767778258
 30
0.0
 41
40.0
 42
40.0
 43
40.0
  0
MTEXT
  5
8077
330
7D1F
100
AcDbEntity
  8
3
  6
Continuous
 62
     0
100
AcDbMText
 10
3001.84055862104
 20
1831.768767778258
 30
0.0
 40
60.0
 41
0.0
 71
     5
 72
     5
  1
\A1;600
 73
     1
 44
1.0
  0
POINT
  5
8078
330
7D1F
100
AcDbEntity
  8
DEFPOINTS
  6
Continuous
 62
     0
100
AcDbPoint
 10
2687.09134662104
 20
1967.448080778258
 30
0.0
  0
POINT
  5
8079
330
7D1F
100
AcDbEntity
  8
DEFPOINTS
  6
Continuous
 62
     0
100
AcDbPoint
 10
3287.09134662104
 20
1967.448080778258
 30
0.0
  0
POINT
  5
807A
330
7D1F
100
AcDbEntity
  8
DEFPOINTS
  6
Continuous
 62
     0
100
AcDbPoint
 10
3287.09134662104
 20
1781.768767778258
 30
0.0
  0
ENDBLK
  5
7EA0
330
7D1F
100
AcDbEntity
  8
0
100
AcDbBlockEnd
  0
BLOCK
  5
7EA1
330
7D2B
100
AcDbEntity
  8
0
100
AcDbBlockBegin
  2
*D8
 70
     1
 10
0.0
 20
0.0
 30
0.0
  3
*D8
  1

  0
LINE
  5
807B
330
7D2B
100
AcDbEntity
  8
3
  6
Continuous
 62
     0
100
AcDbLine
 10
2672.09134662104
 20
2652.448080778258
 30
0.0
 11
2672.09134662104
 21
2796.931966778258
 31
0.0
  0
LINE
  5
807C
330
7D2B
100
AcDbEntity
  8
3
  6
Continuous
 62
     0
100
AcDbLine
 10
2987.09134662104
 20
2683.683281778258
 30
0.0
 11
2987.09134662104
 21
2796.931966778258
 31
0.0
  0
LINE
  5
807D
330
7D2B
100
AcDbEntity
  8
3
  6
Continuous
 62
     0
100
AcDbLine
 10
2712.09134662104
 20
2776.931966778258
 30
0.0
 11
2947.09134662104
 21
2776.931966778258
 31
0.0
  0
INSERT
  5
807E
330
7D2B
100
AcDbEntity
  8
3
  6
Continuous
 62
     0
100
AcDbBlockReference
  2
_OPEN
 10
2672.09134662104
 20
2776.931966778258
 30
0.0
 41
40.0
 42
40.0
 43
40.0
 50
180.0
  0
INSERT
  5
807F
330
7D2B
100
AcDbEntity
  8
3
  6
Continuous
 62
     0
100
AcDbBlockReference
  2
_OPEN
 10
2987.09134662104
 20
2776.931966778258
 30
0.0
 41
40.0
 42
40.0
 43
40.0
  0
MTEXT
  5
8080
330
7D2B
100
AcDbEntity
  8
3
  6
Continuous
 62
     0
100
AcDbMText
 10
2855.662775192469
 20
2826.931966778258
 30
0.0
 40
60.0
 41
0.0
 71
     5
 72
     5
  1
\A1;315
 73
     1
 44
1.0
  0
POINT
  5
8081
330
7D2B
100
AcDbEntity
  8
DEFPOINTS
  6
Continuous
 62
     0
100
AcDbPoint
 10
2672.09134662104
 20
2642.448080778258
 30
0.0
  0
POINT
  5
8082
330
7D2B
100
AcDbEntity
  8
DEFPOINTS
  6
Continuous
 62
     0
100
AcDbPoint
 10
2987.09134662104
 20
2673.683281778258
 30
0.0
  0
POINT
  5
8083
330
7D2B
100
AcDbEntity
  8
DEFPOINTS
  6
Continuous
 62
     0
100
AcDbPoint
 10
2987.09134662104
 20
2776.931966778258
 30
0.0
  0
ENDBLK
  5
7EAB
330
7D2B
100
AcDbEntity
  8
0
100
AcDbBlockEnd
  0
BLOCK
  5
7EAC
330
7D37
100
AcDbEntity
  8
0
100
AcDbBlockBegin
  2
*D9
 70
     1
 10
0.0
 20
0.0
 30
0.0
  3
*D9
  1

  0
LINE
  5
8084
330
7D37
100
AcDbEntity
  8
3
  6
Continuous
 62
     0
100
AcDbLine
 10
3302.09134662104
 20
2652.448080778258
 30
0.0
 11
3302.09134662104
 21
2796.931966778258
 31
0.0
  0
LINE
  5
8085
330
7D37
100
AcDbEntity
  8
3
  6
Continuous
 62
     0
100
AcDbLine
 10
3027.09134662104
 20
2776.931966778258
 30
0.0
 11
3262.09134662104
 21
2776.931966778258
 31
0.0
  0
MTEXT
  5
8086
330
7D37
100
AcDbEntity
  8
3
  6
Continuous
 62
     0
100
AcDbMText
 10
3165.27638762104
 20
2830.399750778258
 30
0.0
 40
60.0
 41
0.0
 71
     5
 72
     5
  1
\A1;315
 73
     1
 44
1.0
  0
INSERT
  5
8087
330
7D37
100
AcDbEntity
  8
3
  6
Continuous
 62
     0
100
AcDbBlockReference
  2
_OPEN
 10
2987.09134662104
 20
2776.931966778258
 30
0.0
 41
40.0
 42
40.0
 43
40.0
 50
180.0
  0
INSERT
  5
8088
330
7D37
100
AcDbEntity
  8
3
  6
Continuous
 62
     0
100
AcDbBlockReference
  2
_OPEN
 10
3302.09134662104
 20
2776.931966778258
 30
0.0
 41
40.0
 42
40.0
 43
40.0
  0
POINT
  5
8089
330
7D37
100
AcDbEntity
  8
DEFPOINTS
  6
Continuous
 62
     0
100
AcDbPoint
 10
2987.09134662104
 20
2673.683281778258
 30
0.0
  0
POINT
  5
808A
330
7D37
100
AcDbEntity
  8
DEFPOINTS
  6
Continuous
 62
     0
100
AcDbPoint
 10
3302.09134662104
 20
2642.448080778258
 30
0.0
  0
POINT
  5
808B
330
7D37
100
AcDbEntity
  8
DEFPOINTS
  6
Continuous
 62
     0
100
AcDbPoint
 10
3302.09134662104
 20
2776.931966778258
 30
0.0
  0
ENDBLK
  5
7EB5
330
7D37
100
AcDbEntity
  8
0
100
AcDbBlockEnd
  0
BLOCK
  5
7EB6
330
7D42
100
AcDbEntity
  8
0
100
AcDbBlockBegin
  2
*D10
 70
     1
 10
0.0
 20
0.0
 30
0.0
  3
*D10
  1

  0
LINE
  5
808C
330
7D42
100
AcDbEntity
  8
3
  6
Continuous
 62
     0
100
AcDbLine
 10
2882.09134662104
 20
2452.448080778258
 30
0.0
 11
2882.09134662104
 21
2548.113620778258
 31
0.0
  0
LINE
  5
808D
330
7D42
100
AcDbEntity
  8
3
  6
Continuous
 62
     0
100
AcDbLine
 10
3092.09134662104
 20
2452.448080778258
 30
0.0
 11
3092.09134662104
 21
2548.113620778258
 31
0.0
  0
LINE
  5
808E
330
7D42
100
AcDbEntity
  8
3
  6
Continuous
 62
     0
100
AcDbLine
 10
2922.09134662104
 20
2528.113620778258
 30
0.0
 11
3052.09134662104
 21
2528.113620778258
 31
0.0
  0
INSERT
  5
808F
330
7D42
100
AcDbEntity
  8
3
  6
Continuous
 62
     0
100
AcDbBlockReference
  2
_OPEN
 10
2882.09134662104
 20
2528.113620778258
 30
0.0
 41
40.0
 42
40.0
 43
40.0
 50
180.0
  0
INSERT
  5
8090
330
7D42
100
AcDbEntity
  8
3
  6
Continuous
 62
     0
100
AcDbBlockReference
  2
_OPEN
 10
3092.09134662104
 20
2528.113620778258
 30
0.0
 41
40.0
 42
40.0
 43
40.0
  0
MTEXT
  5
8091
330
7D42
100
AcDbEntity
  8
3
  6
Continuous
 62
     0
100
AcDbMText
 10
2987.09134662104
 20
2578.113620778258
 30
0.0
 40
60.0
 41
0.0
 71
     5
 72
     5
  1
\A1;210
 73
     1
 44
1.0
  0
POINT
  5
8092
330
7D42
100
AcDbEntity
  8
DEFPOINTS
  6
Continuous
 62
     0
100
AcDbPoint
 10
2882.09134662104
 20
2442.448080778258
 30
0.0
  0
POINT
  5
8093
330
7D42
100
AcDbEntity
  8
DEFPOINTS
  6
Continuous
 62
     0
100
AcDbPoint
 10
3092.09134662104
 20
2442.448080778258
 30
0.0
  0
POINT
  5
8094
330
7D42
100
AcDbEntity
  8
DEFPOINTS
  6
Continuous
 62
     0
100
AcDbPoint
 10
3092.09134662104
 20
2528.113620778258
 30
0.0
  0
ENDBLK
  5
7EC2
330
7D42
100
AcDbEntity
  8
0
100
AcDbBlockEnd
  0
BLOCK
  5
7EC3
330
7D50
100
AcDbEntity
  8
0
100
AcDbBlockBegin
  2
*D11
 70
     1
 10
0.0
 20
0.0
 30
0.0
  3
*D11
  1

  0
LINE
  5
8095
330
7D50
100
AcDbEntity
  8
3
  6
Continuous
 62
     0
100
AcDbLine
 10
2872.09134662104
 20
2442.448080778258
 30
0.0
 11
2786.666715621041
 21
2442.448080778258
 31
0.0
  0
LINE
  5
8096
330
7D50
100
AcDbEntity
  8
3
  6
Continuous
 62
     0
100
AcDbLine
 10
2872.09134662104
 20
2162.448080778258
 30
0.0
 11
2786.666715621041
 21
2162.448080778258
 31
0.0
  0
LINE
  5
8097
330
7D50
100
AcDbEntity
  8
3
  6
Continuous
 62
     0
100
AcDbLine
 10
2806.666715621041
 20
2402.448080778258
 30
0.0
 11
2806.666715621041
 21
2202.448080778258
 31
0.0
  0
INSERT
  5
8098
330
7D50
100
AcDbEntity
  8
3
  6
Continuous
 62
     0
100
AcDbBlockReference
  2
_OPEN
 10
2806.666715621041
 20
2442.448080778258
 30
0.0
 41
40.0
 42
40.0
 43
40.0
 50
90.0
  0
INSERT
  5
8099
330
7D50
100
AcDbEntity
  8
3
  6
Continuous
 62
     0
100
AcDbBlockReference
  2
_OPEN
 10
2806.666715621041
 20
2162.448080778258
 30
0.0
 41
40.0
 42
40.0
 43
40.0
 50
270.0
  0
MTEXT
  5
809A
330
7D50
100
AcDbEntity
  8
3
  6
Continuous
 62
     0
100
AcDbMText
 10
2756.66671562104
 20
2305.305223635401
 30
0.0
 40
60.0
 41
0.0
 71
     5
 72
     5
  1
\A1;280
 11
0.0000000000000001
 21
1.0
 31
0.0
 73
     1
 44
1.0
  0
POINT
  5
809B
330
7D50
100
AcDbEntity
  8
DEFPOINTS
  6
Continuous
 62
     0
100
AcDbPoint
 10
2882.09134662104
 20
2442.448080778258
 30
0.0
  0
POINT
  5
809C
330
7D50
100
AcDbEntity
  8
DEFPOINTS
  6
Continuous
 62
     0
100
AcDbPoint
 10
2882.09134662104
 20
2162.448080778258
 30
0.0
  0
POINT
  5
809D
330
7D50
100
AcDbEntity
  8
DEFPOINTS
  6
Continuous
 62
     0
100
AcDbPoint
 10
2806.666715621041
 20
2162.448080778258
 30
0.0
  0
ENDBLK
  5
7ECD
330
7D50
100
AcDbEntity
  8
0
100
AcDbBlockEnd
  0
BLOCK
  5
7F1F
330
7EEC
100
AcDbEntity
  8
0
100
AcDbBlockBegin
  2
*D12
 70
     1
 10
0.0
 20
0.0
 30
0.0
  3
*D12
  1

  0
LINE
  5
809E
330
7EEC
100
AcDbEntity
  8
3
 62
     0
100
AcDbLine
 10
1945.23517208373
 20
1967.448080778258
 30
0.0
 11
2003.322015486563
 21
1967.448080778258
 31
0.0
  0
LINE
  5
809F
330
7EEC
100
AcDbEntity
  8
3
 62
     0
100
AcDbLine
 10
1958.84842908373
 20
2302.448080778258
 30
0.0
 11
2003.322015486563
 21
2302.448080778258
 31
0.0
  0
LINE
  5
80A0
330
7EEC
100
AcDbEntity
  8
3
 62
     0
100
AcDbLine
 10
1983.322015486563
 20
2007.448080778258
 30
0.0
 11
1983.322015486563
 21
2262.448080778258
 31
0.0
  0
INSERT
  5
80A1
330
7EEC
100
AcDbEntity
  8
3
 62
     0
100
AcDbBlockReference
  2
_OPEN
 10
1983.322015486563
 20
1967.448080778258
 30
0.0
 41
40.0
 42
40.0
 43
40.0
 50
270.0
  0
INSERT
  5
80A2
330
7EEC
100
AcDbEntity
  8
3
 62
     0
100
AcDbBlockReference
  2
_OPEN
 10
1983.322015486563
 20
2302.448080778258
 30
0.0
 41
40.0
 42
40.0
 43
40.0
 50
90.0
  0
MTEXT
  5
80A3
330
7EEC
100
AcDbEntity
  8
3
 62
     0
100
AcDbMText
 10
1933.322015486563
 20
2165.305223635401
 30
0.0
 40
60.0
 41
0.0
 71
     5
 72
     5
  1
\A1;335
 11
0.0000000000000001
 21
1.0
 31
0.0
 73
     1
 44
1.0
  0
POINT
  5
80A4
330
7EEC
100
AcDbEntity
  8
DEFPOINTS
 62
     0
100
AcDbPoint
 10
1935.23517208373
 20
1967.448080778258
 30
0.0
  0
POINT
  5
80A5
330
7EEC
100
AcDbEntity
  8
DEFPOINTS
 62
     0
100
AcDbPoint
 10
1948.84842908373
 20
2302.448080778258
 30
0.0
  0
POINT
  5
80A6
330
7EEC
100
AcDbEntity
  8
DEFPOINTS
 62
     0
100
AcDbPoint
 10
1983.322015486563
 20
2302.448080778258
 30
0.0
  0
ENDBLK
  5
7F29
330
7EEC
100
AcDbEntity
  8
0
100
AcDbBlockEnd
  0
BLOCK
  5
80BF
330
80B5
100
AcDbEntity
  8
0
100
AcDbBlockBegin
  2
*D13
 70
     1
 10
0.0
 20
0.0
 30
0.0
  3
*D13
  1

  0
LINE
  5
80B6
330
80B5
100
AcDbEntity
  8
3
 62
     0
370
    -2
100
AcDbLine
 10
2687.09134662104
 20
2652.448080778258
 30
0.0
 11
2687.09134662104
 21
2821.675326513583
 31
0.0
  0
LINE
  5
80B7
330
80B5
100
AcDbEntity
  8
3
 62
     0
370
    -2
100
AcDbLine
 10
2987.09134662104
 20
2688.683281778258
 30
0.0
 11
2987.09134662104
 21
2821.675326513583
 31
0.0
  0
LINE
  5
80B8
330
80B5
100
AcDbEntity
  8
3
 62
     0
370
    -2
100
AcDbLine
 10
2727.09134662104
 20
2801.675326513583
 30
0.0
 11
2947.09134662104
 21
2801.675326513583
 31
0.0
  0
INSERT
  5
80B9
330
80B5
100
AcDbEntity
  8
3
 62
     0
370
    -2
100
AcDbBlockReference
  2
_OPEN
 10
2687.09134662104
 20
2801.675326513583
 30
0.0
 41
40.0
 42
40.0
 43
40.0
 50
180.0
  0
INSERT
  5
80BA
330
80B5
100
AcDbEntity
  8
3
 62
     0
370
    -2
100
AcDbBlockReference
  2
_OPEN
 10
2987.09134662104
 20
2801.675326513583
 30
0.0
 41
40.0
 42
40.0
 43
40.0
  0
MTEXT
  5
80BB
330
80B5
100
AcDbEntity
  8
3
 62
     0
100
AcDbMText
 10
2843.095585547777
 20
2851.675326513583
 30
0.0
 40
60.0
 41
0.0
 71
     5
 72
     1
  1
\A1;300
 73
     1
 44
1.0
  0
POINT
  5
80BC
330
80B5
100
AcDbEntity
  8
DEFPOINTS
 62
     0
100
AcDbPoint
 10
2687.09134662104
 20
2642.448080778258
 30
0.0
  0
POINT
  5
80BD
330
80B5
100
AcDbEntity
  8
DEFPOINTS
 62
     0
100
AcDbPoint
 10
2987.09134662104
 20
2678.683281778258
 30
0.0
  0
POINT
  5
80BE
330
80B5
100
AcDbEntity
  8
DEFPOINTS
 62
     0
100
AcDbPoint
 10
2987.09134662104
 20
2801.675326513583
 30
0.0
  0
ENDBLK
  5
80C0
330
80B5
100
AcDbEntity
  8
0
100
AcDbBlockEnd
  0
BLOCK
  5
80CC
330
80C2
100
AcDbEntity
  8
0
100
AcDbBlockBegin
  2
*D14
 70
     1
 10
0.0
 20
0.0
 30
0.0
  3
*D14
  1

  0
LINE
  5
80C3
330
80C2
100
AcDbEntity
  8
3
 62
     0
370
    -2
100
AcDbLine
 10
2987.09134662104
 20
2688.683281778258
 30
0.0
 11
2987.09134662104
 21
2821.675326513583
 31
0.0
  0
LINE
  5
80C4
330
80C2
100
AcDbEntity
  8
3
 62
     0
370
    -2
100
AcDbLine
 10
3287.09134662104
 20
2652.448080778258
 30
0.0
 11
3287.09134662104
 21
2821.675326513583
 31
0.0
  0
LINE
  5
80C5
330
80C2
100
AcDbEntity
  8
3
 62
     0
370
    -2
100
AcDbLine
 10
3027.09134662104
 20
2801.675326513583
 30
0.0
 11
3247.09134662104
 21
2801.675326513583
 31
0.0
  0
INSERT
  5
80C6
330
80C2
100
AcDbEntity
  8
3
 62
     0
370
    -2
100
AcDbBlockReference
  2
_OPEN
 10
2987.09134662104
 20
2801.675326513583
 30
0.0
 41
40.0
 42
40.0
 43
40.0
 50
180.0
  0
INSERT
  5
80C7
330
80C2
100
AcDbEntity
  8
3
 62
     0
370
    -2
100
AcDbBlockReference
  2
_OPEN
 10
3287.09134662104
 20
2801.675326513583
 30
0.0
 41
40.0
 42
40.0
 43
40.0
  0
MTEXT
  5
80C8
330
80C2
100
AcDbEntity
  8
3
 62
     0
100
AcDbMText
 10
3137.09134662104
 20
2851.675326513583
 30
0.0
 40
60.0
 41
0.0
 71
     5
 72
     1
  1
\A1;300
 73
     1
 44
1.0
  0
POINT
  5
80C9
330
80C2
100
AcDbEntity
  8
DEFPOINTS
 62
     0
100
AcDbPoint
 10
2987.09134662104
 20
2678.683281778258
 30
0.0
  0
POINT
  5
80CA
330
80C2
100
AcDbEntity
  8
DEFPOINTS
 62
     0
100
AcDbPoint
 10
3287.09134662104
 20
2642.448080778259
 30
0.0
  0
POINT
  5
80CB
330
80C2
100
AcDbEntity
  8
DEFPOINTS
 62
     0
100
AcDbPoint
 10
3287.09134662104
 20
2801.675326513583
 30
0.0
  0
ENDBLK
  5
80CD
330
80C2
100
AcDbEntity
  8
0
100
AcDbBlockEnd
  0
ENDSEC
  0
SECTION
  2
ENTITIES
  0
LINE
  5
7B4B
330
19
100
AcDbEntity
  8
4
  6
Continuous
 48
20.0
100
AcDbLine
 10
3700.0
 20
1000.0
 30
0.0
 11
3700.0
 21
600.0
 31
0.0
  0
LINE
  5
7B4C
330
19
100
AcDbEntity
  8
4
  6
Continuous
 48
20.0
100
AcDbLine
 10
2300.0
 20
1000.0
 30
0.0
 11
2300.0
 21
600.0
 31
0.0
  0
LINE
  5
7B4D
330
19
100
AcDbEntity
  8
4
  6
Continuous
 48
20.0
100
AcDbLine
 10
1300.0
 20
1000.0
 30
0.0
 11
1300.0
 21
600.0
 31
0.0
  0
LINE
  5
7B50
330
19
100
AcDbEntity
  8
4
  6
Continuous
 48
20.0
100
AcDbLine
 10
1300.0
 20
600.0
 30
0.0
 11
3700.0
 21
600.0
 31
0.0
  0
LINE
  5
7B51
330
19
100
AcDbEntity
  8
4
  6
Continuous
 48
20.0
100
AcDbLine
 10
1300.0
 20
800.0
 30
0.0
 11
3700.0
 21
800.0
 31
0.0
  0
TEXT
  5
7B52
330
19
100
AcDbEntity
  8
4
  6
Continuous
 48
20.0
100
AcDbText
 10
1377.004162
 20
863.086052
 30
0.0
 40
100.0
  1
機器名称
100
AcDbText
  0
TEXT
  5
7B53
330
19
100
AcDbEntity
  8
4
  6
Continuous
 48
20.0
100
AcDbText
 10
1372.516212
 20
643.2903129999999
 30
0.0
 40
100.0
  1
機器型番
100
AcDbText
  0
TEXT
  5
7B54
330
19
100
AcDbEntity
  8
4
  6
Continuous
 48
20.0
100
AcDbText
 10
2355.357491
 20
845.1435380000001
 30
0.0
 40
100.0
  1
ミツヤファンユニット
100
AcDbText
  0
TEXT
  5
7B55
330
19
100
AcDbEntity
  8
4
  6
Continuous
 48
20.0
100
AcDbText
 10
2373.308991
 20
634.319169
 30
0.0
 40
100.0
  1
MFU#1201-1
100
AcDbText
  0
TEXT
  5
7B57
330
19
100
AcDbEntity
  8
4
  6
Continuous
 48
20.0
100
AcDbText
 10
1424.553185
 20
4766.857683
 30
0.0
 40
100.0
  1
床置ベット
100
AcDbText
  0
TEXT
  5
7B58
330
19
100
AcDbEntity
  8
4
  6
Continuous
 48
20.0
100
AcDbText
 10
632.335187
 20
5067.761952000001
 30
0.0
 40
120.0
  1
ベルト駆動式消音ボックス付き多翼ファン
100
AcDbText
  0
LINE
  5
7B59
330
19
100
AcDbEntity
  8
4
  6
Continuous
 48
20.0
100
AcDbLine
 10
500.0
 20
4938.817509
 30
0.0
 11
3700.0
 21
4938.817509
 31
0.0
  0
LINE
  5
7B5A
330
19
100
AcDbEntity
  8
4
  6
Continuous
 48
20.0
100
AcDbLine
 10
500.0
 20
5338.817509
 30
0.0
 11
3700.0
 21
5338.817509
 31
0.0
  0
LINE
  5
7B5B
330
19
100
AcDbEntity
  8
4
  6
Continuous
 48
20.0
100
AcDbLine
 10
1300.0
 20
1000.0
 30
0.0
 11
3700.0
 21
1000.0
 31
0.0
  0
LINE
  5
7B5C
330
19
100
AcDbEntity
  8
4
  6
Continuous
 48
20.0
100
AcDbLine
 10
500.0
 20
5338.817509
 30
0.0
 11
500.0
 21
4938.817509
 31
0.0
  0
TEXT
  5
7B5D
330
19
100
AcDbEntity
  8
4
  6
Continuous
 48
20.0
100
AcDbText
 10
552.83552
 20
4764.638954999999
 30
0.0
 40
100.0
  1
左回転右吐出
100
AcDbText
  0
TEXT
  5
7B5E
330
19
100
AcDbEntity
  8
4
  6
Continuous
 48
20.0
100
AcDbText
 10
2937.939118
 20
5412.122163
 30
0.0
 40
112.0
  1
No.
100
AcDbText
  0
TEXT
  5
7B5F
330
19
100
AcDbEntity
  8
4
  6
Continuous
 48
20.0
100
AcDbText
 10
2916.42193
 20
4766.857683
 30
0.0
 40
100.0
  1
縮尺：1/20
100
AcDbText
  0
LINE
  5
7B60
330
19
100
AcDbEntity
  8
4
  6
Continuous
 48
20.0
100
AcDbLine
 10
3700.0
 20
5338.817509
 30
0.0
 11
3700.0
 21
4938.817509
 31
0.0
  0
LINE
  5
7B62
330
19
100
AcDbEntity
  8
4
  6
Continuous
 48
20.0
100
AcDbLine
 10
2881.234845
 20
5362.527166
 30
0.0
 11
2881.234845
 21
5573.304523
 31
0.0
  0
LINE
  5
7B63
330
19
100
AcDbEntity
  8
4
  6
Continuous
 48
20.0
100
AcDbLine
 10
2881.234845
 20
5573.304523
 30
0.0
 11
3700.0
 21
5573.304523
 31
0.0
  0
LINE
  5
7B64
330
19
100
AcDbEntity
  8
4
  6
Continuous
 48
20.0
100
AcDbLine
 10
3700.0
 20
5573.304523
 30
0.0
 11
3700.0
 21
5362.527166
 31
0.0
  0
LINE
  5
7B65
330
19
100
AcDbEntity
  8
4
  6
Continuous
 48
20.0
100
AcDbLine
 10
3700.0
 20
5362.527166
 30
0.0
 11
2881.234845
 21
5362.527166
 31
0.0
  0
LINE
  5
7C6B
330
19
100
AcDbEntity
  8
1
  6
Continuous
 48
20.0
100
AcDbLine
 10
1055.23517208373
 20
2642.448080778258
 30
0.0
 11
1845.23517208373
 21
2642.448080778258
 31
0.0
  0
LINE
  5
7C6C
330
19
100
AcDbEntity
  8
1
  6
Continuous
 48
20.0
100
AcDbLine
 10
1935.23517208373
 20
1967.448080778258
 30
0.0
 11
965.2351720837305
 21
1967.448080778258
 31
0.0
  0
LINE
  5
7C6D
330
19
100
AcDbEntity
  8
1
  6
Continuous
 48
20.0
100
AcDbLine
 10
1935.23517208373
 20
2042.448080778258
 30
0.0
 11
965.2351720837305
 21
2042.448080778258
 31
0.0
  0
LINE
  5
7C6E
330
19
100
AcDbEntity
  8
1
  6
Continuous
 48
20.0
100
AcDbLine
 10
1935.23517208373
 20
1967.448080778258
 30
0.0
 11
965.2351720837305
 21
1967.448080778258
 31
0.0
  0
ARC
  5
7C6F
330
19
100
AcDbEntity
  8
1
  6
Continuous
 48
20.0
100
AcDbCircle
 10
1574.23517208373
 20
2405.448080778258
 30
0.0
 40
131.410519
100
AcDbArc
 50
354.289407
 51
83.15722700000002
  0
LINE
  5
7C70
330
19
100
AcDbEntity
  8
1
  6
Continuous
 48
20.0
100
AcDbLine
 10
1845.23517208373
 20
2194.448080778258
 30
0.0
 11
1585.23517208373
 21
2194.448080778258
 31
0.0
  0
LINE
  5
7C71
330
19
100
AcDbEntity
  8
1
  6
Continuous
 48
20.0
100
AcDbLine
 10
1845.23517208373
 20
2642.448080778258
 30
0.0
 11
1845.23517208373
 21
2047.448080778258
 31
0.0
  0
LINE
  5
7C72
330
19
100
AcDbEntity
  8
1
  6
Continuous
 48
20.0
100
AcDbLine
 10
1845.23517208373
 20
2042.448080778258
 30
0.0
 11
1845.23517208373
 21
2642.448080778258
 31
0.0
  0
LINE
  5
7C74
330
19
100
AcDbEntity
  8
1
  6
Continuous
 48
20.0
100
AcDbLine
 10
1935.23517208373
 20
1967.448080778258
 30
0.0
 11
1935.23517208373
 21
2042.448080778258
 31
0.0
  0
LINE
  5
7C75
330
19
100
AcDbEntity
  8
1
  6
Continuous
 48
20.0
100
AcDbLine
 10
1705.18449308373
 20
2394.448080778258
 30
0.0
 11
1845.23517208373
 21
2394.448080778258
 31
0.0
  0
LINE
  5
7C76
330
19
100
AcDbEntity
  8
1
  6
Continuous
 48
20.0
100
AcDbLine
 10
1870.23517208373
 20
2467.448080778258
 30
0.0
 11
1845.23517208373
 21
2467.448080778258
 31
0.0
  0
LINE
  5
7C77
330
19
100
AcDbEntity
  8
1
  6
Continuous
 48
20.0
100
AcDbLine
 10
1870.23517208373
 20
2137.448080778258
 30
0.0
 11
1845.23517208373
 21
2137.448080778258
 31
0.0
  0
LINE
  5
7C78
330
19
100
AcDbEntity
  8
1
  6
Continuous
 48
20.0
100
AcDbLine
 10
1870.23517208373
 20
2467.448080778258
 30
0.0
 11
1870.23517208373
 21
2137.448080778258
 31
0.0
  0
LINE
  5
7C79
330
19
100
AcDbEntity
  8
1
  6
Continuous
 48
20.0
100
AcDbLine
 10
1745.23517208373
 20
2394.448080778258
 30
0.0
 11
1745.23517208373
 21
2194.448080778258
 31
0.0
  0
ARC
  5
7C7A
330
19
100
AcDbEntity
  8
1
  6
Continuous
 48
20.0
100
AcDbCircle
 10
1571.23517208373
 20
2380.448080778258
 30
0.0
 40
156.589876
100
AcDbArc
 50
83.15722700000002
 51
178.025066
  0
ARC
  5
7C7B
330
19
100
AcDbEntity
  8
1
  6
Continuous
 48
20.0
100
AcDbCircle
 10
1600.23517208373
 20
2379.448080778258
 30
0.0
 40
185.607112
100
AcDbArc
 50
178.025066
 51
265.364537
  0
LINE
  5
7C7C
330
19
100
AcDbEntity
  8
1
  6
Continuous
 48
20.0
100
AcDbLine
 10
1055.23517208373
 20
2042.448080778258
 30
0.0
 11
1055.23517208373
 21
2642.448080778258
 31
0.0
  0
LINE
  5
7C7E
330
19
100
AcDbEntity
  8
1
  6
Continuous
 48
20.0
100
AcDbLine
 10
965.2351720837305
 20
1967.448080778258
 30
0.0
 11
965.2351720837305
 21
2042.448080778258
 31
0.0
  0
LINE
  5
7C7F
330
19
100
AcDbEntity
  8
1
  6
Continuous
 48
20.0
100
AcDbLine
 10
1030.23517208373
 20
2467.448080778258
 30
0.0
 11
1030.23517208373
 21
2137.448080778258
 31
0.0
  0
LINE
  5
7C80
330
19
100
AcDbEntity
  8
1
  6
Continuous
 48
20.0
100
AcDbLine
 10
1030.23517208373
 20
2137.448080778258
 30
0.0
 11
1055.23517208373
 21
2137.448080778258
 31
0.0
  0
LINE
  5
7C81
330
19
100
AcDbEntity
  8
1
  6
Continuous
 48
20.0
100
AcDbLine
 10
1030.23517208373
 20
2467.448080778258
 30
0.0
 11
1055.23517208373
 21
2467.448080778258
 31
0.0
  0
LINE
  5
7C82
330
19
100
AcDbEntity
  8
1
  6
Continuous
 48
20.0
100
AcDbLine
 10
1050.247855621039
 20
4040.789386778259
 30
0.0
 11
1050.247855621039
 21
3440.789386778258
 31
0.0
  0
LINE
  5
7C83
330
19
100
AcDbEntity
  8
1
  6
Continuous
 48
20.0
100
AcDbLine
 10
1840.24785562104
 20
3440.789386778258
 30
0.0
 11
1840.24785562104
 21
4040.789386778259
 31
0.0
  0
LINE
  5
7C84
330
19
100
AcDbEntity
  8
1
  6
Continuous
 48
20.0
100
AcDbLine
 10
1050.247855621039
 20
3440.789386778258
 30
0.0
 11
1840.24785562104
 21
3440.789386778258
 31
0.0
  0
LINE
  5
7C85
330
19
100
AcDbEntity
  8
1
  6
Continuous
 48
20.0
100
AcDbLine
 10
960.2478556210398
 20
3480.789386778258
 30
0.0
 11
1050.247855621039
 21
3480.789386778258
 31
0.0
  0
LINE
  5
7C86
330
19
100
AcDbEntity
  8
1
  6
Continuous
 48
20.0
100
AcDbLine
 10
960.2478556210398
 20
3440.789386778258
 30
0.0
 11
1050.247855621039
 21
3440.789386778258
 31
0.0
  0
LINE
  5
7C87
330
19
100
AcDbEntity
  8
1
  6
Continuous
 48
20.0
100
AcDbLine
 10
960.2478556210398
 20
3480.789386778258
 30
0.0
 11
960.2478556210398
 21
3440.789386778258
 31
0.0
  0
LINE
  5
7C88
330
19
100
AcDbEntity
  8
1
  6
Continuous
 48
20.0
100
AcDbLine
 10
1930.24785562104
 20
3440.789386778258
 30
0.0
 11
1840.24785562104
 21
3440.789386778258
 31
0.0
  0
LINE
  5
7C89
330
19
100
AcDbEntity
  8
1
  6
Continuous
 48
20.0
100
AcDbLine
 10
1930.24785562104
 20
3480.789386778258
 30
0.0
 11
1930.24785562104
 21
3440.789386778258
 31
0.0
  0
LINE
  5
7C8A
330
19
100
AcDbEntity
  8
1
  6
Continuous
 48
20.0
100
AcDbLine
 10
1930.24785562104
 20
3480.789386778258
 30
0.0
 11
1840.24785562104
 21
3480.789386778258
 31
0.0
  0
LINE
  5
7C8B
330
19
100
AcDbEntity
  8
1
  6
Continuous
 48
20.0
100
AcDbLine
 10
1840.24785562104
 20
4040.789386778259
 30
0.0
 11
1050.247855621039
 21
4040.789386778259
 31
0.0
  0
LINE
  5
7C8C
330
19
100
AcDbEntity
  8
1
  6
Continuous
 48
20.0
100
AcDbLine
 10
960.2478556210398
 20
4000.789386778258
 30
0.0
 11
1050.247855621039
 21
4000.789386778258
 31
0.0
  0
LINE
  5
7C8D
330
19
100
AcDbEntity
  8
1
  6
Continuous
 48
20.0
100
AcDbLine
 10
960.2478556210398
 20
4040.789386778259
 30
0.0
 11
1050.247855621039
 21
4040.789386778259
 31
0.0
  0
LINE
  5
7C8E
330
19
100
AcDbEntity
  8
1
  6
Continuous
 48
20.0
100
AcDbLine
 10
960.2478556210398
 20
4040.789386778259
 30
0.0
 11
960.2478556210398
 21
4000.789386778258
 31
0.0
  0
LINE
  5
7C8F
330
19
100
AcDbEntity
  8
1
  6
Continuous
 48
20.0
100
AcDbLine
 10
1025.247855621039
 20
3870.789386778259
 30
0.0
 11
1050.247855621039
 21
3870.789386778259
 31
0.0
  0
LINE
  5
7C90
330
19
100
AcDbEntity
  8
1
  6
Continuous
 48
20.0
100
AcDbLine
 10
1025.247855621039
 20
3610.789386778258
 30
0.0
 11
1050.247855621039
 21
3610.789386778258
 31
0.0
  0
LINE
  5
7C91
330
19
100
AcDbEntity
  8
1
  6
Continuous
 48
20.0
100
AcDbLine
 10
1025.247855621039
 20
3870.789386778259
 30
0.0
 11
1025.247855621039
 21
3610.789386778258
 31
0.0
  0
LINE
  5
7C92
330
19
100
AcDbEntity
  8
1
  6
Continuous
 48
20.0
100
AcDbLine
 10
1865.24785562104
 20
3870.789386778259
 30
0.0
 11
1865.24785562104
 21
3610.789386778258
 31
0.0
  0
LINE
  5
7C93
330
19
100
AcDbEntity
  8
1
  6
Continuous
 48
20.0
100
AcDbLine
 10
1865.24785562104
 20
3610.789386778258
 30
0.0
 11
1840.24785562104
 21
3610.789386778258
 31
0.0
  0
LINE
  5
7C94
330
19
100
AcDbEntity
  8
1
  6
Continuous
 48
20.0
100
AcDbLine
 10
1865.24785562104
 20
3870.789386778259
 30
0.0
 11
1840.24785562104
 21
3870.789386778259
 31
0.0
  0
LINE
  5
7C95
330
19
100
AcDbEntity
  8
1
  6
Continuous
 48
20.0
100
AcDbLine
 10
1930.24785562104
 20
4040.789386778259
 30
0.0
 11
1840.24785562104
 21
4040.789386778259
 31
0.0
  0
LINE
  5
7C96
330
19
100
AcDbEntity
  8
1
  6
Continuous
 48
20.0
100
AcDbLine
 10
1930.24785562104
 20
4040.789386778259
 30
0.0
 11
1930.24785562104
 21
4000.789386778258
 31
0.0
  0
LINE
  5
7C97
330
19
100
AcDbEntity
  8
1
  6
Continuous
 48
20.0
100
AcDbLine
 10
1930.24785562104
 20
4000.789386778258
 30
0.0
 11
1840.24785562104
 21
4000.789386778258
 31
0.0
  0
LINE
  5
7C98
330
19
100
AcDbEntity
  8
1
  6
Continuous
 48
20.0
100
AcDbLine
 10
2882.09134662104
 20
2442.448080778258
 30
0.0
 11
3092.09134662104
 21
2162.448080778258
 31
0.0
  0
LINE
  5
7C99
330
19
100
AcDbEntity
  8
1
  6
Continuous
 48
20.0
100
AcDbLine
 10
2882.09134662104
 20
2162.448080778258
 30
0.0
 11
3092.09134662104
 21
2442.448080778258
 31
0.0
  0
LWPOLYLINE
  5
7C9A
330
19
100
AcDbEntity
  8
1
  6
Continuous
 48
20.0
100
AcDbPolyline
 90
        4
 70
     1
 43
0.0
 10
2857.09134662104
 20
2137.448080778258
 10
3117.09134662104
 20
2137.448080778258
 10
3117.09134662104
 20
2467.448080778258
 10
2857.09134662104
 20
2467.448080778258
  0
LWPOLYLINE
  5
7CA0
330
19
100
AcDbEntity
  8
1
  6
Continuous
 48
20.0
100
AcDbPolyline
 90
        4
 70
     1
 43
0.0
 10
2882.09134662104
 20
2162.448080778258
 10
3092.09134662104
 20
2162.448080778258
 10
3092.09134662104
 20
2442.448080778258
 10
2882.09134662104
 20
2442.448080778258
  0
LINE
  5
7CA6
330
19
100
AcDbEntity
  8
1
  6
Continuous
 48
20.0
100
AcDbLine
 10
3287.09134662104
 20
2042.448080778258
 30
0.0
 11
2687.091346621041
 21
2042.448080778258
 31
0.0
  0
LINE
  5
7CA7
330
19
100
AcDbEntity
  8
1
  6
Continuous
 48
20.0
100
AcDbLine
 10
2687.09134662104
 20
1967.448080778258
 30
0.0
 11
3287.09134662104
 21
1967.448080778258
 31
0.0
  0
LINE
  5
7CA8
330
19
100
AcDbEntity
  8
1
  6
Continuous
 48
20.0
100
AcDbLine
 10
2687.09134662104
 20
2642.448080778258
 30
0.0
 11
2687.09134662104
 21
2042.448080778258
 31
0.0
  0
LINE
  5
7CA9
330
19
100
AcDbEntity
  8
1
  6
Continuous
 48
20.0
100
AcDbLine
 10
3287.09134662104
 20
2042.448080778258
 30
0.0
 11
3287.091346621041
 21
2642.448080778258
 31
0.0
  0
DIMENSION
  5
7CAA
330
19
100
AcDbEntity
  8
3
  6
Continuous
 48
20.0
100
AcDbDimension
  2
*D1
 10
965.2351720837305
 20
1815.435152778258
 30
0.0
 11
1457.45922508373
 21
1815.435152778258
 31
0.0
 70
   160
 71
     5
 42
-1.0
  3
IGA
100
AcDbAlignedDimension
 13
1935.23517208373
 23
1967.448080778258
 33
0.0
 14
965.2351720837305
 24
1967.448080778258
 34
0.0
100
AcDbRotatedDimension
1001
ACAD
1000
DSTYLE
1002
{
1070
   287
1070
     3
1070
   287
1070
     3
1070
    40
1040
20.0
1070
   143
1040
0.039
1070
   172
1070
     1
1070
   271
1070
     0
1070
   279
1070
     0
1070
   288
1070
     1
1002
}
  0
DIMENSION
  5
7CAB
330
19
100
AcDbEntity
  8
3
  6
Continuous
 48
20.0
100
AcDbDimension
  2
*D2
 10
2186.065978532348
 20
1967.448080778258
 30
0.0
 11
2186.065978532347
 21
2305.653868778259
 31
0.0
 70
   160
 71
     5
 42
-1.0
  3
IGA
100
AcDbAlignedDimension
 13
1845.23517208373
 23
2642.448080778258
 33
0.0
 14
1935.23517208373
 24
1967.448080778258
 34
0.0
 50
270.0
100
AcDbRotatedDimension
1001
ACAD
1000
DSTYLE
1002
{
1070
   287
1070
     3
1070
   287
1070
     3
1070
    40
1040
20.0
1070
   143
1040
0.039
1070
   172
1070
     1
1070
   271
1070
     0
1070
   279
1070
     0
1070
   288
1070
     1
1002
}
  0
LINE
  5
7CAC
330
19
100
AcDbEntity
  8
2
  6
CENTER
 48
20.0
100
AcDbLine
 10
1948.84842908373
 20
2302.448080778258
 30
0.0
 11
958.16108908373
 21
2302.448080778258
 31
0.0
  0
DIMENSION
  5
7CAD
330
19
100
AcDbEntity
  8
3
  6
Continuous
 48
20.0
100
AcDbDimension
  2
*D3
 10
791.0047550837301
 20
1967.448080778258
 30
0.0
 11
791.0047550837298
 21
2165.305223635401
 31
0.0
 70
   160
 71
     5
 42
-1.0
  3
IGA
100
AcDbAlignedDimension
 13
958.16108908373
 23
2302.448080778258
 33
0.0
 14
965.2351720837305
 24
1967.448080778258
 34
0.0
 50
270.0
100
AcDbRotatedDimension
1001
ACAD
1000
DSTYLE
1002
{
1070
   287
1070
     3
1070
   287
1070
     3
1070
    40
1040
20.0
1070
   143
1040
0.039
1070
   172
1070
     1
1070
   271
1070
     0
1070
   279
1070
     0
1070
   288
1070
     1
1002
}
  0
DIMENSION
  5
7CAE
330
19
100
AcDbEntity
  8
3
  6
Continuous
 48
20.0
100
AcDbDimension
  2
*D4
 10
1055.23517208373
 20
2778.074844778258
 30
0.0
 11
1466.14268808373
 21
2778.074844778258
 31
0.0
 70
   160
 71
     5
 42
-1.0
  3
IGA
100
AcDbAlignedDimension
 13
1845.23517208373
 23
2642.448080778258
 33
0.0
 14
1055.23517208373
 24
2642.448080778258
 34
0.0
100
AcDbRotatedDimension
1001
ACAD
1000
DSTYLE
1002
{
1070
   287
1070
     3
1070
   287
1070
     3
1070
    40
1040
20.0
1070
   143
1040
0.039
1070
   172
1070
     1
1070
   271
1070
     0
1070
   279
1070
     0
1070
   288
1070
     1
1002
}
  0
DIMENSION
  5
7CAF
330
19
100
AcDbEntity
  8
3
  6
Continuous
 48
20.0
100
AcDbDimension
  2
*D5
 10
1840.24785562104
 20
3251.168638778258
 30
0.0
 11
1450.98616462104
 21
3251.168638778258
 31
0.0
 70
   160
 71
     5
 42
-1.0
  3
IGA
100
AcDbAlignedDimension
 13
1050.247855621039
 23
3440.789386778258
 33
0.0
 14
1840.24785562104
 24
3440.789386778258
 34
0.0
100
AcDbRotatedDimension
1001
ACAD
1000
DSTYLE
1002
{
1070
   287
1070
     3
1070
   287
1070
     3
1070
    40
1040
20.0
1070
   143
1040
0.039
1070
   172
1070
     1
1070
   271
1070
     0
1070
   279
1070
     0
1070
   288
1070
     1
1002
}
  0
DIMENSION
  5
7CB0
330
19
100
AcDbEntity
  8
3
  6
Continuous
 48
20.0
100
AcDbDimension
  2
*D6
 10
2081.39031562104
 20
3440.789386778258
 30
0.0
 11
2081.39031562104
 21
3752.883623778258
 31
0.0
 70
   160
 71
     5
 42
-1.0
  3
IGA
100
AcDbAlignedDimension
 13
1930.24785562104
 23
4040.789386778259
 33
0.0
 14
1930.24785562104
 24
3440.789386778258
 34
0.0
 50
90.0
100
AcDbRotatedDimension
1001
ACAD
1000
DSTYLE
1002
{
1070
   287
1070
     3
1070
   287
1070
     3
1070
    40
1040
20.0
1070
   143
1040
0.039
1070
   172
1070
     1
1070
   271
1070
     0
1070
   279
1070
     0
1070
   288
1070
     1
1002
}
  0
LINE
  5
7CB1
330
19
100
AcDbEntity
  8
2
  6
CENTER
 48
20.0
100
AcDbLine
 10
2987.09134662104
 20
2678.683281778258
 30
0.0
 11
2987.09134662104
 21
2624.002095719801
 31
0.0
  0
LINE
  5
7CB2
330
19
100
AcDbEntity
  8
1
  6
Continuous
 48
20.0
100
AcDbLine
 10
2687.09134662104
 20
2042.448080778258
 30
0.0
 11
2687.09134662104
 21
1967.448080778258
 31
0.0
  0
LINE
  5
7CB3
330
19
100
AcDbEntity
  8
1
  6
Continuous
 48
20.0
100
AcDbLine
 10
3287.09134662104
 20
2042.448080778258
 30
0.0
 11
3287.09134662104
 21
1967.448080778258
 31
0.0
  0
LINE
  5
7CB4
330
19
100
AcDbEntity
  8
3
  6
Continuous
 48
20.0
100
AcDbLine
 10
1865.24785562104
 20
3740.789386778259
 30
0.0
 11
1865.24785562104
 21
3740.789386778259
 31
0.0
  0
LINE
  5
7CB5
330
19
100
AcDbEntity
  8
2
  6
CENTER
 48
20.0
100
AcDbLine
 10
961.2871236210404
 20
3740.789386778259
 30
0.0
 11
1931.709945621039
 21
3740.789386778259
 31
0.0
  0
DIMENSION
  5
7CB6
330
19
100
AcDbEntity
  8
3
  6
Continuous
 48
20.0
100
AcDbDimension
  2
*D7
 10
3287.09134662104
 20
1781.768767778258
 30
0.0
 11
3001.84055862104
 21
1781.768767778258
 31
0.0
 70
   160
 71
     5
 42
-1.0
  3
IGA
100
AcDbAlignedDimension
 13
2687.09134662104
 23
1967.448080778258
 33
0.0
 14
3287.09134662104
 24
1967.448080778258
 34
0.0
100
AcDbRotatedDimension
1001
ACAD
1000
DSTYLE
1002
{
1070
   287
1070
     3
1070
   287
1070
     3
1070
    40
1040
20.0
1070
   143
1040
0.039
1070
   172
1070
     1
1070
   271
1070
     0
1070
   279
1070
     0
1070
   288
1070
     1
1002
}
  0
LINE
  5
7CB7
330
19
100
AcDbEntity
  8
2
  6
CENTER
 48
20.0
100
AcDbLine
 10
3226.44403262104
 20
2302.448080778258
 30
0.0
 11
2797.394511621041
 21
2302.448080778258
 31
0.0
  0
LINE
  5
7CB8
330
19
100
AcDbEntity
  8
1
  6
Continuous
 48
20.0
100
AcDbLine
 10
2687.09134662104
 20
2642.448080778258
 30
0.0
 11
3287.09134662104
 21
2642.448080778259
 31
0.0
  0
DIMENSION
  5
7CBB
330
19
100
AcDbEntity
  8
3
  6
Continuous
 48
20.0
100
AcDbDimension
  2
*D10
 10
3092.09134662104
 20
2528.113620778258
 30
0.0
 11
2987.09134662104
 21
2528.113620778258
 31
0.0
 70
   160
 71
     5
 42
-1.0
  3
IGA
100
AcDbAlignedDimension
 13
2882.09134662104
 23
2442.448080778258
 33
0.0
 14
3092.09134662104
 24
2442.448080778258
 34
0.0
100
AcDbRotatedDimension
1001
ACAD
1000
DSTYLE
1002
{
1070
   287
1070
     3
1070
   287
1070
     3
1070
    40
1040
20.0
1070
   143
1040
0.039
1070
   172
1070
     1
1070
   271
1070
     0
1070
   279
1070
     0
1070
   288
1070
     1
1002
}
  0
DIMENSION
  5
7CBC
330
19
100
AcDbEntity
  8
3
  6
Continuous
 48
20.0
100
AcDbDimension
  2
*D11
 10
2806.666715621041
 20
2162.448080778258
 30
0.0
 11
2806.666715621041
 21
2305.305223635401
 31
0.0
 70
   160
 71
     5
 42
-1.0
  3
IGA
100
AcDbAlignedDimension
 13
2882.09134662104
 23
2442.448080778258
 33
0.0
 14
2882.09134662104
 24
2162.448080778258
 34
0.0
 50
90.0
100
AcDbRotatedDimension
1001
ACAD
1000
DSTYLE
1002
{
1070
   287
1070
     3
1070
   287
1070
     3
1070
    40
1040
20.0
1070
   143
1040
0.039
1070
   172
1070
     1
1070
   271
1070
     0
1070
   279
1070
     0
1070
   288
1070
     1
1002
}
  0
DIMENSION
  5
7EF8
330
19
100
AcDbEntity
  8
3
 48
20.0
100
AcDbDimension
  2
*D12
 10
1983.322015486563
 20
2302.448080778258
 30
0.0
 11
1983.322015486563
 21
2165.305223635401
 31
0.0
 70
   160
 71
     5
 42
-1.0
  3
IGA
100
AcDbAlignedDimension
 13
1935.23517208373
 23
1967.448080778258
 33
0.0
 14
1948.84842908373
 24
2302.448080778258
 34
0.0
 50
270.0
100
AcDbRotatedDimension
1001
ACAD
1000
DSTYLE
1002
{
1070
   287
1070
     3
1070
   287
1070
     3
1070
    40
1040
20.0
1070
   143
1040
0.039
1070
   172
1070
     1
1070
   271
1070
     0
1070
   279
1070
     0
1070
   288
1070
     1
1002
}
  0
LINE
  5
7FF6
330
19
100
AcDbEntity
  8
2
  6
CENTER
 48
20.0
100
AcDbLine
 10
2987.09134662104
 20
2515.313899812334
 30
0.0
 11
2987.09134662104
 21
1923.876659778258
 31
0.0
  0
DIMENSION
  5
80B4
330
19
100
AcDbEntity
  8
3
100
AcDbDimension
  2
*D13
 10
2987.09134662104
 20
2801.675326513583
 30
0.0
 11
2843.095585547777
 21
2801.675326513583
 31
0.0
 70
   160
 71
     5
 42
300.0
  3
IGA
100
AcDbAlignedDimension
 13
2687.09134662104
 23
2642.448080778258
 33
0.0
 14
2987.09134662104
 24
2678.683281778258
 34
0.0
100
AcDbRotatedDimension
1001
ACAD
1000
DSTYLE
1002
{
1070
    40
1040
20.0
1070
   143
1040
0.039
1070
   172
1070
     1
1070
   271
1070
     0
1070
   279
1070
     0
1070
   288
1070
     1
1002
}
  0
DIMENSION
  5
80C1
330
19
100
AcDbEntity
  8
3
100
AcDbDimension
  2
*D14
 10
3287.09134662104
 20
2801.675326513583
 30
0.0
 11
3137.09134662104
 21
2851.675326513583
 31
0.0
 70
    32
 71
     5
 42
300.0
  3
IGA
100
AcDbAlignedDimension
 13
2987.09134662104
 23
2678.683281778258
 33
0.0
 14
3287.09134662104
 24
2642.448080778259
 34
0.0
100
AcDbRotatedDimension
1001
ACAD
1000
DSTYLE
1002
{
1070
    40
1040
20.0
1070
   143
1040
0.039
1070
   172
1070
     1
1070
   271
1070
     0
1070
   279
1070
     1
1070
   288
1070
     1
1002
}
  0
ENDSEC
  0
SECTION
  2
OBJECTS
  0
DICTIONARY
  5
C
330
0
100
AcDbDictionary
281
     1
  3
ACAD_GROUP
350
D
  3
ACAD_LAYOUT
350
7F47
  3
ACAD_MLINESTYLE
350
E
  3
ACAD_PLOTSETTINGS
350
7F48
  3
ACAD_PLOTSTYLENAME
350
7F45
  3
AcDbVariableDictionary
350
80A9
  0
DICTIONARY
  5
7F74
330
19
100
AcDbDictionary
280
     1
281
     1
  3
ACAD_LAYOUTSELFREF
360
802D
  0
DICTIONARY
  5
7F72
330
16
100
AcDbDictionary
280
     1
281
     1
  3
ACAD_LAYOUTSELFREF
360
802C
  0
DICTIONARY
  5
D
102
{ACAD_REACTORS
330
C
102
}
330
0
100
AcDbDictionary
281
     1
  0
DICTIONARY
  5
7F47
102
{ACAD_REACTORS
330
C
102
}
330
C
100
AcDbDictionary
281
     1
  3
Model
350
7F49
  3
ﾚｲｱｳﾄ1
350
7F4A
  0
DICTIONARY
  5
E
102
{ACAD_REACTORS
330
C
102
}
330
0
100
AcDbDictionary
281
     1
  3
STANDARD
350
1C
  0
DICTIONARY
  5
7F48
102
{ACAD_REACTORS
330
C
102
}
330
C
100
AcDbDictionary
281
     1
  0
ACDBDICTIONARYWDFLT
  5
7F45
102
{ACAD_REACTORS
330
C
102
}
330
C
100
AcDbDictionary
281
     1
  3
Normal
350
7F46
100
AcDbDictionaryWithDefault
340
7F46
1001
ACAD
1000
TREAT_AS_HARD
1070
     0
1000
TREAT_AS_HARD
1070
     0
  0
DICTIONARY
  5
80A9
102
{ACAD_REACTORS
330
C
102
}
330
C
100
AcDbDictionary
281
     1
  3
DIMASSOC
350
80AA
  0
XRECORD
  5
802D
102
{ACAD_REACTORS
330
7F74
102
}
330
7F74
100
AcDbXrecord
280
     1
340
19
  0
XRECORD
  5
802C
102
{ACAD_REACTORS
330
7F72
102
}
330
7F72
100
AcDbXrecord
280
     1
340
16
  0
LAYOUT
  5
7F49
102
{ACAD_REACTORS
330
7F47
102
}
330
7F47
100
AcDbPlotSettings
  1

  2
EPSON LP-9300
  4

  6

 40
0.0
 41
0.0
 42
0.0
 43
0.0
 44
0.0
 45
0.0
 46
0.0
 47
0.0
 48
0.0
 49
0.0
140
0.0
141
0.0
142
1.0
143
1.0
 70
  1712
 72
     0
 73
     0
 74
     0
  7

 75
     0
147
1.0
148
0.0
149
0.0
100
AcDbLayout
  1
Model
 70
     1
 71
     0
 10
0.0
 20
0.0
 11
12.0
 21
9.0
 12
0.0
 22
0.0
 32
0.0
 14
0.0
 24
0.0
 34
0.0
 15
0.0
 25
0.0
 35
0.0
146
0.0
 13
0.0
 23
0.0
 33
0.0
 16
1.0
 26
0.0
 36
0.0
 17
0.0
 27
1.0
 37
0.0
 76
     0
330
19
  0
LAYOUT
  5
7F4A
102
{ACAD_REACTORS
330
7F47
102
}
330
7F47
100
AcDbPlotSettings
  1

  2
EPSON LP-9300
  4

  6

 40
0.0
 41
0.0
 42
0.0
 43
0.0
 44
0.0
 45
0.0
 46
0.0
 47
0.0
 48
0.0
 49
0.0
140
0.0
141
0.0
142
1.0
143
1.0
 70
   688
 72
     0
 73
     0
 74
     5
  7

 75
    16
147
1.0
148
0.0
149
0.0
100
AcDbLayout
  1
ﾚｲｱｳﾄ1
 70
     1
 71
     1
 10
0.0
 20
0.0
 11
12.0
 21
9.0
 12
0.0
 22
0.0
 32
0.0
 14
1.000000000000000E+20
 24
1.000000000000000E+20
 34
1.000000000000000E+20
 15
-1.000000000000000E+20
 25
-1.000000000000000E+20
 35
-1.000000000000000E+20
146
0.0
 13
0.0
 23
0.0
 33
0.0
 16
1.0
 26
0.0
 36
0.0
 17
0.0
 27
1.0
 37
0.0
 76
     0
330
16
  0
MLINESTYLE
  5
1C
102
{ACAD_REACTORS
330
E
102
}
330
0
100
AcDbMlineStyle
  2
STANDARD
 70
     0
  3

 62
     0
 51
90.0
 52
90.0
 71
     2
 49
0.5
 62
   256
  6
BYLAYER
 49
-0.5
 62
   256
  6
BYLAYER
  0
ACDBPLACEHOLDER
  5
7F46
102
{ACAD_REACTORS
330
7F45
102
}
330
7F45
  0
DICTIONARYVAR
  5
80AA
102
{ACAD_REACTORS
330
80A9
102
}
330
80A9
100
DictionaryVariables
280
     0
  1
1
  0
ENDSEC
  0
EOF
