  0
SECTION
  2
HEADER
  9
$ACADVER
  1
AC1009
  9
$INSBASE
 10
0.0
 20
0.0
 30
0.0
  9
$EXTMIN
 10
-3452.677878
 20
-2113.1262849999998
 30
0.0
  9
$EXTMAX
 10
-252.67787799999991
 20
2860.1782379999991
 30
0.0
  9
$LIMMIN
 10
0.0
 20
0.0
  9
$LIMMAX
 10
297.0
 20
210.0
  9
$ORTHOMODE
 70
     0
  9
$REGENMODE
 70
     1
  9
$FILLMODE
 70
     0
  9
$QTEXTMODE
 70
     0
  9
$MIRRTEXT
 70
     1
  9
$DRAGMODE
 70
     2
  9
$LTSCALE
 40
5.0
  9
$OSMODE
 70
    37
  9
$ATTMODE
 70
     1
  9
$TEXTSIZE
 40
180.0
  9
$TRACEWID
 40
0.05
  9
$TEXTSTYLE
  7
STANDARD
  9
$CLAYER
  8
3
  9
$CELTYPE
  6
BYLAYER
  9
$CECOLOR
 62
   256
  9
$DIMSCALE
 40
20.0
  9
$DIMASZ
 40
2.0
  9
$DIMEXO
 40
0.5
  9
$DIMDLI
 40
10.0
  9
$DIMRND
 40
0.0
  9
$DIMDLE
 40
0.0
  9
$DIMEXE
 40
1.0
  9
$DIMTP
 40
1.0
  9
$DIMTM
 40
1.0
  9
$DIMTXT
 40
3.0
  9
$DIMCEN
 40
0.0
  9
$DIMTSZ
 40
0.0
  9
$DIMTOL
 70
     0
  9
$DIMLIM
 70
     0
  9
$DIMTIH
 70
     0
  9
$DIMTOH
 70
     0
  9
$DIMSE1
 70
     0
  9
$DIMSE2
 70
     0
  9
$DIMTAD
 70
     1
  9
$DIMZIN
 70
     8
  9
$DIMBLK
  1

  9
$DIMASO
 70
     1
  9
$DIMSHO
 70
     1
  9
$DIMPOST
  1

  9
$DIMAPOST
  1

  9
$DIMALT
 70
     0
  9
$DIMALTD
 70
     2
  9
$DIMALTF
 40
0.039
  9
$DIMLFAC
 40
1.0
  9
$DIMTOFL
 70
     1
  9
$DIMTVP
 40
0.0
  9
$DIMTIX
 70
     0
  9
$DIMSOXD
 70
     0
  9
$DIMSAH
 70
     1
  9
$DIMBLK1
  1
OPEN
  9
$DIMBLK2
  1
OPEN
  9
$DIMSTYLE
  2
IGA
  9
$DIMCLRD
 70
     0
  9
$DIMCLRE
 70
     0
  9
$DIMCLRT
 70
     0
  9
$DIMTFAC
 40
10.0
  9
$DIMGAP
 40
1.0
  9
$LUNITS
 70
     2
  9
$LUPREC
 70
     3
  9
$SKETCHINC
 40
0.1
  9
$FILLETRAD
 40
50.0
  9
$AUNITS
 70
     0
  9
$AUPREC
 70
     0
  9
$MENU
  1
acad
  9
$ELEVATION
 40
0.0
  9
$PELEVATION
 40
0.0
  9
$THICKNESS
 40
0.0
  9
$LIMCHECK
 70
     0
  9
$BLIPMODE
 70
     0
  9
$CHAMFERA
 40
0.5
  9
$CHAMFERB
 40
0.5
  9
$SKPOLY
 70
     0
  9
$TDCREATE
 40
2450785.679291666
  9
$TDUPDATE
 40
2454953.8566256361
  9
$TDINDWG
 40
0.0115446296
  9
$TDUSRTIMER
 40
0.0115446296
  9
$USRTIMER
 70
     1
  9
$ANGBASE
 50
0.0
  9
$ANGDIR
 70
     0
  9
$PDMODE
 70
     0
  9
$PDSIZE
 40
0.0
  9
$PLINEWID
 40
0.0
  9
$COORDS
 70
     1
  9
$SPLFRAME
 70
     0
  9
$SPLINETYPE
 70
     6
  9
$SPLINESEGS
 70
     8
  9
$ATTDIA
 70
     0
  9
$ATTREQ
 70
     1
  9
$HANDLING
 70
 10241
  9
$HANDSEED
  5
7EBF
  9
$SURFTAB1
 70
     6
  9
$SURFTAB2
 70
     6
  9
$SURFTYPE
 70
     6
  9
$SURFU
 70
     6
  9
$SURFV
 70
     6
  9
$UCSNAME
  2

  9
$UCSORG
 10
0.0
 20
0.0
 30
0.0
  9
$UCSXDIR
 10
1.0
 20
0.0
 30
0.0
  9
$UCSYDIR
 10
0.0
 20
1.0
 30
0.0
  9
$PUCSNAME
  2

  9
$PUCSORG
 10
0.0
 20
0.0
 30
0.0
  9
$PUCSXDIR
 10
1.0
 20
0.0
 30
0.0
  9
$PUCSYDIR
 10
0.0
 20
1.0
 30
0.0
  9
$USERI1
 70
     0
  9
$USERI2
 70
     0
  9
$USERI3
 70
     0
  9
$USERI4
 70
     0
  9
$USERI5
 70
     0
  9
$USERR1
 40
0.0
  9
$USERR2
 40
0.0
  9
$USERR3
 40
0.0
  9
$USERR4
 40
0.0
  9
$USERR5
 40
0.0
  9
$WORLDVIEW
 70
     1
  9
$SHADEDGE
 70
     3
  9
$SHADEDIF
 70
    70
  9
$TILEMODE
 70
     1
  9
$MAXACTVP
 70
    16
  9
$PLIMCHECK
 70
     0
  9
$PEXTMIN
 10
1.0000000000000000E+020
 20
1.0000000000000000E+020
 30
1.0000000000000000E+020
  9
$PEXTMAX
 10
-1.0000000000000000E+020
 20
-1.0000000000000000E+020
 30
-1.0000000000000000E+020
  9
$PLIMMIN
 10
0.0
 20
0.0
  9
$PLIMMAX
 10
12.0
 20
9.0
  9
$UNITMODE
 70
     0
  9
$VISRETAIN
 70
     0
  9
$PLINEGEN
 70
     0
  9
$PSLTSCALE
 70
     1
  0
ENDSEC
  0
SECTION
  2
TABLES
  0
TABLE
  2
VPORT
 70
     2
  0
VPORT
  2
*ACTIVE
 70
     0
 10
0.0
 20
0.0
 11
1.0
 21
1.0
 12
-1612.521164884233
 22
796.22048092261639
 13
0.0
 23
0.0
 14
10.0
 24
10.0
 15
10.0
 25
10.0
 16
0.0
 26
0.0
 36
1.0
 17
0.0
 27
0.0
 37
0.0
 40
7189.7779686899303
 41
1.5051150895140659
 42
50.0
 43
0.0
 44
0.0
 50
0.0
 51
0.0
 71
     0
 72
   100
 73
     1
 74
     0
 75
     0
 76
     0
 77
     0
 78
     0
  0
ENDTAB
  0
TABLE
  2
LTYPE
 70
     2
  0
LTYPE
  2
CONTINUOUS
 70
     0
  3
Solid line
 72
    65
 73
     0
 40
0.0
  0
LTYPE
  2
CENTER
 70
     0
  3
____ _ ____ _ ____ _ ____ _ ____ _ ____ _ ____ 
 72
    65
 73
     4
 40
2.0
 49
1.25
 49
-0.25
 49
0.25
 49
-0.25
  0
ENDTAB
  0
TABLE
  2
LAYER
 70
     6
  0
LAYER
  2
0
 70
     0
 62
     7
  6
CONTINUOUS
  0
LAYER
  2
3
 70
     0
 62
     2
  6
CONTINUOUS
  0
LAYER
  2
2
 70
     0
 62
     3
  6
CENTER
  0
LAYER
  2
1
 70
     0
 62
     4
  6
CONTINUOUS
  0
LAYER
  2
4
 70
     0
 62
     7
  6
CONTINUOUS
  0
LAYER
  2
DEFPOINTS
 70
     0
 62
     7
  6
CONTINUOUS
  0
ENDTAB
  0
TABLE
  2
STYLE
 70
     1
  0
STYLE
  2
STANDARD
 70
     0
 40
0.0
 41
1.0
 50
0.0
 71
     0
 42
180.0
  3
simplex.shx
  4
extfont.shx
  0
ENDTAB
  0
TABLE
  2
VIEW
 70
     0
  0
ENDTAB
  0
TABLE
  2
UCS
 70
     0
  0
ENDTAB
  0
TABLE
  2
APPID
 70
     1
  0
APPID
  2
ACAD
 70
     0
  0
ENDTAB
  0
TABLE
  2
DIMSTYLE
 70
     1
  0
DIMSTYLE
  2
IGA
 70
     0
  3

  4

  5

  6
OPEN
  7
OPEN
 40
2.0
 41
2.0
 42
0.5
 43
10.0
 44
1.0
 45
0.0
 46
0.0
 47
1.0
 48
1.0
140
3.0
141
0.0
142
0.0
143
0.03937
144
1.0
145
0.0
146
10.0
147
1.0
 71
     0
 72
     0
 73
     0
 74
     0
 75
     0
 76
     0
 77
     1
 78
     8
170
     0
171
     2
172
     0
173
     1
174
     0
175
     0
176
     0
177
     0
178
     0
  0
ENDTAB
  0
ENDSEC
  0
SECTION
  2
BLOCKS
  0
BLOCK
  8
0
  2
$MODEL_SPACE
 70
     0
 10
0.0
 20
0.0
 30
0.0
  3
$MODEL_SPACE
  1

  0
ENDBLK
  5
1B
  8
0
  0
BLOCK
 67
     1
  8
0
  2
$PAPER_SPACE
 70
     0
 10
0.0
 20
0.0
 30
0.0
  3
$PAPER_SPACE
  1

  0
ENDBLK
  5
18
 67
     1
  8
0
  0
BLOCK
  8
0
  2
_OPEN
 70
     0
 10
0.0
 20
0.0
 30
0.0
  3
_OPEN
  1

  0
LINE
  5
7A8D
  8
0
  6
BYBLOCK
 62
     0
 10
-1.0
 20
0.166667
 30
0.0
 11
0.0
 21
0.0
 31
0.0
  0
LINE
  5
7A8E
  8
0
  6
BYBLOCK
 62
     0
 10
0.0
 20
0.0
 30
0.0
 11
-1.0
 21
-0.166667
 31
0.0
  0
LINE
  5
7A8F
  8
0
  6
BYBLOCK
 62
     0
 10
0.0
 20
0.0
 30
0.0
 11
-1.0
 21
0.0
 31
0.0
  0
ENDBLK
  5
7A90
  8
0
  0
BLOCK
  8
0
  2
*D1
 70
     1
 10
0.0
 20
0.0
 30
0.0
  3
*D1
  1

  0
LINE
  5
7E40
  8
3
  6
CONTINUOUS
 62
     0
 10
-2835.5829349999999
 20
-831.31821700000012
 30
0.0
 11
-2835.5829349999999
 21
-993.33114499999988
 31
0.0
  0
LINE
  5
7E41
  8
3
  6
CONTINUOUS
 62
     0
 10
-1865.5829349999999
 20
-831.31821700000012
 30
0.0
 11
-1865.5829349999999
 21
-993.33114499999988
 31
0.0
  0
LINE
  5
7E42
  8
3
  6
CONTINUOUS
 62
     0
 10
-2795.5829349999999
 20
-973.33114499999976
 30
0.0
 11
-1905.5829349999999
 21
-973.33114499999976
 31
0.0
  0
INSERT
  5
7E43
  8
3
  6
CONTINUOUS
 62
     0
  2
_OPEN
 10
-2835.5829349999999
 20
-973.33114499999976
 30
0.0
 41
40.0
 42
40.0
 43
40.0
 50
180.0
  0
INSERT
  5
7E44
  8
3
  6
CONTINUOUS
 62
     0
  2
_OPEN
 10
-1865.5829349999999
 20
-973.33114499999976
 30
0.0
 41
40.0
 42
40.0
 43
40.0
  0
TEXT
  8
3
  40
60
  5
7EB3
  62
0
  72
0
  71
0
 10
-2477.81
 20
-1029.53
 30
0.000000
  1
970
  0
POINT
  5
7E46
  8
DEFPOINTS
  6
CONTINUOUS
 62
     0
 10
-2835.5829349999999
 20
-821.31821699999989
 30
0.0
  0
POINT
  5
7E47
  8
DEFPOINTS
  6
CONTINUOUS
 62
     0
 10
-1865.5829349999999
 20
-821.31821700000012
 30
0.0
  0
POINT
  5
7E48
  8
DEFPOINTS
  6
CONTINUOUS
 62
     0
 10
-1865.5829349999999
 20
-973.33114499999976
 30
0.0
  0
ENDBLK
  5
7C17
  8
0
  0
BLOCK
  8
0
  2
*D2
 70
     1
 10
0.0
 20
0.0
 30
0.0
  3
*D2
  1

  0
LINE
  5
7E49
  8
3
  6
CONTINUOUS
 62
     0
 10
-2755.5829349999999
 20
-146.31821699999989
 30
0.0
 11
-3156.7745135379728
 21
-146.31821699999981
 31
0.0
  0
LINE
  5
7E4A
  8
3
  6
CONTINUOUS
 62
     0
 10
-2845.5829349999999
 20
-821.31821699999989
 30
0.0
 11
-3156.7745135379728
 21
-821.31821699999989
 31
0.0
  0
LINE
  5
7E4B
  8
3
  6
CONTINUOUS
 62
     0
 10
-3136.7745135379728
 20
-186.31821699999981
 30
0.0
 11
-3136.7745135379728
 21
-781.318217
 31
0.0
  0
INSERT
  5
7E4C
  8
3
  6
CONTINUOUS
 62
     0
  2
_OPEN
 10
-3136.7745135379728
 20
-146.31821699999981
 30
0.0
 41
40.0
 42
40.0
 43
40.0
 50
90.0
  0
INSERT
  5
7E4D
  8
3
  6
CONTINUOUS
 62
     0
  2
_OPEN
 10
-3136.7745135379728
 20
-821.31821699999989
 30
0.0
 41
40.0
 42
40.0
 43
40.0
 50
270.0
  0
TEXT
  8
3
  40
60
  5
7EB4
  62
0
  72
0
  71
0
 10
-3306.77
 20
-589.312
 30
0.000000
  1
675
  0
POINT
  5
7E4F
  8
DEFPOINTS
  6
CONTINUOUS
 62
     0
 10
-2745.582934999999
 20
-146.318217
 30
0.0
  0
POINT
  5
7E50
  8
DEFPOINTS
  6
CONTINUOUS
 62
     0
 10
-2835.5829349999999
 20
-821.31821699999989
 30
0.0
  0
POINT
  5
7E51
  8
DEFPOINTS
  6
CONTINUOUS
 62
     0
 10
-3136.7745135379728
 20
-821.31821699999989
 30
0.0
  0
ENDBLK
  5
7CA5
  8
0
  0
BLOCK
  8
0
  2
*D3
 70
     1
 10
0.0
 20
0.0
 30
0.0
  3
*D3
  1

  0
LINE
  5
7E52
  8
3
  6
CONTINUOUS
 62
     0
 10
-1848.5088519999999
 20
-486.31821699999989
 30
0.0
 11
-1671.352517999999
 21
-486.31821699999989
 31
0.0
  0
LINE
  5
7E53
  8
3
  6
CONTINUOUS
 62
     0
 10
-1855.5829349999999
 20
-821.31821699999989
 30
0.0
 11
-1671.3525179999999
 21
-821.31821700000012
 31
0.0
  0
LINE
  5
7E54
  8
3
  6
CONTINUOUS
 62
     0
 10
-1691.3525179999999
 20
-446.318217
 30
0.0
 11
-1691.3525179999999
 21
-406.318217
 31
0.0
  0
LINE
  5
7E55
  8
3
  6
CONTINUOUS
 62
     0
 10
-1691.3525179999999
 20
-861.31821700000012
 30
0.0
 11
-1691.3525179999999
 21
-901.31821700000023
 31
0.0
  0
LINE
  5
7E56
  8
3
  6
CONTINUOUS
 62
     0
 10
-1691.3525179999999
 20
-486.31821699999989
 30
0.0
 11
-1691.3525179999999
 21
-821.31821700000012
 31
0.0
  0
INSERT
  5
7E57
  8
3
  6
CONTINUOUS
 62
     0
  2
_OPEN
 10
-1691.3525179999999
 20
-486.31821699999989
 30
0.0
 41
40.0
 42
40.0
 43
40.0
 50
270.0
  0
INSERT
  5
7E58
  8
3
  6
CONTINUOUS
 62
     0
  2
_OPEN
 10
-1691.3525179999999
 20
-821.31821700000012
 30
0.0
 41
40.0
 42
40.0
 43
40.0
 50
90.0
  0
TEXT
  8
3
  40
60
  5
7EB5
  62
0
  72
0
  71
0
 10
-1861.35
 20
-729.661
 30
0.000000
  1
335
  0
POINT
  5
7E5A
  8
DEFPOINTS
  6
CONTINUOUS
 62
     0
 10
-1858.508851999999
 20
-486.31821699999989
 30
0.0
  0
POINT
  5
7E5B
  8
DEFPOINTS
  6
CONTINUOUS
 62
     0
 10
-1865.5829349999999
 20
-821.31821699999989
 30
0.0
  0
POINT
  5
7E5C
  8
DEFPOINTS
  6
CONTINUOUS
 62
     0
 10
-1691.3525179999999
 20
-821.31821700000012
 30
0.0
  0
ENDBLK
  5
7C64
  8
0
  0
BLOCK
  8
0
  2
*D4
 70
     1
 10
0.0
 20
0.0
 30
0.0
  3
*D4
  1

  0
LINE
  5
7E5D
  8
3
  6
CONTINUOUS
 62
     0
 10
-2745.5829349999999
 20
-136.31821699999989
 30
0.0
 11
-2745.5829349999999
 21
9.3085470000000043
 31
0.0
  0
LINE
  5
7E5E
  8
3
  6
CONTINUOUS
 62
     0
 10
-1955.5829349999999
 20
-136.31821699999989
 30
0.0
 11
-1955.5829349999999
 21
9.3085470000000043
 31
0.0
  0
LINE
  5
7E5F
  8
3
  6
CONTINUOUS
 62
     0
 10
-2705.5829349999999
 20
-10.69145299999999
 30
0.0
 11
-1995.5829349999999
 21
-10.69145299999999
 31
0.0
  0
INSERT
  5
7E60
  8
3
  6
CONTINUOUS
 62
     0
  2
_OPEN
 10
-2745.5829349999999
 20
-10.69145299999999
 30
0.0
 41
40.0
 42
40.0
 43
40.0
 50
180.0
  0
INSERT
  5
7E61
  8
3
  6
CONTINUOUS
 62
     0
  2
_OPEN
 10
-1955.5829349999999
 20
-10.69145299999999
 30
0.0
 41
40.0
 42
40.0
 43
40.0
  0
TEXT
  8
3
  40
60
  5
7EB6
  62
0
  72
0
  71
0
 10
-2486.49
 20
-66.8915
 30
0.000000
  1
790
  0
POINT
  5
7E63
  8
DEFPOINTS
  6
CONTINUOUS
 62
     0
 10
-2745.5829349999999
 20
-146.318217
 30
0.0
  0
POINT
  5
7E64
  8
DEFPOINTS
  6
CONTINUOUS
 62
     0
 10
-1955.5829349999999
 20
-146.318217
 30
0.0
  0
POINT
  5
7E65
  8
DEFPOINTS
  6
CONTINUOUS
 62
     0
 10
-1955.5829349999999
 20
-10.69145299999999
 30
0.0
  0
ENDBLK
  5
7C2D
  8
0
  0
BLOCK
  8
0
  2
*D5
 70
     1
 10
0.0
 20
0.0
 30
0.0
  3
*D5
  1

  0
LINE
  5
7E66
  8
3
  6
CONTINUOUS
 62
     0
 10
-2745.5201259999999
 20
642.0230889999998
 30
0.0
 11
-2745.5201259999999
 21
442.40234099999998
 31
0.0
  0
LINE
  5
7E67
  8
3
  6
CONTINUOUS
 62
     0
 10
-1955.5201259999999
 20
642.02308899999991
 30
0.0
 11
-1955.5201259999999
 21
442.40234099999998
 31
0.0
  0
LINE
  5
7E68
  8
3
  6
CONTINUOUS
 62
     0
 10
-2705.5201259999999
 20
462.40234099999998
 30
0.0
 11
-1995.5201259999999
 21
462.40234099999998
 31
0.0
  0
INSERT
  5
7E69
  8
3
  6
CONTINUOUS
 62
     0
  2
_OPEN
 10
-2745.5201259999999
 20
462.40234099999998
 30
0.0
 41
40.0
 42
40.0
 43
40.0
 50
180.0
  0
INSERT
  5
7E6A
  8
3
  6
CONTINUOUS
 62
     0
  2
_OPEN
 10
-1955.5201259999999
 20
462.40234099999998
 30
0.0
 41
40.0
 42
40.0
 43
40.0
  0
TEXT
  8
3
  40
60
  5
7EB7
  62
0
  72
0
  71
0
 10
-2464.78
 20
406.202
 30
0.000000
  1
790
  0
POINT
  5
7E6C
  8
DEFPOINTS
  6
CONTINUOUS
 62
     0
 10
-2745.5201259999999
 20
652.02308899999969
 30
0.0
  0
POINT
  5
7E6D
  8
DEFPOINTS
  6
CONTINUOUS
 62
     0
 10
-1955.5201259999999
 20
652.02308899999991
 30
0.0
  0
POINT
  5
7E6E
  8
DEFPOINTS
  6
CONTINUOUS
 62
     0
 10
-1955.5201259999999
 20
462.40234099999998
 30
0.0
  0
ENDBLK
  5
7C91
  8
0
  0
BLOCK
  8
0
  2
*D6
 70
     1
 10
0.0
 20
0.0
 30
0.0
  3
*D6
  1

  0
LINE
  5
7E6F
  8
3
  6
CONTINUOUS
 62
     0
 10
-1855.5201259999999
 20
1252.023089
 30
0.0
 11
-1694.377665999999
 21
1252.023089
 31
0.0
  0
LINE
  5
7E70
  8
3
  6
CONTINUOUS
 62
     0
 10
-1855.5201259999999
 20
652.02308899999991
 30
0.0
 11
-1694.377665999999
 21
652.02308899999969
 31
0.0
  0
LINE
  5
7E71
  8
3
  6
CONTINUOUS
 62
     0
 10
-1714.3776660000001
 20
1212.023089
 30
0.0
 11
-1714.3776660000001
 21
692.0230889999998
 31
0.0
  0
INSERT
  5
7E72
  8
3
  6
CONTINUOUS
 62
     0
  2
_OPEN
 10
-1714.3776660000001
 20
1252.023089
 30
0.0
 41
40.0
 42
40.0
 43
40.0
 50
90.0
  0
INSERT
  5
7E73
  8
3
  6
CONTINUOUS
 62
     0
  2
_OPEN
 10
-1714.3776660000001
 20
652.02308899999969
 30
0.0
 41
40.0
 42
40.0
 43
40.0
 50
270.0
  0
TEXT
  8
3
  40
60
  5
7EB8
  62
0
  72
0
  71
0
 10
-1884.38
 20
857.917
 30
0.000000
  1
600
  0
POINT
  5
7E75
  8
DEFPOINTS
  6
CONTINUOUS
 62
     0
 10
-1865.5201259999999
 20
1252.023089
 30
0.0
  0
POINT
  5
7E76
  8
DEFPOINTS
  6
CONTINUOUS
 62
     0
 10
-1865.5201259999999
 20
652.02308899999991
 30
0.0
  0
POINT
  5
7E77
  8
DEFPOINTS
  6
CONTINUOUS
 62
     0
 10
-1714.3776660000001
 20
652.02308899999969
 30
0.0
  0
ENDBLK
  5
7C7B
  8
0
  0
BLOCK
  8
0
  2
*D7
 70
     1
 10
0.0
 20
0.0
 30
0.0
  3
*D7
  1

  0
LINE
  5
7E78
  8
3
  6
CONTINUOUS
 62
     0
 10
-1108.676635
 20
-831.31821699999989
 30
0.0
 11
-1108.676635
 21
-1026.9975300000001
 31
0.0
  0
LINE
  5
7E79
  8
3
  6
CONTINUOUS
 62
     0
 10
-508.67663499999992
 20
-831.31821700000012
 30
0.0
 11
-508.67663499999992
 21
-1026.9975300000001
 31
0.0
  0
LINE
  5
7E7A
  8
3
  6
CONTINUOUS
 62
     0
 10
-1068.676635
 20
-1006.99753
 30
0.0
 11
-548.67663500000003
 21
-1006.99753
 31
0.0
  0
INSERT
  5
7E7B
  8
3
  6
CONTINUOUS
 62
     0
  2
_OPEN
 10
-1108.676635
 20
-1006.99753
 30
0.0
 41
40.0
 42
40.0
 43
40.0
 50
180.0
  0
INSERT
  5
7E7C
  8
3
  6
CONTINUOUS
 62
     0
  2
_OPEN
 10
-508.67663499999992
 20
-1006.99753
 30
0.0
 41
40.0
 42
40.0
 43
40.0
  0
TEXT
  8
3
  40
60
  5
7EB9
  62
0
  72
0
  71
0
 10
-913.927
 20
-1063.20
 30
0.000000
  1
600
  0
POINT
  5
7E7E
  8
DEFPOINTS
  6
CONTINUOUS
 62
     0
 10
-1108.676635
 20
-821.31821699999989
 30
0.0
  0
POINT
  5
7E7F
  8
DEFPOINTS
  6
CONTINUOUS
 62
     0
 10
-508.67663499999992
 20
-821.31821699999989
 30
0.0
  0
POINT
  5
7E80
  8
DEFPOINTS
  6
CONTINUOUS
 62
     0
 10
-508.67663499999992
 20
-1006.99753
 30
0.0
  0
ENDBLK
  5
7C01
  8
0
  0
BLOCK
  8
0
  2
*D8
 70
     1
 10
0.0
 20
0.0
 30
0.0
  3
*D8
  1

  0
LINE
  5
7E81
  8
3
  6
CONTINUOUS
 62
     0
 10
-1123.676635
 20
-136.31821699999989
 30
0.0
 11
-1123.676635
 21
8.1656690000000083
 31
0.0
  0
LINE
  5
7E82
  8
3
  6
CONTINUOUS
 62
     0
 10
-808.67663499999992
 20
-105.0830159999999
 30
0.0
 11
-808.67663499999992
 21
8.1656690000000083
 31
0.0
  0
LINE
  5
7E83
  8
3
  6
CONTINUOUS
 62
     0
 10
-1083.676635
 20
-11.834331000000001
 30
0.0
 11
-848.67663499999992
 21
-11.834331000000001
 31
0.0
  0
INSERT
  5
7E84
  8
3
  6
CONTINUOUS
 62
     0
  2
_OPEN
 10
-1123.676635
 20
-11.834331000000001
 30
0.0
 41
40.0
 42
40.0
 43
40.0
 50
180.0
  0
INSERT
  5
7E85
  8
3
  6
CONTINUOUS
 62
     0
  2
_OPEN
 10
-808.67663499999992
 20
-11.834331000000001
 30
0.0
 41
40.0
 42
40.0
 43
40.0
  0
TEXT
  8
3
  40
60
  5
7EBA
  62
0
  72
0
  71
0
 10
-1060.11
 20
-68.0343
 30
0.000000
  1
315
  0
POINT
  5
7E87
  8
DEFPOINTS
  6
CONTINUOUS
 62
     0
 10
-1123.676635
 20
-146.318217
 30
0.0
  0
POINT
  5
7E88
  8
DEFPOINTS
  6
CONTINUOUS
 62
     0
 10
-808.67663499999992
 20
-115.0830159999999
 30
0.0
  0
POINT
  5
7E89
  8
DEFPOINTS
  6
CONTINUOUS
 62
     0
 10
-808.67663499999992
 20
-11.834331000000001
 30
0.0
  0
ENDBLK
  5
7BF6
  8
0
  0
BLOCK
  8
0
  2
*D9
 70
     1
 10
0.0
 20
0.0
 30
0.0
  3
*D9
  1

  0
LINE
  5
7E8A
  8
3
  6
CONTINUOUS
 62
     0
 10
-493.67663499999998
 20
-136.31821699999989
 30
0.0
 11
-493.67663499999998
 21
8.1656690000000083
 31
0.0
  0
LINE
  5
7E8B
  8
3
  6
CONTINUOUS
 62
     0
 10
-768.67663499999992
 20
-11.834331000000001
 30
0.0
 11
-533.67663500000003
 21
-11.834331000000001
 31
0.0
  0
TEXT
  8
3
  40
60
  5
7EBB
  62
0
  72
0
  71
0
 10
-750.492
 20
-64.5665
 30
0.000000
  1
315
  0
INSERT
  5
7E8D
  8
3
  6
CONTINUOUS
 62
     0
  2
_OPEN
 10
-808.67663499999992
 20
-11.834331000000001
 30
0.0
 41
40.0
 42
40.0
 43
40.0
 50
180.0
  0
INSERT
  5
7E8E
  8
3
  6
CONTINUOUS
 62
     0
  2
_OPEN
 10
-493.67663499999998
 20
-11.834331000000001
 30
0.0
 41
40.0
 42
40.0
 43
40.0
  0
POINT
  5
7E8F
  8
DEFPOINTS
  6
CONTINUOUS
 62
     0
 10
-808.67663499999992
 20
-115.0830159999999
 30
0.0
  0
POINT
  5
7E90
  8
DEFPOINTS
  6
CONTINUOUS
 62
     0
 10
-493.67663499999998
 20
-146.318217
 30
0.0
  0
POINT
  5
7E91
  8
DEFPOINTS
  6
CONTINUOUS
 62
     0
 10
-493.67663499999998
 20
-11.834331000000001
 30
0.0
  0
ENDBLK
  5
7BEB
  8
0
  0
BLOCK
  8
0
  2
*D10
 70
     1
 10
0.0
 20
0.0
 30
0.0
  3
*D10
  1

  0
LINE
  5
7E92
  8
3
  6
CONTINUOUS
 62
     0
 10
-913.67663500000003
 20
-336.31821699999989
 30
0.0
 11
-913.67663500000003
 21
-240.6526769999999
 31
0.0
  0
LINE
  5
7E93
  8
3
  6
CONTINUOUS
 62
     0
 10
-703.67663499999992
 20
-336.31821699999989
 30
0.0
 11
-703.67663499999992
 21
-240.6526769999999
 31
0.0
  0
LINE
  5
7E94
  8
3
  6
CONTINUOUS
 62
     0
 10
-953.67663499999981
 20
-260.65267699999993
 30
0.0
 11
-993.67663499999992
 21
-260.65267699999993
 31
0.0
  0
LINE
  5
7E95
  8
3
  6
CONTINUOUS
 62
     0
 10
-663.67663499999992
 20
-260.65267699999993
 30
0.0
 11
-623.67663499999992
 21
-260.65267699999993
 31
0.0
  0
LINE
  5
7E96
  8
3
  6
CONTINUOUS
 62
     0
 10
-913.67663500000003
 20
-260.65267699999993
 30
0.0
 11
-703.67663499999992
 21
-260.65267699999993
 31
0.0
  0
INSERT
  5
7E97
  8
3
  6
CONTINUOUS
 62
     0
  2
_OPEN
 10
-913.67663500000003
 20
-260.65267699999993
 30
0.0
 41
40.0
 42
40.0
 43
40.0
  0
INSERT
  5
7E98
  8
3
  6
CONTINUOUS
 62
     0
  2
_OPEN
 10
-703.67663499999992
 20
-260.65267699999993
 30
0.0
 41
40.0
 42
40.0
 43
40.0
 50
180.0
  0
TEXT
  8
3
  40
60
  5
7EBC
  62
0
  72
0
  71
0
 10
-928.677
 20
-316.853
 30
0.000000
  1
210
  0
POINT
  5
7E9A
  8
DEFPOINTS
  6
CONTINUOUS
 62
     0
 10
-913.67663500000003
 20
-346.318217
 30
0.0
  0
POINT
  5
7E9B
  8
DEFPOINTS
  6
CONTINUOUS
 62
     0
 10
-703.67663499999992
 20
-346.318217
 30
0.0
  0
POINT
  5
7E9C
  8
DEFPOINTS
  6
CONTINUOUS
 62
     0
 10
-703.67663499999992
 20
-260.65267699999993
 30
0.0
  0
ENDBLK
  5
7B8F
  8
0
  0
BLOCK
  8
0
  2
*D11
 70
     1
 10
0.0
 20
0.0
 30
0.0
  3
*D11
  1

  0
LINE
  5
7E9D
  8
3
  6
CONTINUOUS
 62
     0
 10
-923.67663499999992
 20
-346.318217
 30
0.0
 11
-1009.101266
 21
-346.318217
 31
0.0
  0
LINE
  5
7E9E
  8
3
  6
CONTINUOUS
 62
     0
 10
-923.67663499999992
 20
-626.318217
 30
0.0
 11
-1009.101266
 21
-626.318217
 31
0.0
  0
LINE
  5
7E9F
  8
3
  6
CONTINUOUS
 62
     0
 10
-989.10126600000035
 20
-306.318217
 30
0.0
 11
-989.10126600000035
 21
-266.318217
 31
0.0
  0
LINE
  5
7EA0
  8
3
  6
CONTINUOUS
 62
     0
 10
-989.10126600000035
 20
-666.31821699999989
 30
0.0
 11
-989.10126600000035
 21
-706.318217
 31
0.0
  0
LINE
  5
7EA1
  8
3
  6
CONTINUOUS
 62
     0
 10
-989.10126600000035
 20
-346.318217
 30
0.0
 11
-989.10126600000035
 21
-626.318217
 31
0.0
  0
INSERT
  5
7EA2
  8
3
  6
CONTINUOUS
 62
     0
  2
_OPEN
 10
-989.10126600000035
 20
-346.318217
 30
0.0
 41
40.0
 42
40.0
 43
40.0
 50
270.0
  0
INSERT
  5
7EA3
  8
3
  6
CONTINUOUS
 62
     0
  2
_OPEN
 10
-989.10126600000035
 20
-626.318217
 30
0.0
 41
40.0
 42
40.0
 43
40.0
 50
90.0
  0
TEXT
  8
3
  40
60
  5
7EBD
  62
0
  72
0
  71
0
 10
-1159.10
 20
-589.661
 30
0.000000
  1
280
  0
POINT
  5
7EA5
  8
DEFPOINTS
  6
CONTINUOUS
 62
     0
 10
-913.67663500000003
 20
-346.318217
 30
0.0
  0
POINT
  5
7EA6
  8
DEFPOINTS
  6
CONTINUOUS
 62
     0
 10
-913.67663500000003
 20
-626.318217
 30
0.0
  0
POINT
  5
7EA7
  8
DEFPOINTS
  6
CONTINUOUS
 62
     0
 10
-989.10126600000035
 20
-626.318217
 30
0.0
  0
ENDBLK
  5
7B9C
  8
0
  0
BLOCK
  8
0
  2
*D12
 70
     1
 10
0.0
 20
0.0
 30
0.0
  3
*D12
  1

  0
LINE
  5
7EA8
  8
3
 62
     0
 10
-2845.5829349999999
 20
-821.31821699999989
 30
0.0
 11
-2954.6489241158961
 21
-821.31821699999989
 31
0.0
  0
LINE
  5
7EA9
  8
3
 62
     0
 10
-2859.1961919999999
 20
-486.31821699999989
 30
0.0
 11
-2954.6489241158961
 21
-486.31821699999989
 31
0.0
  0
LINE
  5
7EAA
  8
3
 62
     0
 10
-2934.6489241158961
 20
-861.31821699999989
 30
0.0
 11
-2934.6489241158961
 21
-901.318217
 31
0.0
  0
LINE
  5
7EAB
  8
3
 62
     0
 10
-2934.6489241158961
 20
-446.318217
 30
0.0
 11
-2934.6489241158961
 21
-406.318217
 31
0.0
  0
LINE
  5
7EAC
  8
3
 62
     0
 10
-2934.6489241158961
 20
-821.31821699999989
 30
0.0
 11
-2934.6489241158961
 21
-486.31821699999989
 31
0.0
  0
INSERT
  5
7EAD
  8
3
 62
     0
  2
_OPEN
 10
-2934.6489241158961
 20
-821.31821699999989
 30
0.0
 41
40.0
 42
40.0
 43
40.0
 50
90.0
  0
INSERT
  5
7EAE
  8
3
 62
     0
  2
_OPEN
 10
-2934.6489241158961
 20
-486.31821699999989
 30
0.0
 41
40.0
 42
40.0
 43
40.0
 50
270.0
  0
TEXT
  8
3
  40
60
  5
7EBE
  62
0
  72
0
  71
0
 10
-3104.65
 20
-729.661
 30
0.000000
  1
335
  0
POINT
  5
7EB0
  8
DEFPOINTS
 62
     0
 10
-2835.5829349999999
 20
-821.31821699999989
 30
0.0
  0
POINT
  5
7EB1
  8
DEFPOINTS
 62
     0
 10
-2849.1961919999999
 20
-486.31821699999989
 30
0.0
  0
POINT
  5
7EB2
  8
DEFPOINTS
 62
     0
 10
-2934.6489241158961
 20
-486.31821699999989
 30
0.0
  0
ENDBLK
  5
7CB1
  8
0
  0
ENDSEC
  0
SECTION
  2
ENTITIES
  0
LINE
  5
7A48
  8
1
  6
CONTINUOUS
 10
-1955.5829349999999
 20
-146.318217
 30
0.0
 11
-2745.5829349999999
 21
-146.318217
 31
0.0
  0
LINE
  5
7A49
  8
1
  6
CONTINUOUS
 10
-2835.5829349999999
 20
-821.31821699999989
 30
0.0
 11
-1865.5829349999999
 21
-821.31821700000012
 31
0.0
  0
LINE
  5
7A4A
  8
1
  6
CONTINUOUS
 10
-2835.5829349999999
 20
-746.318217
 30
0.0
 11
-1865.5829349999999
 21
-746.31821700000012
 31
0.0
  0
LINE
  5
7A4B
  8
1
  6
CONTINUOUS
 10
-2835.5829349999999
 20
-821.31821699999989
 30
0.0
 11
-1865.5829349999999
 21
-821.31821700000012
 31
0.0
  0
ARC
  5
7A4C
  8
1
  6
CONTINUOUS
 10
-2474.5829349999999
 20
-383.318217
 30
0.0
 40
131.41051899999999
 50
96.842772999999994
 51
185.71059299999999
  0
LINE
  5
7A4D
  8
1
  6
CONTINUOUS
 10
-2745.5829349999999
 20
-594.318217
 30
0.0
 11
-2485.5829349999999
 21
-594.318217
 31
0.0
  0
LINE
  5
7A4E
  8
1
  6
CONTINUOUS
 10
-2745.582934999999
 20
-146.318217
 30
0.0
 11
-2745.5829349999999
 21
-741.31821699999989
 31
0.0
  0
LINE
  5
7A4F
  8
1
  6
CONTINUOUS
 10
-2745.5829350000008
 20
-746.31821700000012
 30
0.0
 11
-2745.582934999999
 21
-146.318217
 31
0.0
  0
LINE
  5
7A52
  8
1
  6
CONTINUOUS
 10
-2835.5829349999999
 20
-821.31821699999989
 30
0.0
 11
-2835.5829349999999
 21
-746.31821700000012
 31
0.0
  0
LINE
  5
7A53
  8
1
  6
CONTINUOUS
 10
-2605.532256
 20
-394.318217
 30
0.0
 11
-2745.5829349999999
 21
-394.318217
 31
0.0
  0
LINE
  5
7A54
  8
1
  6
CONTINUOUS
 10
-2770.5829349999999
 20
-321.318217
 30
0.0
 11
-2745.5829349999999
 21
-321.318217
 31
0.0
  0
LINE
  5
7A55
  8
1
  6
CONTINUOUS
 10
-2770.5829349999999
 20
-651.318217
 30
0.0
 11
-2745.5829349999999
 21
-651.318217
 31
0.0
  0
LINE
  5
7A56
  8
1
  6
CONTINUOUS
 10
-2770.5829349999999
 20
-321.318217
 30
0.0
 11
-2770.5829349999999
 21
-651.318217
 31
0.0
  0
LINE
  5
7A57
  8
1
  6
CONTINUOUS
 10
-2645.5829349999999
 20
-394.318217
 30
0.0
 11
-2645.5829349999999
 21
-594.318217
 31
0.0
  0
ARC
  5
7A58
  8
1
  6
CONTINUOUS
 10
-2471.5829349999999
 20
-408.31821699999989
 30
0.0
 40
156.589876
 50
1.9749339999999991
 51
96.842772999999994
  0
ARC
  5
7A59
  8
1
  6
CONTINUOUS
 10
-2500.5829349999999
 20
-409.318217
 30
0.0
 40
185.607112
 50
274.63546300000002
 51
1.9749339999999991
  0
LINE
  5
7A5A
  8
1
  6
CONTINUOUS
 10
-1955.5829349999999
 20
-746.31821700000023
 30
0.0
 11
-1955.5829349999999
 21
-146.318217
 31
0.0
  0
LINE
  5
7A5C
  8
1
  6
CONTINUOUS
 10
-1865.5829349999999
 20
-821.31821699999989
 30
0.0
 11
-1865.5829349999999
 21
-746.31821700000012
 31
0.0
  0
LINE
  5
7A5D
  8
1
  6
CONTINUOUS
 10
-1930.5829349999999
 20
-321.318217
 30
0.0
 11
-1930.5829349999999
 21
-651.318217
 31
0.0
  0
LINE
  5
7A5E
  8
1
  6
CONTINUOUS
 10
-1930.5829349999999
 20
-651.318217
 30
0.0
 11
-1955.5829349999999
 21
-651.318217
 31
0.0
  0
LINE
  5
7A5F
  8
1
  6
CONTINUOUS
 10
-1930.5829349999999
 20
-321.318217
 30
0.0
 11
-1955.5829349999999
 21
-321.318217
 31
0.0
  0
LINE
  5
7A60
  8
1
  6
CONTINUOUS
 10
-2745.5201259999999
 20
1267.023089
 30
0.0
 11
-2745.5201259999999
 21
637.02308899999991
 31
0.0
  0
LINE
  5
7A61
  8
1
  6
CONTINUOUS
 10
-1955.5201259999999
 20
637.02308899999991
 30
0.0
 11
-1955.5201259999999
 21
1267.023089
 31
0.0
  0
LINE
  5
7A62
  8
1
  6
CONTINUOUS
 10
-2745.5201259999999
 20
637.0230889999998
 30
0.0
 11
-1955.5201259999999
 21
637.02308899999991
 31
0.0
  0
LINE
  5
7A63
  8
1
  6
CONTINUOUS
 10
-2835.5201259999999
 20
692.02308899999991
 30
0.0
 11
-2745.5201259999999
 21
692.02308899999991
 31
0.0
  0
LINE
  5
7A64
  8
1
  6
CONTINUOUS
 10
-2835.5201259999999
 20
652.02308899999991
 30
0.0
 11
-2745.5201259999999
 21
652.02308899999991
 31
0.0
  0
LINE
  5
7A65
  8
1
  6
CONTINUOUS
 10
-2835.5201259999999
 20
692.02308899999991
 30
0.0
 11
-2835.5201259999999
 21
652.02308899999991
 31
0.0
  0
LINE
  5
7A66
  8
1
  6
CONTINUOUS
 10
-1865.5201259999999
 20
652.02308899999991
 30
0.0
 11
-1955.5201259999999
 21
652.02308899999991
 31
0.0
  0
LINE
  5
7A67
  8
1
  6
CONTINUOUS
 10
-1865.5201259999999
 20
692.02308899999991
 30
0.0
 11
-1865.5201259999999
 21
652.02308899999991
 31
0.0
  0
LINE
  5
7A68
  8
1
  6
CONTINUOUS
 10
-1865.5201259999999
 20
692.02308899999991
 30
0.0
 11
-1955.5201259999999
 21
692.02308899999991
 31
0.0
  0
LINE
  5
7A69
  8
1
  6
CONTINUOUS
 10
-1955.5201259999999
 20
1267.023089
 30
0.0
 11
-2745.5201259999999
 21
1267.023089
 31
0.0
  0
LINE
  5
7A6A
  8
1
  6
CONTINUOUS
 10
-2835.5201259999999
 20
1212.023089
 30
0.0
 11
-2745.5201259999999
 21
1212.023089
 31
0.0
  0
LINE
  5
7A6B
  8
1
  6
CONTINUOUS
 10
-2835.5201259999999
 20
1252.023089
 30
0.0
 11
-2745.5201259999999
 21
1252.023089
 31
0.0
  0
LINE
  5
7A6C
  8
1
  6
CONTINUOUS
 10
-2835.5201259999999
 20
1252.023089
 30
0.0
 11
-2835.5201259999999
 21
1212.023089
 31
0.0
  0
LINE
  5
7A6D
  8
1
  6
CONTINUOUS
 10
-2770.5201259999999
 20
1082.023089
 30
0.0
 11
-2745.5201259999999
 21
1082.023089
 31
0.0
  0
LINE
  5
7A6E
  8
1
  6
CONTINUOUS
 10
-2770.5201259999999
 20
822.02308899999991
 30
0.0
 11
-2745.5201259999999
 21
822.02308899999991
 31
0.0
  0
LINE
  5
7A6F
  8
1
  6
CONTINUOUS
 10
-2770.5201259999999
 20
1082.023089
 30
0.0
 11
-2770.5201259999999
 21
822.02308899999991
 31
0.0
  0
LINE
  5
7A70
  8
1
  6
CONTINUOUS
 10
-1930.5201259999999
 20
1082.023089
 30
0.0
 11
-1930.5201259999999
 21
822.02308899999991
 31
0.0
  0
LINE
  5
7A71
  8
1
  6
CONTINUOUS
 10
-1930.5201259999999
 20
822.02308899999991
 30
0.0
 11
-1955.5201259999999
 21
822.02308899999991
 31
0.0
  0
LINE
  5
7A72
  8
1
  6
CONTINUOUS
 10
-1930.5201259999999
 20
1082.023089
 30
0.0
 11
-1955.5201259999999
 21
1082.023089
 31
0.0
  0
LINE
  5
7A73
  8
1
  6
CONTINUOUS
 10
-1865.5201259999999
 20
1252.023089
 30
0.0
 11
-1955.5201259999999
 21
1252.023089
 31
0.0
  0
LINE
  5
7A74
  8
1
  6
CONTINUOUS
 10
-1865.5201259999999
 20
1252.023089
 30
0.0
 11
-1865.5201259999999
 21
1212.023089
 31
0.0
  0
LINE
  5
7A75
  8
1
  6
CONTINUOUS
 10
-1865.5201259999999
 20
1212.023089
 30
0.0
 11
-1955.5201259999999
 21
1212.023089
 31
0.0
  0
LINE
  5
7A76
  8
1
  6
CONTINUOUS
 10
-913.67663500000003
 20
-346.318217
 30
0.0
 11
-703.67663499999992
 21
-626.318217
 31
0.0
  0
LINE
  5
7A77
  8
1
  6
CONTINUOUS
 10
-913.67663500000003
 20
-626.318217
 30
0.0
 11
-703.67663499999992
 21
-346.318217
 31
0.0
  0
POLYLINE
  5
7A78
  8
1
  6
CONTINUOUS
 66
     1
 10
0.0
 20
0.0
 30
0.0
 70
     1
  0
VERTEX
  5
7E36
  8
1
  6
CONTINUOUS
 10
-938.67663500000003
 20
-651.318217
 30
0.0
  0
VERTEX
  5
7E37
  8
1
  6
CONTINUOUS
 10
-678.67663499999992
 20
-651.318217
 30
0.0
  0
VERTEX
  5
7E38
  8
1
  6
CONTINUOUS
 10
-678.67663499999992
 20
-321.318217
 30
0.0
  0
VERTEX
  5
7E39
  8
1
  6
CONTINUOUS
 10
-938.67663500000003
 20
-321.318217
 30
0.0
  0
SEQEND
  5
7E3A
  8
1
  6
CONTINUOUS
  0
POLYLINE
  5
7A7E
  8
1
  6
CONTINUOUS
 66
     1
 10
0.0
 20
0.0
 30
0.0
 70
     1
  0
VERTEX
  5
7E3B
  8
1
  6
CONTINUOUS
 10
-913.67663500000003
 20
-626.318217
 30
0.0
  0
VERTEX
  5
7E3C
  8
1
  6
CONTINUOUS
 10
-703.67663499999992
 20
-626.318217
 30
0.0
  0
VERTEX
  5
7E3D
  8
1
  6
CONTINUOUS
 10
-703.67663499999992
 20
-346.318217
 30
0.0
  0
VERTEX
  5
7E3E
  8
1
  6
CONTINUOUS
 10
-913.67663500000003
 20
-346.318217
 30
0.0
  0
SEQEND
  5
7E3F
  8
1
  6
CONTINUOUS
  0
LINE
  5
7A85
  8
1
  6
CONTINUOUS
 10
-493.67663499999998
 20
-746.318217
 30
0.0
 11
-1123.676635
 21
-746.318217
 31
0.0
  0
LINE
  5
7A86
  8
1
  6
CONTINUOUS
 10
-1108.676635
 20
-821.31821699999989
 30
0.0
 11
-508.67663499999992
 21
-821.31821699999989
 31
0.0
  0
LINE
  5
7A87
  8
1
  6
CONTINUOUS
 10
-1123.676635
 20
-146.318217
 30
0.0
 11
-1123.676635
 21
-746.318217
 31
0.0
  0
LINE
  5
7A89
  8
1
  6
CONTINUOUS
 10
-493.67663499999992
 20
-746.318217
 30
0.0
 11
-493.67663499999998
 21
-146.318217
 31
0.0
  0
DIMENSION
  5
7AAB
  8
3
  6
CONTINUOUS
  2
*D1
 10
-1865.5829349999999
 20
-973.33114499999976
 30
0.0
 11
-2357.8069879999989
 21
-973.33114499999976
 31
0.0
 70
   128
 13
-2835.5829349999999
 23
-821.31821699999989
 33
0.0
 14
-1865.5829349999999
 24
-821.31821700000012
 34
0.0
1001
ACAD
1000
DSTYLE
1002
{
1070
   287
1070
     3
1070
   287
1070
     3
1070
   287
1070
     3
1070
    40
1040
20.0
1070
   143
1040
0.039
1070
   172
1070
     1
1070
   271
1070
     0
1070
   279
1070
     0
1070
   288
1070
     1
1002
}
  0
DIMENSION
  5
7AB8
  8
3
  6
CONTINUOUS
  2
*D2
 10
-3136.7745135379728
 20
-821.31821699999989
 30
0.0
 11
-3136.7745135379728
 21
-483.11242899999991
 31
0.0
 70
   128
 13
-2745.582934999999
 23
-146.318217
 33
0.0
 14
-2835.5829349999999
 24
-821.31821699999989
 34
0.0
 50
90.0
1001
ACAD
1000
DSTYLE
1002
{
1070
   287
1070
     3
1070
   287
1070
     3
1070
   287
1070
     3
1070
    40
1040
20.0
1070
   143
1040
0.039
1070
   172
1070
     1
1070
   271
1070
     0
1070
   279
1070
     0
1070
   288
1070
     1
1002
}
  0
LINE
  5
7AB9
  8
2
  6
CENTER
 10
-2849.1961919999999
 20
-486.31821699999989
 30
0.0
 11
-1858.508851999999
 21
-486.31821699999989
 31
0.0
  0
DIMENSION
  5
7AC6
  8
3
  6
CONTINUOUS
  2
*D3
 10
-1691.3525179999999
 20
-821.31821700000012
 30
0.0
 11
-1691.3525179999999
 21
-623.461074142857
 31
0.0
 70
   128
 13
-1858.508851999999
 23
-486.31821699999989
 33
0.0
 14
-1865.5829349999999
 24
-821.31821699999989
 34
0.0
 50
90.0
1001
ACAD
1000
DSTYLE
1002
{
1070
   287
1070
     3
1070
   287
1070
     3
1070
   287
1070
     3
1070
    40
1040
20.0
1070
   143
1040
0.039
1070
   172
1070
     1
1070
   271
1070
     0
1070
   279
1070
     0
1070
   288
1070
     1
1002
}
  0
DIMENSION
  5
7AD3
  8
3
  6
CONTINUOUS
  2
*D4
 10
-1955.5829349999999
 20
-10.69145299999999
 30
0.0
 11
-2366.4904510000001
 21
-10.69145299999999
 31
0.0
 70
   128
 13
-2745.5829349999999
 23
-146.318217
 33
0.0
 14
-1955.5829349999999
 24
-146.318217
 34
0.0
1001
ACAD
1000
DSTYLE
1002
{
1070
   287
1070
     3
1070
   287
1070
     3
1070
   287
1070
     3
1070
    40
1040
20.0
1070
   143
1040
0.039
1070
   172
1070
     1
1070
   271
1070
     0
1070
   279
1070
     0
1070
   288
1070
     1
1002
}
  0
DIMENSION
  5
7AE0
  8
3
  6
CONTINUOUS
  2
*D5
 10
-1955.5201259999999
 20
462.40234099999998
 30
0.0
 11
-2344.781817
 21
462.40234099999998
 31
0.0
 70
   128
 13
-2745.5201259999999
 23
652.02308899999969
 33
0.0
 14
-1955.5201259999999
 24
652.02308899999991
 34
0.0
1001
ACAD
1000
DSTYLE
1002
{
1070
   287
1070
     3
1070
   287
1070
     3
1070
   287
1070
     3
1070
    40
1040
20.0
1070
   143
1040
0.039
1070
   172
1070
     1
1070
   271
1070
     0
1070
   279
1070
     0
1070
   288
1070
     1
1002
}
  0
DIMENSION
  5
7AED
  8
3
  6
CONTINUOUS
  2
*D6
 10
-1714.3776660000001
 20
652.02308899999969
 30
0.0
 11
-1714.3776660000001
 21
964.11732600000005
 31
0.0
 70
   128
 13
-1865.5201259999999
 23
1252.023089
 33
0.0
 14
-1865.5201259999999
 24
652.02308899999991
 34
0.0
 50
90.0
1001
ACAD
1000
DSTYLE
1002
{
1070
   287
1070
     3
1070
   287
1070
     3
1070
   287
1070
     3
1070
    40
1040
20.0
1070
   143
1040
0.039
1070
   172
1070
     1
1070
   271
1070
     0
1070
   279
1070
     0
1070
   288
1070
     1
1002
}
  0
LINE
  5
7AEE
  8
2
  6
CENTER
 10
-808.67663499999992
 20
-110.0830159999999
 30
0.0
 11
-808.67663499999992
 21
-158.434314560498
 31
0.0
  0
LINE
  5
7B30
  8
1
  6
CONTINUOUS
 10
-1108.676635
 20
-746.318217
 30
0.0
 11
-1108.676635
 21
-821.31821699999989
 31
0.0
  0
LINE
  5
7B32
  8
1
  6
CONTINUOUS
 10
-508.67663499999992
 20
-746.318217
 30
0.0
 11
-508.67663499999992
 21
-821.31821699999989
 31
0.0
  0
LINE
  5
7B36
  8
3
  6
CONTINUOUS
 10
-1930.5201259999999
 20
952.02308900000003
 30
0.0
 11
-1930.5201259999999
 21
952.02308900000003
 31
0.0
  0
LINE
  5
7B37
  8
2
  6
CENTER
 10
-2834.4808579999999
 20
952.02308900000003
 30
0.0
 11
-1864.058035999999
 21
952.02308900000003
 31
0.0
  0
DIMENSION
  5
7B44
  8
3
  6
CONTINUOUS
  2
*D7
 10
-508.67663499999992
 20
-1006.99753
 30
0.0
 11
-793.92742300000009
 21
-1006.99753
 31
0.0
 70
   128
 13
-1108.676635
 23
-821.31821699999989
 33
0.0
 14
-508.67663499999992
 24
-821.31821699999989
 34
0.0
1001
ACAD
1000
DSTYLE
1002
{
1070
   287
1070
     3
1070
   287
1070
     3
1070
   287
1070
     3
1070
    40
1040
20.0
1070
   143
1040
0.039
1070
   172
1070
     1
1070
   271
1070
     0
1070
   279
1070
     0
1070
   288
1070
     1
1002
}
  0
LINE
  5
7B45
  8
2
  6
CENTER
 10
-569.32394899999986
 20
-486.31821699999989
 30
0.0
 11
-998.37346999999988
 21
-486.31821699999989
 31
0.0
  0
LINE
  5
7B46
  8
1
  6
CONTINUOUS
 10
-1123.676635
 20
-146.318217
 30
0.0
 11
-493.67663499999998
 21
-146.318217
 31
0.0
  0
DIMENSION
  5
7B53
  8
3
  6
CONTINUOUS
  2
*D8
 10
-808.67663499999992
 20
-11.834331000000001
 30
0.0
 11
-940.10520642857136
 21
-11.834331000000001
 31
0.0
 70
   128
 13
-1123.676635
 23
-146.318217
 33
0.0
 14
-808.67663499999992
 24
-115.0830159999999
 34
0.0
1001
ACAD
1000
DSTYLE
1002
{
1070
   287
1070
     3
1070
   287
1070
     3
1070
   287
1070
     3
1070
    40
1040
20.0
1070
   143
1040
0.039
1070
   172
1070
     1
1070
   271
1070
     0
1070
   279
1070
     0
1070
   288
1070
     1
1002
}
  0
DIMENSION
  5
7B61
  8
3
  6
CONTINUOUS
  2
*D9
 10
-493.67663499999998
 20
-11.834331000000001
 30
0.0
 11
-630.49159399999996
 21
-8.3665469999999971
 31
0.0
 70
   128
 13
-808.67663499999992
 23
-115.0830159999999
 33
0.0
 14
-493.67663499999998
 24
-146.318217
 34
0.0
1001
ACAD
1000
DSTYLE
1002
{
1070
   287
1070
     4
1070
   287
1070
     4
1070
   287
1070
     4
1070
    40
1040
20.0
1070
    75
1070
     1
1070
   143
1040
0.039
1070
   172
1070
     1
1070
   271
1070
     0
1070
   279
1070
     1
1070
   288
1070
     1
1002
}
  0
DIMENSION
  5
7B90
  8
3
  6
CONTINUOUS
  2
*D10
 10
-703.67663499999992
 20
-260.65267699999993
 30
0.0
 11
-808.67663499999992
 21
-260.65267699999993
 31
0.0
 70
   128
 13
-913.67663500000003
 23
-346.318217
 33
0.0
 14
-703.67663499999992
 24
-346.318217
 34
0.0
1001
ACAD
1000
DSTYLE
1002
{
1070
   287
1070
     3
1070
   287
1070
     3
1070
   287
1070
     3
1070
    40
1040
20.0
1070
   143
1040
0.039
1070
   172
1070
     1
1070
   271
1070
     0
1070
   279
1070
     0
1070
   288
1070
     1
1002
}
  0
DIMENSION
  5
7B9D
  8
3
  6
CONTINUOUS
  2
*D11
 10
-989.10126600000035
 20
-626.318217
 30
0.0
 11
-989.10126600000012
 21
-483.461074
 31
0.0
 70
   128
 13
-913.67663500000003
 23
-346.318217
 33
0.0
 14
-913.67663500000003
 24
-626.318217
 34
0.0
 50
90.0
1001
ACAD
1000
DSTYLE
1002
{
1070
   287
1070
     3
1070
   287
1070
     3
1070
   287
1070
     3
1070
    40
1040
20.0
1070
   143
1040
0.039
1070
   172
1070
     1
1070
   271
1070
     0
1070
   279
1070
     0
1070
   288
1070
     1
1002
}
  0
LINE
  5
7B9E
  8
4
  6
CONTINUOUS
 10
-252.67787799999991
 20
-1713.1262850000001
 30
0.0
 11
-252.67787799999999
 21
-2113.1262849999998
 31
0.0
  0
LINE
  5
7B9F
  8
4
  6
CONTINUOUS
 10
-1652.677878
 20
-1713.1262850000001
 30
0.0
 11
-1652.677878
 21
-2113.1262849999998
 31
0.0
  0
LINE
  5
7BA0
  8
4
  6
CONTINUOUS
 10
-2652.677878
 20
-1713.1262850000001
 30
0.0
 11
-2652.677878
 21
-2113.1262849999998
 31
0.0
  0
LINE
  5
7BA3
  8
4
  6
CONTINUOUS
 10
-2652.677878
 20
-2113.1262849999998
 30
0.0
 11
-252.67787799999991
 21
-2113.1262849999998
 31
0.0
  0
LINE
  5
7BA4
  8
4
  6
CONTINUOUS
 10
-2652.677878
 20
-1913.1262850000001
 30
0.0
 11
-252.67787799999991
 21
-1913.1262850000001
 31
0.0
  0
TEXT
  5
7BA5
  8
4
  6
CONTINUOUS
 10
-2575.6737159999998
 20
-1850.0402340000001
 30
0.0
 40
100.0
  1
機器名称
  0
TEXT
  5
7BA6
  8
4
  6
CONTINUOUS
 10
-2580.161666
 20
-2069.8359719999989
 30
0.0
 40
100.0
  1
機器型番
  0
TEXT
  5
7BA7
  8
4
  6
CONTINUOUS
 10
-1597.320387
 20
-1867.9827479999999
 30
0.0
 40
100.0
  1
ミツヤファンユニット
  0
TEXT
  5
7BA8
  8
4
  6
CONTINUOUS
 10
-1579.3688870000001
 20
-2078.8071169999998
 30
0.0
 40
100.0
  1
MFU#1201-1
  0
TEXT
  5
7BAA
  8
4
  6
CONTINUOUS
 10
-2524.431728999999
 20
2053.7313969999991
 30
0.0
 40
100.0
  1
天井吊ベット・床置ベット
  0
TEXT
  5
7BAB
  8
4
  6
CONTINUOUS
 10
-3320.3426909999998
 20
2354.635667
 30
0.0
 40
120.0
  1
ベルト駆動式消音ボックス付き多翼ファン
  0
LINE
  5
7BAC
  8
4
  6
CONTINUOUS
 10
-3452.677878
 20
2225.6912229999998
 30
0.0
 11
-252.67787799999991
 21
2225.6912229999998
 31
0.0
  0
LINE
  5
7BAD
  8
4
  6
CONTINUOUS
 10
-3452.677878
 20
2625.6912229999998
 30
0.0
 11
-252.67787799999991
 21
2625.6912229999998
 31
0.0
  0
LINE
  5
7BAE
  8
4
  6
CONTINUOUS
 10
-2652.677878
 20
-1713.1262850000001
 30
0.0
 11
-252.67787799999991
 21
-1713.1262850000001
 31
0.0
  0
LINE
  5
7BAF
  8
4
  6
CONTINUOUS
 10
-3452.677878
 20
2625.6912229999998
 30
0.0
 11
-3452.677878
 21
2225.6912229999998
 31
0.0
  0
TEXT
  5
7BB0
  8
4
  6
CONTINUOUS
 10
-3396.1493930000001
 20
2051.5126700000001
 30
0.0
 40
100.0
  1
右回転左吐出
  0
TEXT
  5
7BB1
  8
4
  6
CONTINUOUS
 10
-1014.738758999999
 20
2698.9958780000002
 30
0.0
 40
112.0
  1
No.
  0
TEXT
  5
7BB2
  8
4
  6
CONTINUOUS
 10
-1006.536934
 20
2053.7313969999991
 30
0.0
 40
100.0
  1
縮尺：1/20
  0
LINE
  5
7BB3
  8
4
  6
CONTINUOUS
 10
-252.67787799999991
 20
2625.6912229999998
 30
0.0
 11
-252.67787799999991
 21
2225.6912229999998
 31
0.0
  0
LINE
  5
7BB5
  8
4
  6
CONTINUOUS
 10
-1071.443033
 20
2649.400881
 30
0.0
 11
-1071.443033
 21
2860.1782379999991
 31
0.0
  0
LINE
  5
7BB6
  8
4
  6
CONTINUOUS
 10
-1071.443033
 20
2860.1782379999991
 30
0.0
 11
-252.67787799999991
 21
2860.1782379999991
 31
0.0
  0
LINE
  5
7BB7
  8
4
  6
CONTINUOUS
 10
-252.67787799999991
 20
2860.1782379999991
 30
0.0
 11
-252.67787799999991
 21
2649.400881
 31
0.0
  0
LINE
  5
7BB8
  8
4
  6
CONTINUOUS
 10
-252.67787799999991
 20
2649.400881
 30
0.0
 11
-1071.443033
 21
2649.400881
 31
0.0
  0
DIMENSION
  5
7CB2
  8
3
  2
*D12
 10
-2934.6489241158961
 20
-486.31821699999989
 30
0.0
 11
-2934.6489241158961
 21
-623.461074142857
 31
0.0
 70
   128
 13
-2835.5829349999999
 23
-821.31821699999989
 33
0.0
 14
-2849.1961919999999
 24
-486.31821699999989
 34
0.0
 50
90.0
1001
ACAD
1000
DSTYLE
1002
{
1070
   287
1070
     3
1070
   287
1070
     3
1070
   287
1070
     3
1070
    40
1040
20.0
1070
   143
1040
0.039
1070
   172
1070
     1
1070
   271
1070
     0
1070
   279
1070
     0
1070
   288
1070
     1
1002
}
  0
LINE
  5
7D79
  8
2
  6
CENTER
 10
-808.67663499999992
 20
-252.17440261943551
 30
0.0
 11
-808.67663499999992
 21
-864.8896380000001
 31
0.0
  0
ENDSEC
  0
EOF
