  0
SECTION
  2
HEADER
  9
$ACADVER
  1
AC1009
  9
$INSBASE
 10
0.0
 20
0.0
 30
0.0
  9
$EXTMIN
 10
500.0
 20
600.0
 30
0.0
  9
$EXTMAX
 10
3700.0
 20
5573.3045229999998
 30
0.0
  9
$LIMMIN
 10
0.0
 20
0.0
  9
$LIMMAX
 10
297.0
 20
210.0
  9
$ORTHOMODE
 70
     0
  9
$REGENMODE
 70
     1
  9
$FILLMODE
 70
     0
  9
$QTEXTMODE
 70
     0
  9
$MIRRTEXT
 70
     1
  9
$DRAGMODE
 70
     2
  9
$LTSCALE
 40
5.0
  9
$OSMODE
 70
    37
  9
$ATTMODE
 70
     1
  9
$TEXTSIZE
 40
180.0
  9
$TRACEWID
 40
0.05
  9
$TEXTSTYLE
  7
STANDARD
  9
$CLAYER
  8
3
  9
$CELTYPE
  6
BYLAYER
  9
$CECOLOR
 62
   256
  9
$DIMSCALE
 40
20.0
  9
$DIMASZ
 40
2.0
  9
$DIMEXO
 40
0.5
  9
$DIMDLI
 40
10.0
  9
$DIMRND
 40
0.0
  9
$DIMDLE
 40
0.0
  9
$DIMEXE
 40
1.0
  9
$DIMTP
 40
1.0
  9
$DIMTM
 40
1.0
  9
$DIMTXT
 40
3.0
  9
$DIMCEN
 40
0.0
  9
$DIMTSZ
 40
0.0
  9
$DIMTOL
 70
     0
  9
$DIMLIM
 70
     0
  9
$DIMTIH
 70
     0
  9
$DIMTOH
 70
     0
  9
$DIMSE1
 70
     0
  9
$DIMSE2
 70
     0
  9
$DIMTAD
 70
     1
  9
$DIMZIN
 70
     8
  9
$DIMBLK
  1

  9
$DIMASO
 70
     1
  9
$DIMSHO
 70
     1
  9
$DIMPOST
  1

  9
$DIMAPOST
  1

  9
$DIMALT
 70
     0
  9
$DIMALTD
 70
     2
  9
$DIMALTF
 40
0.039
  9
$DIMLFAC
 40
1.0
  9
$DIMTOFL
 70
     1
  9
$DIMTVP
 40
0.0
  9
$DIMTIX
 70
     0
  9
$DIMSOXD
 70
     0
  9
$DIMSAH
 70
     1
  9
$DIMBLK1
  1
OPEN
  9
$DIMBLK2
  1
OPEN
  9
$DIMSTYLE
  2
IGA
  9
$DIMCLRD
 70
     0
  9
$DIMCLRE
 70
     0
  9
$DIMCLRT
 70
     0
  9
$DIMTFAC
 40
10.0
  9
$DIMGAP
 40
1.0
  9
$LUNITS
 70
     2
  9
$LUPREC
 70
     3
  9
$SKETCHINC
 40
0.1
  9
$FILLETRAD
 40
50.0
  9
$AUNITS
 70
     0
  9
$AUPREC
 70
     0
  9
$MENU
  1
acad
  9
$ELEVATION
 40
0.0
  9
$PELEVATION
 40
0.0
  9
$THICKNESS
 40
0.0
  9
$LIMCHECK
 70
     0
  9
$BLIPMODE
 70
     0
  9
$CHAMFERA
 40
0.5
  9
$CHAMFERB
 40
0.5
  9
$SKPOLY
 70
     0
  9
$TDCREATE
 40
2450786.3376118052
  9
$TDUPDATE
 40
2454953.8565687151
  9
$TDINDWG
 40
0.01412
  9
$TDUSRTIMER
 40
0.01412
  9
$USRTIMER
 70
     1
  9
$ANGBASE
 50
0.0
  9
$ANGDIR
 70
     0
  9
$PDMODE
 70
     0
  9
$PDSIZE
 40
0.0
  9
$PLINEWID
 40
0.0
  9
$COORDS
 70
     1
  9
$SPLFRAME
 70
     0
  9
$SPLINETYPE
 70
     6
  9
$SPLINESEGS
 70
     8
  9
$ATTDIA
 70
     0
  9
$ATTREQ
 70
     1
  9
$HANDLING
 70
 10241
  9
$HANDSEED
  5
813A
  9
$SURFTAB1
 70
     6
  9
$SURFTAB2
 70
     6
  9
$SURFTYPE
 70
     6
  9
$SURFU
 70
     6
  9
$SURFV
 70
     6
  9
$UCSNAME
  2

  9
$UCSORG
 10
0.0
 20
0.0
 30
0.0
  9
$UCSXDIR
 10
1.0
 20
0.0
 30
0.0
  9
$UCSYDIR
 10
0.0
 20
1.0
 30
0.0
  9
$PUCSNAME
  2

  9
$PUCSORG
 10
0.0
 20
0.0
 30
0.0
  9
$PUCSXDIR
 10
1.0
 20
0.0
 30
0.0
  9
$PUCSYDIR
 10
0.0
 20
1.0
 30
0.0
  9
$USERI1
 70
     0
  9
$USERI2
 70
     0
  9
$USERI3
 70
     0
  9
$USERI4
 70
     0
  9
$USERI5
 70
     0
  9
$USERR1
 40
0.0
  9
$USERR2
 40
0.0
  9
$USERR3
 40
0.0
  9
$USERR4
 40
0.0
  9
$USERR5
 40
0.0
  9
$WORLDVIEW
 70
     1
  9
$SHADEDGE
 70
     3
  9
$SHADEDIF
 70
    70
  9
$TILEMODE
 70
     1
  9
$MAXACTVP
 70
    16
  9
$PLIMCHECK
 70
     0
  9
$PEXTMIN
 10
1.0000000000000000E+020
 20
1.0000000000000000E+020
 30
1.0000000000000000E+020
  9
$PEXTMAX
 10
-1.0000000000000000E+020
 20
-1.0000000000000000E+020
 30
-1.0000000000000000E+020
  9
$PLIMMIN
 10
0.0
 20
0.0
  9
$PLIMMAX
 10
12.0
 20
9.0
  9
$UNITMODE
 70
     0
  9
$VISRETAIN
 70
     0
  9
$PLINEGEN
 70
     0
  9
$PSLTSCALE
 70
     1
  0
ENDSEC
  0
SECTION
  2
TABLES
  0
TABLE
  2
VPORT
 70
     2
  0
VPORT
  2
*ACTIVE
 70
     0
 10
0.0
 20
0.0
 11
1.0
 21
1.0
 12
2362.9273438456298
 22
2687.7977210026661
 13
0.0
 23
0.0
 14
10.0
 24
10.0
 15
10.0
 25
10.0
 16
0.0
 26
0.0
 36
1.0
 17
0.0
 27
0.0
 37
0.0
 40
7189.6423022524441
 41
1.5051150895140659
 42
50.0
 43
0.0
 44
0.0
 50
0.0
 51
0.0
 71
     0
 72
   100
 73
     1
 74
     0
 75
     0
 76
     0
 77
     0
 78
     0
  0
ENDTAB
  0
TABLE
  2
LTYPE
 70
     2
  0
LTYPE
  2
CONTINUOUS
 70
     0
  3
Solid line
 72
    65
 73
     0
 40
0.0
  0
LTYPE
  2
CENTER
 70
     0
  3
____ _ ____ _ ____ _ ____ _ ____ _ ____ _ ____ 
 72
    65
 73
     4
 40
2.0
 49
1.25
 49
-0.25
 49
0.25
 49
-0.25
  0
ENDTAB
  0
TABLE
  2
LAYER
 70
     6
  0
LAYER
  2
0
 70
     0
 62
     7
  6
CONTINUOUS
  0
LAYER
  2
3
 70
     0
 62
     2
  6
CONTINUOUS
  0
LAYER
  2
2
 70
     0
 62
     3
  6
CENTER
  0
LAYER
  2
1
 70
     0
 62
     4
  6
CONTINUOUS
  0
LAYER
  2
4
 70
     0
 62
     7
  6
CONTINUOUS
  0
LAYER
  2
DEFPOINTS
 70
     0
 62
     7
  6
CONTINUOUS
  0
ENDTAB
  0
TABLE
  2
STYLE
 70
     1
  0
STYLE
  2
STANDARD
 70
     0
 40
0.0
 41
1.0
 50
0.0
 71
     0
 42
180.0
  3
simplex.shx
  4
extfont.shx
  0
ENDTAB
  0
TABLE
  2
VIEW
 70
     0
  0
ENDTAB
  0
TABLE
  2
UCS
 70
     0
  0
ENDTAB
  0
TABLE
  2
APPID
 70
     1
  0
APPID
  2
ACAD
 70
     0
  0
ENDTAB
  0
TABLE
  2
DIMSTYLE
 70
     1
  0
DIMSTYLE
  2
IGA
 70
     0
  3

  4

  5

  6
OPEN
  7
OPEN
 40
2.0
 41
2.0
 42
0.5
 43
10.0
 44
1.0
 45
0.0
 46
0.0
 47
1.0
 48
1.0
140
3.0
141
0.0
142
0.0
143
0.03937
144
1.0
145
0.0
146
10.0
147
1.0
 71
     0
 72
     0
 73
     0
 74
     0
 75
     0
 76
     0
 77
     1
 78
     8
170
     0
171
     2
172
     0
173
     1
174
     0
175
     0
176
     0
177
     0
178
     0
  0
ENDTAB
  0
ENDSEC
  0
SECTION
  2
BLOCKS
  0
BLOCK
  8
0
  2
$MODEL_SPACE
 70
     0
 10
0.0
 20
0.0
 30
0.0
  3
$MODEL_SPACE
  1

  0
ENDBLK
  5
1B
  8
0
  0
BLOCK
 67
     1
  8
0
  2
$PAPER_SPACE
 70
     0
 10
0.0
 20
0.0
 30
0.0
  3
$PAPER_SPACE
  1

  0
ENDBLK
  5
18
 67
     1
  8
0
  0
BLOCK
  8
0
  2
_OPEN
 70
     0
 10
0.0
 20
0.0
 30
0.0
  3
_OPEN
  1

  0
LINE
  5
7A8E
  8
0
  6
BYBLOCK
 62
     0
 10
-1.0
 20
0.166667
 30
0.0
 11
0.0
 21
0.0
 31
0.0
  0
LINE
  5
7A8F
  8
0
  6
BYBLOCK
 62
     0
 10
0.0
 20
0.0
 30
0.0
 11
-1.0
 21
-0.166667
 31
0.0
  0
LINE
  5
7A90
  8
0
  6
BYBLOCK
 62
     0
 10
0.0
 20
0.0
 30
0.0
 11
-1.0
 21
0.0
 31
0.0
  0
ENDBLK
  5
7A91
  8
0
  0
BLOCK
  8
0
  2
*D1
 70
     1
 10
0.0
 20
0.0
 30
0.0
  3
*D1
  1

  0
LINE
  5
80C1
  8
3
  6
CONTINUOUS
 62
     0
 10
1935.23517208373
 20
1957.4480807782579
 30
0.0
 11
1935.23517208373
 21
1795.435152778258
 31
0.0
  0
LINE
  5
80C2
  8
3
  6
CONTINUOUS
 62
     0
 10
965.2351720837305
 20
1957.4480807782579
 30
0.0
 11
965.2351720837305
 21
1795.435152778258
 31
0.0
  0
LINE
  5
80C3
  8
3
  6
CONTINUOUS
 62
     0
 10
1895.23517208373
 20
1815.435152778258
 30
0.0
 11
1005.23517208373
 21
1815.435152778258
 31
0.0
  0
INSERT
  5
80C4
  8
3
  6
CONTINUOUS
 62
     0
  2
_OPEN
 10
1935.23517208373
 20
1815.435152778258
 30
0.0
 41
40.0
 42
40.0
 43
40.0
  0
INSERT
  5
80C5
  8
3
  6
CONTINUOUS
 62
     0
  2
_OPEN
 10
965.2351720837305
 20
1815.435152778258
 30
0.0
 41
40.0
 42
40.0
 43
40.0
 50
180.0
  0
TEXT
  8
3
  40
60
  5
812E
  62
0
  72
0
  71
0
 10
1337.46
 20
1759.24
 30
0.000000
  1
970
  0
POINT
  5
80C7
  8
DEFPOINTS
  6
CONTINUOUS
 62
     0
 10
1935.23517208373
 20
1967.4480807782579
 30
0.0
  0
POINT
  5
80C8
  8
DEFPOINTS
  6
CONTINUOUS
 62
     0
 10
965.2351720837305
 20
1967.4480807782579
 30
0.0
  0
POINT
  5
80C9
  8
DEFPOINTS
  6
CONTINUOUS
 62
     0
 10
965.2351720837305
 20
1815.435152778258
 30
0.0
  0
ENDBLK
  5
7F08
  8
0
  0
BLOCK
  8
0
  2
*D2
 70
     1
 10
0.0
 20
0.0
 30
0.0
  3
*D2
  1

  0
LINE
  5
80CA
  8
3
  6
CONTINUOUS
 62
     0
 10
1855.23517208373
 20
2642.4480807782579
 30
0.0
 11
2206.0659785323478
 21
2642.4480807782579
 31
0.0
  0
LINE
  5
80CB
  8
3
  6
CONTINUOUS
 62
     0
 10
1945.23517208373
 20
1967.4480807782579
 30
0.0
 11
2206.0659785323478
 21
1967.4480807782579
 31
0.0
  0
LINE
  5
80CC
  8
3
  6
CONTINUOUS
 62
     0
 10
2186.0659785323478
 20
2602.4480807782579
 30
0.0
 11
2186.0659785323478
 21
2007.4480807782579
 31
0.0
  0
INSERT
  5
80CD
  8
3
  6
CONTINUOUS
 62
     0
  2
_OPEN
 10
2186.0659785323478
 20
2642.4480807782579
 30
0.0
 41
40.0
 42
40.0
 43
40.0
 50
90.0
  0
INSERT
  5
80CE
  8
3
  6
CONTINUOUS
 62
     0
  2
_OPEN
 10
2186.0659785323478
 20
1967.4480807782579
 30
0.0
 41
40.0
 42
40.0
 43
40.0
 50
270.0
  0
TEXT
  8
3
  40
60
  5
812F
  62
0
  72
0
  71
0
 10
2016.07
 20
2199.45
 30
0.000000
  1
675
  0
POINT
  5
80D0
  8
DEFPOINTS
  6
CONTINUOUS
 62
     0
 10
1845.23517208373
 20
2642.4480807782579
 30
0.0
  0
POINT
  5
80D1
  8
DEFPOINTS
  6
CONTINUOUS
 62
     0
 10
1935.23517208373
 20
1967.4480807782579
 30
0.0
  0
POINT
  5
80D2
  8
DEFPOINTS
  6
CONTINUOUS
 62
     0
 10
2186.0659785323478
 20
1967.4480807782579
 30
0.0
  0
ENDBLK
  5
7F1E
  8
0
  0
BLOCK
  8
0
  2
*D3
 70
     1
 10
0.0
 20
0.0
 30
0.0
  3
*D3
  1

  0
LINE
  5
80D3
  8
3
  6
CONTINUOUS
 62
     0
 10
948.16108908372996
 20
2302.4480807782579
 30
0.0
 11
771.00475508373017
 21
2302.4480807782579
 31
0.0
  0
LINE
  5
80D4
  8
3
  6
CONTINUOUS
 62
     0
 10
955.23517208373062
 20
1967.4480807782579
 30
0.0
 11
771.00475508373017
 21
1967.4480807782579
 31
0.0
  0
LINE
  5
80D5
  8
3
  6
CONTINUOUS
 62
     0
 10
791.00475508373006
 20
2262.4480807782579
 30
0.0
 11
791.00475508373006
 21
2007.4480807782579
 31
0.0
  0
INSERT
  5
80D6
  8
3
  6
CONTINUOUS
 62
     0
  2
_OPEN
 10
791.00475508373006
 20
2302.4480807782579
 30
0.0
 41
40.0
 42
40.0
 43
40.0
 50
90.0
  0
INSERT
  5
80D7
  8
3
  6
CONTINUOUS
 62
     0
  2
_OPEN
 10
791.00475508373006
 20
1967.4480807782579
 30
0.0
 41
40.0
 42
40.0
 43
40.0
 50
270.0
  0
TEXT
  8
3
  40
60
  5
8130
  62
0
  72
0
  71
0
 10
621.005
 20
2059.11
 30
0.000000
  1
335
  0
POINT
  5
80D9
  8
DEFPOINTS
  6
CONTINUOUS
 62
     0
 10
958.16108908372996
 20
2302.4480807782579
 30
0.0
  0
POINT
  5
80DA
  8
DEFPOINTS
  6
CONTINUOUS
 62
     0
 10
965.2351720837305
 20
1967.4480807782579
 30
0.0
  0
POINT
  5
80DB
  8
DEFPOINTS
  6
CONTINUOUS
 62
     0
 10
791.00475508373006
 20
1967.4480807782579
 30
0.0
  0
ENDBLK
  5
7F34
  8
0
  0
BLOCK
  8
0
  2
*D4
 70
     1
 10
0.0
 20
0.0
 30
0.0
  3
*D4
  1

  0
LINE
  5
80DC
  8
3
  6
CONTINUOUS
 62
     0
 10
1845.23517208373
 20
2652.4480807782579
 30
0.0
 11
1845.23517208373
 21
2798.074844778258
 31
0.0
  0
LINE
  5
80DD
  8
3
  6
CONTINUOUS
 62
     0
 10
1055.23517208373
 20
2652.4480807782579
 30
0.0
 11
1055.23517208373
 21
2798.074844778258
 31
0.0
  0
LINE
  5
80DE
  8
3
  6
CONTINUOUS
 62
     0
 10
1805.23517208373
 20
2778.074844778258
 30
0.0
 11
1095.23517208373
 21
2778.074844778258
 31
0.0
  0
INSERT
  5
80DF
  8
3
  6
CONTINUOUS
 62
     0
  2
_OPEN
 10
1845.23517208373
 20
2778.074844778258
 30
0.0
 41
40.0
 42
40.0
 43
40.0
  0
INSERT
  5
80E0
  8
3
  6
CONTINUOUS
 62
     0
  2
_OPEN
 10
1055.23517208373
 20
2778.074844778258
 30
0.0
 41
40.0
 42
40.0
 43
40.0
 50
180.0
  0
TEXT
  8
3
  40
60
  5
8131
  62
0
  72
0
  71
0
 10
1346.14
 20
2721.87
 30
0.000000
  1
790
  0
POINT
  5
80E2
  8
DEFPOINTS
  6
CONTINUOUS
 62
     0
 10
1845.23517208373
 20
2642.4480807782579
 30
0.0
  0
POINT
  5
80E3
  8
DEFPOINTS
  6
CONTINUOUS
 62
     0
 10
1055.23517208373
 20
2642.4480807782579
 30
0.0
  0
POINT
  5
80E4
  8
DEFPOINTS
  6
CONTINUOUS
 62
     0
 10
1055.23517208373
 20
2778.074844778258
 30
0.0
  0
ENDBLK
  5
7F13
  8
0
  0
BLOCK
  8
0
  2
*D5
 70
     1
 10
0.0
 20
0.0
 30
0.0
  3
*D5
  1

  0
LINE
  5
80E5
  8
3
  6
CONTINUOUS
 62
     0
 10
1050.247855621039
 20
3430.7893867782582
 30
0.0
 11
1050.247855621039
 21
3231.1686387782579
 31
0.0
  0
LINE
  5
80E6
  8
3
  6
CONTINUOUS
 62
     0
 10
1840.2478556210399
 20
3430.7893867782582
 30
0.0
 11
1840.2478556210399
 21
3231.1686387782579
 31
0.0
  0
LINE
  5
80E7
  8
3
  6
CONTINUOUS
 62
     0
 10
1090.247855621039
 20
3251.1686387782579
 30
0.0
 11
1800.247855621039
 21
3251.1686387782579
 31
0.0
  0
INSERT
  5
80E8
  8
3
  6
CONTINUOUS
 62
     0
  2
_OPEN
 10
1050.247855621039
 20
3251.1686387782579
 30
0.0
 41
40.0
 42
40.0
 43
40.0
 50
180.0
  0
INSERT
  5
80E9
  8
3
  6
CONTINUOUS
 62
     0
  2
_OPEN
 10
1840.2478556210399
 20
3251.1686387782579
 30
0.0
 41
40.0
 42
40.0
 43
40.0
  0
TEXT
  8
3
  40
60
  5
8132
  62
0
  72
0
  71
0
 10
1330.99
 20
3194.97
 30
0.000000
  1
790
  0
POINT
  5
80EB
  8
DEFPOINTS
  6
CONTINUOUS
 62
     0
 10
1050.247855621039
 20
3440.7893867782582
 30
0.0
  0
POINT
  5
80EC
  8
DEFPOINTS
  6
CONTINUOUS
 62
     0
 10
1840.2478556210399
 20
3440.7893867782582
 30
0.0
  0
POINT
  5
80ED
  8
DEFPOINTS
  6
CONTINUOUS
 62
     0
 10
1840.2478556210399
 20
3251.1686387782579
 30
0.0
  0
ENDBLK
  5
7E8A
  8
0
  0
BLOCK
  8
0
  2
*D6
 70
     1
 10
0.0
 20
0.0
 30
0.0
  3
*D6
  1

  0
LINE
  5
80EE
  8
3
  6
CONTINUOUS
 62
     0
 10
1940.2478556210399
 20
4040.7893867782591
 30
0.0
 11
2101.3903156210399
 21
4040.7893867782591
 31
0.0
  0
LINE
  5
80EF
  8
3
  6
CONTINUOUS
 62
     0
 10
1940.2478556210399
 20
3440.7893867782582
 30
0.0
 11
2101.3903156210399
 21
3440.7893867782582
 31
0.0
  0
LINE
  5
80F0
  8
3
  6
CONTINUOUS
 62
     0
 10
2081.3903156210399
 20
4000.7893867782582
 30
0.0
 11
2081.3903156210399
 21
3480.7893867782582
 31
0.0
  0
INSERT
  5
80F1
  8
3
  6
CONTINUOUS
 62
     0
  2
_OPEN
 10
2081.3903156210399
 20
4040.7893867782591
 30
0.0
 41
40.0
 42
40.0
 43
40.0
 50
90.0
  0
INSERT
  5
80F2
  8
3
  6
CONTINUOUS
 62
     0
  2
_OPEN
 10
2081.3903156210399
 20
3440.7893867782582
 30
0.0
 41
40.0
 42
40.0
 43
40.0
 50
270.0
  0
TEXT
  8
3
  40
60
  5
8133
  62
0
  72
0
  71
0
 10
1911.39
 20
3646.68
 30
0.000000
  1
600
  0
POINT
  5
80F4
  8
DEFPOINTS
  6
CONTINUOUS
 62
     0
 10
1930.2478556210399
 20
4040.7893867782591
 30
0.0
  0
POINT
  5
80F5
  8
DEFPOINTS
  6
CONTINUOUS
 62
     0
 10
1930.2478556210399
 20
3440.7893867782582
 30
0.0
  0
POINT
  5
80F6
  8
DEFPOINTS
  6
CONTINUOUS
 62
     0
 10
2081.3903156210399
 20
3440.7893867782582
 30
0.0
  0
ENDBLK
  5
7E95
  8
0
  0
BLOCK
  8
0
  2
*D7
 70
     1
 10
0.0
 20
0.0
 30
0.0
  3
*D7
  1

  0
LINE
  5
80F7
  8
3
  6
CONTINUOUS
 62
     0
 10
2687.09134662104
 20
1957.4480807782579
 30
0.0
 11
2687.09134662104
 21
1761.7687677782581
 31
0.0
  0
LINE
  5
80F8
  8
3
  6
CONTINUOUS
 62
     0
 10
3287.09134662104
 20
1957.4480807782579
 30
0.0
 11
3287.09134662104
 21
1761.7687677782581
 31
0.0
  0
LINE
  5
80F9
  8
3
  6
CONTINUOUS
 62
     0
 10
2727.09134662104
 20
1781.7687677782581
 30
0.0
 11
3247.09134662104
 21
1781.7687677782581
 31
0.0
  0
INSERT
  5
80FA
  8
3
  6
CONTINUOUS
 62
     0
  2
_OPEN
 10
2687.09134662104
 20
1781.7687677782581
 30
0.0
 41
40.0
 42
40.0
 43
40.0
 50
180.0
  0
INSERT
  5
80FB
  8
3
  6
CONTINUOUS
 62
     0
  2
_OPEN
 10
3287.09134662104
 20
1781.7687677782581
 30
0.0
 41
40.0
 42
40.0
 43
40.0
  0
TEXT
  8
3
  40
60
  5
8134
  62
0
  72
0
  71
0
 10
2881.84
 20
1725.57
 30
0.000000
  1
600
  0
POINT
  5
80FD
  8
DEFPOINTS
  6
CONTINUOUS
 62
     0
 10
2687.09134662104
 20
1967.4480807782579
 30
0.0
  0
POINT
  5
80FE
  8
DEFPOINTS
  6
CONTINUOUS
 62
     0
 10
3287.09134662104
 20
1967.4480807782579
 30
0.0
  0
POINT
  5
80FF
  8
DEFPOINTS
  6
CONTINUOUS
 62
     0
 10
3287.09134662104
 20
1781.7687677782581
 30
0.0
  0
ENDBLK
  5
7EA0
  8
0
  0
BLOCK
  8
0
  2
*D8
 70
     1
 10
0.0
 20
0.0
 30
0.0
  3
*D8
  1

  0
LINE
  5
8100
  8
3
  6
CONTINUOUS
 62
     0
 10
2672.09134662104
 20
2652.4480807782579
 30
0.0
 11
2672.09134662104
 21
2796.9319667782579
 31
0.0
  0
LINE
  5
8101
  8
3
  6
CONTINUOUS
 62
     0
 10
2987.09134662104
 20
2683.6832817782579
 30
0.0
 11
2987.09134662104
 21
2796.9319667782579
 31
0.0
  0
LINE
  5
8102
  8
3
  6
CONTINUOUS
 62
     0
 10
2712.09134662104
 20
2776.9319667782579
 30
0.0
 11
2947.09134662104
 21
2776.9319667782579
 31
0.0
  0
INSERT
  5
8103
  8
3
  6
CONTINUOUS
 62
     0
  2
_OPEN
 10
2672.09134662104
 20
2776.9319667782579
 30
0.0
 41
40.0
 42
40.0
 43
40.0
 50
180.0
  0
INSERT
  5
8104
  8
3
  6
CONTINUOUS
 62
     0
  2
_OPEN
 10
2987.09134662104
 20
2776.9319667782579
 30
0.0
 41
40.0
 42
40.0
 43
40.0
  0
TEXT
  8
3
  40
60
  5
8135
  62
0
  72
0
  71
0
 10
2735.66
 20
2720.73
 30
0.000000
  1
315
  0
POINT
  5
8106
  8
DEFPOINTS
  6
CONTINUOUS
 62
     0
 10
2672.09134662104
 20
2642.4480807782579
 30
0.0
  0
POINT
  5
8107
  8
DEFPOINTS
  6
CONTINUOUS
 62
     0
 10
2987.09134662104
 20
2673.6832817782579
 30
0.0
  0
POINT
  5
8108
  8
DEFPOINTS
  6
CONTINUOUS
 62
     0
 10
2987.09134662104
 20
2776.9319667782579
 30
0.0
  0
ENDBLK
  5
7EAB
  8
0
  0
BLOCK
  8
0
  2
*D9
 70
     1
 10
0.0
 20
0.0
 30
0.0
  3
*D9
  1

  0
LINE
  5
8109
  8
3
  6
CONTINUOUS
 62
     0
 10
3302.09134662104
 20
2652.4480807782579
 30
0.0
 11
3302.09134662104
 21
2796.9319667782579
 31
0.0
  0
LINE
  5
810A
  8
3
  6
CONTINUOUS
 62
     0
 10
3027.09134662104
 20
2776.9319667782579
 30
0.0
 11
3262.09134662104
 21
2776.9319667782579
 31
0.0
  0
TEXT
  8
3
  40
60
  5
8136
  62
0
  72
0
  71
0
 10
3045.28
 20
2724.20
 30
0.000000
  1
315
  0
INSERT
  5
810C
  8
3
  6
CONTINUOUS
 62
     0
  2
_OPEN
 10
2987.09134662104
 20
2776.9319667782579
 30
0.0
 41
40.0
 42
40.0
 43
40.0
 50
180.0
  0
INSERT
  5
810D
  8
3
  6
CONTINUOUS
 62
     0
  2
_OPEN
 10
3302.09134662104
 20
2776.9319667782579
 30
0.0
 41
40.0
 42
40.0
 43
40.0
  0
POINT
  5
810E
  8
DEFPOINTS
  6
CONTINUOUS
 62
     0
 10
2987.09134662104
 20
2673.6832817782579
 30
0.0
  0
POINT
  5
810F
  8
DEFPOINTS
  6
CONTINUOUS
 62
     0
 10
3302.09134662104
 20
2642.4480807782579
 30
0.0
  0
POINT
  5
8110
  8
DEFPOINTS
  6
CONTINUOUS
 62
     0
 10
3302.09134662104
 20
2776.9319667782579
 30
0.0
  0
ENDBLK
  5
7EB5
  8
0
  0
BLOCK
  8
0
  2
*D10
 70
     1
 10
0.0
 20
0.0
 30
0.0
  3
*D10
  1

  0
LINE
  5
8111
  8
3
  6
CONTINUOUS
 62
     0
 10
2882.09134662104
 20
2452.4480807782579
 30
0.0
 11
2882.09134662104
 21
2548.1136207782579
 31
0.0
  0
LINE
  5
8112
  8
3
  6
CONTINUOUS
 62
     0
 10
3092.09134662104
 20
2452.4480807782579
 30
0.0
 11
3092.09134662104
 21
2548.1136207782579
 31
0.0
  0
LINE
  5
8113
  8
3
  6
CONTINUOUS
 62
     0
 10
2842.09134662104
 20
2528.1136207782579
 30
0.0
 11
2802.09134662104
 21
2528.1136207782579
 31
0.0
  0
LINE
  5
8114
  8
3
  6
CONTINUOUS
 62
     0
 10
3132.09134662104
 20
2528.1136207782579
 30
0.0
 11
3172.09134662104
 21
2528.1136207782579
 31
0.0
  0
LINE
  5
8115
  8
3
  6
CONTINUOUS
 62
     0
 10
2882.09134662104
 20
2528.1136207782579
 30
0.0
 11
3092.09134662104
 21
2528.1136207782579
 31
0.0
  0
INSERT
  5
8116
  8
3
  6
CONTINUOUS
 62
     0
  2
_OPEN
 10
2882.09134662104
 20
2528.1136207782579
 30
0.0
 41
40.0
 42
40.0
 43
40.0
  0
INSERT
  5
8117
  8
3
  6
CONTINUOUS
 62
     0
  2
_OPEN
 10
3092.09134662104
 20
2528.1136207782579
 30
0.0
 41
40.0
 42
40.0
 43
40.0
 50
180.0
  0
TEXT
  8
3
  40
60
  5
8137
  62
0
  72
0
  71
0
 10
2867.09
 20
2471.91
 30
0.000000
  1
210
  0
POINT
  5
8119
  8
DEFPOINTS
  6
CONTINUOUS
 62
     0
 10
2882.09134662104
 20
2442.4480807782579
 30
0.0
  0
POINT
  5
811A
  8
DEFPOINTS
  6
CONTINUOUS
 62
     0
 10
3092.09134662104
 20
2442.4480807782579
 30
0.0
  0
POINT
  5
811B
  8
DEFPOINTS
  6
CONTINUOUS
 62
     0
 10
3092.09134662104
 20
2528.1136207782579
 30
0.0
  0
ENDBLK
  5
7EC2
  8
0
  0
BLOCK
  8
0
  2
*D11
 70
     1
 10
0.0
 20
0.0
 30
0.0
  3
*D11
  1

  0
LINE
  5
811C
  8
3
  6
CONTINUOUS
 62
     0
 10
2872.09134662104
 20
2442.4480807782579
 30
0.0
 11
2786.666715621041
 21
2442.4480807782579
 31
0.0
  0
LINE
  5
811D
  8
3
  6
CONTINUOUS
 62
     0
 10
2872.09134662104
 20
2162.4480807782579
 30
0.0
 11
2786.666715621041
 21
2162.4480807782579
 31
0.0
  0
LINE
  5
811E
  8
3
  6
CONTINUOUS
 62
     0
 10
2806.666715621041
 20
2402.4480807782579
 30
0.0
 11
2806.666715621041
 21
2202.4480807782579
 31
0.0
  0
INSERT
  5
811F
  8
3
  6
CONTINUOUS
 62
     0
  2
_OPEN
 10
2806.666715621041
 20
2442.4480807782579
 30
0.0
 41
40.0
 42
40.0
 43
40.0
 50
90.0
  0
INSERT
  5
8120
  8
3
  6
CONTINUOUS
 62
     0
  2
_OPEN
 10
2806.666715621041
 20
2162.4480807782579
 30
0.0
 41
40.0
 42
40.0
 43
40.0
 50
270.0
  0
TEXT
  8
3
  40
60
  5
8138
  62
0
  72
0
  71
0
 10
2636.67
 20
2199.11
 30
0.000000
  1
280
  0
POINT
  5
8122
  8
DEFPOINTS
  6
CONTINUOUS
 62
     0
 10
2882.09134662104
 20
2442.4480807782579
 30
0.0
  0
POINT
  5
8123
  8
DEFPOINTS
  6
CONTINUOUS
 62
     0
 10
2882.09134662104
 20
2162.4480807782579
 30
0.0
  0
POINT
  5
8124
  8
DEFPOINTS
  6
CONTINUOUS
 62
     0
 10
2806.666715621041
 20
2162.4480807782579
 30
0.0
  0
ENDBLK
  5
7ECD
  8
0
  0
BLOCK
  8
0
  2
*D12
 70
     1
 10
0.0
 20
0.0
 30
0.0
  3
*D12
  1

  0
LINE
  5
8125
  8
3
 62
     0
 10
1945.23517208373
 20
1967.4480807782579
 30
0.0
 11
2003.322015486563
 21
1967.4480807782579
 31
0.0
  0
LINE
  5
8126
  8
3
 62
     0
 10
1958.84842908373
 20
2302.4480807782579
 30
0.0
 11
2003.322015486563
 21
2302.4480807782579
 31
0.0
  0
LINE
  5
8127
  8
3
 62
     0
 10
1983.322015486563
 20
2007.4480807782579
 30
0.0
 11
1983.322015486563
 21
2262.4480807782579
 31
0.0
  0
INSERT
  5
8128
  8
3
 62
     0
  2
_OPEN
 10
1983.322015486563
 20
1967.4480807782579
 30
0.0
 41
40.0
 42
40.0
 43
40.0
 50
270.0
  0
INSERT
  5
8129
  8
3
 62
     0
  2
_OPEN
 10
1983.322015486563
 20
2302.4480807782579
 30
0.0
 41
40.0
 42
40.0
 43
40.0
 50
90.0
  0
TEXT
  8
3
  40
60
  5
8139
  62
0
  72
0
  71
0
 10
1813.32
 20
2059.11
 30
0.000000
  1
335
  0
POINT
  5
812B
  8
DEFPOINTS
 62
     0
 10
1935.23517208373
 20
1967.4480807782579
 30
0.0
  0
POINT
  5
812C
  8
DEFPOINTS
 62
     0
 10
1948.84842908373
 20
2302.4480807782579
 30
0.0
  0
POINT
  5
812D
  8
DEFPOINTS
 62
     0
 10
1983.322015486563
 20
2302.4480807782579
 30
0.0
  0
ENDBLK
  5
7F29
  8
0
  0
ENDSEC
  0
SECTION
  2
ENTITIES
  0
LINE
  5
7B4B
  8
4
  6
CONTINUOUS
 10
3700.0
 20
1000.0
 30
0.0
 11
3700.0
 21
600.0
 31
0.0
  0
LINE
  5
7B4C
  8
4
  6
CONTINUOUS
 10
2300.0
 20
1000.0
 30
0.0
 11
2300.0
 21
600.0
 31
0.0
  0
LINE
  5
7B4D
  8
4
  6
CONTINUOUS
 10
1300.0
 20
1000.0
 30
0.0
 11
1300.0
 21
600.0
 31
0.0
  0
LINE
  5
7B50
  8
4
  6
CONTINUOUS
 10
1300.0
 20
600.0
 30
0.0
 11
3700.0
 21
600.0
 31
0.0
  0
LINE
  5
7B51
  8
4
  6
CONTINUOUS
 10
1300.0
 20
800.0
 30
0.0
 11
3700.0
 21
800.0
 31
0.0
  0
TEXT
  5
7B52
  8
4
  6
CONTINUOUS
 10
1377.004162
 20
863.086052
 30
0.0
 40
100.0
  1
機器名称
  0
TEXT
  5
7B53
  8
4
  6
CONTINUOUS
 10
1372.516212
 20
643.29031299999986
 30
0.0
 40
100.0
  1
機器型番
  0
TEXT
  5
7B54
  8
4
  6
CONTINUOUS
 10
2355.3574910000002
 20
845.14353800000015
 30
0.0
 40
100.0
  1
ミツヤファンユニット
  0
TEXT
  5
7B55
  8
4
  6
CONTINUOUS
 10
2373.3089909999999
 20
634.31916899999999
 30
0.0
 40
100.0
  1
MFU#1201-1
  0
TEXT
  5
7B57
  8
4
  6
CONTINUOUS
 10
1424.553185
 20
4766.8576830000002
 30
0.0
 40
100.0
  1
天井吊ベット・床置ベット
  0
TEXT
  5
7B58
  8
4
  6
CONTINUOUS
 10
632.33518700000002
 20
5067.7619520000007
 30
0.0
 40
120.0
  1
ベルト駆動式消音ボックス付き多翼ファン
  0
LINE
  5
7B59
  8
4
  6
CONTINUOUS
 10
500.0
 20
4938.8175090000004
 30
0.0
 11
3700.0
 21
4938.8175090000004
 31
0.0
  0
LINE
  5
7B5A
  8
4
  6
CONTINUOUS
 10
500.0
 20
5338.8175090000004
 30
0.0
 11
3700.0
 21
5338.8175090000004
 31
0.0
  0
LINE
  5
7B5B
  8
4
  6
CONTINUOUS
 10
1300.0
 20
1000.0
 30
0.0
 11
3700.0
 21
1000.0
 31
0.0
  0
LINE
  5
7B5C
  8
4
  6
CONTINUOUS
 10
500.0
 20
5338.8175090000004
 30
0.0
 11
500.0
 21
4938.8175090000004
 31
0.0
  0
TEXT
  5
7B5D
  8
4
  6
CONTINUOUS
 10
552.83551999999997
 20
4764.6389549999994
 30
0.0
 40
100.0
  1
左回転右吐出
  0
TEXT
  5
7B5E
  8
4
  6
CONTINUOUS
 10
2937.9391179999998
 20
5412.122163
 30
0.0
 40
112.0
  1
No.
  0
TEXT
  5
7B5F
  8
4
  6
CONTINUOUS
 10
2916.42193
 20
4766.8576830000002
 30
0.0
 40
100.0
  1
縮尺：1/20
  0
LINE
  5
7B60
  8
4
  6
CONTINUOUS
 10
3700.0
 20
5338.8175090000004
 30
0.0
 11
3700.0
 21
4938.8175090000004
 31
0.0
  0
LINE
  5
7B62
  8
4
  6
CONTINUOUS
 10
2881.234845
 20
5362.5271659999999
 30
0.0
 11
2881.234845
 21
5573.3045229999998
 31
0.0
  0
LINE
  5
7B63
  8
4
  6
CONTINUOUS
 10
2881.234845
 20
5573.3045229999998
 30
0.0
 11
3700.0
 21
5573.3045229999998
 31
0.0
  0
LINE
  5
7B64
  8
4
  6
CONTINUOUS
 10
3700.0
 20
5573.3045229999998
 30
0.0
 11
3700.0
 21
5362.5271659999999
 31
0.0
  0
LINE
  5
7B65
  8
4
  6
CONTINUOUS
 10
3700.0
 20
5362.5271659999999
 30
0.0
 11
2881.234845
 21
5362.5271659999999
 31
0.0
  0
LINE
  5
7C6B
  8
1
  6
CONTINUOUS
 10
1055.23517208373
 20
2642.4480807782579
 30
0.0
 11
1845.23517208373
 21
2642.4480807782579
 31
0.0
  0
LINE
  5
7C6C
  8
1
  6
CONTINUOUS
 10
1935.23517208373
 20
1967.4480807782579
 30
0.0
 11
965.2351720837305
 21
1967.4480807782579
 31
0.0
  0
LINE
  5
7C6D
  8
1
  6
CONTINUOUS
 10
1935.23517208373
 20
2042.4480807782579
 30
0.0
 11
965.2351720837305
 21
2042.4480807782579
 31
0.0
  0
LINE
  5
7C6E
  8
1
  6
CONTINUOUS
 10
1935.23517208373
 20
1967.4480807782579
 30
0.0
 11
965.2351720837305
 21
1967.4480807782579
 31
0.0
  0
ARC
  5
7C6F
  8
1
  6
CONTINUOUS
 10
1574.23517208373
 20
2405.4480807782579
 30
0.0
 40
131.41051899999999
 50
354.28940699999998
 51
83.15722700000002
  0
LINE
  5
7C70
  8
1
  6
CONTINUOUS
 10
1845.23517208373
 20
2194.4480807782579
 30
0.0
 11
1585.23517208373
 21
2194.4480807782579
 31
0.0
  0
LINE
  5
7C71
  8
1
  6
CONTINUOUS
 10
1845.23517208373
 20
2642.4480807782579
 30
0.0
 11
1845.23517208373
 21
2047.4480807782579
 31
0.0
  0
LINE
  5
7C72
  8
1
  6
CONTINUOUS
 10
1845.23517208373
 20
2042.4480807782579
 30
0.0
 11
1845.23517208373
 21
2642.4480807782579
 31
0.0
  0
LINE
  5
7C74
  8
1
  6
CONTINUOUS
 10
1935.23517208373
 20
1967.4480807782579
 30
0.0
 11
1935.23517208373
 21
2042.4480807782579
 31
0.0
  0
LINE
  5
7C75
  8
1
  6
CONTINUOUS
 10
1705.1844930837301
 20
2394.4480807782579
 30
0.0
 11
1845.23517208373
 21
2394.4480807782579
 31
0.0
  0
LINE
  5
7C76
  8
1
  6
CONTINUOUS
 10
1870.23517208373
 20
2467.4480807782579
 30
0.0
 11
1845.23517208373
 21
2467.4480807782579
 31
0.0
  0
LINE
  5
7C77
  8
1
  6
CONTINUOUS
 10
1870.23517208373
 20
2137.4480807782579
 30
0.0
 11
1845.23517208373
 21
2137.4480807782579
 31
0.0
  0
LINE
  5
7C78
  8
1
  6
CONTINUOUS
 10
1870.23517208373
 20
2467.4480807782579
 30
0.0
 11
1870.23517208373
 21
2137.4480807782579
 31
0.0
  0
LINE
  5
7C79
  8
1
  6
CONTINUOUS
 10
1745.23517208373
 20
2394.4480807782579
 30
0.0
 11
1745.23517208373
 21
2194.4480807782579
 31
0.0
  0
ARC
  5
7C7A
  8
1
  6
CONTINUOUS
 10
1571.23517208373
 20
2380.4480807782579
 30
0.0
 40
156.589876
 50
83.15722700000002
 51
178.02506600000001
  0
ARC
  5
7C7B
  8
1
  6
CONTINUOUS
 10
1600.23517208373
 20
2379.4480807782579
 30
0.0
 40
185.607112
 50
178.02506600000001
 51
265.36453699999998
  0
LINE
  5
7C7C
  8
1
  6
CONTINUOUS
 10
1055.23517208373
 20
2042.4480807782579
 30
0.0
 11
1055.23517208373
 21
2642.4480807782579
 31
0.0
  0
LINE
  5
7C7E
  8
1
  6
CONTINUOUS
 10
965.2351720837305
 20
1967.4480807782579
 30
0.0
 11
965.2351720837305
 21
2042.4480807782579
 31
0.0
  0
LINE
  5
7C7F
  8
1
  6
CONTINUOUS
 10
1030.23517208373
 20
2467.4480807782579
 30
0.0
 11
1030.23517208373
 21
2137.4480807782579
 31
0.0
  0
LINE
  5
7C80
  8
1
  6
CONTINUOUS
 10
1030.23517208373
 20
2137.4480807782579
 30
0.0
 11
1055.23517208373
 21
2137.4480807782579
 31
0.0
  0
LINE
  5
7C81
  8
1
  6
CONTINUOUS
 10
1030.23517208373
 20
2467.4480807782579
 30
0.0
 11
1055.23517208373
 21
2467.4480807782579
 31
0.0
  0
LINE
  5
7C82
  8
1
  6
CONTINUOUS
 10
1050.247855621039
 20
4055.7893867782591
 30
0.0
 11
1050.247855621039
 21
3425.7893867782582
 31
0.0
  0
LINE
  5
7C83
  8
1
  6
CONTINUOUS
 10
1840.2478556210399
 20
3425.7893867782582
 30
0.0
 11
1840.2478556210399
 21
4055.7893867782591
 31
0.0
  0
LINE
  5
7C84
  8
1
  6
CONTINUOUS
 10
1050.247855621039
 20
3425.7893867782582
 30
0.0
 11
1840.2478556210399
 21
3425.7893867782582
 31
0.0
  0
LINE
  5
7C85
  8
1
  6
CONTINUOUS
 10
960.24785562103978
 20
3480.7893867782582
 30
0.0
 11
1050.247855621039
 21
3480.7893867782582
 31
0.0
  0
LINE
  5
7C86
  8
1
  6
CONTINUOUS
 10
960.24785562103978
 20
3440.7893867782582
 30
0.0
 11
1050.247855621039
 21
3440.7893867782582
 31
0.0
  0
LINE
  5
7C87
  8
1
  6
CONTINUOUS
 10
960.24785562103978
 20
3480.7893867782582
 30
0.0
 11
960.24785562103978
 21
3440.7893867782582
 31
0.0
  0
LINE
  5
7C88
  8
1
  6
CONTINUOUS
 10
1930.2478556210399
 20
3440.7893867782582
 30
0.0
 11
1840.2478556210399
 21
3440.7893867782582
 31
0.0
  0
LINE
  5
7C89
  8
1
  6
CONTINUOUS
 10
1930.2478556210399
 20
3480.7893867782582
 30
0.0
 11
1930.2478556210399
 21
3440.7893867782582
 31
0.0
  0
LINE
  5
7C8A
  8
1
  6
CONTINUOUS
 10
1930.2478556210399
 20
3480.7893867782582
 30
0.0
 11
1840.2478556210399
 21
3480.7893867782582
 31
0.0
  0
LINE
  5
7C8B
  8
1
  6
CONTINUOUS
 10
1840.2478556210399
 20
4055.7893867782591
 30
0.0
 11
1050.247855621039
 21
4055.7893867782591
 31
0.0
  0
LINE
  5
7C8C
  8
1
  6
CONTINUOUS
 10
960.24785562103978
 20
4000.7893867782582
 30
0.0
 11
1050.247855621039
 21
4000.7893867782582
 31
0.0
  0
LINE
  5
7C8D
  8
1
  6
CONTINUOUS
 10
960.24785562103978
 20
4040.7893867782591
 30
0.0
 11
1050.247855621039
 21
4040.7893867782591
 31
0.0
  0
LINE
  5
7C8E
  8
1
  6
CONTINUOUS
 10
960.24785562103978
 20
4040.7893867782591
 30
0.0
 11
960.24785562103978
 21
4000.7893867782582
 31
0.0
  0
LINE
  5
7C8F
  8
1
  6
CONTINUOUS
 10
1025.247855621039
 20
3870.7893867782591
 30
0.0
 11
1050.247855621039
 21
3870.7893867782591
 31
0.0
  0
LINE
  5
7C90
  8
1
  6
CONTINUOUS
 10
1025.247855621039
 20
3610.7893867782582
 30
0.0
 11
1050.247855621039
 21
3610.7893867782582
 31
0.0
  0
LINE
  5
7C91
  8
1
  6
CONTINUOUS
 10
1025.247855621039
 20
3870.7893867782591
 30
0.0
 11
1025.247855621039
 21
3610.7893867782582
 31
0.0
  0
LINE
  5
7C92
  8
1
  6
CONTINUOUS
 10
1865.2478556210399
 20
3870.7893867782591
 30
0.0
 11
1865.2478556210399
 21
3610.7893867782582
 31
0.0
  0
LINE
  5
7C93
  8
1
  6
CONTINUOUS
 10
1865.2478556210399
 20
3610.7893867782582
 30
0.0
 11
1840.2478556210399
 21
3610.7893867782582
 31
0.0
  0
LINE
  5
7C94
  8
1
  6
CONTINUOUS
 10
1865.2478556210399
 20
3870.7893867782591
 30
0.0
 11
1840.2478556210399
 21
3870.7893867782591
 31
0.0
  0
LINE
  5
7C95
  8
1
  6
CONTINUOUS
 10
1930.2478556210399
 20
4040.7893867782591
 30
0.0
 11
1840.2478556210399
 21
4040.7893867782591
 31
0.0
  0
LINE
  5
7C96
  8
1
  6
CONTINUOUS
 10
1930.2478556210399
 20
4040.7893867782591
 30
0.0
 11
1930.2478556210399
 21
4000.7893867782582
 31
0.0
  0
LINE
  5
7C97
  8
1
  6
CONTINUOUS
 10
1930.2478556210399
 20
4000.7893867782582
 30
0.0
 11
1840.2478556210399
 21
4000.7893867782582
 31
0.0
  0
LINE
  5
7C98
  8
1
  6
CONTINUOUS
 10
2882.09134662104
 20
2442.4480807782579
 30
0.0
 11
3092.09134662104
 21
2162.4480807782579
 31
0.0
  0
LINE
  5
7C99
  8
1
  6
CONTINUOUS
 10
2882.09134662104
 20
2162.4480807782579
 30
0.0
 11
3092.09134662104
 21
2442.4480807782579
 31
0.0
  0
POLYLINE
  5
7C9A
  8
1
  6
CONTINUOUS
 66
     1
 10
0.0
 20
0.0
 30
0.0
 70
     1
  0
VERTEX
  5
80B7
  8
1
  6
CONTINUOUS
 10
2857.09134662104
 20
2137.4480807782579
 30
0.0
  0
VERTEX
  5
80B8
  8
1
  6
CONTINUOUS
 10
3117.09134662104
 20
2137.4480807782579
 30
0.0
  0
VERTEX
  5
80B9
  8
1
  6
CONTINUOUS
 10
3117.09134662104
 20
2467.4480807782579
 30
0.0
  0
VERTEX
  5
80BA
  8
1
  6
CONTINUOUS
 10
2857.09134662104
 20
2467.4480807782579
 30
0.0
  0
SEQEND
  5
80BB
  8
1
  6
CONTINUOUS
  0
POLYLINE
  5
7CA0
  8
1
  6
CONTINUOUS
 66
     1
 10
0.0
 20
0.0
 30
0.0
 70
     1
  0
VERTEX
  5
80BC
  8
1
  6
CONTINUOUS
 10
2882.09134662104
 20
2162.4480807782579
 30
0.0
  0
VERTEX
  5
80BD
  8
1
  6
CONTINUOUS
 10
3092.09134662104
 20
2162.4480807782579
 30
0.0
  0
VERTEX
  5
80BE
  8
1
  6
CONTINUOUS
 10
3092.09134662104
 20
2442.4480807782579
 30
0.0
  0
VERTEX
  5
80BF
  8
1
  6
CONTINUOUS
 10
2882.09134662104
 20
2442.4480807782579
 30
0.0
  0
SEQEND
  5
80C0
  8
1
  6
CONTINUOUS
  0
LINE
  5
7CA6
  8
1
  6
CONTINUOUS
 10
3302.09134662104
 20
2042.4480807782579
 30
0.0
 11
2672.09134662104
 21
2042.4480807782579
 31
0.0
  0
LINE
  5
7CA7
  8
1
  6
CONTINUOUS
 10
2687.09134662104
 20
1967.4480807782579
 30
0.0
 11
3287.09134662104
 21
1967.4480807782579
 31
0.0
  0
LINE
  5
7CA8
  8
1
  6
CONTINUOUS
 10
2672.09134662104
 20
2642.4480807782579
 30
0.0
 11
2672.09134662104
 21
2042.4480807782579
 31
0.0
  0
LINE
  5
7CA9
  8
1
  6
CONTINUOUS
 10
3302.09134662104
 20
2042.4480807782579
 30
0.0
 11
3302.0913466210409
 21
2642.4480807782579
 31
0.0
  0
DIMENSION
  5
7CAA
  8
3
  6
CONTINUOUS
  2
*D1
 10
965.2351720837305
 20
1815.435152778258
 30
0.0
 11
1457.45922508373
 21
1815.435152778258
 31
0.0
 70
   128
 13
1935.23517208373
 23
1967.4480807782579
 33
0.0
 14
965.2351720837305
 24
1967.4480807782579
 34
0.0
1001
ACAD
1000
DSTYLE
1002
{
1070
   287
1070
     3
1070
   287
1070
     3
1070
   287
1070
     3
1070
    40
1040
20.0
1070
   143
1040
0.039
1070
   172
1070
     1
1070
   271
1070
     0
1070
   279
1070
     0
1070
   288
1070
     1
1002
}
  0
DIMENSION
  5
7CAB
  8
3
  6
CONTINUOUS
  2
*D2
 10
2186.0659785323478
 20
1967.4480807782579
 30
0.0
 11
2186.0659785323469
 21
2305.653868778259
 31
0.0
 70
   128
 13
1845.23517208373
 23
2642.4480807782579
 33
0.0
 14
1935.23517208373
 24
1967.4480807782579
 34
0.0
 50
270.0
1001
ACAD
1000
DSTYLE
1002
{
1070
   287
1070
     3
1070
   287
1070
     3
1070
   287
1070
     3
1070
    40
1040
20.0
1070
   143
1040
0.039
1070
   172
1070
     1
1070
   271
1070
     0
1070
   279
1070
     0
1070
   288
1070
     1
1002
}
  0
LINE
  5
7CAC
  8
2
  6
CENTER
 10
1948.84842908373
 20
2302.4480807782579
 30
0.0
 11
958.16108908372996
 21
2302.4480807782579
 31
0.0
  0
DIMENSION
  5
7CAD
  8
3
  6
CONTINUOUS
  2
*D3
 10
791.00475508373006
 20
1967.4480807782579
 30
0.0
 11
791.00475508372983
 21
2165.305223635401
 31
0.0
 70
   128
 13
958.16108908372996
 23
2302.4480807782579
 33
0.0
 14
965.2351720837305
 24
1967.4480807782579
 34
0.0
 50
270.0
1001
ACAD
1000
DSTYLE
1002
{
1070
   287
1070
     3
1070
   287
1070
     3
1070
   287
1070
     3
1070
    40
1040
20.0
1070
   143
1040
0.039
1070
   172
1070
     1
1070
   271
1070
     0
1070
   279
1070
     0
1070
   288
1070
     1
1002
}
  0
DIMENSION
  5
7CAE
  8
3
  6
CONTINUOUS
  2
*D4
 10
1055.23517208373
 20
2778.074844778258
 30
0.0
 11
1466.14268808373
 21
2778.074844778258
 31
0.0
 70
   128
 13
1845.23517208373
 23
2642.4480807782579
 33
0.0
 14
1055.23517208373
 24
2642.4480807782579
 34
0.0
1001
ACAD
1000
DSTYLE
1002
{
1070
   287
1070
     3
1070
   287
1070
     3
1070
   287
1070
     3
1070
    40
1040
20.0
1070
   143
1040
0.039
1070
   172
1070
     1
1070
   271
1070
     0
1070
   279
1070
     0
1070
   288
1070
     1
1002
}
  0
DIMENSION
  5
7CAF
  8
3
  6
CONTINUOUS
  2
*D5
 10
1840.2478556210399
 20
3251.1686387782579
 30
0.0
 11
1450.98616462104
 21
3251.1686387782579
 31
0.0
 70
   128
 13
1050.247855621039
 23
3440.7893867782582
 33
0.0
 14
1840.2478556210399
 24
3440.7893867782582
 34
0.0
1001
ACAD
1000
DSTYLE
1002
{
1070
   287
1070
     3
1070
   287
1070
     3
1070
   287
1070
     3
1070
    40
1040
20.0
1070
   143
1040
0.039
1070
   172
1070
     1
1070
   271
1070
     0
1070
   279
1070
     0
1070
   288
1070
     1
1002
}
  0
DIMENSION
  5
7CB0
  8
3
  6
CONTINUOUS
  2
*D6
 10
2081.3903156210399
 20
3440.7893867782582
 30
0.0
 11
2081.3903156210399
 21
3752.883623778258
 31
0.0
 70
   128
 13
1930.2478556210399
 23
4040.7893867782591
 33
0.0
 14
1930.2478556210399
 24
3440.7893867782582
 34
0.0
 50
90.0
1001
ACAD
1000
DSTYLE
1002
{
1070
   287
1070
     3
1070
   287
1070
     3
1070
   287
1070
     3
1070
    40
1040
20.0
1070
   143
1040
0.039
1070
   172
1070
     1
1070
   271
1070
     0
1070
   279
1070
     0
1070
   288
1070
     1
1002
}
  0
LINE
  5
7CB1
  8
2
  6
CENTER
 10
2987.09134662104
 20
2678.6832817782579
 30
0.0
 11
2987.09134662104
 21
2624.0020957198012
 31
0.0
  0
LINE
  5
7CB2
  8
1
  6
CONTINUOUS
 10
2687.09134662104
 20
2042.4480807782579
 30
0.0
 11
2687.09134662104
 21
1967.4480807782579
 31
0.0
  0
LINE
  5
7CB3
  8
1
  6
CONTINUOUS
 10
3287.09134662104
 20
2042.4480807782579
 30
0.0
 11
3287.09134662104
 21
1967.4480807782579
 31
0.0
  0
LINE
  5
7CB4
  8
3
  6
CONTINUOUS
 10
1865.2478556210399
 20
3740.7893867782591
 30
0.0
 11
1865.2478556210399
 21
3740.7893867782591
 31
0.0
  0
LINE
  5
7CB5
  8
2
  6
CENTER
 10
961.28712362104045
 20
3740.7893867782591
 30
0.0
 11
1931.709945621039
 21
3740.7893867782591
 31
0.0
  0
DIMENSION
  5
7CB6
  8
3
  6
CONTINUOUS
  2
*D7
 10
3287.09134662104
 20
1781.7687677782581
 30
0.0
 11
3001.8405586210401
 21
1781.7687677782581
 31
0.0
 70
   128
 13
2687.09134662104
 23
1967.4480807782579
 33
0.0
 14
3287.09134662104
 24
1967.4480807782579
 34
0.0
1001
ACAD
1000
DSTYLE
1002
{
1070
   287
1070
     3
1070
   287
1070
     3
1070
   287
1070
     3
1070
    40
1040
20.0
1070
   143
1040
0.039
1070
   172
1070
     1
1070
   271
1070
     0
1070
   279
1070
     0
1070
   288
1070
     1
1002
}
  0
LINE
  5
7CB7
  8
2
  6
CENTER
 10
3226.4440326210402
 20
2302.4480807782579
 30
0.0
 11
2797.3945116210411
 21
2302.4480807782579
 31
0.0
  0
LINE
  5
7CB8
  8
1
  6
CONTINUOUS
 10
2672.09134662104
 20
2642.4480807782579
 30
0.0
 11
3302.09134662104
 21
2642.4480807782579
 31
0.0
  0
DIMENSION
  5
7CB9
  8
3
  6
CONTINUOUS
  2
*D8
 10
2987.09134662104
 20
2776.9319667782579
 30
0.0
 11
2855.6627751924689
 21
2776.9319667782579
 31
0.0
 70
   128
 13
2672.09134662104
 23
2642.4480807782579
 33
0.0
 14
2987.09134662104
 24
2673.6832817782579
 34
0.0
1001
ACAD
1000
DSTYLE
1002
{
1070
   287
1070
     3
1070
   287
1070
     3
1070
   287
1070
     3
1070
    40
1040
20.0
1070
   143
1040
0.039
1070
   172
1070
     1
1070
   271
1070
     0
1070
   279
1070
     0
1070
   288
1070
     1
1002
}
  0
DIMENSION
  5
7CBA
  8
3
  6
CONTINUOUS
  2
*D9
 10
3302.09134662104
 20
2776.9319667782579
 30
0.0
 11
3165.2763876210402
 21
2780.3997507782578
 31
0.0
 70
   128
 13
2987.09134662104
 23
2673.6832817782579
 33
0.0
 14
3302.09134662104
 24
2642.4480807782579
 34
0.0
1001
ACAD
1000
DSTYLE
1002
{
1070
   287
1070
     4
1070
   287
1070
     4
1070
   287
1070
     4
1070
    40
1040
20.0
1070
    75
1070
     1
1070
   143
1040
0.039
1070
   172
1070
     1
1070
   271
1070
     0
1070
   279
1070
     1
1070
   288
1070
     1
1002
}
  0
DIMENSION
  5
7CBB
  8
3
  6
CONTINUOUS
  2
*D10
 10
3092.09134662104
 20
2528.1136207782579
 30
0.0
 11
2987.09134662104
 21
2528.1136207782579
 31
0.0
 70
   128
 13
2882.09134662104
 23
2442.4480807782579
 33
0.0
 14
3092.09134662104
 24
2442.4480807782579
 34
0.0
1001
ACAD
1000
DSTYLE
1002
{
1070
   287
1070
     3
1070
   287
1070
     3
1070
   287
1070
     3
1070
    40
1040
20.0
1070
   143
1040
0.039
1070
   172
1070
     1
1070
   271
1070
     0
1070
   279
1070
     0
1070
   288
1070
     1
1002
}
  0
DIMENSION
  5
7CBC
  8
3
  6
CONTINUOUS
  2
*D11
 10
2806.666715621041
 20
2162.4480807782579
 30
0.0
 11
2806.666715621041
 21
2305.305223635401
 31
0.0
 70
   128
 13
2882.09134662104
 23
2442.4480807782579
 33
0.0
 14
2882.09134662104
 24
2162.4480807782579
 34
0.0
 50
90.0
1001
ACAD
1000
DSTYLE
1002
{
1070
   287
1070
     3
1070
   287
1070
     3
1070
   287
1070
     3
1070
    40
1040
20.0
1070
   143
1040
0.039
1070
   172
1070
     1
1070
   271
1070
     0
1070
   279
1070
     0
1070
   288
1070
     1
1002
}
  0
DIMENSION
  5
7EF8
  8
3
  2
*D12
 10
1983.322015486563
 20
2302.4480807782579
 30
0.0
 11
1983.322015486563
 21
2165.305223635401
 31
0.0
 70
   128
 13
1935.23517208373
 23
1967.4480807782579
 33
0.0
 14
1948.84842908373
 24
2302.4480807782579
 34
0.0
 50
270.0
1001
ACAD
1000
DSTYLE
1002
{
1070
   287
1070
     3
1070
   287
1070
     3
1070
   287
1070
     3
1070
    40
1040
20.0
1070
   143
1040
0.039
1070
   172
1070
     1
1070
   271
1070
     0
1070
   279
1070
     0
1070
   288
1070
     1
1002
}
  0
LINE
  5
7FF6
  8
2
  6
CENTER
 10
2987.09134662104
 20
2515.3138998123341
 30
0.0
 11
2987.09134662104
 21
1923.876659778258
 31
0.0
  0
ENDSEC
  0
EOF
