  0
SECTION
  2
HEADER
  9
$ACADVER
  1
AC1015
  9
$ACADMAINTVER
 70
     6
  9
$DWGCODEPAGE
  3
ANSI_932
  9
$INSBASE
 10
0.0
 20
0.0
 30
0.0
  9
$EXTMIN
 10
375.0
 20
450.0
 30
0.0
  9
$EXTMAX
 10
2775.0
 20
4179.978392
 30
0.0
  9
$LIMMIN
 10
0.0
 20
0.0
  9
$LIMMAX
 10
297.0
 20
210.0
  9
$ORTHOMODE
 70
     1
  9
$REGENMODE
 70
     1
  9
$FILLMODE
 70
     0
  9
$QTEXTMODE
 70
     0
  9
$MIRRTEXT
 70
     1
  9
$LTSCALE
 40
5.0
  9
$ATTMODE
 70
     1
  9
$TEXTSIZE
 40
180.0
  9
$TRACEWID
 40
0.05
  9
$TEXTSTYLE
  7
STANDARD
  9
$CLAYER
  8
3
  9
$CELTYPE
  6
BYLAYER
  9
$CECOLOR
 62
   256
  9
$CELTSCALE
 40
1.0
  9
$DISPSILH
 70
     0
  9
$DIMSCALE
 40
15.0
  9
$DIMASZ
 40
2.0
  9
$DIMEXO
 40
0.5
  9
$DIMDLI
 40
10.0
  9
$DIMRND
 40
0.0
  9
$DIMDLE
 40
0.0
  9
$DIMEXE
 40
1.0
  9
$DIMTP
 40
1.0
  9
$DIMTM
 40
1.0
  9
$DIMTXT
 40
3.0
  9
$DIMCEN
 40
0.0
  9
$DIMTSZ
 40
0.0
  9
$DIMTOL
 70
     0
  9
$DIMLIM
 70
     0
  9
$DIMTIH
 70
     0
  9
$DIMTOH
 70
     0
  9
$DIMSE1
 70
     0
  9
$DIMSE2
 70
     0
  9
$DIMTAD
 70
     1
  9
$DIMZIN
 70
     8
  9
$DIMBLK
  1

  9
$DIMASO
 70
     1
  9
$DIMSHO
 70
     1
  9
$DIMPOST
  1

  9
$DIMAPOST
  1

  9
$DIMALT
 70
     0
  9
$DIMALTD
 70
     2
  9
$DIMALTF
 40
0.039
  9
$DIMLFAC
 40
1.0
  9
$DIMTOFL
 70
     1
  9
$DIMTVP
 40
0.0
  9
$DIMTIX
 70
     0
  9
$DIMSOXD
 70
     0
  9
$DIMSAH
 70
     1
  9
$DIMBLK1
  1
OPEN
  9
$DIMBLK2
  1
OPEN
  9
$DIMSTYLE
  2
IGA
  9
$DIMCLRD
 70
     0
  9
$DIMCLRE
 70
     0
  9
$DIMCLRT
 70
     0
  9
$DIMTFAC
 40
10.0
  9
$DIMGAP
 40
1.0
  9
$DIMJUST
 70
     0
  9
$DIMSD1
 70
     0
  9
$DIMSD2
 70
     0
  9
$DIMTOLJ
 70
     1
  9
$DIMTZIN
 70
     8
  9
$DIMALTZ
 70
     0
  9
$DIMALTTZ
 70
     0
  9
$DIMUPT
 70
     1
  9
$DIMDEC
 70
     0
  9
$DIMTDEC
 70
     0
  9
$DIMALTU
 70
     2
  9
$DIMALTTD
 70
     2
  9
$DIMTXSTY
  7
STANDARD
  9
$DIMAUNIT
 70
     0
  9
$DIMADEC
 70
     0
  9
$DIMALTRND
 40
0.0
  9
$DIMAZIN
 70
     0
  9
$DIMDSEP
 70
    46
  9
$DIMATFIT
 70
     3
  9
$DIMFRAC
 70
     0
  9
$DIMLDRBLK
  1
OPEN
  9
$DIMLUNIT
 70
     2
  9
$DIMLWD
 70
    -2
  9
$DIMLWE
 70
    -2
  9
$DIMTMOVE
 70
     0
  9
$LUNITS
 70
     2
  9
$LUPREC
 70
     3
  9
$SKETCHINC
 40
0.1
  9
$FILLETRAD
 40
50.0
  9
$AUNITS
 70
     0
  9
$AUPREC
 70
     0
  9
$MENU
  1
acad
  9
$ELEVATION
 40
0.0
  9
$PELEVATION
 40
0.0
  9
$THICKNESS
 40
0.0
  9
$LIMCHECK
 70
     0
  9
$CHAMFERA
 40
0.5
  9
$CHAMFERB
 40
0.5
  9
$CHAMFERC
 40
20.0
  9
$CHAMFERD
 40
0.0
  9
$SKPOLY
 70
     0
  9
$TDCREATE
 40
2450785.644117014
  9
$TDUCREATE
 40
2450785.269117014
  9
$TDUPDATE
 40
2456463.537755891
  9
$TDUUPDATE
 40
2456463.162755891
  9
$TDINDWG
 40
0.0145985185
  9
$TDUSRTIMER
 40
0.0145985185
  9
$USRTIMER
 70
     1
  9
$ANGBASE
 50
0.0
  9
$ANGDIR
 70
     0
  9
$PDMODE
 70
     0
  9
$PDSIZE
 40
0.0
  9
$PLINEWID
 40
0.0
  9
$SPLFRAME
 70
     0
  9
$SPLINETYPE
 70
     6
  9
$SPLINESEGS
 70
     8
  9
$HANDSEED
  5
8062
  9
$SURFTAB1
 70
     6
  9
$SURFTAB2
 70
     6
  9
$SURFTYPE
 70
     6
  9
$SURFU
 70
     6
  9
$SURFV
 70
     6
  9
$UCSBASE
  2

  9
$UCSNAME
  2

  9
$UCSORG
 10
0.0
 20
0.0
 30
0.0
  9
$UCSXDIR
 10
1.0
 20
0.0
 30
0.0
  9
$UCSYDIR
 10
0.0
 20
1.0
 30
0.0
  9
$UCSORTHOREF
  2

  9
$UCSORTHOVIEW
 70
     0
  9
$UCSORGTOP
 10
0.0
 20
0.0
 30
0.0
  9
$UCSORGBOTTOM
 10
0.0
 20
0.0
 30
0.0
  9
$UCSORGLEFT
 10
0.0
 20
0.0
 30
0.0
  9
$UCSORGRIGHT
 10
0.0
 20
0.0
 30
0.0
  9
$UCSORGFRONT
 10
0.0
 20
0.0
 30
0.0
  9
$UCSORGBACK
 10
0.0
 20
0.0
 30
0.0
  9
$PUCSBASE
  2

  9
$PUCSNAME
  2

  9
$PUCSORG
 10
0.0
 20
0.0
 30
0.0
  9
$PUCSXDIR
 10
1.0
 20
0.0
 30
0.0
  9
$PUCSYDIR
 10
0.0
 20
1.0
 30
0.0
  9
$PUCSORTHOREF
  2

  9
$PUCSORTHOVIEW
 70
     0
  9
$PUCSORGTOP
 10
0.0
 20
0.0
 30
0.0
  9
$PUCSORGBOTTOM
 10
0.0
 20
0.0
 30
0.0
  9
$PUCSORGLEFT
 10
0.0
 20
0.0
 30
0.0
  9
$PUCSORGRIGHT
 10
0.0
 20
0.0
 30
0.0
  9
$PUCSORGFRONT
 10
0.0
 20
0.0
 30
0.0
  9
$PUCSORGBACK
 10
0.0
 20
0.0
 30
0.0
  9
$USERI1
 70
     0
  9
$USERI2
 70
     0
  9
$USERI3
 70
     0
  9
$USERI4
 70
     0
  9
$USERI5
 70
     0
  9
$USERR1
 40
0.0
  9
$USERR2
 40
0.0
  9
$USERR3
 40
0.0
  9
$USERR4
 40
0.0
  9
$USERR5
 40
0.0
  9
$WORLDVIEW
 70
     1
  9
$SHADEDGE
 70
     3
  9
$SHADEDIF
 70
    70
  9
$TILEMODE
 70
     1
  9
$MAXACTVP
 70
    16
  9
$PINSBASE
 10
0.0
 20
0.0
 30
0.0
  9
$PLIMCHECK
 70
     0
  9
$PEXTMIN
 10
1.000000000000000E+20
 20
1.000000000000000E+20
 30
1.000000000000000E+20
  9
$PEXTMAX
 10
-1.000000000000000E+20
 20
-1.000000000000000E+20
 30
-1.000000000000000E+20
  9
$PLIMMIN
 10
0.0
 20
0.0
  9
$PLIMMAX
 10
12.0
 20
9.0
  9
$UNITMODE
 70
     0
  9
$VISRETAIN
 70
     0
  9
$PLINEGEN
 70
     0
  9
$PSLTSCALE
 70
     1
  9
$TREEDEPTH
 70
  3020
  9
$CMLSTYLE
  2
STANDARD
  9
$CMLJUST
 70
     0
  9
$CMLSCALE
 40
20.0
  9
$PROXYGRAPHICS
 70
     1
  9
$MEASUREMENT
 70
     0
  9
$CELWEIGHT
370
    -1
  9
$ENDCAPS
280
     0
  9
$JOINSTYLE
280
     0
  9
$LWDISPLAY
290
     0
  9
$INSUNITS
 70
     0
  9
$HYPERLINKBASE
  1

  9
$STYLESHEET
  1

  9
$XEDIT
290
     1
  9
$CEPSNTYPE
380
     0
  9
$PSTYLEMODE
290
     1
  9
$FINGERPRINTGUID
  2
{A276ECBD-75B9-11D5-A85E-0080AD788799}
  9
$VERSIONGUID
  2
{CD768DD3-1584-4699-892B-AC51616F987C}
  9
$EXTNAMES
290
     1
  9
$PSVPSCALE
 40
0.0
  9
$OLESTARTUP
290
     0
  0
ENDSEC
  0
SECTION
  2
CLASSES
  0
CLASS
  1
ACDBDICTIONARYWDFLT
  2
AcDbDictionaryWithDefault
  3
AutoCAD 2000
 90
        0
280
     0
281
     0
  0
CLASS
  1
ACDBPLACEHOLDER
  2
AcDbPlaceHolder
  3
AutoCAD 2000
 90
        0
280
     0
281
     0
  0
CLASS
  1
LAYOUT
  2
AcDbLayout
  3
AutoCAD 2000
 90
        0
280
     0
281
     0
  0
CLASS
  1
LONG_TRANSACTION
  2
AcDbLongTransaction
  3
AutoCAD 2000
 90
    32768
280
     0
281
     0
  0
CLASS
  1
LWPOLYLINE
  2
AcDbPolyline
  3
AutoCAD 2000
 90
    32768
280
     0
281
     1
  0
CLASS
  1
HATCH
  2
AcDbHatch
  3
AutoCAD 2000
 90
    32768
280
     0
281
     1
  0
CLASS
  1
XRECORD
  2
AcDbXrecord
  3
AutoCAD 2000
 90
    32768
280
     0
281
     0
  0
CLASS
  1
DICTIONARYVAR
  2
AcDbDictionaryVar
  3
AutoCAD 2000
 90
        0
280
     0
281
     0
  0
CLASS
  1
LONG_TRANSACTION
  2
AcDbLongTransaction
  3
AutoCAD 2000
 90
    32768
280
     0
281
     0
  0
CLASS
  1
LWPOLYLINE
  2
AcDbPolyline
  3
AutoCAD 2000
 90
    32768
280
     0
281
     1
  0
CLASS
  1
HATCH
  2
AcDbHatch
  3
AutoCAD 2000
 90
    32768
280
     0
281
     1
  0
CLASS
  1
XRECORD
  2
AcDbXrecord
  3
AutoCAD 2000
 90
    32768
280
     0
281
     0
  0
ENDSEC
  0
SECTION
  2
TABLES
  0
TABLE
  2
VPORT
  5
8
330
0
100
AcDbSymbolTable
 70
     3
  0
VPORT
  5
8061
330
8
100
AcDbSymbolTableRecord
100
AcDbViewportTableRecord
  2
*Active
 70
     0
 10
0.0
 20
0.0
 11
1.0
 21
1.0
 12
2398.983051431681
 22
1773.612518380986
 13
0.0
 23
0.0
 14
10.0
 24
10.0
 15
10.0
 25
10.0
 16
0.0
 26
0.0
 36
1.0
 17
0.0
 27
0.0
 37
0.0
 40
5519.745939516191
 41
1.73997233748271
 42
50.0
 43
0.0
 44
0.0
 50
0.0
 51
0.0
 71
     0
 72
   100
 73
     1
 74
     0
 75
     0
 76
     0
 77
     0
 78
     0
281
     0
 65
     1
110
0.0
120
0.0
130
0.0
111
1.0
121
0.0
131
0.0
112
0.0
122
1.0
132
0.0
 79
     0
146
0.0
  0
ENDTAB
  0
TABLE
  2
LTYPE
  5
5
330
0
100
AcDbSymbolTable
 70
     2
  0
LTYPE
  5
13
330
5
100
AcDbSymbolTableRecord
100
AcDbLinetypeTableRecord
  2
BYBLOCK
 70
     0
  3

 72
    65
 73
     0
 40
0.0
  0
LTYPE
  5
14
330
5
100
AcDbSymbolTableRecord
100
AcDbLinetypeTableRecord
  2
BYLAYER
 70
     0
  3

 72
    65
 73
     0
 40
0.0
  0
LTYPE
  5
15
330
5
100
AcDbSymbolTableRecord
100
AcDbLinetypeTableRecord
  2
CONTINUOUS
 70
     0
  3
Solid line
 72
    65
 73
     0
 40
0.0
  0
LTYPE
  5
1F
330
5
100
AcDbSymbolTableRecord
100
AcDbLinetypeTableRecord
  2
CENTER
 70
     0
  3
____ _ ____ _ ____ _ ____ _ ____ _ ____ _ ____ 
 72
    65
 73
     4
 40
2.0
 49
1.25
 74
     0
 49
-0.25
 74
     0
 49
0.25
 74
     0
 49
-0.25
 74
     0
  0
ENDTAB
  0
TABLE
  2
LAYER
  5
2
330
0
100
AcDbSymbolTable
 70
     6
  0
LAYER
  5
F
330
2
100
AcDbSymbolTableRecord
100
AcDbLayerTableRecord
  2
0
 70
     0
 62
     7
  6
CONTINUOUS
370
    -3
390
7E30
  0
LAYER
  5
31
330
2
100
AcDbSymbolTableRecord
100
AcDbLayerTableRecord
  2
3
 70
     0
 62
     2
  6
CONTINUOUS
370
    -3
390
7E30
  0
LAYER
  5
76D0
330
2
100
AcDbSymbolTableRecord
100
AcDbLayerTableRecord
  2
2
 70
     0
 62
     3
  6
CENTER
370
    -3
390
7E30
  0
LAYER
  5
76D1
330
2
100
AcDbSymbolTableRecord
100
AcDbLayerTableRecord
  2
1
 70
     0
 62
     4
  6
CONTINUOUS
370
    -3
390
7E30
  0
LAYER
  5
76D2
330
2
100
AcDbSymbolTableRecord
100
AcDbLayerTableRecord
  2
4
 70
     0
 62
     7
  6
CONTINUOUS
370
    -3
390
7E30
  0
LAYER
  5
7A9F
330
2
100
AcDbSymbolTableRecord
100
AcDbLayerTableRecord
  2
DEFPOINTS
 70
     0
 62
     7
  6
CONTINUOUS
290
     0
370
    -3
390
7E30
  0
ENDTAB
  0
TABLE
  2
STYLE
  5
3
330
0
100
AcDbSymbolTable
 70
     1
  0
STYLE
  5
10
330
3
100
AcDbSymbolTableRecord
100
AcDbTextStyleTableRecord
  2
STANDARD
 70
     0
 40
0.0
 41
1.0
 50
0.0
 71
     0
 42
180.0
  3
simplex.shx
  4
extfont.shx
  0
ENDTAB
  0
TABLE
  2
VIEW
  5
6
330
0
100
AcDbSymbolTable
 70
     0
  0
ENDTAB
  0
TABLE
  2
UCS
  5
7
330
0
100
AcDbSymbolTable
 70
     0
  0
ENDTAB
  0
TABLE
  2
APPID
  5
9
330
0
100
AcDbSymbolTable
 70
     1
  0
APPID
  5
11
330
9
100
AcDbSymbolTableRecord
100
AcDbRegAppTableRecord
  2
ACAD
 70
     0
  0
ENDTAB
  0
TABLE
  2
DIMSTYLE
  5
A
330
0
100
AcDbSymbolTable
 70
     1
100
AcDbDimStyleTable
 71
     1
340
1D
  0
DIMSTYLE
105
1D
102
{ACAD_REACTORS
330
7C9D
330
7C9E
330
7C9F
330
7CA7
330
7CA9
330
7CAA
330
7CAB
330
7CAC
330
7CCF
330
7CA6
330
7CA5
330
801E
330
802B
330
7CA0
330
804A
102
}
330
A
100
AcDbSymbolTableRecord
100
AcDbDimStyleTableRecord
  2
IGA
 70
     0
 40
2.0
 41
2.0
 42
0.5
 43
10.0
 44
1.0
 47
1.0
 48
1.0
 73
     0
 74
     0
 77
     1
 78
     8
140
3.0
141
0.0
143
0.03937
146
10.0
147
1.0
173
     1
271
     1
272
     0
279
     2
284
     8
340
10
341
7A91
343
7A91
344
7A91
  0
ENDTAB
  0
TABLE
  2
BLOCK_RECORD
  5
1
330
0
100
AcDbSymbolTable
 70
    16
  0
BLOCK_RECORD
  5
19
102
{ACAD_XDICTIONARY
360
7E5E
102
}
330
1
100
AcDbSymbolTableRecord
100
AcDbBlockTableRecord
  2
*MODEL_SPACE
340
7E33
  0
BLOCK_RECORD
  5
16
102
{ACAD_XDICTIONARY
360
7E5C
102
}
330
1
100
AcDbSymbolTableRecord
100
AcDbBlockTableRecord
  2
*PAPER_SPACE
340
7E34
  0
BLOCK_RECORD
  5
7A91
330
1
100
AcDbSymbolTableRecord
100
AcDbBlockTableRecord
  2
_OPEN
340
0
102
{BLKREFS
331
7FA9
331
7FAA
331
7FB2
331
7FB3
331
7FBB
331
7FBC
331
7FC4
331
7FC5
331
7FCD
331
7FCE
331
7FD5
331
7FD6
331
7FDE
331
7FDF
331
7FE7
331
7FE8
331
7FF0
331
7FF1
331
7FF9
331
7FFA
331
8002
331
8003
331
800B
331
800C
331
8023
331
8024
331
8030
331
8031
331
803B
331
803C
331
8044
331
8045
331
804F
331
8050
331
805A
331
805B
102
}
  0
BLOCK_RECORD
  5
7CD0
330
1
100
AcDbSymbolTableRecord
100
AcDbBlockTableRecord
  2
*D1
340
0
  0
BLOCK_RECORD
  5
7CDC
330
1
100
AcDbSymbolTableRecord
100
AcDbBlockTableRecord
  2
*D2
340
0
  0
BLOCK_RECORD
  5
7CE8
330
1
100
AcDbSymbolTableRecord
100
AcDbBlockTableRecord
  2
*D3
340
0
  0
BLOCK_RECORD
  5
7CF4
330
1
100
AcDbSymbolTableRecord
100
AcDbBlockTableRecord
  2
*D4
340
0
  0
BLOCK_RECORD
  5
7D00
330
1
100
AcDbSymbolTableRecord
100
AcDbBlockTableRecord
  2
*D5
340
0
  0
BLOCK_RECORD
  5
7D0C
330
1
100
AcDbSymbolTableRecord
100
AcDbBlockTableRecord
  2
*D6
340
0
  0
BLOCK_RECORD
  5
7D17
330
1
100
AcDbSymbolTableRecord
100
AcDbBlockTableRecord
  2
*D7
340
0
  0
BLOCK_RECORD
  5
7D23
330
1
100
AcDbSymbolTableRecord
100
AcDbBlockTableRecord
  2
*D8
340
0
  0
BLOCK_RECORD
  5
7D2F
330
1
100
AcDbSymbolTableRecord
100
AcDbBlockTableRecord
  2
*D9
340
0
  0
BLOCK_RECORD
  5
7D3B
330
1
100
AcDbSymbolTableRecord
100
AcDbBlockTableRecord
  2
*D10
340
0
  0
BLOCK_RECORD
  5
7D49
330
1
100
AcDbSymbolTableRecord
100
AcDbBlockTableRecord
  2
*D11
340
0
  0
BLOCK_RECORD
  5
7D55
330
1
100
AcDbSymbolTableRecord
100
AcDbBlockTableRecord
  2
*D12
340
0
  0
BLOCK_RECORD
  5
801F
330
1
100
AcDbSymbolTableRecord
100
AcDbBlockTableRecord
  2
*D13
340
0
  0
BLOCK_RECORD
  5
802C
330
1
100
AcDbSymbolTableRecord
100
AcDbBlockTableRecord
  2
*D14
340
0
  0
BLOCK_RECORD
  5
804B
330
1
100
AcDbSymbolTableRecord
100
AcDbBlockTableRecord
  2
*D15
340
0
  0
ENDTAB
  0
ENDSEC
  0
SECTION
  2
BLOCKS
  0
BLOCK
  5
1A
330
19
100
AcDbEntity
  8
0
100
AcDbBlockBegin
  2
*MODEL_SPACE
 70
     0
 10
0.0
 20
0.0
 30
0.0
  3
*MODEL_SPACE
  1

  0
ENDBLK
  5
1B
330
19
100
AcDbEntity
  8
0
100
AcDbBlockEnd
  0
BLOCK
  5
17
330
16
100
AcDbEntity
 67
     1
  8
0
100
AcDbBlockBegin
  2
*PAPER_SPACE
 70
     0
 10
0.0
 20
0.0
 30
0.0
  3
*PAPER_SPACE
  1

  0
ENDBLK
  5
18
330
16
100
AcDbEntity
 67
     1
  8
0
100
AcDbBlockEnd
  0
BLOCK
  5
7A92
330
7A91
100
AcDbEntity
  8
0
100
AcDbBlockBegin
  2
_OPEN
 70
     0
 10
0.0
 20
0.0
 30
0.0
  3
_OPEN
  1

  0
LINE
  5
7A93
330
7A91
100
AcDbEntity
  8
0
  6
ByBlock
 62
     0
100
AcDbLine
 10
-1.0
 20
0.166667
 30
0.0
 11
0.0
 21
0.0
 31
0.0
  0
LINE
  5
7A94
330
7A91
100
AcDbEntity
  8
0
  6
ByBlock
 62
     0
100
AcDbLine
 10
0.0
 20
0.0
 30
0.0
 11
-1.0
 21
-0.166667
 31
0.0
  0
LINE
  5
7A95
330
7A91
100
AcDbEntity
  8
0
  6
ByBlock
 62
     0
100
AcDbLine
 10
0.0
 20
0.0
 30
0.0
 11
-1.0
 21
0.0
 31
0.0
  0
ENDBLK
  5
7A96
330
7A91
100
AcDbEntity
  8
0
100
AcDbBlockEnd
  0
BLOCK
  5
7EE5
330
7CD0
100
AcDbEntity
  8
0
100
AcDbBlockBegin
  2
*D1
 70
     1
 10
0.0
 20
0.0
 30
0.0
  3
*D1
  1

  0
LINE
  5
7FA6
330
7CD0
100
AcDbEntity
  8
3
  6
Continuous
 62
     0
100
AcDbLine
 10
1582.642231669111
 20
1420.005763438532
 30
0.0
 11
1582.642231669111
 21
1262.404118438531
 31
0.0
  0
LINE
  5
7FA7
330
7CD0
100
AcDbEntity
  8
3
  6
Continuous
 62
     0
100
AcDbLine
 10
682.6422316691114
 20
1420.005763438532
 30
0.0
 11
682.6422316691114
 21
1262.404118438531
 31
0.0
  0
LINE
  5
7FA8
330
7CD0
100
AcDbEntity
  8
3
  6
Continuous
 62
     0
100
AcDbLine
 10
1552.642231669111
 20
1277.404118438532
 30
0.0
 11
712.6422316691114
 21
1277.404118438532
 31
0.0
  0
INSERT
  5
7FA9
330
7CD0
100
AcDbEntity
  8
3
  6
Continuous
 62
     0
100
AcDbBlockReference
  2
_OPEN
 10
1582.642231669111
 20
1277.404118438532
 30
0.0
 41
30.0
 42
30.0
 43
30.0
  0
INSERT
  5
7FAA
330
7CD0
100
AcDbEntity
  8
3
  6
Continuous
 62
     0
100
AcDbBlockReference
  2
_OPEN
 10
682.6422316691114
 20
1277.404118438532
 30
0.0
 41
30.0
 42
30.0
 43
30.0
 50
180.0
  0
MTEXT
  5
7FAB
330
7CD0
100
AcDbEntity
  8
3
  6
Continuous
 62
     0
100
AcDbMText
 10
1146.988145669111
 20
1314.904118438532
 30
0.0
 40
45.0
 41
0.0
 71
     5
 72
     5
  1
\A1;900
 73
     1
 44
1.0
  0
POINT
  5
7FAC
330
7CD0
100
AcDbEntity
  8
DEFPOINTS
  6
Continuous
 62
     0
100
AcDbPoint
 10
1582.642231669111
 20
1427.505763438532
 30
0.0
  0
POINT
  5
7FAD
330
7CD0
100
AcDbEntity
  8
DEFPOINTS
  6
Continuous
 62
     0
100
AcDbPoint
 10
682.6422316691114
 20
1427.505763438532
 30
0.0
  0
POINT
  5
7FAE
330
7CD0
100
AcDbEntity
  8
DEFPOINTS
  6
Continuous
 62
     0
100
AcDbPoint
 10
682.6422316691114
 20
1277.404118438532
 30
0.0
  0
ENDBLK
  5
7EEF
330
7CD0
100
AcDbEntity
  8
0
100
AcDbBlockEnd
  0
BLOCK
  5
7EF0
330
7CDC
100
AcDbEntity
  8
0
100
AcDbBlockBegin
  2
*D2
 70
     1
 10
0.0
 20
0.0
 30
0.0
  3
*D2
  1

  0
LINE
  5
7FAF
330
7CDC
100
AcDbEntity
  8
3
  6
Continuous
 62
     0
100
AcDbLine
 10
1492.642231669111
 20
2045.005763438531
 30
0.0
 11
1492.642231669111
 21
2182.077882438532
 31
0.0
  0
LINE
  5
7FB0
330
7CDC
100
AcDbEntity
  8
3
  6
Continuous
 62
     0
100
AcDbLine
 10
772.6422316691114
 20
2045.005763438531
 30
0.0
 11
772.6422316691114
 21
2182.077882438532
 31
0.0
  0
LINE
  5
7FB1
330
7CDC
100
AcDbEntity
  8
3
  6
Continuous
 62
     0
100
AcDbLine
 10
1462.642231669111
 20
2167.077882438531
 30
0.0
 11
802.6422316691114
 21
2167.077882438531
 31
0.0
  0
INSERT
  5
7FB2
330
7CDC
100
AcDbEntity
  8
3
  6
Continuous
 62
     0
100
AcDbBlockReference
  2
_OPEN
 10
1492.642231669111
 20
2167.077882438531
 30
0.0
 41
30.0
 42
30.0
 43
30.0
  0
INSERT
  5
7FB3
330
7CDC
100
AcDbEntity
  8
3
  6
Continuous
 62
     0
100
AcDbBlockReference
  2
_OPEN
 10
772.6422316691114
 20
2167.077882438531
 30
0.0
 41
30.0
 42
30.0
 43
30.0
 50
180.0
  0
MTEXT
  5
7FB4
330
7CDC
100
AcDbEntity
  8
3
  6
Continuous
 62
     0
100
AcDbMText
 10
1125.788327669111
 20
2204.577882438532
 30
0.0
 40
45.0
 41
0.0
 71
     5
 72
     5
  1
\A1;720
 73
     1
 44
1.0
  0
POINT
  5
7FB5
330
7CDC
100
AcDbEntity
  8
DEFPOINTS
  6
Continuous
 62
     0
100
AcDbPoint
 10
1492.642231669111
 20
2037.505763438531
 30
0.0
  0
POINT
  5
7FB6
330
7CDC
100
AcDbEntity
  8
DEFPOINTS
  6
Continuous
 62
     0
100
AcDbPoint
 10
772.6422316691114
 20
2037.50576343853
 30
0.0
  0
POINT
  5
7FB7
330
7CDC
100
AcDbEntity
  8
DEFPOINTS
  6
Continuous
 62
     0
100
AcDbPoint
 10
772.6422316691114
 20
2167.077882438531
 30
0.0
  0
ENDBLK
  5
7EFA
330
7CDC
100
AcDbEntity
  8
0
100
AcDbBlockEnd
  0
BLOCK
  5
7EFB
330
7CE8
100
AcDbEntity
  8
0
100
AcDbBlockBegin
  2
*D3
 70
     1
 10
0.0
 20
0.0
 30
0.0
  3
*D3
  1

  0
LINE
  5
8057
330
7CE8
100
AcDbEntity
  8
3
  6
Continuous
 62
     0
370
    -2
100
AcDbLine
 10
772.2540246691115
 20
2606.403267438532
 30
0.0
 11
772.2540246691115
 21
2463.423955438531
 31
0.0
  0
LINE
  5
8058
330
7CE8
100
AcDbEntity
  8
3
  6
Continuous
 62
     0
370
    -2
100
AcDbLine
 10
1492.254024669111
 20
2606.403267438532
 30
0.0
 11
1492.254024669111
 21
2463.423955438531
 31
0.0
  0
LINE
  5
8059
330
7CE8
100
AcDbEntity
  8
3
  6
Continuous
 62
     0
370
    -2
100
AcDbLine
 10
802.2540246691114
 20
2478.423955438532
 30
0.0
 11
1462.254024669111
 21
2478.423955438532
 31
0.0
  0
INSERT
  5
805A
330
7CE8
100
AcDbEntity
  8
3
  6
Continuous
 62
     0
370
    -2
100
AcDbBlockReference
  2
_OPEN
 10
772.2540246691115
 20
2478.423955438532
 30
0.0
 41
30.0
 42
30.0
 43
30.0
 50
180.0
  0
INSERT
  5
805B
330
7CE8
100
AcDbEntity
  8
3
  6
Continuous
 62
     0
370
    -2
100
AcDbBlockReference
  2
_OPEN
 10
1492.254024669111
 20
2478.423955438532
 30
0.0
 41
30.0
 42
30.0
 43
30.0
  0
MTEXT
  5
805C
330
7CE8
100
AcDbEntity
  8
3
  6
Continuous
 62
     0
100
AcDbMText
 10
1132.926146669111
 20
2515.923955438532
 30
0.0
 40
45.0
 41
0.0
 71
     5
 72
     1
  1
\A1;720
 73
     1
 44
1.0
  0
POINT
  5
805D
330
7CE8
100
AcDbEntity
  8
DEFPOINTS
  6
Continuous
 62
     0
100
AcDbPoint
 10
772.2540246691115
 20
2613.903267438532
 30
0.0
  0
POINT
  5
805E
330
7CE8
100
AcDbEntity
  8
DEFPOINTS
  6
Continuous
 62
     0
100
AcDbPoint
 10
1492.254024669111
 20
2613.903267438532
 30
0.0
  0
POINT
  5
805F
330
7CE8
100
AcDbEntity
  8
DEFPOINTS
  6
Continuous
 62
     0
100
AcDbPoint
 10
1492.254024669111
 20
2478.423955438532
 30
0.0
  0
ENDBLK
  5
7F05
330
7CE8
100
AcDbEntity
  8
0
100
AcDbBlockEnd
  0
BLOCK
  5
7F06
330
7CF4
100
AcDbEntity
  8
0
100
AcDbBlockBegin
  2
*D4
 70
     1
 10
0.0
 20
0.0
 30
0.0
  3
*D4
  1

  0
LINE
  5
8041
330
7CF4
100
AcDbEntity
  8
3
  6
Continuous
 62
     0
370
    -2
100
AcDbLine
 10
1499.754024669111
 20
3149.903267438532
 30
0.0
 11
1696.081321669112
 21
3149.903267438532
 31
0.0
  0
LINE
  5
8042
330
7CF4
100
AcDbEntity
  8
3
  6
Continuous
 62
     0
370
    -2
100
AcDbLine
 10
1499.754024669111
 20
2613.903267438532
 30
0.0
 11
1696.081321669112
 21
2613.903267438532
 31
0.0
  0
LINE
  5
8043
330
7CF4
100
AcDbEntity
  8
3
  6
Continuous
 62
     0
370
    -2
100
AcDbLine
 10
1681.081321669111
 20
3119.903267438532
 30
0.0
 11
1681.081321669111
 21
2643.903267438532
 31
0.0
  0
INSERT
  5
8044
330
7CF4
100
AcDbEntity
  8
3
  6
Continuous
 62
     0
370
    -2
100
AcDbBlockReference
  2
_OPEN
 10
1681.081321669111
 20
3149.903267438532
 30
0.0
 41
30.0
 42
30.0
 43
30.0
 50
90.0
  0
INSERT
  5
8045
330
7CF4
100
AcDbEntity
  8
3
  6
Continuous
 62
     0
370
    -2
100
AcDbBlockReference
  2
_OPEN
 10
1681.081321669111
 20
2613.903267438532
 30
0.0
 41
30.0
 42
30.0
 43
30.0
 50
270.0
  0
MTEXT
  5
8046
330
7CF4
100
AcDbEntity
  8
3
  6
Continuous
 62
     0
100
AcDbMText
 10
1643.581321669111
 20
2876.486777438531
 30
0.0
 40
45.0
 41
0.0
 71
     5
 72
     1
  1
\A1;536
 11
0.0000000000000001
 21
1.0
 31
0.0
 73
     1
 44
1.0
  0
POINT
  5
8047
330
7CF4
100
AcDbEntity
  8
DEFPOINTS
  6
Continuous
 62
     0
100
AcDbPoint
 10
1492.254024669111
 20
3149.903267438532
 30
0.0
  0
POINT
  5
8048
330
7CF4
100
AcDbEntity
  8
DEFPOINTS
  6
Continuous
 62
     0
100
AcDbPoint
 10
1492.254024669111
 20
2613.903267438532
 30
0.0
  0
POINT
  5
8049
330
7CF4
100
AcDbEntity
  8
DEFPOINTS
  6
Continuous
 62
     0
100
AcDbPoint
 10
1681.081321669111
 20
2613.903267438532
 30
0.0
  0
ENDBLK
  5
7F10
330
7CF4
100
AcDbEntity
  8
0
100
AcDbBlockEnd
  0
BLOCK
  5
7F11
330
7D00
100
AcDbEntity
  8
0
100
AcDbBlockBegin
  2
*D5
 70
     1
 10
0.0
 20
0.0
 30
0.0
  3
*D5
  1

  0
LINE
  5
7FCA
330
7D00
100
AcDbEntity
  8
3
  6
Continuous
 62
     0
100
AcDbLine
 10
2093.072152669111
 20
2045.005763438531
 30
0.0
 11
2093.072152669111
 21
2175.767114438531
 31
0.0
  0
LINE
  5
7FCB
330
7D00
100
AcDbEntity
  8
3
  6
Continuous
 62
     0
100
AcDbLine
 10
2376.072152669111
 20
2101.181798173693
 30
0.0
 11
2376.072152669111
 21
2175.767114438531
 31
0.0
  0
LINE
  5
7FCC
330
7D00
100
AcDbEntity
  8
3
  6
Continuous
 62
     0
100
AcDbLine
 10
2123.072152669111
 20
2160.767114438531
 30
0.0
 11
2346.072152669111
 21
2160.767114438531
 31
0.0
  0
INSERT
  5
7FCD
330
7D00
100
AcDbEntity
  8
3
  6
Continuous
 62
     0
100
AcDbBlockReference
  2
_OPEN
 10
2093.072152669111
 20
2160.767114438531
 30
0.0
 41
30.0
 42
30.0
 43
30.0
 50
180.0
  0
INSERT
  5
7FCE
330
7D00
100
AcDbEntity
  8
3
  6
Continuous
 62
     0
100
AcDbBlockReference
  2
_OPEN
 10
2376.072152669111
 20
2160.767114438531
 30
0.0
 41
30.0
 42
30.0
 43
30.0
  0
MTEXT
  5
7FCF
330
7D00
100
AcDbEntity
  8
3
  6
Continuous
 62
     0
100
AcDbMText
 10
2273.215009811968
 20
2198.267114438531
 30
0.0
 40
45.0
 41
0.0
 71
     5
 72
     5
  1
\A1;283
 73
     1
 44
1.0
  0
POINT
  5
7FD0
330
7D00
100
AcDbEntity
  8
DEFPOINTS
  6
Continuous
 62
     0
100
AcDbPoint
 10
2093.072152669111
 20
2037.505763438531
 30
0.0
  0
POINT
  5
7FD1
330
7D00
100
AcDbEntity
  8
DEFPOINTS
  6
Continuous
 62
     0
100
AcDbPoint
 10
2376.072152669111
 20
2093.681798173693
 30
0.0
  0
POINT
  5
7FD2
330
7D00
100
AcDbEntity
  8
DEFPOINTS
  6
Continuous
 62
     0
100
AcDbPoint
 10
2376.072152669111
 20
2160.767114438531
 30
0.0
  0
ENDBLK
  5
7F1B
330
7D00
100
AcDbEntity
  8
0
100
AcDbBlockEnd
  0
BLOCK
  5
7F1C
330
7D0C
100
AcDbEntity
  8
0
100
AcDbBlockBegin
  2
*D6
 70
     1
 10
0.0
 20
0.0
 30
0.0
  3
*D6
  1

  0
LINE
  5
7FD3
330
7D0C
100
AcDbEntity
  8
3
  6
Continuous
 62
     0
100
AcDbLine
 10
2659.072152669111
 20
2045.005763438531
 30
0.0
 11
2659.072152669111
 21
2175.767114438531
 31
0.0
  0
LINE
  5
7FD4
330
7D0C
100
AcDbEntity
  8
3
  6
Continuous
 62
     0
100
AcDbLine
 10
2406.072152669111
 20
2160.767114438531
 30
0.0
 11
2629.072152669111
 21
2160.767114438531
 31
0.0
  0
INSERT
  5
7FD5
330
7D0C
100
AcDbEntity
  8
3
  6
Continuous
 62
     0
100
AcDbBlockReference
  2
_OPEN
 10
2376.072152669111
 20
2160.767114438531
 30
0.0
 41
30.0
 42
30.0
 43
30.0
 50
180.0
  0
INSERT
  5
7FD6
330
7D0C
100
AcDbEntity
  8
3
  6
Continuous
 62
     0
100
AcDbBlockReference
  2
_OPEN
 10
2659.072152669111
 20
2160.767114438531
 30
0.0
 41
30.0
 42
30.0
 43
30.0
  0
MTEXT
  5
7FD7
330
7D0C
100
AcDbEntity
  8
3
  6
Continuous
 62
     0
100
AcDbMText
 10
2517.572152669111
 20
2198.267114438531
 30
0.0
 40
45.0
 41
0.0
 71
     5
 72
     5
  1
\A1;283
 73
     1
 44
1.0
  0
POINT
  5
7FD8
330
7D0C
100
AcDbEntity
  8
DEFPOINTS
  6
Continuous
 62
     0
100
AcDbPoint
 10
2376.072152669111
 20
2093.681798173693
 30
0.0
  0
POINT
  5
7FD9
330
7D0C
100
AcDbEntity
  8
DEFPOINTS
  6
Continuous
 62
     0
100
AcDbPoint
 10
2659.072152669111
 20
2037.505763438531
 30
0.0
  0
POINT
  5
7FDA
330
7D0C
100
AcDbEntity
  8
DEFPOINTS
  6
Continuous
 62
     0
100
AcDbPoint
 10
2659.072152669111
 20
2160.767114438531
 30
0.0
  0
ENDBLK
  5
7F25
330
7D0C
100
AcDbEntity
  8
0
100
AcDbBlockEnd
  0
BLOCK
  5
7F26
330
7D17
100
AcDbEntity
  8
0
100
AcDbBlockBegin
  2
*D7
 70
     1
 10
0.0
 20
0.0
 30
0.0
  3
*D7
  1

  0
LINE
  5
7FDB
330
7D17
100
AcDbEntity
  8
3
  6
Continuous
 62
     0
100
AcDbLine
 10
2108.072152669111
 20
1420.005763438532
 30
0.0
 11
2108.072152669111
 21
1266.577166438531
 31
0.0
  0
LINE
  5
7FDC
330
7D17
100
AcDbEntity
  8
3
  6
Continuous
 62
     0
100
AcDbLine
 10
2644.072152669111
 20
1420.005763438532
 30
0.0
 11
2644.072152669111
 21
1266.577166438531
 31
0.0
  0
LINE
  5
7FDD
330
7D17
100
AcDbEntity
  8
3
  6
Continuous
 62
     0
100
AcDbLine
 10
2138.072152669111
 20
1281.577166438531
 30
0.0
 11
2614.072152669111
 21
1281.577166438531
 31
0.0
  0
INSERT
  5
7FDE
330
7D17
100
AcDbEntity
  8
3
  6
Continuous
 62
     0
100
AcDbBlockReference
  2
_OPEN
 10
2108.072152669111
 20
1281.577166438531
 30
0.0
 41
30.0
 42
30.0
 43
30.0
 50
180.0
  0
INSERT
  5
7FDF
330
7D17
100
AcDbEntity
  8
3
  6
Continuous
 62
     0
100
AcDbBlockReference
  2
_OPEN
 10
2644.072152669111
 20
1281.577166438531
 30
0.0
 41
30.0
 42
30.0
 43
30.0
  0
MTEXT
  5
7FE0
330
7D17
100
AcDbEntity
  8
3
  6
Continuous
 62
     0
100
AcDbMText
 10
2393.080999669111
 20
1319.077166438531
 30
0.0
 40
45.0
 41
0.0
 71
     5
 72
     5
  1
\A1;536
 73
     1
 44
1.0
  0
POINT
  5
7FE1
330
7D17
100
AcDbEntity
  8
DEFPOINTS
  6
Continuous
 62
     0
100
AcDbPoint
 10
2108.072152669111
 20
1427.505763438532
 30
0.0
  0
POINT
  5
7FE2
330
7D17
100
AcDbEntity
  8
DEFPOINTS
  6
Continuous
 62
     0
100
AcDbPoint
 10
2644.072152669111
 20
1427.505763438532
 30
0.0
  0
POINT
  5
7FE3
330
7D17
100
AcDbEntity
  8
DEFPOINTS
  6
Continuous
 62
     0
100
AcDbPoint
 10
2644.072152669111
 20
1281.577166438531
 30
0.0
  0
ENDBLK
  5
7F30
330
7D17
100
AcDbEntity
  8
0
100
AcDbBlockEnd
  0
BLOCK
  5
7F31
330
7D23
100
AcDbEntity
  8
0
100
AcDbBlockBegin
  2
*D8
 70
     1
 10
0.0
 20
0.0
 30
0.0
  3
*D8
  1

  0
LINE
  5
7FE4
330
7D23
100
AcDbEntity
  8
3
  6
Continuous
 62
     0
100
AcDbLine
 10
1587.033076669111
 20
1742.505763438532
 30
0.0
 11
1659.022149669112
 21
1742.505763438532
 31
0.0
  0
LINE
  5
7FE5
330
7D23
100
AcDbEntity
  8
3
  6
Continuous
 62
     0
100
AcDbLine
 10
1590.142231669111
 20
1427.505763438532
 30
0.0
 11
1659.022149669112
 21
1427.505763438532
 31
0.0
  0
LINE
  5
7FE6
330
7D23
100
AcDbEntity
  8
3
  6
Continuous
 62
     0
100
AcDbLine
 10
1644.022149669112
 20
1712.505763438532
 30
0.0
 11
1644.022149669112
 21
1457.505763438532
 31
0.0
  0
INSERT
  5
7FE7
330
7D23
100
AcDbEntity
  8
3
  6
Continuous
 62
     0
100
AcDbBlockReference
  2
_OPEN
 10
1644.022149669112
 20
1742.505763438532
 30
0.0
 41
30.0
 42
30.0
 43
30.0
 50
90.0
  0
INSERT
  5
7FE8
330
7D23
100
AcDbEntity
  8
3
  6
Continuous
 62
     0
100
AcDbBlockReference
  2
_OPEN
 10
1644.022149669112
 20
1427.505763438532
 30
0.0
 41
30.0
 42
30.0
 43
30.0
 50
270.0
  0
MTEXT
  5
7FE9
330
7D23
100
AcDbEntity
  8
3
  6
Continuous
 62
     0
100
AcDbMText
 10
1606.522149669111
 20
1643.934334867103
 30
0.0
 40
45.0
 41
0.0
 71
     5
 72
     5
  1
\A1;315
 11
0.0000000000000001
 21
1.0
 31
0.0
 73
     1
 44
1.0
  0
POINT
  5
7FEA
330
7D23
100
AcDbEntity
  8
DEFPOINTS
  6
Continuous
 62
     0
100
AcDbPoint
 10
1579.533076669111
 20
1742.505763438532
 30
0.0
  0
POINT
  5
7FEB
330
7D23
100
AcDbEntity
  8
DEFPOINTS
  6
Continuous
 62
     0
100
AcDbPoint
 10
1582.642231669111
 20
1427.505763438532
 30
0.0
  0
POINT
  5
7FEC
330
7D23
100
AcDbEntity
  8
DEFPOINTS
  6
Continuous
 62
     0
100
AcDbPoint
 10
1644.022149669112
 20
1427.505763438532
 30
0.0
  0
ENDBLK
  5
7F3B
330
7D23
100
AcDbEntity
  8
0
100
AcDbBlockEnd
  0
BLOCK
  5
7F3C
330
7D2F
100
AcDbEntity
  8
0
100
AcDbBlockBegin
  2
*D9
 70
     1
 10
0.0
 20
0.0
 30
0.0
  3
*D9
  1

  0
LINE
  5
7FED
330
7D2F
100
AcDbEntity
  8
3
  6
Continuous
 62
     0
100
AcDbLine
 10
1590.142231669111
 20
1427.505763438532
 30
0.0
 11
1751.622956669112
 21
1427.505763438532
 31
0.0
  0
LINE
  5
7FEE
330
7D2F
100
AcDbEntity
  8
3
  6
Continuous
 62
     0
100
AcDbLine
 10
1500.142231669111
 20
2037.505763438531
 30
0.0
 11
1751.622956669112
 21
2037.505763438531
 31
0.0
  0
LINE
  5
7FEF
330
7D2F
100
AcDbEntity
  8
3
  6
Continuous
 62
     0
100
AcDbLine
 10
1736.622956669112
 20
1457.505763438532
 30
0.0
 11
1736.622956669112
 21
2007.505763438531
 31
0.0
  0
INSERT
  5
7FF0
330
7D2F
100
AcDbEntity
  8
3
  6
Continuous
 62
     0
100
AcDbBlockReference
  2
_OPEN
 10
1736.622956669112
 20
1427.505763438532
 30
0.0
 41
30.0
 42
30.0
 43
30.0
 50
270.0
  0
INSERT
  5
7FF1
330
7D2F
100
AcDbEntity
  8
3
  6
Continuous
 62
     0
100
AcDbBlockReference
  2
_OPEN
 10
1736.622956669112
 20
2037.505763438531
 30
0.0
 41
30.0
 42
30.0
 43
30.0
 50
90.0
  0
MTEXT
  5
7FF2
330
7D2F
100
AcDbEntity
  8
3
  6
Continuous
 62
     0
100
AcDbMText
 10
1699.122956669111
 20
1721.469962438532
 30
0.0
 40
45.0
 41
0.0
 71
     5
 72
     5
  1
\A1;610
 11
0.0000000000000001
 21
1.0
 31
0.0
 73
     1
 44
1.0
  0
POINT
  5
7FF3
330
7D2F
100
AcDbEntity
  8
DEFPOINTS
  6
Continuous
 62
     0
100
AcDbPoint
 10
1582.642231669111
 20
1427.505763438532
 30
0.0
  0
POINT
  5
7FF4
330
7D2F
100
AcDbEntity
  8
DEFPOINTS
  6
Continuous
 62
     0
100
AcDbPoint
 10
1492.642231669111
 20
2037.505763438531
 30
0.0
  0
POINT
  5
7FF5
330
7D2F
100
AcDbEntity
  8
DEFPOINTS
  6
Continuous
 62
     0
100
AcDbPoint
 10
1736.622956669112
 20
2037.505763438531
 30
0.0
  0
ENDBLK
  5
7F46
330
7D2F
100
AcDbEntity
  8
0
100
AcDbBlockEnd
  0
BLOCK
  5
7F47
330
7D3B
100
AcDbEntity
  8
0
100
AcDbBlockBegin
  2
*D10
 70
     1
 10
0.0
 20
0.0
 30
0.0
  3
*D10
  1

  0
LINE
  5
7FF6
330
7D3B
100
AcDbEntity
  8
3
  6
Continuous
 62
     0
100
AcDbLine
 10
2286.072152669111
 20
1860.005763438531
 30
0.0
 11
2286.072152669111
 21
1960.752481438532
 31
0.0
  0
LINE
  5
7FF7
330
7D3B
100
AcDbEntity
  8
3
  6
Continuous
 62
     0
100
AcDbLine
 10
2466.072152669111
 20
1860.005763438531
 30
0.0
 11
2466.072152669111
 21
1960.752481438532
 31
0.0
  0
LINE
  5
7FF8
330
7D3B
100
AcDbEntity
  8
3
  6
Continuous
 62
     0
100
AcDbLine
 10
2316.072152669111
 20
1945.752481438532
 30
0.0
 11
2436.072152669111
 21
1945.752481438532
 31
0.0
  0
INSERT
  5
7FF9
330
7D3B
100
AcDbEntity
  8
3
  6
Continuous
 62
     0
100
AcDbBlockReference
  2
_OPEN
 10
2286.072152669111
 20
1945.752481438532
 30
0.0
 41
30.0
 42
30.0
 43
30.0
 50
180.0
  0
INSERT
  5
7FFA
330
7D3B
100
AcDbEntity
  8
3
  6
Continuous
 62
     0
100
AcDbBlockReference
  2
_OPEN
 10
2466.072152669111
 20
1945.752481438532
 30
0.0
 41
30.0
 42
30.0
 43
30.0
  0
MTEXT
  5
7FFB
330
7D3B
100
AcDbEntity
  8
3
  6
Continuous
 62
     0
100
AcDbMText
 10
2376.072152669111
 20
1983.252481438531
 30
0.0
 40
45.0
 41
0.0
 71
     5
 72
     5
  1
\A1;180
 73
     1
 44
1.0
  0
POINT
  5
7FFC
330
7D3B
100
AcDbEntity
  8
DEFPOINTS
  6
Continuous
 62
     0
100
AcDbPoint
 10
2286.072152669111
 20
1852.505763438531
 30
0.0
  0
POINT
  5
7FFD
330
7D3B
100
AcDbEntity
  8
DEFPOINTS
  6
Continuous
 62
     0
100
AcDbPoint
 10
2466.072152669111
 20
1852.505763438531
 30
0.0
  0
POINT
  5
7FFE
330
7D3B
100
AcDbEntity
  8
DEFPOINTS
  6
Continuous
 62
     0
100
AcDbPoint
 10
2466.072152669111
 20
1945.752481438532
 30
0.0
  0
ENDBLK
  5
7F53
330
7D3B
100
AcDbEntity
  8
0
100
AcDbBlockEnd
  0
BLOCK
  5
7F54
330
7D49
100
AcDbEntity
  8
0
100
AcDbBlockBegin
  2
*D11
 70
     1
 10
0.0
 20
0.0
 30
0.0
  3
*D11
  1

  0
LINE
  5
7FFF
330
7D49
100
AcDbEntity
  8
3
  6
Continuous
 62
     0
100
AcDbLine
 10
2278.572152669111
 20
1852.505763438531
 30
0.0
 11
2164.363652669112
 21
1852.505763438531
 31
0.0
  0
LINE
  5
8000
330
7D49
100
AcDbEntity
  8
3
  6
Continuous
 62
     0
100
AcDbLine
 10
2278.572152669111
 20
1612.505763438532
 30
0.0
 11
2164.363652669112
 21
1612.505763438532
 31
0.0
  0
LINE
  5
8001
330
7D49
100
AcDbEntity
  8
3
  6
Continuous
 62
     0
100
AcDbLine
 10
2179.363652669112
 20
1822.505763438531
 30
0.0
 11
2179.363652669112
 21
1642.505763438532
 31
0.0
  0
INSERT
  5
8002
330
7D49
100
AcDbEntity
  8
3
  6
Continuous
 62
     0
100
AcDbBlockReference
  2
_OPEN
 10
2179.363652669112
 20
1852.505763438531
 30
0.0
 41
30.0
 42
30.0
 43
30.0
 50
90.0
  0
INSERT
  5
8003
330
7D49
100
AcDbEntity
  8
3
  6
Continuous
 62
     0
100
AcDbBlockReference
  2
_OPEN
 10
2179.363652669112
 20
1612.505763438532
 30
0.0
 41
30.0
 42
30.0
 43
30.0
 50
270.0
  0
MTEXT
  5
8004
330
7D49
100
AcDbEntity
  8
3
  6
Continuous
 62
     0
100
AcDbMText
 10
2141.863652669111
 20
1733.179765438531
 30
0.0
 40
45.0
 41
0.0
 71
     5
 72
     5
  1
\A1;240
 11
0.0000000000000001
 21
1.0
 31
0.0
 73
     1
 44
1.0
  0
POINT
  5
8005
330
7D49
100
AcDbEntity
  8
DEFPOINTS
  6
Continuous
 62
     0
100
AcDbPoint
 10
2286.072152669111
 20
1852.505763438531
 30
0.0
  0
POINT
  5
8006
330
7D49
100
AcDbEntity
  8
DEFPOINTS
  6
Continuous
 62
     0
100
AcDbPoint
 10
2286.072152669111
 20
1612.505763438532
 30
0.0
  0
POINT
  5
8007
330
7D49
100
AcDbEntity
  8
DEFPOINTS
  6
Continuous
 62
     0
100
AcDbPoint
 10
2179.363652669112
 20
1612.505763438532
 30
0.0
  0
ENDBLK
  5
7F5E
330
7D49
100
AcDbEntity
  8
0
100
AcDbBlockEnd
  0
BLOCK
  5
7F5F
330
7D55
100
AcDbEntity
  8
0
100
AcDbBlockBegin
  2
*D12
 70
     1
 10
0.0
 20
0.0
 30
0.0
  3
*D12
  1

  0
LINE
  5
8008
330
7D55
100
AcDbEntity
  8
3
 62
     0
100
AcDbLine
 10
675.1422316691114
 20
1427.505763438532
 30
0.0
 11
579.2131242217003
 21
1427.505763438532
 31
0.0
  0
LINE
  5
8009
330
7D55
100
AcDbEntity
  8
3
 62
     0
100
AcDbLine
 10
675.2375336691111
 20
1742.505763438532
 30
0.0
 11
579.2131242217003
 21
1742.505763438532
 31
0.0
  0
LINE
  5
800A
330
7D55
100
AcDbEntity
  8
3
 62
     0
100
AcDbLine
 10
594.2131242217003
 20
1457.505763438532
 30
0.0
 11
594.2131242217003
 21
1712.505763438532
 31
0.0
  0
INSERT
  5
800B
330
7D55
100
AcDbEntity
  8
3
 62
     0
100
AcDbBlockReference
  2
_OPEN
 10
594.2131242217003
 20
1427.505763438532
 30
0.0
 41
30.0
 42
30.0
 43
30.0
 50
270.0
  0
INSERT
  5
800C
330
7D55
100
AcDbEntity
  8
3
 62
     0
100
AcDbBlockReference
  2
_OPEN
 10
594.2131242217003
 20
1742.505763438532
 30
0.0
 41
30.0
 42
30.0
 43
30.0
 50
90.0
  0
MTEXT
  5
800D
330
7D55
100
AcDbEntity
  8
3
 62
     0
100
AcDbMText
 10
556.7131242217
 20
1643.934334867103
 30
0.0
 40
45.0
 41
0.0
 71
     5
 72
     5
  1
\A1;315
 11
0.0000000000000001
 21
1.0
 31
0.0
 73
     1
 44
1.0
  0
POINT
  5
800E
330
7D55
100
AcDbEntity
  8
DEFPOINTS
 62
     0
100
AcDbPoint
 10
682.6422316691114
 20
1427.505763438532
 30
0.0
  0
POINT
  5
800F
330
7D55
100
AcDbEntity
  8
DEFPOINTS
 62
     0
100
AcDbPoint
 10
682.7375336691111
 20
1742.505763438532
 30
0.0
  0
POINT
  5
8010
330
7D55
100
AcDbEntity
  8
DEFPOINTS
 62
     0
100
AcDbPoint
 10
594.2131242217003
 20
1742.505763438532
 30
0.0
  0
ENDBLK
  5
7F69
330
7D55
100
AcDbEntity
  8
0
100
AcDbBlockEnd
  0
BLOCK
  5
8029
330
801F
100
AcDbEntity
  8
0
100
AcDbBlockBegin
  2
*D13
 70
     1
 10
0.0
 20
0.0
 30
0.0
  3
*D13
  1

  0
LINE
  5
8020
330
801F
100
AcDbEntity
  8
3
 62
     0
370
    -2
100
AcDbLine
 10
2108.072152669111
 20
2045.005763438531
 30
0.0
 11
2108.072152669111
 21
2199.386490858702
 31
0.0
  0
LINE
  5
8021
330
801F
100
AcDbEntity
  8
3
 62
     0
370
    -2
100
AcDbLine
 10
2376.072152669111
 20
2101.181798173693
 30
0.0
 11
2376.072152669111
 21
2199.386490858702
 31
0.0
  0
LINE
  5
8022
330
801F
100
AcDbEntity
  8
3
 62
     0
370
    -2
100
AcDbLine
 10
2138.072152669111
 20
2184.386490858702
 30
0.0
 11
2346.072152669111
 21
2184.386490858702
 31
0.0
  0
INSERT
  5
8023
330
801F
100
AcDbEntity
  8
3
 62
     0
370
    -2
100
AcDbBlockReference
  2
_OPEN
 10
2108.072152669111
 20
2184.386490858702
 30
0.0
 41
30.0
 42
30.0
 43
30.0
 50
180.0
  0
INSERT
  5
8024
330
801F
100
AcDbEntity
  8
3
 62
     0
370
    -2
100
AcDbBlockReference
  2
_OPEN
 10
2376.072152669111
 20
2184.386490858702
 30
0.0
 41
30.0
 42
30.0
 43
30.0
  0
MTEXT
  5
8025
330
801F
100
AcDbEntity
  8
3
 62
     0
100
AcDbMText
 10
2246.348656751143
 20
2221.886490858702
 30
0.0
 40
45.0
 41
0.0
 71
     5
 72
     1
  1
\A1;268
 73
     1
 44
1.0
  0
POINT
  5
8026
330
801F
100
AcDbEntity
  8
DEFPOINTS
 62
     0
100
AcDbPoint
 10
2108.072152669111
 20
2037.505763438531
 30
0.0
  0
POINT
  5
8027
330
801F
100
AcDbEntity
  8
DEFPOINTS
 62
     0
100
AcDbPoint
 10
2376.072152669111
 20
2093.681798173693
 30
0.0
  0
POINT
  5
8028
330
801F
100
AcDbEntity
  8
DEFPOINTS
 62
     0
100
AcDbPoint
 10
2376.072152669111
 20
2184.386490858702
 30
0.0
  0
ENDBLK
  5
802A
330
801F
100
AcDbEntity
  8
0
100
AcDbBlockEnd
  0
BLOCK
  5
8036
330
802C
100
AcDbEntity
  8
0
100
AcDbBlockBegin
  2
*D14
 70
     1
 10
0.0
 20
0.0
 30
0.0
  3
*D14
  1

  0
LINE
  5
802D
330
802C
100
AcDbEntity
  8
3
 62
     0
370
    -2
100
AcDbLine
 10
2376.072152669111
 20
2101.181798173693
 30
0.0
 11
2376.072152669111
 21
2199.386490858702
 31
0.0
  0
LINE
  5
802E
330
802C
100
AcDbEntity
  8
3
 62
     0
370
    -2
100
AcDbLine
 10
2644.072152669112
 20
2045.005763438531
 30
0.0
 11
2644.072152669112
 21
2199.386490858702
 31
0.0
  0
LINE
  5
802F
330
802C
100
AcDbEntity
  8
3
 62
     0
370
    -2
100
AcDbLine
 10
2406.072152669111
 20
2184.386490858702
 30
0.0
 11
2614.072152669112
 21
2184.386490858702
 31
0.0
  0
INSERT
  5
8030
330
802C
100
AcDbEntity
  8
3
 62
     0
370
    -2
100
AcDbBlockReference
  2
_OPEN
 10
2376.072152669111
 20
2184.386490858702
 30
0.0
 41
30.0
 42
30.0
 43
30.0
 50
180.0
  0
INSERT
  5
8031
330
802C
100
AcDbEntity
  8
3
 62
     0
370
    -2
100
AcDbBlockReference
  2
_OPEN
 10
2644.072152669112
 20
2184.386490858702
 30
0.0
 41
30.0
 42
30.0
 43
30.0
  0
MTEXT
  5
8032
330
802C
100
AcDbEntity
  8
3
 62
     0
100
AcDbMText
 10
2510.072152669112
 20
2221.886490858702
 30
0.0
 40
45.0
 41
0.0
 71
     5
 72
     1
  1
\A1;268
 73
     1
 44
1.0
  0
POINT
  5
8033
330
802C
100
AcDbEntity
  8
DEFPOINTS
 62
     0
100
AcDbPoint
 10
2376.072152669111
 20
2093.681798173693
 30
0.0
  0
POINT
  5
8034
330
802C
100
AcDbEntity
  8
DEFPOINTS
 62
     0
100
AcDbPoint
 10
2644.072152669112
 20
2037.50576343853
 30
0.0
  0
POINT
  5
8035
330
802C
100
AcDbEntity
  8
DEFPOINTS
 62
     0
100
AcDbPoint
 10
2644.072152669112
 20
2184.386490858702
 30
0.0
  0
ENDBLK
  5
8037
330
802C
100
AcDbEntity
  8
0
100
AcDbBlockEnd
  0
BLOCK
  5
8055
330
804B
100
AcDbEntity
  8
0
100
AcDbBlockBegin
  2
*D15
 70
     1
 10
0.0
 20
0.0
 30
0.0
  3
*D15
  1

  0
LINE
  5
804C
330
804B
100
AcDbEntity
  8
3
 62
     0
370
    -2
100
AcDbLine
 10
1589.754024669111
 20
2613.903267438532
 30
0.0
 11
1730.056425702715
 21
2613.903267438532
 31
0.0
  0
LINE
  5
804D
330
804B
100
AcDbEntity
  8
3
 62
     0
370
    -2
100
AcDbLine
 10
1589.754024669111
 20
3149.903267438532
 30
0.0
 11
1730.056425702715
 21
3149.903267438532
 31
0.0
  0
LINE
  5
804E
330
804B
100
AcDbEntity
  8
3
 62
     0
370
    -2
100
AcDbLine
 10
1715.056425702714
 20
2643.903267438532
 30
0.0
 11
1715.056425702714
 21
3119.903267438532
 31
0.0
  0
INSERT
  5
804F
330
804B
100
AcDbEntity
  8
3
 62
     0
370
    -2
100
AcDbBlockReference
  2
_OPEN
 10
1715.056425702714
 20
2613.903267438532
 30
0.0
 41
30.0
 42
30.0
 43
30.0
 50
270.0
  0
INSERT
  5
8050
330
804B
100
AcDbEntity
  8
3
 62
     0
370
    -2
100
AcDbBlockReference
  2
_OPEN
 10
1715.056425702714
 20
3149.903267438532
 30
0.0
 41
30.0
 42
30.0
 43
30.0
 50
90.0
  0
MTEXT
  5
8051
330
804B
100
AcDbEntity
  8
3
 62
     0
100
AcDbMText
 10
1677.556425702714
 20
2864.744193181623
 30
0.0
 40
45.0
 41
0.0
 71
     5
 72
     1
  1
\A1;536
 11
0.0000000000000001
 21
1.0
 31
0.0
 73
     1
 44
1.0
  0
POINT
  5
8052
330
804B
100
AcDbEntity
  8
DEFPOINTS
 62
     0
100
AcDbPoint
 10
1582.254024669111
 20
2613.903267438532
 30
0.0
  0
POINT
  5
8053
330
804B
100
AcDbEntity
  8
DEFPOINTS
 62
     0
100
AcDbPoint
 10
1582.254024669111
 20
3149.903267438532
 30
0.0
  0
POINT
  5
8054
330
804B
100
AcDbEntity
  8
DEFPOINTS
 62
     0
100
AcDbPoint
 10
1715.056425702714
 20
3149.903267438532
 30
0.0
  0
ENDBLK
  5
8056
330
804B
100
AcDbEntity
  8
0
100
AcDbBlockEnd
  0
ENDSEC
  0
SECTION
  2
ENTITIES
  0
LINE
  5
7B2B
330
19
100
AcDbEntity
  8
4
  6
Continuous
 48
15.0
100
AcDbLine
 10
2775.0
 20
750.0
 30
0.0
 11
2775.0
 21
450.0
 31
0.0
  0
LINE
  5
7B2C
330
19
100
AcDbEntity
  8
4
  6
Continuous
 48
15.0
100
AcDbLine
 10
1725.0
 20
750.0
 30
0.0
 11
1725.0
 21
450.0
 31
0.0
  0
LINE
  5
7B2D
330
19
100
AcDbEntity
  8
4
  6
Continuous
 48
15.0
100
AcDbLine
 10
975.0
 20
750.0
 30
0.0
 11
975.0
 21
450.0
 31
0.0
  0
LINE
  5
7B30
330
19
100
AcDbEntity
  8
4
  6
Continuous
 48
15.0
100
AcDbLine
 10
975.0
 20
450.0
 30
0.0
 11
2775.0
 21
450.0
 31
0.0
  0
LINE
  5
7B31
330
19
100
AcDbEntity
  8
4
  6
Continuous
 48
15.0
100
AcDbLine
 10
975.0
 20
600.0
 30
0.0
 11
2775.0
 21
600.0
 31
0.0
  0
TEXT
  5
7B32
330
19
100
AcDbEntity
  8
4
  6
Continuous
 48
15.0
100
AcDbText
 10
1032.753121
 20
647.3145389999999
 30
0.0
 40
75.0
  1
機器名称
100
AcDbText
  0
TEXT
  5
7B33
330
19
100
AcDbEntity
  8
4
  6
Continuous
 48
15.0
100
AcDbText
 10
1029.387158999999
 20
482.4677349999999
 30
0.0
 40
75.0
  1
機器型番
100
AcDbText
  0
TEXT
  5
7B34
330
19
100
AcDbEntity
  8
4
  6
Continuous
 48
15.0
100
AcDbText
 10
1766.518118
 20
633.857653
 30
0.0
 40
75.0
  1
ミツヤファンユニット
100
AcDbText
  0
TEXT
  5
7B35
330
19
100
AcDbEntity
  8
4
  6
Continuous
 48
15.0
100
AcDbText
 10
1779.981743
 20
475.739376
 30
0.0
 40
75.0
  1
MFU#1001-1
100
AcDbText
  0
TEXT
  5
7B37
330
19
100
AcDbEntity
  8
4
  6
Continuous
 48
15.0
100
AcDbText
 10
1036.518666999999
 20
3575.143261999999
 30
0.0
 40
75.0
  1
床置ベット
100
AcDbText
  0
TEXT
  5
7B38
330
19
100
AcDbEntity
  8
4
  6
Continuous
 48
15.0
100
AcDbText
 10
474.25139
 20
3800.821464
 30
0.0
 40
95.0
  1
ベルト駆動式消音ボックス付き多翼ファン
100
AcDbText
  0
LINE
  5
7B39
330
19
100
AcDbEntity
  8
4
  6
Continuous
 48
15.0
100
AcDbLine
 10
375.0
 20
3704.113131
 30
0.0
 11
2775.0
 21
3704.113131
 31
0.0
  0
LINE
  5
7B3A
330
19
100
AcDbEntity
  8
4
  6
Continuous
 48
15.0
100
AcDbLine
 10
375.0
 20
4004.113131
 30
0.0
 11
2775.0
 21
4004.113131
 31
0.0
  0
LINE
  5
7B3B
330
19
100
AcDbEntity
  8
4
  6
Continuous
 48
15.0
100
AcDbLine
 10
975.0
 20
750.0
 30
0.0
 11
2775.0
 21
750.0
 31
0.0
  0
LINE
  5
7B3C
330
19
100
AcDbEntity
  8
4
  6
Continuous
 48
15.0
100
AcDbLine
 10
375.0
 20
4004.113131
 30
0.0
 11
375.0
 21
3704.113131
 31
0.0
  0
TEXT
  5
7B3D
330
19
100
AcDbEntity
  8
4
  6
Continuous
 48
15.0
100
AcDbText
 10
434.729336
 20
3573.479215999999
 30
0.0
 40
75.0
  1
左回転右吐出
100
AcDbText
  0
TEXT
  5
7B3E
330
19
100
AcDbEntity
  8
4
  6
Continuous
 48
15.0
100
AcDbText
 10
2203.454338999999
 20
4059.091621999999
 30
0.0
 40
84.0
  1
No.
100
AcDbText
  0
TEXT
  5
7B3F
330
19
100
AcDbEntity
  8
4
  6
Continuous
 48
15.0
100
AcDbText
 10
2200.939230999999
 20
3575.143261999999
 30
0.0
 40
75.0
  1
縮尺：1/15
100
AcDbText
  0
LINE
  5
7B40
330
19
100
AcDbEntity
  8
4
  6
Continuous
 48
15.0
100
AcDbLine
 10
2775.0
 20
4004.113131
 30
0.0
 11
2775.0
 21
3704.113131
 31
0.0
  0
LINE
  5
7B42
330
19
100
AcDbEntity
  8
4
  6
Continuous
 48
15.0
100
AcDbLine
 10
2160.926133999999
 20
4021.895375
 30
0.0
 11
2160.926133999999
 21
4179.978392
 31
0.0
  0
LINE
  5
7B43
330
19
100
AcDbEntity
  8
4
  6
Continuous
 48
15.0
100
AcDbLine
 10
2160.926133999999
 20
4179.978392
 30
0.0
 11
2775.0
 21
4179.978392
 31
0.0
  0
LINE
  5
7B44
330
19
100
AcDbEntity
  8
4
  6
Continuous
 48
15.0
100
AcDbLine
 10
2775.0
 20
4179.978392
 30
0.0
 11
2775.0
 21
4021.895375
 31
0.0
  0
LINE
  5
7B45
330
19
100
AcDbEntity
  8
4
  6
Continuous
 48
15.0
100
AcDbLine
 10
2775.0
 20
4021.895375
 30
0.0
 11
2160.926133999999
 21
4021.895375
 31
0.0
  0
LINE
  5
7C60
330
19
100
AcDbEntity
  8
1
  6
Continuous
 48
15.0
100
AcDbLine
 10
772.6422316691114
 20
2037.50576343853
 30
0.0
 11
1492.642231669111
 21
2037.505763438531
 31
0.0
  0
LINE
  5
7C61
330
19
100
AcDbEntity
  8
1
  6
Continuous
 48
15.0
100
AcDbLine
 10
1582.642231669111
 20
1502.505763438532
 30
0.0
 11
682.6422316691114
 21
1502.505763438532
 31
0.0
  0
LINE
  5
7C62
330
19
100
AcDbEntity
  8
1
  6
Continuous
 48
15.0
100
AcDbLine
 10
1582.642231669111
 20
1427.505763438532
 30
0.0
 11
682.6422316691114
 21
1427.505763438532
 31
0.0
  0
LINE
  5
7C63
330
19
100
AcDbEntity
  8
1
  6
Continuous
 48
15.0
100
AcDbLine
 10
1492.642231669111
 20
2037.505763438531
 30
0.0
 11
1492.642231669111
 21
1507.505763438532
 31
0.0
  0
LINE
  5
7C64
330
19
100
AcDbEntity
  8
1
  6
Continuous
 48
15.0
100
AcDbLine
 10
1492.642231669111
 20
2037.505763438531
 30
0.0
 11
1492.642231669111
 21
1502.505763438532
 31
0.0
  0
ARC
  5
7C65
330
19
100
AcDbEntity
  8
1
  6
Continuous
 48
15.0
100
AcDbCircle
 10
1253.642231669111
 20
1819.505763438531
 30
0.0
 40
103.3907699999999
100
AcDbArc
 50
352.8749839999999
 51
84.289407
  0
LINE
  5
7C66
330
19
100
AcDbEntity
  8
1
  6
Continuous
 48
15.0
100
AcDbLine
 10
1492.642231669111
 20
1650.505763438532
 30
0.0
 11
1262.642231669111
 21
1650.505763438532
 31
0.0
  0
LINE
  5
7C67
330
19
100
AcDbEntity
  8
1
  6
Continuous
 48
15.0
100
AcDbLine
 10
1517.642231669111
 20
1887.505763438531
 30
0.0
 11
1517.642231669111
 21
1597.505763438532
 31
0.0
  0
LINE
  5
7C68
330
19
100
AcDbEntity
  8
1
  6
Continuous
 48
15.0
100
AcDbLine
 10
1392.642231669111
 20
1810.505763438531
 30
0.0
 11
1392.642231669111
 21
1650.505763438532
 31
0.0
  0
LINE
  5
7C6A
330
19
100
AcDbEntity
  8
1
  6
Continuous
 48
15.0
100
AcDbLine
 10
1517.642231669111
 20
1597.505763438532
 30
0.0
 11
1492.642231669111
 21
1597.505763438532
 31
0.0
  0
LINE
  5
7C6B
330
19
100
AcDbEntity
  8
1
  6
Continuous
 48
15.0
100
AcDbLine
 10
1582.642231669111
 20
1502.505763438532
 30
0.0
 11
1582.642231669111
 21
1427.505763438532
 31
0.0
  0
LINE
  5
7C6C
330
19
100
AcDbEntity
  8
1
  6
Continuous
 48
15.0
100
AcDbLine
 10
1356.640538669111
 20
1810.505763438531
 30
0.0
 11
1492.642231669111
 21
1810.505763438531
 31
0.0
  0
LINE
  5
7C6D
330
19
100
AcDbEntity
  8
1
  6
Continuous
 48
15.0
100
AcDbLine
 10
1517.642231669111
 20
1887.505763438531
 30
0.0
 11
1492.642231669111
 21
1887.505763438531
 31
0.0
  0
ARC
  5
7C6E
330
19
100
AcDbEntity
  8
1
  6
Continuous
 48
15.0
100
AcDbCircle
 10
1275.642231669111
 20
1797.505763438531
 30
0.0
 40
147.57371
100
AcDbArc
 50
175.2363579999999
 51
264.946174
  0
ARC
  5
7C6F
330
19
100
AcDbEntity
  8
1
  6
Continuous
 48
15.0
100
AcDbCircle
 10
1251.642231669111
 20
1799.505763438531
 30
0.0
 40
123.4905209999999
100
AcDbArc
 50
84.289407
 51
175.2363579999999
  0
LINE
  5
7C70
330
19
100
AcDbEntity
  8
1
  6
Continuous
 48
15.0
100
AcDbLine
 10
772.6422316691115
 20
1502.505763438532
 30
0.0
 11
772.6422316691114
 21
2037.505763438531
 31
0.0
  0
LINE
  5
7C71
330
19
100
AcDbEntity
  8
1
  6
Continuous
 48
15.0
100
AcDbLine
 10
747.6422316691114
 20
1877.505763438531
 30
0.0
 11
747.6422316691114
 21
1587.505763438532
 31
0.0
  0
LINE
  5
7C72
330
19
100
AcDbEntity
  8
1
  6
Continuous
 48
15.0
100
AcDbLine
 10
747.6422316691114
 20
1587.505763438532
 30
0.0
 11
772.6422316691114
 21
1587.505763438532
 31
0.0
  0
LINE
  5
7C74
330
19
100
AcDbEntity
  8
1
  6
Continuous
 48
15.0
100
AcDbLine
 10
682.6422316691114
 20
1427.505763438532
 30
0.0
 11
682.6422316691114
 21
1502.505763438532
 31
0.0
  0
LINE
  5
7C75
330
19
100
AcDbEntity
  8
1
  6
Continuous
 48
15.0
100
AcDbLine
 10
747.6422316691114
 20
1877.505763438531
 30
0.0
 11
772.6422316691114
 21
1877.505763438531
 31
0.0
  0
LINE
  5
7C76
330
19
100
AcDbEntity
  8
1
  6
Continuous
 48
15.0
100
AcDbLine
 10
1492.254024669111
 20
3149.903267438532
 30
0.0
 11
772.2540246691115
 21
3149.903267438532
 31
0.0
  0
LINE
  5
7C77
330
19
100
AcDbEntity
  8
1
  6
Continuous
 48
15.0
100
AcDbLine
 10
772.2540246691115
 20
2613.903267438532
 30
0.0
 11
1492.254024669111
 21
2613.903267438532
 31
0.0
  0
LINE
  5
7C78
330
19
100
AcDbEntity
  8
1
  6
Continuous
 48
15.0
100
AcDbLine
 10
747.2540246691115
 20
2996.903267438532
 30
0.0
 11
747.2540246691115
 21
2766.903267438531
 31
0.0
  0
LINE
  5
7C79
330
19
100
AcDbEntity
  8
1
  6
Continuous
 48
15.0
100
AcDbLine
 10
772.2540246691115
 20
3149.903267438532
 30
0.0
 11
772.2540246691115
 21
2613.903267438532
 31
0.0
  0
LINE
  5
7C7A
330
19
100
AcDbEntity
  8
1
  6
Continuous
 48
15.0
100
AcDbLine
 10
682.2540246691114
 20
2653.903267438532
 30
0.0
 11
772.2540246691115
 21
2653.903267438532
 31
0.0
  0
LINE
  5
7C7B
330
19
100
AcDbEntity
  8
1
  6
Continuous
 48
15.0
100
AcDbLine
 10
682.2540246691114
 20
2613.903267438532
 30
0.0
 11
772.2540246691115
 21
2613.903267438532
 31
0.0
  0
LINE
  5
7C7C
330
19
100
AcDbEntity
  8
1
  6
Continuous
 48
15.0
100
AcDbLine
 10
682.2540246691114
 20
2653.903267438532
 30
0.0
 11
682.2540246691114
 21
2613.903267438532
 31
0.0
  0
LINE
  5
7C7D
330
19
100
AcDbEntity
  8
1
  6
Continuous
 48
15.0
100
AcDbLine
 10
747.2540246691115
 20
2766.903267438532
 30
0.0
 11
772.2540246691115
 21
2766.903267438532
 31
0.0
  0
LINE
  5
7C7E
330
19
100
AcDbEntity
  8
1
  6
Continuous
 48
15.0
100
AcDbLine
 10
682.2540246691114
 20
3109.903267438532
 30
0.0
 11
772.2540246691115
 21
3109.903267438532
 31
0.0
  0
LINE
  5
7C7F
330
19
100
AcDbEntity
  8
1
  6
Continuous
 48
15.0
100
AcDbLine
 10
682.2540246691114
 20
3149.903267438532
 30
0.0
 11
772.2540246691115
 21
3149.903267438532
 31
0.0
  0
LINE
  5
7C80
330
19
100
AcDbEntity
  8
1
  6
Continuous
 48
15.0
100
AcDbLine
 10
682.2540246691114
 20
3149.903267438532
 30
0.0
 11
682.2540246691114
 21
3109.903267438532
 31
0.0
  0
LINE
  5
7C81
330
19
100
AcDbEntity
  8
1
  6
Continuous
 48
15.0
100
AcDbLine
 10
747.2540246691115
 20
2996.903267438532
 30
0.0
 11
772.2540246691115
 21
2996.903267438532
 31
0.0
  0
LINE
  5
7C82
330
19
100
AcDbEntity
  8
1
  6
Continuous
 48
15.0
100
AcDbLine
 10
1517.254024669111
 20
2996.903267438531
 30
0.0
 11
1517.254024669111
 21
2766.903267438532
 31
0.0
  0
LINE
  5
7C83
330
19
100
AcDbEntity
  8
1
  6
Continuous
 48
15.0
100
AcDbLine
 10
1492.254024669111
 20
2613.903267438532
 30
0.0
 11
1492.254024669111
 21
3149.903267438533
 31
0.0
  0
LINE
  5
7C84
330
19
100
AcDbEntity
  8
1
  6
Continuous
 48
15.0
100
AcDbLine
 10
1582.254024669111
 20
2613.903267438532
 30
0.0
 11
1492.254024669111
 21
2613.903267438532
 31
0.0
  0
LINE
  5
7C85
330
19
100
AcDbEntity
  8
1
  6
Continuous
 48
15.0
100
AcDbLine
 10
1582.254024669111
 20
2653.903267438532
 30
0.0
 11
1492.254024669111
 21
2653.903267438532
 31
0.0
  0
LINE
  5
7C86
330
19
100
AcDbEntity
  8
1
  6
Continuous
 48
15.0
100
AcDbLine
 10
1517.254024669111
 20
2766.903267438532
 30
0.0
 11
1492.254024669111
 21
2766.903267438532
 31
0.0
  0
LINE
  5
7C87
330
19
100
AcDbEntity
  8
1
  6
Continuous
 48
15.0
100
AcDbLine
 10
1582.254024669111
 20
2653.903267438532
 30
0.0
 11
1582.254024669111
 21
2613.903267438532
 31
0.0
  0
LINE
  5
7C88
330
19
100
AcDbEntity
  8
1
  6
Continuous
 48
15.0
100
AcDbLine
 10
1582.254024669111
 20
3149.903267438532
 30
0.0
 11
1492.254024669111
 21
3149.903267438532
 31
0.0
  0
LINE
  5
7C89
330
19
100
AcDbEntity
  8
1
  6
Continuous
 48
15.0
100
AcDbLine
 10
1582.254024669111
 20
3109.903267438532
 30
0.0
 11
1492.254024669111
 21
3109.903267438532
 31
0.0
  0
LINE
  5
7C8A
330
19
100
AcDbEntity
  8
1
  6
Continuous
 48
15.0
100
AcDbLine
 10
1517.254024669111
 20
2996.903267438532
 30
0.0
 11
1492.254024669111
 21
2996.903267438532
 31
0.0
  0
LINE
  5
7C8B
330
19
100
AcDbEntity
  8
1
  6
Continuous
 48
15.0
100
AcDbLine
 10
1582.254024669111
 20
3149.903267438532
 30
0.0
 11
1582.254024669111
 21
3109.903267438532
 31
0.0
  0
LINE
  5
7C8C
330
19
100
AcDbEntity
  8
1
  6
Continuous
 48
15.0
100
AcDbLine
 10
2644.072152669112
 20
2037.50576343853
 30
0.0
 11
2108.072152669111
 21
2037.505763438531
 31
0.0
  0
LINE
  5
7C8E
330
19
100
AcDbEntity
  8
1
  6
Continuous
 48
15.0
100
AcDbLine
 10
2644.072152669111
 20
1502.505763438532
 30
0.0
 11
2108.072152669111
 21
1502.505763438532
 31
0.0
  0
LINE
  5
7C8F
330
19
100
AcDbEntity
  8
1
  6
Continuous
 48
15.0
100
AcDbLine
 10
2131.072152669111
 20
1427.505763438532
 30
0.0
 11
2621.072152669111
 21
1427.505763438532
 31
0.0
  0
LINE
  5
7C90
330
19
100
AcDbEntity
  8
1
  6
Continuous
 48
15.0
100
AcDbLine
 10
2108.072152669111
 20
1427.505763438532
 30
0.0
 11
2644.072152669111
 21
1427.505763438532
 31
0.0
  0
LINE
  5
7C91
330
19
100
AcDbEntity
  8
1
  6
Continuous
 48
15.0
100
AcDbLine
 10
2108.072152669111
 20
1502.505763438532
 30
0.0
 11
2108.072152669111
 21
1427.505763438532
 31
0.0
  0
LINE
  5
7C93
330
19
100
AcDbEntity
  8
1
  6
Continuous
 48
15.0
100
AcDbLine
 10
2286.072152669111
 20
1852.505763438531
 30
0.0
 11
2466.072152669111
 21
1612.505763438532
 31
0.0
  0
LINE
  5
7C94
330
19
100
AcDbEntity
  8
1
  6
Continuous
 48
15.0
100
AcDbLine
 10
2286.072152669111
 20
1612.505763438532
 30
0.0
 11
2466.072152669111
 21
1852.505763438531
 31
0.0
  0
LWPOLYLINE
  5
7C95
330
19
100
AcDbEntity
  8
1
  6
Continuous
 48
15.0
100
AcDbPolyline
 90
        4
 70
     1
 43
0.0
 10
2261.072152669111
 20
1587.505763438532
 10
2491.072152669111
 20
1587.505763438532
 10
2491.072152669111
 20
1877.505763438531
 10
2261.072152669111
 20
1877.505763438531
  0
LINE
  5
7C9C
330
19
100
AcDbEntity
  8
1
  6
Continuous
 48
15.0
100
AcDbLine
 10
2644.072152669111
 20
1427.505763438532
 30
0.0
 11
2644.072152669111
 21
1502.505763438532
 31
0.0
  0
DIMENSION
  5
7C9D
330
19
100
AcDbEntity
  8
3
  6
Continuous
 48
15.0
100
AcDbDimension
  2
*D1
 10
682.6422316691114
 20
1277.404118438532
 30
0.0
 11
1146.988145669111
 21
1277.404118438532
 31
0.0
 70
   160
 71
     5
 42
-1.0
  3
IGA
100
AcDbAlignedDimension
 13
1582.642231669111
 23
1427.505763438532
 33
0.0
 14
682.6422316691114
 24
1427.505763438532
 34
0.0
100
AcDbRotatedDimension
1001
ACAD
1000
DSTYLE
1002
{
1070
   287
1070
     3
1070
   287
1070
     3
1070
    40
1040
15.0
1070
   143
1040
0.039
1070
   172
1070
     1
1070
   271
1070
     0
1070
   279
1070
     0
1070
   288
1070
     1
1002
}
  0
DIMENSION
  5
7C9E
330
19
100
AcDbEntity
  8
3
  6
Continuous
 48
15.0
100
AcDbDimension
  2
*D2
 10
772.6422316691114
 20
2167.077882438531
 30
0.0
 11
1125.788327669111
 21
2167.077882438531
 31
0.0
 70
   160
 71
     5
 42
-1.0
  3
IGA
100
AcDbAlignedDimension
 13
1492.642231669111
 23
2037.505763438531
 33
0.0
 14
772.6422316691114
 24
2037.50576343853
 34
0.0
100
AcDbRotatedDimension
1001
ACAD
1000
DSTYLE
1002
{
1070
   287
1070
     3
1070
   287
1070
     3
1070
    40
1040
15.0
1070
   143
1040
0.039
1070
   172
1070
     1
1070
   271
1070
     0
1070
   279
1070
     0
1070
   288
1070
     1
1002
}
  0
DIMENSION
  5
7C9F
330
19
100
AcDbEntity
  8
3
  6
Continuous
 48
15.0
100
AcDbDimension
  2
*D3
 10
1492.254024669111
 20
2478.423955438532
 30
0.0
 11
1132.926146669111
 21
2478.423955438532
 31
0.0
 70
   160
 71
     5
 42
720.0
  3
IGA
100
AcDbAlignedDimension
 13
772.2540246691115
 23
2613.903267438532
 33
0.0
 14
1492.254024669111
 24
2613.903267438532
 34
0.0
100
AcDbRotatedDimension
1001
ACAD
1000
DSTYLE
1002
{
1070
   287
1070
     3
1070
   287
1070
     3
1070
    40
1040
15.0
1070
   143
1040
0.039
1070
   172
1070
     1
1070
   271
1070
     0
1070
   279
1070
     0
1070
   288
1070
     1
1002
}
  0
LINE
  5
7CA1
330
19
100
AcDbEntity
  8
1
  6
Continuous
 48
15.0
100
AcDbLine
 10
2286.072152669111
 20
1612.505763438532
 30
0.0
 11
2466.072152669111
 21
1612.505763438532
 31
0.0
  0
LINE
  5
7CA2
330
19
100
AcDbEntity
  8
1
  6
Continuous
 48
15.0
100
AcDbLine
 10
2466.072152669111
 20
1612.505763438532
 30
0.0
 11
2466.072152669111
 21
1852.505763438531
 31
0.0
  0
LINE
  5
7CA3
330
19
100
AcDbEntity
  8
1
  6
Continuous
 48
15.0
100
AcDbLine
 10
2466.072152669111
 20
1852.505763438531
 30
0.0
 11
2286.072152669111
 21
1852.505763438531
 31
0.0
  0
LINE
  5
7CA4
330
19
100
AcDbEntity
  8
1
  6
Continuous
 48
15.0
100
AcDbLine
 10
2286.072152669111
 20
1852.505763438531
 30
0.0
 11
2286.072152669111
 21
1612.505763438532
 31
0.0
  0
DIMENSION
  5
7CA7
330
19
100
AcDbEntity
  8
3
  6
Continuous
 48
15.0
100
AcDbDimension
  2
*D7
 10
2644.072152669111
 20
1281.577166438531
 30
0.0
 11
2393.080999669111
 21
1281.577166438531
 31
0.0
 70
   160
 71
     5
 42
-1.0
  3
IGA
100
AcDbAlignedDimension
 13
2108.072152669111
 23
1427.505763438532
 33
0.0
 14
2644.072152669111
 24
1427.505763438532
 34
0.0
100
AcDbRotatedDimension
1001
ACAD
1000
DSTYLE
1002
{
1070
   287
1070
     3
1070
   287
1070
     3
1070
    40
1040
15.0
1070
   143
1040
0.039
1070
   172
1070
     1
1070
   271
1070
     0
1070
   279
1070
     0
1070
   288
1070
     1
1002
}
  0
LINE
  5
7CA8
330
19
100
AcDbEntity
  8
2
  6
CENTER
 48
15.0
100
AcDbLine
 10
1579.533076669111
 20
1742.505763438532
 30
0.0
 11
682.7375336691111
 21
1742.505763438532
 31
0.0
  0
DIMENSION
  5
7CA9
330
19
100
AcDbEntity
  8
3
  6
Continuous
 48
15.0
100
AcDbDimension
  2
*D8
 10
1644.022149669112
 20
1427.505763438532
 30
0.0
 11
1644.022149669112
 21
1643.934334867103
 31
0.0
 70
   160
 71
     5
 42
-1.0
  3
IGA
100
AcDbAlignedDimension
 13
1579.533076669111
 23
1742.505763438532
 33
0.0
 14
1582.642231669111
 24
1427.505763438532
 34
0.0
 50
270.0
100
AcDbRotatedDimension
1001
ACAD
1000
DSTYLE
1002
{
1070
   287
1070
     3
1070
   287
1070
     3
1070
    40
1040
15.0
1070
   143
1040
0.039
1070
   172
1070
     1
1070
   271
1070
     0
1070
   279
1070
     0
1070
   288
1070
     1
1002
}
  0
DIMENSION
  5
7CAA
330
19
100
AcDbEntity
  8
3
  6
Continuous
 48
15.0
100
AcDbDimension
  2
*D9
 10
1736.622956669112
 20
2037.505763438531
 30
0.0
 11
1736.622956669111
 21
1721.469962438532
 31
0.0
 70
   160
 71
     5
 42
-1.0
  3
IGA
100
AcDbAlignedDimension
 13
1582.642231669111
 23
1427.505763438532
 33
0.0
 14
1492.642231669111
 24
2037.505763438531
 34
0.0
 50
270.0
100
AcDbRotatedDimension
1001
ACAD
1000
DSTYLE
1002
{
1070
   287
1070
     3
1070
   287
1070
     3
1070
    40
1040
15.0
1070
   143
1040
0.039
1070
   172
1070
     1
1070
   271
1070
     0
1070
   279
1070
     0
1070
   288
1070
     1
1002
}
  0
DIMENSION
  5
7CAB
330
19
100
AcDbEntity
  8
3
  6
Continuous
 48
15.0
100
AcDbDimension
  2
*D10
 10
2466.072152669111
 20
1945.752481438532
 30
0.0
 11
2376.072152669111
 21
1945.752481438532
 31
0.0
 70
   160
 71
     5
 42
-1.0
  3
IGA
100
AcDbAlignedDimension
 13
2286.072152669111
 23
1852.505763438531
 33
0.0
 14
2466.072152669111
 24
1852.505763438531
 34
0.0
100
AcDbRotatedDimension
1001
ACAD
1000
DSTYLE
1002
{
1070
   287
1070
     3
1070
   287
1070
     3
1070
    40
1040
15.0
1070
   143
1040
0.039
1070
   172
1070
     1
1070
   271
1070
     0
1070
   279
1070
     0
1070
   288
1070
     1
1002
}
  0
DIMENSION
  5
7CAC
330
19
100
AcDbEntity
  8
3
  6
Continuous
 48
15.0
100
AcDbDimension
  2
*D11
 10
2179.363652669112
 20
1612.505763438532
 30
0.0
 11
2179.363652669111
 21
1733.179765438531
 31
0.0
 70
   160
 71
     5
 42
-1.0
  3
IGA
100
AcDbAlignedDimension
 13
2286.072152669111
 23
1852.505763438531
 33
0.0
 14
2286.072152669111
 24
1612.505763438532
 34
0.0
 50
90.0
100
AcDbRotatedDimension
1001
ACAD
1000
DSTYLE
1002
{
1070
   287
1070
     3
1070
   287
1070
     3
1070
    40
1040
15.0
1070
   143
1040
0.039
1070
   172
1070
     1
1070
   271
1070
     0
1070
   279
1070
     0
1070
   288
1070
     1
1002
}
  0
LINE
  5
7CC7
330
19
100
AcDbEntity
  8
2
 48
15.0
100
AcDbLine
 10
2376.072152669111
 20
1413.448788513851
 30
0.0
 11
2376.072152669111
 21
1919.39719016149
 31
0.0
  0
LINE
  5
7CC8
330
19
100
AcDbEntity
  8
2
 48
15.0
100
AcDbLine
 10
683.7675806323223
 20
2881.903267438532
 30
0.0
 11
1592.579164961114
 21
2881.903267438532
 31
0.0
  0
LINE
  5
7CC9
330
19
100
AcDbEntity
  8
1
  6
Continuous
 48
15.0
100
AcDbLine
 10
2108.072152669111
 20
2037.505763438531
 30
0.0
 11
2108.072152669111
 21
1502.505763438532
 31
0.0
  0
LINE
  5
7CCA
330
19
100
AcDbEntity
  8
1
  6
Continuous
 48
15.0
100
AcDbLine
 10
2644.072152669111
 20
1502.505763438532
 30
0.0
 11
2644.072152669111
 21
2037.505763438531
 31
0.0
  0
DIMENSION
  5
7CCF
330
19
100
AcDbEntity
  8
3
 48
15.0
100
AcDbDimension
  2
*D12
 10
594.2131242217003
 20
1742.505763438532
 30
0.0
 11
594.2131242217
 21
1643.934334867103
 31
0.0
 70
   160
 71
     5
 42
-1.0
  3
IGA
100
AcDbAlignedDimension
 13
682.6422316691114
 23
1427.505763438532
 33
0.0
 14
682.7375336691111
 24
1742.505763438532
 34
0.0
 50
270.0
100
AcDbRotatedDimension
1001
ACAD
1000
DSTYLE
1002
{
1070
   287
1070
     3
1070
   287
1070
     3
1070
    40
1040
15.0
1070
   143
1040
0.039
1070
   172
1070
     1
1070
   271
1070
     0
1070
   279
1070
     0
1070
   288
1070
     1
1002
}
  0
LINE
  5
7EDB
330
19
100
AcDbEntity
  8
2
 48
15.0
100
AcDbLine
 10
2376.072152669111
 20
2025.566617054047
 30
0.0
 11
2376.072152669111
 21
2093.681798173693
 31
0.0
  0
DIMENSION
  5
801E
330
19
100
AcDbEntity
  8
3
100
AcDbDimension
  2
*D13
 10
2376.072152669111
 20
2184.386490858702
 30
0.0
 11
2246.348656751143
 21
2184.386490858702
 31
0.0
 70
   160
 71
     5
 42
268.0
  3
IGA
100
AcDbAlignedDimension
 13
2108.072152669111
 23
2037.505763438531
 33
0.0
 14
2376.072152669111
 24
2093.681798173693
 34
0.0
100
AcDbRotatedDimension
1001
ACAD
1000
DSTYLE
1002
{
1070
    40
1040
15.0
1070
   143
1040
0.039
1070
   172
1070
     1
1070
   271
1070
     0
1070
   279
1070
     0
1070
   288
1070
     1
1002
}
  0
DIMENSION
  5
802B
330
19
100
AcDbEntity
  8
3
100
AcDbDimension
  2
*D14
 10
2644.072152669112
 20
2184.386490858702
 30
0.0
 11
2510.072152669112
 21
2221.886490858702
 31
0.0
 70
    32
 71
     5
 42
268.0000000000009
  3
IGA
100
AcDbAlignedDimension
 13
2376.072152669111
 23
2093.681798173693
 33
0.0
 14
2644.072152669112
 24
2037.50576343853
 34
0.0
100
AcDbRotatedDimension
1001
ACAD
1000
DSTYLE
1002
{
1070
    40
1040
15.0
1070
   143
1040
0.039
1070
   172
1070
     1
1070
   271
1070
     0
1070
   279
1070
     1
1070
   288
1070
     1
1002
}
  0
DIMENSION
  5
804A
330
19
100
AcDbEntity
  8
3
100
AcDbDimension
  2
*D15
 10
1715.056425702714
 20
3149.903267438532
 30
0.0
 11
1715.056425702714
 21
2864.744193181623
 31
0.0
 70
   160
 71
     5
 42
536.0000000000004
  3
IGA
100
AcDbAlignedDimension
 13
1582.254024669111
 23
2613.903267438532
 33
0.0
 14
1582.254024669111
 24
3149.903267438532
 34
0.0
 50
90.0
100
AcDbRotatedDimension
1001
ACAD
1000
DSTYLE
1002
{
1070
    40
1040
15.0
1070
   143
1040
0.039
1070
   172
1070
     1
1070
   271
1070
     0
1070
   279
1070
     0
1070
   288
1070
     1
1002
}
  0
ENDSEC
  0
SECTION
  2
OBJECTS
  0
DICTIONARY
  5
C
330
0
100
AcDbDictionary
281
     1
  3
ACAD_GROUP
350
D
  3
ACAD_LAYOUT
350
7E31
  3
ACAD_MLINESTYLE
350
E
  3
ACAD_PLOTSETTINGS
350
7E32
  3
ACAD_PLOTSTYLENAME
350
7E2F
  3
AcDbVariableDictionary
350
8013
  0
DICTIONARY
  5
7E5E
330
19
100
AcDbDictionary
280
     1
281
     1
  3
ACAD_LAYOUTSELFREF
360
7F9C
  0
DICTIONARY
  5
7E5C
330
16
100
AcDbDictionary
280
     1
281
     1
  3
ACAD_LAYOUTSELFREF
360
7F9B
  0
DICTIONARY
  5
D
102
{ACAD_REACTORS
330
C
102
}
330
0
100
AcDbDictionary
281
     1
  0
DICTIONARY
  5
7E31
102
{ACAD_REACTORS
330
C
102
}
330
C
100
AcDbDictionary
281
     1
  3
Model
350
7E33
  3
ﾚｲｱｳﾄ1
350
7E34
  0
DICTIONARY
  5
E
102
{ACAD_REACTORS
330
C
102
}
330
0
100
AcDbDictionary
281
     1
  3
STANDARD
350
1C
  0
DICTIONARY
  5
7E32
102
{ACAD_REACTORS
330
C
102
}
330
C
100
AcDbDictionary
281
     1
  0
ACDBDICTIONARYWDFLT
  5
7E2F
102
{ACAD_REACTORS
330
C
102
}
330
C
100
AcDbDictionary
281
     1
  3
Normal
350
7E30
100
AcDbDictionaryWithDefault
340
7E30
1001
ACAD
1000
TREAT_AS_HARD
1070
     0
1000
TREAT_AS_HARD
1070
     0
  0
DICTIONARY
  5
8013
102
{ACAD_REACTORS
330
C
102
}
330
C
100
AcDbDictionary
281
     1
  3
DIMASSOC
350
8014
  0
XRECORD
  5
7F9C
102
{ACAD_REACTORS
330
7E5E
102
}
330
7E5E
100
AcDbXrecord
280
     1
340
19
  0
XRECORD
  5
7F9B
102
{ACAD_REACTORS
330
7E5C
102
}
330
7E5C
100
AcDbXrecord
280
     1
340
16
  0
LAYOUT
  5
7E33
102
{ACAD_REACTORS
330
7E31
102
}
330
7E31
100
AcDbPlotSettings
  1

  2
EPSON LP-9300
  4

  6

 40
0.0
 41
0.0
 42
0.0
 43
0.0
 44
0.0
 45
0.0
 46
0.0
 47
0.0
 48
0.0
 49
0.0
140
0.0
141
0.0
142
1.0
143
1.0
 70
  1712
 72
     0
 73
     0
 74
     0
  7

 75
     0
147
1.0
148
0.0
149
0.0
100
AcDbLayout
  1
Model
 70
     1
 71
     0
 10
0.0
 20
0.0
 11
12.0
 21
9.0
 12
0.0
 22
0.0
 32
0.0
 14
0.0
 24
0.0
 34
0.0
 15
0.0
 25
0.0
 35
0.0
146
0.0
 13
0.0
 23
0.0
 33
0.0
 16
1.0
 26
0.0
 36
0.0
 17
0.0
 27
1.0
 37
0.0
 76
     0
330
19
  0
LAYOUT
  5
7E34
102
{ACAD_REACTORS
330
7E31
102
}
330
7E31
100
AcDbPlotSettings
  1

  2
EPSON LP-9300
  4

  6

 40
0.0
 41
0.0
 42
0.0
 43
0.0
 44
0.0
 45
0.0
 46
0.0
 47
0.0
 48
0.0
 49
0.0
140
0.0
141
0.0
142
1.0
143
1.0
 70
   688
 72
     0
 73
     0
 74
     5
  7

 75
    16
147
1.0
148
0.0
149
0.0
100
AcDbLayout
  1
ﾚｲｱｳﾄ1
 70
     1
 71
     1
 10
0.0
 20
0.0
 11
12.0
 21
9.0
 12
0.0
 22
0.0
 32
0.0
 14
1.000000000000000E+20
 24
1.000000000000000E+20
 34
1.000000000000000E+20
 15
-1.000000000000000E+20
 25
-1.000000000000000E+20
 35
-1.000000000000000E+20
146
0.0
 13
0.0
 23
0.0
 33
0.0
 16
1.0
 26
0.0
 36
0.0
 17
0.0
 27
1.0
 37
0.0
 76
     0
330
16
  0
MLINESTYLE
  5
1C
102
{ACAD_REACTORS
330
E
102
}
330
0
100
AcDbMlineStyle
  2
STANDARD
 70
     0
  3

 62
     0
 51
90.0
 52
90.0
 71
     2
 49
0.5
 62
   256
  6
BYLAYER
 49
-0.5
 62
   256
  6
BYLAYER
  0
ACDBPLACEHOLDER
  5
7E30
102
{ACAD_REACTORS
330
7E2F
102
}
330
7E2F
  0
DICTIONARYVAR
  5
8014
102
{ACAD_REACTORS
330
8013
102
}
330
8013
100
DictionaryVariables
280
     0
  1
1
  0
ENDSEC
  0
EOF
