  0
SECTION
  2
HEADER
  9
$ACADVER
  1
AC1009
  9
$INSBASE
 10
0.0
 20
0.0
 30
0.0
  9
$EXTMIN
 10
375.0
 20
450.0
 30
0.0
  9
$EXTMAX
 10
2775.0
 20
4179.978392
 30
0.0
  9
$LIMMIN
 10
0.0
 20
0.0
  9
$LIMMAX
 10
297.0
 20
210.0
  9
$ORTHOMODE
 70
     0
  9
$REGENMODE
 70
     1
  9
$FILLMODE
 70
     0
  9
$QTEXTMODE
 70
     0
  9
$MIRRTEXT
 70
     1
  9
$DRAGMODE
 70
     2
  9
$LTSCALE
 40
5.0
  9
$OSMODE
 70
    37
  9
$ATTMODE
 70
     1
  9
$TEXTSIZE
 40
180.0
  9
$TRACEWID
 40
0.05
  9
$TEXTSTYLE
  7
STANDARD
  9
$CLAYER
  8
3
  9
$CELTYPE
  6
BYLAYER
  9
$CECOLOR
 62
   256
  9
$DIMSCALE
 40
15.0
  9
$DIMASZ
 40
2.0
  9
$DIMEXO
 40
0.5
  9
$DIMDLI
 40
10.0
  9
$DIMRND
 40
0.0
  9
$DIMDLE
 40
0.0
  9
$DIMEXE
 40
1.0
  9
$DIMTP
 40
1.0
  9
$DIMTM
 40
1.0
  9
$DIMTXT
 40
3.0
  9
$DIMCEN
 40
0.0
  9
$DIMTSZ
 40
0.0
  9
$DIMTOL
 70
     0
  9
$DIMLIM
 70
     0
  9
$DIMTIH
 70
     0
  9
$DIMTOH
 70
     0
  9
$DIMSE1
 70
     0
  9
$DIMSE2
 70
     0
  9
$DIMTAD
 70
     1
  9
$DIMZIN
 70
     8
  9
$DIMBLK
  1

  9
$DIMASO
 70
     1
  9
$DIMSHO
 70
     1
  9
$DIMPOST
  1

  9
$DIMAPOST
  1

  9
$DIMALT
 70
     0
  9
$DIMALTD
 70
     2
  9
$DIMALTF
 40
0.039
  9
$DIMLFAC
 40
1.0
  9
$DIMTOFL
 70
     1
  9
$DIMTVP
 40
0.0
  9
$DIMTIX
 70
     0
  9
$DIMSOXD
 70
     0
  9
$DIMSAH
 70
     1
  9
$DIMBLK1
  1
OPEN
  9
$DIMBLK2
  1
OPEN
  9
$DIMSTYLE
  2
IGA
  9
$DIMCLRD
 70
     0
  9
$DIMCLRE
 70
     0
  9
$DIMCLRT
 70
     0
  9
$DIMTFAC
 40
10.0
  9
$DIMGAP
 40
1.0
  9
$LUNITS
 70
     2
  9
$LUPREC
 70
     3
  9
$SKETCHINC
 40
0.1
  9
$FILLETRAD
 40
50.0
  9
$AUNITS
 70
     0
  9
$AUPREC
 70
     0
  9
$MENU
  1
acad
  9
$ELEVATION
 40
0.0
  9
$PELEVATION
 40
0.0
  9
$THICKNESS
 40
0.0
  9
$LIMCHECK
 70
     0
  9
$BLIPMODE
 70
     0
  9
$CHAMFERA
 40
0.5
  9
$CHAMFERB
 40
0.5
  9
$SKPOLY
 70
     0
  9
$TDCREATE
 40
2450785.62377743
  9
$TDUPDATE
 40
2454953.8565130671
  9
$TDINDWG
 40
0.3125543403
  9
$TDUSRTIMER
 40
0.3125543403
  9
$USRTIMER
 70
     1
  9
$ANGBASE
 50
0.0
  9
$ANGDIR
 70
     0
  9
$PDMODE
 70
     0
  9
$PDSIZE
 40
0.0
  9
$PLINEWID
 40
0.0
  9
$COORDS
 70
     1
  9
$SPLFRAME
 70
     0
  9
$SPLINETYPE
 70
     6
  9
$SPLINESEGS
 70
     8
  9
$ATTDIA
 70
     0
  9
$ATTREQ
 70
     1
  9
$HANDLING
 70
 10241
  9
$HANDSEED
  5
7FD7
  9
$SURFTAB1
 70
     6
  9
$SURFTAB2
 70
     6
  9
$SURFTYPE
 70
     6
  9
$SURFU
 70
     6
  9
$SURFV
 70
     6
  9
$UCSNAME
  2

  9
$UCSORG
 10
0.0
 20
0.0
 30
0.0
  9
$UCSXDIR
 10
1.0
 20
0.0
 30
0.0
  9
$UCSYDIR
 10
0.0
 20
1.0
 30
0.0
  9
$PUCSNAME
  2

  9
$PUCSORG
 10
0.0
 20
0.0
 30
0.0
  9
$PUCSXDIR
 10
1.0
 20
0.0
 30
0.0
  9
$PUCSYDIR
 10
0.0
 20
1.0
 30
0.0
  9
$USERI1
 70
     0
  9
$USERI2
 70
     0
  9
$USERI3
 70
     0
  9
$USERI4
 70
     0
  9
$USERI5
 70
     0
  9
$USERR1
 40
0.0
  9
$USERR2
 40
0.0
  9
$USERR3
 40
0.0
  9
$USERR4
 40
0.0
  9
$USERR5
 40
0.0
  9
$WORLDVIEW
 70
     1
  9
$SHADEDGE
 70
     3
  9
$SHADEDIF
 70
    70
  9
$TILEMODE
 70
     1
  9
$MAXACTVP
 70
    16
  9
$PLIMCHECK
 70
     0
  9
$PEXTMIN
 10
1.0000000000000000E+020
 20
1.0000000000000000E+020
 30
1.0000000000000000E+020
  9
$PEXTMAX
 10
-1.0000000000000000E+020
 20
-1.0000000000000000E+020
 30
-1.0000000000000000E+020
  9
$PLIMMIN
 10
0.0
 20
0.0
  9
$PLIMMAX
 10
12.0
 20
9.0
  9
$UNITMODE
 70
     0
  9
$VISRETAIN
 70
     0
  9
$PLINEGEN
 70
     0
  9
$PSLTSCALE
 70
     1
  0
ENDSEC
  0
SECTION
  2
TABLES
  0
TABLE
  2
VPORT
 70
     2
  0
VPORT
  2
*ACTIVE
 70
     0
 10
0.0
 20
0.0
 11
1.0
 21
1.0
 12
1520.97174565043
 22
2876.107484979108
 13
0.0
 23
0.0
 14
10.0
 24
10.0
 15
10.0
 25
10.0
 16
0.0
 26
0.0
 36
1.0
 17
0.0
 27
0.0
 37
0.0
 40
5927.6972378958408
 41
1.5051150895140659
 42
50.0
 43
0.0
 44
0.0
 50
0.0
 51
0.0
 71
     0
 72
   100
 73
     1
 74
     0
 75
     0
 76
     0
 77
     0
 78
     0
  0
ENDTAB
  0
TABLE
  2
LTYPE
 70
     2
  0
LTYPE
  2
CONTINUOUS
 70
     0
  3
Solid line
 72
    65
 73
     0
 40
0.0
  0
LTYPE
  2
CENTER
 70
     0
  3
____ _ ____ _ ____ _ ____ _ ____ _ ____ _ ____ 
 72
    65
 73
     4
 40
2.0
 49
1.25
 49
-0.25
 49
0.25
 49
-0.25
  0
ENDTAB
  0
TABLE
  2
LAYER
 70
     6
  0
LAYER
  2
0
 70
     0
 62
    -7
  6
CONTINUOUS
  0
LAYER
  2
3
 70
     0
 62
     2
  6
CONTINUOUS
  0
LAYER
  2
2
 70
     0
 62
     3
  6
CENTER
  0
LAYER
  2
1
 70
     0
 62
     4
  6
CONTINUOUS
  0
LAYER
  2
4
 70
     0
 62
     7
  6
CONTINUOUS
  0
LAYER
  2
DEFPOINTS
 70
     0
 62
     7
  6
CONTINUOUS
  0
ENDTAB
  0
TABLE
  2
STYLE
 70
     1
  0
STYLE
  2
STANDARD
 70
     0
 40
0.0
 41
1.0
 50
0.0
 71
     0
 42
180.0
  3
simplex.shx
  4
extfont.shx
  0
ENDTAB
  0
TABLE
  2
VIEW
 70
     0
  0
ENDTAB
  0
TABLE
  2
UCS
 70
     0
  0
ENDTAB
  0
TABLE
  2
APPID
 70
     1
  0
APPID
  2
ACAD
 70
     0
  0
ENDTAB
  0
TABLE
  2
DIMSTYLE
 70
     1
  0
DIMSTYLE
  2
IGA
 70
     0
  3

  4

  5

  6
OPEN
  7
OPEN
 40
2.0
 41
2.0
 42
0.5
 43
10.0
 44
1.0
 45
0.0
 46
0.0
 47
1.0
 48
1.0
140
3.0
141
0.0
142
0.0
143
0.03937
144
1.0
145
0.0
146
10.0
147
1.0
 71
     0
 72
     0
 73
     0
 74
     0
 75
     0
 76
     0
 77
     1
 78
     8
170
     0
171
     2
172
     0
173
     1
174
     0
175
     0
176
     0
177
     0
178
     0
  0
ENDTAB
  0
ENDSEC
  0
SECTION
  2
BLOCKS
  0
BLOCK
  8
0
  2
$MODEL_SPACE
 70
     0
 10
0.0
 20
0.0
 30
0.0
  3
$MODEL_SPACE
  1

  0
ENDBLK
  5
1B
  8
0
  0
BLOCK
 67
     1
  8
0
  2
$PAPER_SPACE
 70
     0
 10
0.0
 20
0.0
 30
0.0
  3
$PAPER_SPACE
  1

  0
ENDBLK
  5
18
 67
     1
  8
0
  0
BLOCK
  8
0
  2
_OPEN
 70
     0
 10
0.0
 20
0.0
 30
0.0
  3
_OPEN
  1

  0
LINE
  5
7A93
  8
0
  6
BYBLOCK
 62
     0
 10
-1.0
 20
0.166667
 30
0.0
 11
0.0
 21
0.0
 31
0.0
  0
LINE
  5
7A94
  8
0
  6
BYBLOCK
 62
     0
 10
0.0
 20
0.0
 30
0.0
 11
-1.0
 21
-0.166667
 31
0.0
  0
LINE
  5
7A95
  8
0
  6
BYBLOCK
 62
     0
 10
0.0
 20
0.0
 30
0.0
 11
-1.0
 21
0.0
 31
0.0
  0
ENDBLK
  5
7A96
  8
0
  0
BLOCK
  8
0
  2
*D1
 70
     1
 10
0.0
 20
0.0
 30
0.0
  3
*D1
  1

  0
LINE
  5
7F5E
  8
3
  6
CONTINUOUS
 62
     0
 10
714.30891099999997
 20
1342.627483
 30
0.0
 11
714.30891099999997
 21
1185.025838
 31
0.0
  0
LINE
  5
7F5F
  8
3
  6
CONTINUOUS
 62
     0
 10
1614.3089110000001
 20
1342.627483
 30
0.0
 11
1614.3089110000001
 21
1185.025838
 31
0.0
  0
LINE
  5
7F60
  8
3
  6
CONTINUOUS
 62
     0
 10
744.30891099999997
 20
1200.025838
 30
0.0
 11
1584.3089109999989
 21
1200.025838
 31
0.0
  0
INSERT
  5
7F61
  8
3
  6
CONTINUOUS
 62
     0
  2
_OPEN
 10
714.30891099999997
 20
1200.025838
 30
0.0
 41
30.0
 42
30.0
 43
30.0
 50
180.0
  0
INSERT
  5
7F62
  8
3
  6
CONTINUOUS
 62
     0
  2
_OPEN
 10
1614.3089110000001
 20
1200.025838
 30
0.0
 41
30.0
 42
30.0
 43
30.0
  0
TEXT
  8
3
  40
45
  5
7FCB
  62
0
  72
0
  71
0
 10
1059.96
 20
1157.88
 30
0.000000
  1
900
  0
POINT
  5
7F64
  8
DEFPOINTS
  6
CONTINUOUS
 62
     0
 10
714.30891099999997
 20
1350.127483
 30
0.0
  0
POINT
  5
7F65
  8
DEFPOINTS
  6
CONTINUOUS
 62
     0
 10
1614.3089110000001
 20
1350.127483
 30
0.0
  0
POINT
  5
7F66
  8
DEFPOINTS
  6
CONTINUOUS
 62
     0
 10
1614.3089110000001
 20
1200.025838
 30
0.0
  0
ENDBLK
  5
7E23
  8
0
  0
BLOCK
  8
0
  2
*D2
 70
     1
 10
0.0
 20
0.0
 30
0.0
  3
*D2
  1

  0
LINE
  5
7F67
  8
3
  6
CONTINUOUS
 62
     0
 10
804.30891099999997
 20
1967.6274829999991
 30
0.0
 11
804.30891099999997
 21
2104.6996020000001
 31
0.0
  0
LINE
  5
7F68
  8
3
  6
CONTINUOUS
 62
     0
 10
1524.3089110000001
 20
1967.6274829999991
 30
0.0
 11
1524.3089110000001
 21
2104.6996020000001
 31
0.0
  0
LINE
  5
7F69
  8
3
  6
CONTINUOUS
 62
     0
 10
834.30891100000008
 20
2089.6996020000001
 30
0.0
 11
1494.3089110000001
 21
2089.6996020000001
 31
0.0
  0
INSERT
  5
7F6A
  8
3
  6
CONTINUOUS
 62
     0
  2
_OPEN
 10
804.30891099999997
 20
2089.6996020000001
 30
0.0
 41
30.0
 42
30.0
 43
30.0
 50
180.0
  0
INSERT
  5
7F6B
  8
3
  6
CONTINUOUS
 62
     0
  2
_OPEN
 10
1524.3089110000001
 20
2089.6996020000001
 30
0.0
 41
30.0
 42
30.0
 43
30.0
  0
TEXT
  8
3
  40
45
  5
7FCC
  62
0
  72
0
  71
0
 10
1081.16
 20
2047.55
 30
0.000000
  1
720
  0
POINT
  5
7F6D
  8
DEFPOINTS
  6
CONTINUOUS
 62
     0
 10
804.30891099999997
 20
1960.1274829999991
 30
0.0
  0
POINT
  5
7F6E
  8
DEFPOINTS
  6
CONTINUOUS
 62
     0
 10
1524.3089110000001
 20
1960.1274829999991
 30
0.0
  0
POINT
  5
7F6F
  8
DEFPOINTS
  6
CONTINUOUS
 62
     0
 10
1524.3089110000001
 20
2089.6996020000001
 30
0.0
  0
ENDBLK
  5
7E2E
  8
0
  0
BLOCK
  8
0
  2
*D3
 70
     1
 10
0.0
 20
0.0
 30
0.0
  3
*D3
  1

  0
LINE
  5
7F70
  8
3
  6
CONTINUOUS
 62
     0
 10
803.920704
 20
2514.0249869999998
 30
0.0
 11
803.920704
 21
2371.0456749999989
 31
0.0
  0
LINE
  5
7F71
  8
3
  6
CONTINUOUS
 62
     0
 10
1523.920703999999
 20
2514.0249869999998
 30
0.0
 11
1523.920703999999
 21
2371.0456749999989
 31
0.0
  0
LINE
  5
7F72
  8
3
  6
CONTINUOUS
 62
     0
 10
833.92070400000011
 20
2386.0456749999989
 30
0.0
 11
1493.920703999999
 21
2386.0456749999989
 31
0.0
  0
INSERT
  5
7F73
  8
3
  6
CONTINUOUS
 62
     0
  2
_OPEN
 10
803.920704
 20
2386.0456749999989
 30
0.0
 41
30.0
 42
30.0
 43
30.0
 50
180.0
  0
INSERT
  5
7F74
  8
3
  6
CONTINUOUS
 62
     0
  2
_OPEN
 10
1523.920703999999
 20
2386.0456749999989
 30
0.0
 41
30.0
 42
30.0
 43
30.0
  0
TEXT
  8
3
  40
45
  5
7FCD
  62
0
  72
0
  71
0
 10
1074.59
 20
2343.90
 30
0.000000
  1
720
  0
POINT
  5
7F76
  8
DEFPOINTS
  6
CONTINUOUS
 62
     0
 10
803.920704
 20
2521.5249869999998
 30
0.0
  0
POINT
  5
7F77
  8
DEFPOINTS
  6
CONTINUOUS
 62
     0
 10
1523.920703999999
 20
2521.5249869999998
 30
0.0
  0
POINT
  5
7F78
  8
DEFPOINTS
  6
CONTINUOUS
 62
     0
 10
1523.920703999999
 20
2386.0456749999989
 30
0.0
  0
ENDBLK
  5
7E39
  8
0
  0
BLOCK
  8
0
  2
*D4
 70
     1
 10
0.0
 20
0.0
 30
0.0
  3
*D4
  1

  0
LINE
  5
7F79
  8
3
  6
CONTINUOUS
 62
     0
 10
1531.4207039999999
 20
3087.5249869999998
 30
0.0
 11
1727.7480009999999
 21
3087.5249869999998
 31
0.0
  0
LINE
  5
7F7A
  8
3
  6
CONTINUOUS
 62
     0
 10
1531.420703999999
 20
2521.5249869999998
 30
0.0
 11
1727.7480009999999
 21
2521.5249869999998
 31
0.0
  0
LINE
  5
7F7B
  8
3
  6
CONTINUOUS
 62
     0
 10
1712.7480009999999
 20
3057.5249869999998
 30
0.0
 11
1712.7480009999999
 21
2551.5249869999998
 31
0.0
  0
INSERT
  5
7F7C
  8
3
  6
CONTINUOUS
 62
     0
  2
_OPEN
 10
1712.7480009999999
 20
3087.5249869999998
 30
0.0
 41
30.0
 42
30.0
 43
30.0
 50
90.0
  0
INSERT
  5
7F7D
  8
3
  6
CONTINUOUS
 62
     0
  2
_OPEN
 10
1712.7480009999999
 20
2521.5249869999998
 30
0.0
 41
30.0
 42
30.0
 43
30.0
 50
270.0
  0
TEXT
  8
3
  40
45
  5
7FCE
  62
0
  72
0
  71
0
 10
1585.25
 20
2719.46
 30
0.000000
  1
566
  0
POINT
  5
7F7F
  8
DEFPOINTS
  6
CONTINUOUS
 62
     0
 10
1523.9207039999999
 20
3087.5249869999998
 30
0.0
  0
POINT
  5
7F80
  8
DEFPOINTS
  6
CONTINUOUS
 62
     0
 10
1523.920703999999
 20
2521.5249869999998
 30
0.0
  0
POINT
  5
7F81
  8
DEFPOINTS
  6
CONTINUOUS
 62
     0
 10
1712.7480009999999
 20
2521.5249869999998
 30
0.0
  0
ENDBLK
  5
7E44
  8
0
  0
BLOCK
  8
0
  2
*D5
 70
     1
 10
0.0
 20
0.0
 30
0.0
  3
*D5
  1

  0
LINE
  5
7F82
  8
3
  6
CONTINUOUS
 62
     0
 10
2124.7388319999991
 20
1967.6274829999991
 30
0.0
 11
2124.7388319999991
 21
2098.3888339999999
 31
0.0
  0
LINE
  5
7F83
  8
3
  6
CONTINUOUS
 62
     0
 10
2407.738832
 20
2023.803517735161
 30
0.0
 11
2407.738832
 21
2098.3888339999999
 31
0.0
  0
LINE
  5
7F84
  8
3
  6
CONTINUOUS
 62
     0
 10
2154.738832
 20
2083.388833999999
 30
0.0
 11
2377.7388319999991
 21
2083.388833999999
 31
0.0
  0
INSERT
  5
7F85
  8
3
  6
CONTINUOUS
 62
     0
  2
_OPEN
 10
2124.7388319999991
 20
2083.388833999999
 30
0.0
 41
30.0
 42
30.0
 43
30.0
 50
180.0
  0
INSERT
  5
7F86
  8
3
  6
CONTINUOUS
 62
     0
  2
_OPEN
 10
2407.738832
 20
2083.388833999999
 30
0.0
 41
30.0
 42
30.0
 43
30.0
  0
TEXT
  8
3
  40
45
  5
7FCF
  62
0
  72
0
  71
0
 10
2214.88
 20
2041.24
 30
0.000000
  1
283
  0
POINT
  5
7F88
  8
DEFPOINTS
  6
CONTINUOUS
 62
     0
 10
2124.7388319999991
 20
1960.1274829999991
 30
0.0
  0
POINT
  5
7F89
  8
DEFPOINTS
  6
CONTINUOUS
 62
     0
 10
2407.738832
 20
2016.303517735161
 30
0.0
  0
POINT
  5
7F8A
  8
DEFPOINTS
  6
CONTINUOUS
 62
     0
 10
2407.738832
 20
2083.388833999999
 30
0.0
  0
ENDBLK
  5
7E4F
  8
0
  0
BLOCK
  8
0
  2
*D6
 70
     1
 10
0.0
 20
0.0
 30
0.0
  3
*D6
  1

  0
LINE
  5
7F8B
  8
3
  6
CONTINUOUS
 62
     0
 10
2690.738832
 20
1967.6274829999991
 30
0.0
 11
2690.738832
 21
2098.3888339999999
 31
0.0
  0
LINE
  5
7F8C
  8
3
  6
CONTINUOUS
 62
     0
 10
2437.738832
 20
2083.388833999999
 30
0.0
 11
2660.738832
 21
2083.388833999999
 31
0.0
  0
INSERT
  5
7F8D
  8
3
  6
CONTINUOUS
 62
     0
  2
_OPEN
 10
2407.738832
 20
2083.388833999999
 30
0.0
 41
30.0
 42
30.0
 43
30.0
 50
180.0
  0
INSERT
  5
7F8E
  8
3
  6
CONTINUOUS
 62
     0
  2
_OPEN
 10
2690.738832
 20
2083.388833999999
 30
0.0
 41
30.0
 42
30.0
 43
30.0
  0
TEXT
  8
3
  40
45
  5
7FD0
  62
0
  72
0
  71
0
 10
2459.24
 20
2041.24
 30
0.000000
  1
283
  0
POINT
  5
7F90
  8
DEFPOINTS
  6
CONTINUOUS
 62
     0
 10
2407.738832
 20
2016.303517735161
 30
0.0
  0
POINT
  5
7F91
  8
DEFPOINTS
  6
CONTINUOUS
 62
     0
 10
2690.738832
 20
1960.1274829999991
 30
0.0
  0
POINT
  5
7F92
  8
DEFPOINTS
  6
CONTINUOUS
 62
     0
 10
2690.738832
 20
2083.388833999999
 30
0.0
  0
ENDBLK
  5
7E59
  8
0
  0
BLOCK
  8
0
  2
*D7
 70
     1
 10
0.0
 20
0.0
 30
0.0
  3
*D7
  1

  0
LINE
  5
7F93
  8
3
  6
CONTINUOUS
 62
     0
 10
2139.738832
 20
1342.627483
 30
0.0
 11
2139.738832
 21
1189.1988859999999
 31
0.0
  0
LINE
  5
7F94
  8
3
  6
CONTINUOUS
 62
     0
 10
2675.738832
 20
1342.627483
 30
0.0
 11
2675.738832
 21
1189.1988859999999
 31
0.0
  0
LINE
  5
7F95
  8
3
  6
CONTINUOUS
 62
     0
 10
2169.738832
 20
1204.1988859999999
 30
0.0
 11
2645.738832
 21
1204.1988859999999
 31
0.0
  0
INSERT
  5
7F96
  8
3
  6
CONTINUOUS
 62
     0
  2
_OPEN
 10
2139.738832
 20
1204.1988859999999
 30
0.0
 41
30.0
 42
30.0
 43
30.0
 50
180.0
  0
INSERT
  5
7F97
  8
3
  6
CONTINUOUS
 62
     0
  2
_OPEN
 10
2675.738832
 20
1204.1988859999999
 30
0.0
 41
30.0
 42
30.0
 43
30.0
  0
TEXT
  8
3
  40
45
  5
7FD1
  62
0
  72
0
  71
0
 10
2334.75
 20
1162.05
 30
0.000000
  1
536
  0
POINT
  5
7F99
  8
DEFPOINTS
  6
CONTINUOUS
 62
     0
 10
2139.738832
 20
1350.127483
 30
0.0
  0
POINT
  5
7F9A
  8
DEFPOINTS
  6
CONTINUOUS
 62
     0
 10
2675.738832
 20
1350.127483
 30
0.0
  0
POINT
  5
7F9B
  8
DEFPOINTS
  6
CONTINUOUS
 62
     0
 10
2675.738832
 20
1204.1988859999999
 30
0.0
  0
ENDBLK
  5
7E64
  8
0
  0
BLOCK
  8
0
  2
*D8
 70
     1
 10
0.0
 20
0.0
 30
0.0
  3
*D8
  1

  0
LINE
  5
7F9C
  8
3
  6
CONTINUOUS
 62
     0
 10
709.91806599999995
 20
1665.127483
 30
0.0
 11
637.92899300000022
 21
1665.127483
 31
0.0
  0
LINE
  5
7F9D
  8
3
  6
CONTINUOUS
 62
     0
 10
706.80891099999997
 20
1350.127483
 30
0.0
 11
637.92899300000022
 21
1350.127483
 31
0.0
  0
LINE
  5
7F9E
  8
3
  6
CONTINUOUS
 62
     0
 10
652.92899300000022
 20
1635.127483
 30
0.0
 11
652.92899300000022
 21
1380.127483
 31
0.0
  0
INSERT
  5
7F9F
  8
3
  6
CONTINUOUS
 62
     0
  2
_OPEN
 10
652.92899300000022
 20
1665.127483
 30
0.0
 41
30.0
 42
30.0
 43
30.0
 50
90.0
  0
INSERT
  5
7FA0
  8
3
  6
CONTINUOUS
 62
     0
  2
_OPEN
 10
652.92899300000022
 20
1350.127483
 30
0.0
 41
30.0
 42
30.0
 43
30.0
 50
270.0
  0
TEXT
  8
3
  40
45
  5
7FD2
  62
0
  72
0
  71
0
 10
525.429
 20
1486.91
 30
0.000000
  1
315
  0
POINT
  5
7FA2
  8
DEFPOINTS
  6
CONTINUOUS
 62
     0
 10
717.41806600000007
 20
1665.127483
 30
0.0
  0
POINT
  5
7FA3
  8
DEFPOINTS
  6
CONTINUOUS
 62
     0
 10
714.30891099999997
 20
1350.127483
 30
0.0
  0
POINT
  5
7FA4
  8
DEFPOINTS
  6
CONTINUOUS
 62
     0
 10
652.92899300000022
 20
1350.127483
 30
0.0
  0
ENDBLK
  5
7E6F
  8
0
  0
BLOCK
  8
0
  2
*D9
 70
     1
 10
0.0
 20
0.0
 30
0.0
  3
*D9
  1

  0
LINE
  5
7FA5
  8
3
  6
CONTINUOUS
 62
     0
 10
706.80891099999997
 20
1350.127483
 30
0.0
 11
545.3281860000003
 21
1350.127483
 31
0.0
  0
LINE
  5
7FA6
  8
3
  6
CONTINUOUS
 62
     0
 10
796.80891100000008
 20
1960.1274829999991
 30
0.0
 11
545.32818600000041
 21
1960.1274829999991
 31
0.0
  0
LINE
  5
7FA7
  8
3
  6
CONTINUOUS
 62
     0
 10
560.32818600000019
 20
1380.127483
 30
0.0
 11
560.32818600000041
 21
1930.1274829999991
 31
0.0
  0
INSERT
  5
7FA8
  8
3
  6
CONTINUOUS
 62
     0
  2
_OPEN
 10
560.32818600000019
 20
1350.127483
 30
0.0
 41
30.0
 42
30.0
 43
30.0
 50
270.0
  0
INSERT
  5
7FA9
  8
3
  6
CONTINUOUS
 62
     0
  2
_OPEN
 10
560.32818600000041
 20
1960.1274829999991
 30
0.0
 41
30.0
 42
30.0
 43
30.0
 50
90.0
  0
TEXT
  8
3
  40
45
  5
7FD3
  62
0
  72
0
  71
0
 10
432.828
 20
1564.44
 30
0.000000
  1
610
  0
POINT
  5
7FAB
  8
DEFPOINTS
  6
CONTINUOUS
 62
     0
 10
714.30891099999997
 20
1350.127483
 30
0.0
  0
POINT
  5
7FAC
  8
DEFPOINTS
  6
CONTINUOUS
 62
     0
 10
804.30891099999997
 20
1960.1274829999991
 30
0.0
  0
POINT
  5
7FAD
  8
DEFPOINTS
  6
CONTINUOUS
 62
     0
 10
560.32818600000041
 20
1960.1274829999991
 30
0.0
  0
ENDBLK
  5
7E7A
  8
0
  0
BLOCK
  8
0
  2
*D10
 70
     1
 10
0.0
 20
0.0
 30
0.0
  3
*D10
  1

  0
LINE
  5
7FAE
  8
3
  6
CONTINUOUS
 62
     0
 10
2317.738832
 20
1782.6274829999991
 30
0.0
 11
2317.738832
 21
1883.3742010000001
 31
0.0
  0
LINE
  5
7FAF
  8
3
  6
CONTINUOUS
 62
     0
 10
2497.738832
 20
1782.6274829999991
 30
0.0
 11
2497.738832
 21
1883.3742010000001
 31
0.0
  0
LINE
  5
7FB0
  8
3
  6
CONTINUOUS
 62
     0
 10
2287.738832
 20
1868.3742009999989
 30
0.0
 11
2257.738832
 21
1868.3742009999989
 31
0.0
  0
LINE
  5
7FB1
  8
3
  6
CONTINUOUS
 62
     0
 10
2527.738832
 20
1868.3742009999989
 30
0.0
 11
2557.738832
 21
1868.3742009999989
 31
0.0
  0
LINE
  5
7FB2
  8
3
  6
CONTINUOUS
 62
     0
 10
2317.738832
 20
1868.3742009999989
 30
0.0
 11
2497.738832
 21
1868.3742009999989
 31
0.0
  0
INSERT
  5
7FB3
  8
3
  6
CONTINUOUS
 62
     0
  2
_OPEN
 10
2317.738832
 20
1868.3742009999989
 30
0.0
 41
30.0
 42
30.0
 43
30.0
  0
INSERT
  5
7FB4
  8
3
  6
CONTINUOUS
 62
     0
  2
_OPEN
 10
2497.738832
 20
1868.3742009999989
 30
0.0
 41
30.0
 42
30.0
 43
30.0
 50
180.0
  0
TEXT
  8
3
  40
45
  5
7FD4
  62
0
  72
0
  71
0
 10
2317.74
 20
1826.22
 30
0.000000
  1
180
  0
POINT
  5
7FB6
  8
DEFPOINTS
  6
CONTINUOUS
 62
     0
 10
2317.738832
 20
1775.1274829999991
 30
0.0
  0
POINT
  5
7FB7
  8
DEFPOINTS
  6
CONTINUOUS
 62
     0
 10
2497.738832
 20
1775.1274829999991
 30
0.0
  0
POINT
  5
7FB8
  8
DEFPOINTS
  6
CONTINUOUS
 62
     0
 10
2497.738832
 20
1868.3742009999989
 30
0.0
  0
ENDBLK
  5
7E87
  8
0
  0
BLOCK
  8
0
  2
*D11
 70
     1
 10
0.0
 20
0.0
 30
0.0
  3
*D11
  1

  0
LINE
  5
7FB9
  8
3
  6
CONTINUOUS
 62
     0
 10
2310.238832
 20
1775.1274829999991
 30
0.0
 11
2196.0303319999998
 21
1775.1274829999991
 31
0.0
  0
LINE
  5
7FBA
  8
3
  6
CONTINUOUS
 62
     0
 10
2310.238832
 20
1535.127483
 30
0.0
 11
2196.0303319999998
 21
1535.127483
 31
0.0
  0
LINE
  5
7FBB
  8
3
  6
CONTINUOUS
 62
     0
 10
2211.0303319999998
 20
1745.127483
 30
0.0
 11
2211.0303319999998
 21
1565.127483
 31
0.0
  0
INSERT
  5
7FBC
  8
3
  6
CONTINUOUS
 62
     0
  2
_OPEN
 10
2211.0303319999998
 20
1775.1274829999991
 30
0.0
 41
30.0
 42
30.0
 43
30.0
 50
90.0
  0
INSERT
  5
7FBD
  8
3
  6
CONTINUOUS
 62
     0
  2
_OPEN
 10
2211.0303319999998
 20
1535.127483
 30
0.0
 41
30.0
 42
30.0
 43
30.0
 50
270.0
  0
TEXT
  8
3
  40
45
  5
7FD5
  62
0
  72
0
  71
0
 10
2083.53
 20
1576.15
 30
0.000000
  1
240
  0
POINT
  5
7FBF
  8
DEFPOINTS
  6
CONTINUOUS
 62
     0
 10
2317.738832
 20
1775.1274829999991
 30
0.0
  0
POINT
  5
7FC0
  8
DEFPOINTS
  6
CONTINUOUS
 62
     0
 10
2317.738832
 20
1535.127483
 30
0.0
  0
POINT
  5
7FC1
  8
DEFPOINTS
  6
CONTINUOUS
 62
     0
 10
2211.0303319999998
 20
1535.127483
 30
0.0
  0
ENDBLK
  5
7E92
  8
0
  0
BLOCK
  8
0
  2
*D12
 70
     1
 10
0.0
 20
0.0
 30
0.0
  3
*D12
  1

  0
LINE
  5
7FC2
  8
3
 62
     0
 10
1621.8089109999989
 20
1350.127483
 30
0.0
 11
1717.7380184474109
 21
1350.127483
 31
0.0
  0
LINE
  5
7FC3
  8
3
 62
     0
 10
1621.7136089999999
 20
1665.127483
 30
0.0
 11
1717.7380184474109
 21
1665.127483
 31
0.0
  0
LINE
  5
7FC4
  8
3
 62
     0
 10
1702.7380184474109
 20
1380.127483
 30
0.0
 11
1702.7380184474109
 21
1635.127483
 31
0.0
  0
INSERT
  5
7FC5
  8
3
 62
     0
  2
_OPEN
 10
1702.7380184474109
 20
1350.127483
 30
0.0
 41
30.0
 42
30.0
 43
30.0
 50
270.0
  0
INSERT
  5
7FC6
  8
3
 62
     0
  2
_OPEN
 10
1702.7380184474109
 20
1665.127483
 30
0.0
 41
30.0
 42
30.0
 43
30.0
 50
90.0
  0
TEXT
  8
3
  40
45
  5
7FD6
  62
0
  72
0
  71
0
 10
1575.24
 20
1486.91
 30
0.000000
  1
315
  0
POINT
  5
7FC8
  8
DEFPOINTS
 62
     0
 10
1614.3089110000001
 20
1350.127483
 30
0.0
  0
POINT
  5
7FC9
  8
DEFPOINTS
 62
     0
 10
1614.2136089999999
 20
1665.127483
 30
0.0
  0
POINT
  5
7FCA
  8
DEFPOINTS
 62
     0
 10
1702.7380184474109
 20
1665.127483
 30
0.0
  0
ENDBLK
  5
7E9D
  8
0
  0
ENDSEC
  0
SECTION
  2
ENTITIES
  0
LINE
  5
7A4B
  8
1
  6
CONTINUOUS
 10
1524.3089110000001
 20
1960.1274829999991
 30
0.0
 11
804.30891099999997
 21
1960.1274829999991
 31
0.0
  0
LINE
  5
7A4C
  8
1
  6
CONTINUOUS
 10
714.30891099999997
 20
1425.1274829999991
 30
0.0
 11
1614.3089110000001
 21
1425.1274829999991
 31
0.0
  0
LINE
  5
7A4D
  8
1
  6
CONTINUOUS
 10
714.30891099999997
 20
1350.127483
 30
0.0
 11
1614.3089110000001
 21
1350.127483
 31
0.0
  0
LINE
  5
7A4E
  8
1
  6
CONTINUOUS
 10
804.30891099999997
 20
1960.1274829999991
 30
0.0
 11
804.30891099999997
 21
1430.127483
 31
0.0
  0
LINE
  5
7A4F
  8
1
  6
CONTINUOUS
 10
804.30891099999997
 20
1960.1274829999991
 30
0.0
 11
804.30891100000019
 21
1425.1274829999991
 31
0.0
  0
ARC
  5
7A50
  8
1
  6
CONTINUOUS
 10
1043.3089110000001
 20
1742.1274829999991
 30
0.0
 40
103.3907699999999
 50
95.710592999999989
 51
187.1250159999999
  0
LINE
  5
7A51
  8
1
  6
CONTINUOUS
 10
804.30891099999997
 20
1573.127483
 30
0.0
 11
1034.3089110000001
 21
1573.127483
 31
0.0
  0
LINE
  5
7A52
  8
1
  6
CONTINUOUS
 10
779.30891100000008
 20
1810.1274829999991
 30
0.0
 11
779.30891100000008
 21
1520.127483
 31
0.0
  0
LINE
  5
7A53
  8
1
  6
CONTINUOUS
 10
904.30891099999997
 20
1733.1274829999991
 30
0.0
 11
904.30891099999997
 21
1573.127483
 31
0.0
  0
LINE
  5
7A55
  8
1
  6
CONTINUOUS
 10
779.30891100000008
 20
1520.127483
 30
0.0
 11
804.30891099999997
 21
1520.127483
 31
0.0
  0
LINE
  5
7A57
  8
1
  6
CONTINUOUS
 10
714.30891099999997
 20
1425.1274829999991
 30
0.0
 11
714.30891099999997
 21
1350.127483
 31
0.0
  0
LINE
  5
7A58
  8
1
  6
CONTINUOUS
 10
940.3106039999999
 20
1733.1274829999991
 30
0.0
 11
804.30891099999997
 21
1733.1274829999991
 31
0.0
  0
LINE
  5
7A59
  8
1
  6
CONTINUOUS
 10
779.30891100000008
 20
1810.1274829999991
 30
0.0
 11
804.30891099999997
 21
1810.1274829999991
 31
0.0
  0
ARC
  5
7A5A
  8
1
  6
CONTINUOUS
 10
1021.3089109999989
 20
1720.1274829999991
 30
0.0
 40
147.57371000000001
 50
275.0538259999999
 51
4.763641999999999
  0
ARC
  5
7A5B
  8
1
  6
CONTINUOUS
 10
1045.3089110000001
 20
1722.1274829999991
 30
0.0
 40
123.4905209999999
 50
4.763641999999999
 51
95.710592999999989
  0
LINE
  5
7A5C
  8
1
  6
CONTINUOUS
 10
1524.3089109999989
 20
1425.1274829999991
 30
0.0
 11
1524.3089110000001
 21
1960.1274829999991
 31
0.0
  0
LINE
  5
7A5D
  8
1
  6
CONTINUOUS
 10
1549.3089109999989
 20
1800.1274829999991
 30
0.0
 11
1549.3089109999989
 21
1510.127483
 31
0.0
  0
LINE
  5
7A5E
  8
1
  6
CONTINUOUS
 10
1549.3089109999989
 20
1510.1274829999991
 30
0.0
 11
1524.3089110000001
 21
1510.1274829999991
 31
0.0
  0
LINE
  5
7A60
  8
1
  6
CONTINUOUS
 10
1614.3089110000001
 20
1350.127483
 30
0.0
 11
1614.3089110000001
 21
1425.1274829999991
 31
0.0
  0
LINE
  5
7A61
  8
1
  6
CONTINUOUS
 10
1549.3089109999989
 20
1800.1274829999991
 30
0.0
 11
1524.3089110000001
 21
1800.1274829999991
 31
0.0
  0
LINE
  5
7A62
  8
1
  6
CONTINUOUS
 10
1523.920703999999
 20
3087.5249869999998
 30
0.0
 11
803.920704
 21
3087.5249869999998
 31
0.0
  0
LINE
  5
7A63
  8
1
  6
CONTINUOUS
 10
803.920704
 20
2521.5249869999998
 30
0.0
 11
1523.9207039999999
 21
2521.5249869999998
 31
0.0
  0
LINE
  5
7A64
  8
1
  6
CONTINUOUS
 10
778.92070399999989
 20
2919.5249869999998
 30
0.0
 11
778.92070399999989
 21
2689.5249869999989
 31
0.0
  0
LINE
  5
7A65
  8
1
  6
CONTINUOUS
 10
803.920704
 20
3087.5249869999998
 30
0.0
 11
803.920704
 21
2521.5249869999998
 31
0.0
  0
LINE
  5
7A66
  8
1
  6
CONTINUOUS
 10
713.920704
 20
2576.5249869999998
 30
0.0
 11
803.92070399999989
 21
2576.5249869999998
 31
0.0
  0
LINE
  5
7A67
  8
1
  6
CONTINUOUS
 10
713.920704
 20
2536.5249869999998
 30
0.0
 11
803.92070399999989
 21
2536.5249869999998
 31
0.0
  0
LINE
  5
7A68
  8
1
  6
CONTINUOUS
 10
713.920704
 20
2576.5249869999998
 30
0.0
 11
713.920704
 21
2536.5249869999998
 31
0.0
  0
LINE
  5
7A69
  8
1
  6
CONTINUOUS
 10
778.92070399999989
 20
2689.5249869999998
 30
0.0
 11
803.920704
 21
2689.5249869999998
 31
0.0
  0
LINE
  5
7A6A
  8
1
  6
CONTINUOUS
 10
713.92070400000011
 20
3032.5249869999998
 30
0.0
 11
803.920704
 21
3032.5249869999998
 31
0.0
  0
LINE
  5
7A6B
  8
1
  6
CONTINUOUS
 10
713.92070400000011
 20
3072.5249869999998
 30
0.0
 11
803.920704
 21
3072.5249869999998
 31
0.0
  0
LINE
  5
7A6C
  8
1
  6
CONTINUOUS
 10
713.92070400000011
 20
3072.5249869999998
 30
0.0
 11
713.92070400000011
 21
3032.5249869999998
 31
0.0
  0
LINE
  5
7A6D
  8
1
  6
CONTINUOUS
 10
778.92070399999989
 20
2919.5249869999998
 30
0.0
 11
803.920704
 21
2919.5249869999998
 31
0.0
  0
LINE
  5
7A6E
  8
1
  6
CONTINUOUS
 10
1548.9207039999999
 20
2919.5249869999989
 30
0.0
 11
1548.920703999999
 21
2689.5249869999998
 31
0.0
  0
LINE
  5
7A6F
  8
1
  6
CONTINUOUS
 10
1523.920703999999
 20
2521.5249869999998
 30
0.0
 11
1523.9207039999999
 21
3087.5249869999998
 31
0.0
  0
LINE
  5
7A70
  8
1
  6
CONTINUOUS
 10
1613.920703999999
 20
2536.5249869999998
 30
0.0
 11
1523.920703999999
 21
2536.5249869999998
 31
0.0
  0
LINE
  5
7A71
  8
1
  6
CONTINUOUS
 10
1613.920703999999
 20
2576.5249869999998
 30
0.0
 11
1523.920703999999
 21
2576.5249869999998
 31
0.0
  0
LINE
  5
7A72
  8
1
  6
CONTINUOUS
 10
1548.920703999999
 20
2689.5249869999998
 30
0.0
 11
1523.9207039999999
 21
2689.5249869999998
 31
0.0
  0
LINE
  5
7A73
  8
1
  6
CONTINUOUS
 10
1613.920703999999
 20
2576.5249869999998
 30
0.0
 11
1613.920703999999
 21
2536.5249869999998
 31
0.0
  0
LINE
  5
7A74
  8
1
  6
CONTINUOUS
 10
1613.920703999999
 20
3072.5249869999998
 30
0.0
 11
1523.9207039999999
 21
3072.5249869999998
 31
0.0
  0
LINE
  5
7A75
  8
1
  6
CONTINUOUS
 10
1613.920703999999
 20
3032.5249869999998
 30
0.0
 11
1523.9207039999999
 21
3032.5249869999998
 31
0.0
  0
LINE
  5
7A76
  8
1
  6
CONTINUOUS
 10
1548.920703999999
 20
2919.5249869999998
 30
0.0
 11
1523.9207039999999
 21
2919.5249869999998
 31
0.0
  0
LINE
  5
7A77
  8
1
  6
CONTINUOUS
 10
1613.920703999999
 20
3072.5249869999998
 30
0.0
 11
1613.920703999999
 21
3032.5249869999998
 31
0.0
  0
LINE
  5
7A78
  8
1
  6
CONTINUOUS
 10
2675.738832
 20
1960.1274829999991
 30
0.0
 11
2139.738832
 21
1960.1274829999991
 31
0.0
  0
LINE
  5
7A79
  8
1
  6
CONTINUOUS
 10
2162.738832
 20
1425.1274829999991
 30
0.0
 11
2652.738832
 21
1425.1274829999991
 31
0.0
  0
LINE
  5
7A7A
  8
1
  6
CONTINUOUS
 10
2675.738832
 20
1425.1274829999991
 30
0.0
 11
2139.738832
 21
1425.127483
 31
0.0
  0
LINE
  5
7A7B
  8
1
  6
CONTINUOUS
 10
2162.738832
 20
1350.127483
 30
0.0
 11
2652.738832
 21
1350.127483
 31
0.0
  0
LINE
  5
7A7C
  8
1
  6
CONTINUOUS
 10
2139.738832
 20
1350.127483
 30
0.0
 11
2675.738832
 21
1350.127483
 31
0.0
  0
LINE
  5
7A7E
  8
1
  6
CONTINUOUS
 10
2139.7388319999991
 20
1425.127483
 30
0.0
 11
2139.738832
 21
1350.127483
 31
0.0
  0
LINE
  5
7A7F
  8
1
  6
CONTINUOUS
 10
2147.7388319999991
 20
1425.1274829999991
 30
0.0
 11
2162.738832
 21
1425.1274829999991
 31
0.0
  0
LINE
  5
7A81
  8
1
  6
CONTINUOUS
 10
2317.738832
 20
1775.1274829999991
 30
0.0
 11
2497.738832
 21
1535.127483
 31
0.0
  0
LINE
  5
7A82
  8
1
  6
CONTINUOUS
 10
2317.738832
 20
1535.127483
 30
0.0
 11
2497.738832
 21
1775.1274829999991
 31
0.0
  0
POLYLINE
  5
7A83
  8
1
  6
CONTINUOUS
 66
     1
 10
0.0
 20
0.0
 30
0.0
 70
     1
  0
VERTEX
  5
7F59
  8
1
  6
CONTINUOUS
 10
2292.738832
 20
1510.1274829999991
 30
0.0
  0
VERTEX
  5
7F5A
  8
1
  6
CONTINUOUS
 10
2522.7388319999991
 20
1510.1274829999991
 30
0.0
  0
VERTEX
  5
7F5B
  8
1
  6
CONTINUOUS
 10
2522.7388319999991
 20
1800.1274829999991
 30
0.0
  0
VERTEX
  5
7F5C
  8
1
  6
CONTINUOUS
 10
2292.738832
 20
1800.1274829999991
 30
0.0
  0
SEQEND
  5
7F5D
  8
1
  6
CONTINUOUS
  0
LINE
  5
7A8F
  8
1
  6
CONTINUOUS
 10
2652.738832
 20
1425.1274829999991
 30
0.0
 11
2667.738832
 21
1425.1274829999991
 31
0.0
  0
LINE
  5
7A90
  8
1
  6
CONTINUOUS
 10
2675.738832
 20
1350.127483
 30
0.0
 11
2675.7388319999991
 21
1425.1274829999991
 31
0.0
  0
DIMENSION
  5
7AB1
  8
3
  6
CONTINUOUS
  2
*D1
 10
1614.3089110000001
 20
1200.025838
 30
0.0
 11
1149.9629970000001
 21
1200.025838
 31
0.0
 70
   128
 13
714.30891099999997
 23
1350.127483
 33
0.0
 14
1614.3089110000001
 24
1350.127483
 34
0.0
1001
ACAD
1000
DSTYLE
1002
{
1070
   287
1070
     3
1070
   287
1070
     3
1070
   287
1070
     3
1070
    40
1040
15.0
1070
   143
1040
0.039
1070
   172
1070
     1
1070
   271
1070
     0
1070
   279
1070
     0
1070
   288
1070
     1
1002
}
  0
DIMENSION
  5
7ABE
  8
3
  6
CONTINUOUS
  2
*D2
 10
1524.3089110000001
 20
2089.6996020000001
 30
0.0
 11
1171.1628149999999
 21
2089.6996020000001
 31
0.0
 70
   128
 13
804.30891099999997
 23
1960.1274829999991
 33
0.0
 14
1524.3089110000001
 24
1960.1274829999991
 34
0.0
1001
ACAD
1000
DSTYLE
1002
{
1070
   287
1070
     3
1070
   287
1070
     3
1070
   287
1070
     3
1070
    40
1040
15.0
1070
   143
1040
0.039
1070
   172
1070
     1
1070
   271
1070
     0
1070
   279
1070
     0
1070
   288
1070
     1
1002
}
  0
DIMENSION
  5
7AD8
  8
3
  6
CONTINUOUS
  2
*D3
 10
1523.920703999999
 20
2386.0456749999989
 30
0.0
 11
1164.5928260000001
 21
2386.0456749999989
 31
0.0
 70
   128
 13
803.920704
 23
2521.5249869999998
 33
0.0
 14
1523.920703999999
 24
2521.5249869999998
 34
0.0
1001
ACAD
1000
DSTYLE
1002
{
1070
   287
1070
     3
1070
   287
1070
     3
1070
   287
1070
     3
1070
    40
1040
15.0
1070
   143
1040
0.039
1070
   172
1070
     1
1070
   271
1070
     0
1070
   279
1070
     0
1070
   288
1070
     1
1002
}
  0
DIMENSION
  5
7AE5
  8
3
  6
CONTINUOUS
  2
*D4
 10
1712.7480009999999
 20
2521.5249869999998
 30
0.0
 11
1712.7480009999999
 21
2799.1084970000002
 31
0.0
 70
   128
 13
1523.9207039999999
 23
3087.5249869999998
 33
0.0
 14
1523.920703999999
 24
2521.5249869999998
 34
0.0
 50
90.0
1001
ACAD
1000
DSTYLE
1002
{
1070
   287
1070
     3
1070
   287
1070
     3
1070
   287
1070
     3
1070
    40
1040
15.0
1070
   143
1040
0.039
1070
   172
1070
     1
1070
   271
1070
     0
1070
   279
1070
     0
1070
   288
1070
     1
1002
}
  0
LINE
  5
7AE7
  8
1
  6
CONTINUOUS
 10
2317.738832
 20
1535.127483
 30
0.0
 11
2497.738832
 21
1535.127483
 31
0.0
  0
LINE
  5
7AE8
  8
1
  6
CONTINUOUS
 10
2497.738832
 20
1535.127483
 30
0.0
 11
2497.738832
 21
1775.1274829999991
 31
0.0
  0
LINE
  5
7AE9
  8
1
  6
CONTINUOUS
 10
2497.738832
 20
1775.1274829999991
 30
0.0
 11
2317.738832
 21
1775.1274829999991
 31
0.0
  0
LINE
  5
7AEA
  8
1
  6
CONTINUOUS
 10
2317.738832
 20
1775.1274829999991
 30
0.0
 11
2317.738832
 21
1535.127483
 31
0.0
  0
DIMENSION
  5
7AF7
  8
3
  6
CONTINUOUS
  2
*D5
 10
2407.738832
 20
2083.388833999999
 30
0.0
 11
2304.8816891428569
 21
2083.388833999999
 31
0.0
 70
   128
 13
2124.7388319999991
 23
1960.1274829999991
 33
0.0
 14
2407.738832
 24
2016.303517735161
 34
0.0
1001
ACAD
1000
DSTYLE
1002
{
1070
   287
1070
     3
1070
   287
1070
     3
1070
   287
1070
     3
1070
    40
1040
15.0
1070
   143
1040
0.039
1070
   172
1070
     1
1070
   271
1070
     0
1070
   279
1070
     0
1070
   288
1070
     1
1002
}
  0
DIMENSION
  5
7B03
  8
3
  6
CONTINUOUS
  2
*D6
 10
2690.738832
 20
2083.388833999999
 30
0.0
 11
2549.238832
 21
2120.8888339999999
 31
0.0
 70
     0
 13
2407.738832
 23
2016.303517735161
 33
0.0
 14
2690.738832
 24
1960.1274829999991
 34
0.0
1001
ACAD
1000
DSTYLE
1002
{
1070
   287
1070
     4
1070
   287
1070
     4
1070
   287
1070
     4
1070
    40
1040
15.0
1070
    75
1070
     1
1070
   143
1040
0.039
1070
   172
1070
     1
1070
   271
1070
     0
1070
   279
1070
     1
1070
   288
1070
     1
1002
}
  0
DIMENSION
  5
7B10
  8
3
  6
CONTINUOUS
  2
*D7
 10
2675.738832
 20
1204.1988859999999
 30
0.0
 11
2424.7476790000001
 21
1204.1988859999999
 31
0.0
 70
   128
 13
2139.738832
 23
1350.127483
 33
0.0
 14
2675.738832
 24
1350.127483
 34
0.0
1001
ACAD
1000
DSTYLE
1002
{
1070
   287
1070
     3
1070
   287
1070
     3
1070
   287
1070
     3
1070
    40
1040
15.0
1070
   143
1040
0.039
1070
   172
1070
     1
1070
   271
1070
     0
1070
   279
1070
     0
1070
   288
1070
     1
1002
}
  0
LINE
  5
7B1F
  8
2
  6
CENTER
 10
717.41806600000007
 20
1665.127483
 30
0.0
 11
1614.2136089999999
 21
1665.127483
 31
0.0
  0
DIMENSION
  5
7B2D
  8
3
  6
CONTINUOUS
  2
*D8
 10
652.92899300000022
 20
1350.127483
 30
0.0
 11
652.92899299999999
 21
1566.5560544285711
 31
0.0
 70
   128
 13
717.41806600000007
 23
1665.127483
 33
0.0
 14
714.30891099999997
 24
1350.127483
 34
0.0
 50
90.0
1001
ACAD
1000
DSTYLE
1002
{
1070
   287
1070
     3
1070
   287
1070
     3
1070
   287
1070
     3
1070
    40
1040
15.0
1070
   143
1040
0.039
1070
   172
1070
     1
1070
   271
1070
     0
1070
   279
1070
     0
1070
   288
1070
     1
1002
}
  0
DIMENSION
  5
7B3A
  8
3
  6
CONTINUOUS
  2
*D9
 10
560.32818600000041
 20
1960.1274829999991
 30
0.0
 11
560.32818599999996
 21
1644.091682
 31
0.0
 70
   128
 13
714.30891099999997
 23
1350.127483
 33
0.0
 14
804.30891099999997
 24
1960.1274829999991
 34
0.0
 50
90.0
1001
ACAD
1000
DSTYLE
1002
{
1070
   287
1070
     3
1070
   287
1070
     3
1070
   287
1070
     3
1070
    40
1040
15.0
1070
   143
1040
0.039
1070
   172
1070
     1
1070
   271
1070
     0
1070
   279
1070
     0
1070
   288
1070
     1
1002
}
  0
DIMENSION
  5
7B4A
  8
3
  6
CONTINUOUS
  2
*D10
 10
2497.738832
 20
1868.3742009999989
 30
0.0
 11
2407.738832
 21
1868.3742009999989
 31
0.0
 70
   128
 13
2317.738832
 23
1775.1274829999991
 33
0.0
 14
2497.738832
 24
1775.1274829999991
 34
0.0
1001
ACAD
1000
DSTYLE
1002
{
1070
   287
1070
     3
1070
   287
1070
     3
1070
   287
1070
     3
1070
    40
1040
15.0
1070
   143
1040
0.039
1070
   172
1070
     1
1070
   271
1070
     0
1070
   279
1070
     0
1070
   288
1070
     1
1002
}
  0
DIMENSION
  5
7B57
  8
3
  6
CONTINUOUS
  2
*D11
 10
2211.0303319999998
 20
1535.127483
 30
0.0
 11
2211.0303319999989
 21
1655.801485
 31
0.0
 70
   128
 13
2317.738832
 23
1775.1274829999991
 33
0.0
 14
2317.738832
 24
1535.127483
 34
0.0
 50
90.0
1001
ACAD
1000
DSTYLE
1002
{
1070
   287
1070
     3
1070
   287
1070
     3
1070
   287
1070
     3
1070
    40
1040
15.0
1070
   143
1040
0.039
1070
   172
1070
     1
1070
   271
1070
     0
1070
   279
1070
     0
1070
   288
1070
     1
1002
}
  0
LINE
  5
7B58
  8
4
  6
CONTINUOUS
 10
2775.0
 20
750.0
 30
0.0
 11
2775.0
 21
450.0
 31
0.0
  0
LINE
  5
7B59
  8
4
  6
CONTINUOUS
 10
1725.0
 20
750.0
 30
0.0
 11
1725.0
 21
450.0
 31
0.0
  0
LINE
  5
7B5A
  8
4
  6
CONTINUOUS
 10
975.0
 20
750.0
 30
0.0
 11
975.0
 21
450.0
 31
0.0
  0
LINE
  5
7B5D
  8
4
  6
CONTINUOUS
 10
975.0
 20
450.0
 30
0.0
 11
2775.0
 21
450.0
 31
0.0
  0
LINE
  5
7B5E
  8
4
  6
CONTINUOUS
 10
975.0
 20
600.0
 30
0.0
 11
2775.0
 21
600.0
 31
0.0
  0
TEXT
  5
7B5F
  8
4
  6
CONTINUOUS
 10
1032.753121
 20
647.31453899999985
 30
0.0
 40
75.0
  1
機器名称
  0
TEXT
  5
7B60
  8
4
  6
CONTINUOUS
 10
1029.387158999999
 20
482.46773499999989
 30
0.0
 40
75.0
  1
機器型番
  0
TEXT
  5
7B61
  8
4
  6
CONTINUOUS
 10
1766.518118
 20
633.85765300000003
 30
0.0
 40
75.0
  1
ミツヤファンユニット
  0
TEXT
  5
7B62
  8
4
  6
CONTINUOUS
 10
1779.9817430000001
 20
475.73937599999999
 30
0.0
 40
75.0
  1
MFU#1001-1
  0
TEXT
  5
7B64
  8
4
  6
CONTINUOUS
 10
1071.1845940000001
 20
3575.1432619999991
 30
0.0
 40
75.0
  1
天井吊ベット・床置ベット
  0
TEXT
  5
7B65
  8
4
  6
CONTINUOUS
 10
474.25139000000001
 20
3800.8214640000001
 30
0.0
 40
95.0
  1
ベルト駆動式消音ボックス付き多翼ファン
  0
LINE
  5
7B66
  8
4
  6
CONTINUOUS
 10
375.0
 20
3704.1131310000001
 30
0.0
 11
2775.0
 21
3704.1131310000001
 31
0.0
  0
LINE
  5
7B67
  8
4
  6
CONTINUOUS
 10
375.0
 20
4004.1131310000001
 30
0.0
 11
2775.0
 21
4004.1131310000001
 31
0.0
  0
LINE
  5
7B68
  8
4
  6
CONTINUOUS
 10
975.0
 20
750.0
 30
0.0
 11
2775.0
 21
750.0
 31
0.0
  0
LINE
  5
7B69
  8
4
  6
CONTINUOUS
 10
375.0
 20
4004.1131310000001
 30
0.0
 11
375.0
 21
3704.1131310000001
 31
0.0
  0
TEXT
  5
7B6A
  8
4
  6
CONTINUOUS
 10
417.39634599999999
 20
3573.4792159999988
 30
0.0
 40
75.0
  1
右回転左吐出
  0
TEXT
  5
7B6B
  8
4
  6
CONTINUOUS
 10
2203.454338999999
 20
4059.091621999999
 30
0.0
 40
84.0
  1
No.
  0
TEXT
  5
7B6C
  8
4
  6
CONTINUOUS
 10
2218.2721860000001
 20
3575.1432619999991
 30
0.0
 40
75.0
  1
縮尺：1/15
  0
LINE
  5
7B6D
  8
4
  6
CONTINUOUS
 10
2775.0
 20
4004.1131310000001
 30
0.0
 11
2775.0
 21
3704.1131310000001
 31
0.0
  0
LINE
  5
7B6F
  8
4
  6
CONTINUOUS
 10
2160.9261339999989
 20
4021.8953750000001
 30
0.0
 11
2160.9261339999989
 21
4179.978392
 31
0.0
  0
LINE
  5
7B70
  8
4
  6
CONTINUOUS
 10
2160.9261339999989
 20
4179.978392
 30
0.0
 11
2775.0
 21
4179.978392
 31
0.0
  0
LINE
  5
7B71
  8
4
  6
CONTINUOUS
 10
2775.0
 20
4179.978392
 30
0.0
 11
2775.0
 21
4021.8953750000001
 31
0.0
  0
LINE
  5
7B72
  8
4
  6
CONTINUOUS
 10
2775.0
 20
4021.8953750000001
 30
0.0
 11
2160.9261339999989
 21
4021.8953750000001
 31
0.0
  0
LINE
  5
7B8A
  8
2
 10
2407.738832
 20
1336.0705080753189
 30
0.0
 11
2407.738832
 21
1860.6978129858969
 31
0.0
  0
LINE
  5
7C26
  8
2
 10
715.43425996321093
 20
2804.5249869999998
 30
0.0
 11
1624.2458442920031
 21
2804.5249869999998
 31
0.0
  0
LINE
  5
7C3E
  8
1
  6
CONTINUOUS
 10
2124.7388319999991
 20
1960.1274829999991
 30
0.0
 11
2124.7388319999991
 21
1425.1274829999991
 31
0.0
  0
LINE
  5
7C3F
  8
1
  6
CONTINUOUS
 10
2690.738832
 20
1425.1274829999991
 30
0.0
 11
2690.738832
 21
1960.1274829999991
 31
0.0
  0
LINE
  5
7C40
  8
1
 10
2139.738832
 20
1960.1274829999991
 30
0.0
 11
2124.7388319999991
 21
1960.1274829999991
 31
0.0
  0
LINE
  5
7C41
  8
1
 10
2139.738832
 20
1425.127483
 30
0.0
 11
2124.7388319999991
 21
1425.1274829999991
 31
0.0
  0
LINE
  5
7C42
  8
1
 10
2675.738832
 20
1425.1274829999991
 30
0.0
 11
2690.738832
 21
1425.1274829999991
 31
0.0
  0
LINE
  5
7C43
  8
1
 10
2675.738832
 20
1960.1274829999991
 30
0.0
 11
2690.738832
 21
1960.1274829999991
 31
0.0
  0
DIMENSION
  5
7CC3
  8
3
  2
*D12
 10
1702.7380184474109
 20
1665.127483
 30
0.0
 11
1702.7380184474109
 21
1566.5560544285711
 31
0.0
 70
   128
 13
1614.3089110000001
 23
1350.127483
 33
0.0
 14
1614.2136089999999
 24
1665.127483
 34
0.0
 50
90.0
1001
ACAD
1000
DSTYLE
1002
{
1070
   287
1070
     3
1070
   287
1070
     3
1070
   287
1070
     3
1070
    40
1040
15.0
1070
   143
1040
0.039
1070
   172
1070
     1
1070
   271
1070
     0
1070
   279
1070
     0
1070
   288
1070
     1
1002
}
  0
LINE
  5
7D81
  8
2
 10
2407.738832
 20
1938.0154887792669
 30
0.0
 11
2407.738832
 21
2016.303517735161
 31
0.0
  0
ENDSEC
  0
EOF
