  0
SECTION
  2
HEADER
  9
$ACADVER
  1
AC1009
  9
$INSBASE
 10
0.0
 20
0.0
 30
0.0
  9
$EXTMIN
 10
375.0
 20
450.0
 30
0.0
  9
$EXTMAX
 10
2775.0
 20
4179.978392
 30
0.0
  9
$LIMMIN
 10
0.0
 20
0.0
  9
$LIMMAX
 10
297.0
 20
210.0
  9
$ORTHOMODE
 70
     0
  9
$REGENMODE
 70
     1
  9
$FILLMODE
 70
     0
  9
$QTEXTMODE
 70
     0
  9
$MIRRTEXT
 70
     1
  9
$DRAGMODE
 70
     2
  9
$LTSCALE
 40
5.0
  9
$OSMODE
 70
    37
  9
$ATTMODE
 70
     1
  9
$TEXTSIZE
 40
180.0
  9
$TRACEWID
 40
0.05
  9
$TEXTSTYLE
  7
STANDARD
  9
$CLAYER
  8
2
  9
$CELTYPE
  6
BYLAYER
  9
$CECOLOR
 62
   256
  9
$DIMSCALE
 40
15.0
  9
$DIMASZ
 40
2.0
  9
$DIMEXO
 40
0.5
  9
$DIMDLI
 40
10.0
  9
$DIMRND
 40
0.0
  9
$DIMDLE
 40
0.0
  9
$DIMEXE
 40
1.0
  9
$DIMTP
 40
1.0
  9
$DIMTM
 40
1.0
  9
$DIMTXT
 40
3.0
  9
$DIMCEN
 40
0.0
  9
$DIMTSZ
 40
0.0
  9
$DIMTOL
 70
     0
  9
$DIMLIM
 70
     0
  9
$DIMTIH
 70
     0
  9
$DIMTOH
 70
     0
  9
$DIMSE1
 70
     0
  9
$DIMSE2
 70
     0
  9
$DIMTAD
 70
     1
  9
$DIMZIN
 70
     8
  9
$DIMBLK
  1

  9
$DIMASO
 70
     1
  9
$DIMSHO
 70
     1
  9
$DIMPOST
  1

  9
$DIMAPOST
  1

  9
$DIMALT
 70
     0
  9
$DIMALTD
 70
     2
  9
$DIMALTF
 40
0.039
  9
$DIMLFAC
 40
1.0
  9
$DIMTOFL
 70
     1
  9
$DIMTVP
 40
0.0
  9
$DIMTIX
 70
     0
  9
$DIMSOXD
 70
     0
  9
$DIMSAH
 70
     1
  9
$DIMBLK1
  1
OPEN
  9
$DIMBLK2
  1
OPEN
  9
$DIMSTYLE
  2
IGA
  9
$DIMCLRD
 70
     0
  9
$DIMCLRE
 70
     0
  9
$DIMCLRT
 70
     0
  9
$DIMTFAC
 40
10.0
  9
$DIMGAP
 40
1.0
  9
$LUNITS
 70
     2
  9
$LUPREC
 70
     3
  9
$SKETCHINC
 40
0.1
  9
$FILLETRAD
 40
50.0
  9
$AUNITS
 70
     0
  9
$AUPREC
 70
     0
  9
$MENU
  1
acad
  9
$ELEVATION
 40
0.0
  9
$PELEVATION
 40
0.0
  9
$THICKNESS
 40
0.0
  9
$LIMCHECK
 70
     0
  9
$BLIPMODE
 70
     0
  9
$CHAMFERA
 40
0.5
  9
$CHAMFERB
 40
0.5
  9
$SKPOLY
 70
     0
  9
$TDCREATE
 40
2450785.644117014
  9
$TDUPDATE
 40
2454953.8564559831
  9
$TDINDWG
 40
0.0111514815
  9
$TDUSRTIMER
 40
0.0111514815
  9
$USRTIMER
 70
     1
  9
$ANGBASE
 50
0.0
  9
$ANGDIR
 70
     0
  9
$PDMODE
 70
     0
  9
$PDSIZE
 40
0.0
  9
$PLINEWID
 40
0.0
  9
$COORDS
 70
     1
  9
$SPLFRAME
 70
     0
  9
$SPLINETYPE
 70
     6
  9
$SPLINESEGS
 70
     8
  9
$ATTDIA
 70
     0
  9
$ATTREQ
 70
     1
  9
$HANDLING
 70
 10241
  9
$HANDSEED
  5
809F
  9
$SURFTAB1
 70
     6
  9
$SURFTAB2
 70
     6
  9
$SURFTYPE
 70
     6
  9
$SURFU
 70
     6
  9
$SURFV
 70
     6
  9
$UCSNAME
  2

  9
$UCSORG
 10
0.0
 20
0.0
 30
0.0
  9
$UCSXDIR
 10
1.0
 20
0.0
 30
0.0
  9
$UCSYDIR
 10
0.0
 20
1.0
 30
0.0
  9
$PUCSNAME
  2

  9
$PUCSORG
 10
0.0
 20
0.0
 30
0.0
  9
$PUCSXDIR
 10
1.0
 20
0.0
 30
0.0
  9
$PUCSYDIR
 10
0.0
 20
1.0
 30
0.0
  9
$USERI1
 70
     0
  9
$USERI2
 70
     0
  9
$USERI3
 70
     0
  9
$USERI4
 70
     0
  9
$USERI5
 70
     0
  9
$USERR1
 40
0.0
  9
$USERR2
 40
0.0
  9
$USERR3
 40
0.0
  9
$USERR4
 40
0.0
  9
$USERR5
 40
0.0
  9
$WORLDVIEW
 70
     1
  9
$SHADEDGE
 70
     3
  9
$SHADEDIF
 70
    70
  9
$TILEMODE
 70
     1
  9
$MAXACTVP
 70
    16
  9
$PLIMCHECK
 70
     0
  9
$PEXTMIN
 10
1.0000000000000000E+020
 20
1.0000000000000000E+020
 30
1.0000000000000000E+020
  9
$PEXTMAX
 10
-1.0000000000000000E+020
 20
-1.0000000000000000E+020
 30
-1.0000000000000000E+020
  9
$PLIMMIN
 10
0.0
 20
0.0
  9
$PLIMMAX
 10
12.0
 20
9.0
  9
$UNITMODE
 70
     0
  9
$VISRETAIN
 70
     0
  9
$PLINEGEN
 70
     0
  9
$PSLTSCALE
 70
     1
  0
ENDSEC
  0
SECTION
  2
TABLES
  0
TABLE
  2
VPORT
 70
     2
  0
VPORT
  2
*ACTIVE
 70
     0
 10
0.0
 20
0.0
 11
1.0
 21
1.0
 12
1439.923143642515
 22
2786.3925751826
 13
0.0
 23
0.0
 14
10.0
 24
10.0
 15
10.0
 25
10.0
 16
0.0
 26
0.0
 36
1.0
 17
0.0
 27
0.0
 37
0.0
 40
5392.2317263668283
 41
1.5051150895140659
 42
50.0
 43
0.0
 44
0.0
 50
0.0
 51
0.0
 71
     0
 72
   100
 73
     1
 74
     0
 75
     0
 76
     0
 77
     0
 78
     0
  0
ENDTAB
  0
TABLE
  2
LTYPE
 70
     2
  0
LTYPE
  2
CONTINUOUS
 70
     0
  3
Solid line
 72
    65
 73
     0
 40
0.0
  0
LTYPE
  2
CENTER
 70
     0
  3
____ _ ____ _ ____ _ ____ _ ____ _ ____ _ ____ 
 72
    65
 73
     4
 40
2.0
 49
1.25
 49
-0.25
 49
0.25
 49
-0.25
  0
ENDTAB
  0
TABLE
  2
LAYER
 70
     6
  0
LAYER
  2
0
 70
     0
 62
     7
  6
CONTINUOUS
  0
LAYER
  2
3
 70
     0
 62
     2
  6
CONTINUOUS
  0
LAYER
  2
2
 70
     0
 62
     3
  6
CENTER
  0
LAYER
  2
1
 70
     0
 62
     4
  6
CONTINUOUS
  0
LAYER
  2
4
 70
     0
 62
     7
  6
CONTINUOUS
  0
LAYER
  2
DEFPOINTS
 70
     0
 62
     7
  6
CONTINUOUS
  0
ENDTAB
  0
TABLE
  2
STYLE
 70
     1
  0
STYLE
  2
STANDARD
 70
     0
 40
0.0
 41
1.0
 50
0.0
 71
     0
 42
180.0
  3
simplex.shx
  4
extfont.shx
  0
ENDTAB
  0
TABLE
  2
VIEW
 70
     0
  0
ENDTAB
  0
TABLE
  2
UCS
 70
     0
  0
ENDTAB
  0
TABLE
  2
APPID
 70
     1
  0
APPID
  2
ACAD
 70
     0
  0
ENDTAB
  0
TABLE
  2
DIMSTYLE
 70
     1
  0
DIMSTYLE
  2
IGA
 70
     0
  3

  4

  5

  6
OPEN
  7
OPEN
 40
2.0
 41
2.0
 42
0.5
 43
10.0
 44
1.0
 45
0.0
 46
0.0
 47
1.0
 48
1.0
140
3.0
141
0.0
142
0.0
143
0.03937
144
1.0
145
0.0
146
10.0
147
1.0
 71
     0
 72
     0
 73
     0
 74
     0
 75
     0
 76
     0
 77
     1
 78
     8
170
     0
171
     2
172
     0
173
     1
174
     0
175
     0
176
     0
177
     0
178
     0
  0
ENDTAB
  0
ENDSEC
  0
SECTION
  2
BLOCKS
  0
BLOCK
  8
0
  2
$MODEL_SPACE
 70
     0
 10
0.0
 20
0.0
 30
0.0
  3
$MODEL_SPACE
  1

  0
ENDBLK
  5
1B
  8
0
  0
BLOCK
 67
     1
  8
0
  2
$PAPER_SPACE
 70
     0
 10
0.0
 20
0.0
 30
0.0
  3
$PAPER_SPACE
  1

  0
ENDBLK
  5
18
 67
     1
  8
0
  0
BLOCK
  8
0
  2
_OPEN
 70
     0
 10
0.0
 20
0.0
 30
0.0
  3
_OPEN
  1

  0
LINE
  5
7A93
  8
0
  6
BYBLOCK
 62
     0
 10
-1.0
 20
0.166667
 30
0.0
 11
0.0
 21
0.0
 31
0.0
  0
LINE
  5
7A94
  8
0
  6
BYBLOCK
 62
     0
 10
0.0
 20
0.0
 30
0.0
 11
-1.0
 21
-0.166667
 31
0.0
  0
LINE
  5
7A95
  8
0
  6
BYBLOCK
 62
     0
 10
0.0
 20
0.0
 30
0.0
 11
-1.0
 21
0.0
 31
0.0
  0
ENDBLK
  5
7A96
  8
0
  0
BLOCK
  8
0
  2
*D1
 70
     1
 10
0.0
 20
0.0
 30
0.0
  3
*D1
  1

  0
LINE
  5
8026
  8
3
  6
CONTINUOUS
 62
     0
 10
1582.642231669111
 20
1420.0057634385321
 30
0.0
 11
1582.642231669111
 21
1262.404118438531
 31
0.0
  0
LINE
  5
8027
  8
3
  6
CONTINUOUS
 62
     0
 10
682.64223166911142
 20
1420.0057634385321
 30
0.0
 11
682.64223166911142
 21
1262.404118438531
 31
0.0
  0
LINE
  5
8028
  8
3
  6
CONTINUOUS
 62
     0
 10
1552.642231669111
 20
1277.4041184385319
 30
0.0
 11
712.64223166911142
 21
1277.4041184385319
 31
0.0
  0
INSERT
  5
8029
  8
3
  6
CONTINUOUS
 62
     0
  2
_OPEN
 10
1582.642231669111
 20
1277.4041184385319
 30
0.0
 41
30.0
 42
30.0
 43
30.0
  0
INSERT
  5
802A
  8
3
  6
CONTINUOUS
 62
     0
  2
_OPEN
 10
682.64223166911142
 20
1277.4041184385319
 30
0.0
 41
30.0
 42
30.0
 43
30.0
 50
180.0
  0
TEXT
  8
3
  40
45
  5
8093
  62
0
  72
0
  71
0
 10
1056.99
 20
1235.25
 30
0.000000
  1
900
  0
POINT
  5
802C
  8
DEFPOINTS
  6
CONTINUOUS
 62
     0
 10
1582.642231669111
 20
1427.5057634385321
 30
0.0
  0
POINT
  5
802D
  8
DEFPOINTS
  6
CONTINUOUS
 62
     0
 10
682.64223166911142
 20
1427.5057634385321
 30
0.0
  0
POINT
  5
802E
  8
DEFPOINTS
  6
CONTINUOUS
 62
     0
 10
682.64223166911142
 20
1277.4041184385319
 30
0.0
  0
ENDBLK
  5
7EEF
  8
0
  0
BLOCK
  8
0
  2
*D2
 70
     1
 10
0.0
 20
0.0
 30
0.0
  3
*D2
  1

  0
LINE
  5
802F
  8
3
  6
CONTINUOUS
 62
     0
 10
1492.642231669111
 20
2045.0057634385309
 30
0.0
 11
1492.642231669111
 21
2182.077882438532
 31
0.0
  0
LINE
  5
8030
  8
3
  6
CONTINUOUS
 62
     0
 10
772.64223166911142
 20
2045.0057634385309
 30
0.0
 11
772.64223166911142
 21
2182.077882438532
 31
0.0
  0
LINE
  5
8031
  8
3
  6
CONTINUOUS
 62
     0
 10
1462.642231669111
 20
2167.0778824385311
 30
0.0
 11
802.64223166911142
 21
2167.0778824385311
 31
0.0
  0
INSERT
  5
8032
  8
3
  6
CONTINUOUS
 62
     0
  2
_OPEN
 10
1492.642231669111
 20
2167.0778824385311
 30
0.0
 41
30.0
 42
30.0
 43
30.0
  0
INSERT
  5
8033
  8
3
  6
CONTINUOUS
 62
     0
  2
_OPEN
 10
772.64223166911142
 20
2167.0778824385311
 30
0.0
 41
30.0
 42
30.0
 43
30.0
 50
180.0
  0
TEXT
  8
3
  40
45
  5
8094
  62
0
  72
0
  71
0
 10
1035.79
 20
2124.93
 30
0.000000
  1
720
  0
POINT
  5
8035
  8
DEFPOINTS
  6
CONTINUOUS
 62
     0
 10
1492.642231669111
 20
2037.5057634385309
 30
0.0
  0
POINT
  5
8036
  8
DEFPOINTS
  6
CONTINUOUS
 62
     0
 10
772.64223166911142
 20
2037.50576343853
 30
0.0
  0
POINT
  5
8037
  8
DEFPOINTS
  6
CONTINUOUS
 62
     0
 10
772.64223166911142
 20
2167.0778824385311
 30
0.0
  0
ENDBLK
  5
7EFA
  8
0
  0
BLOCK
  8
0
  2
*D3
 70
     1
 10
0.0
 20
0.0
 30
0.0
  3
*D3
  1

  0
LINE
  5
8038
  8
3
  6
CONTINUOUS
 62
     0
 10
772.25402466911146
 20
2591.4032674385321
 30
0.0
 11
772.25402466911146
 21
2448.4239554385308
 31
0.0
  0
LINE
  5
8039
  8
3
  6
CONTINUOUS
 62
     0
 10
1492.254024669111
 20
2591.4032674385321
 30
0.0
 11
1492.254024669111
 21
2448.4239554385308
 31
0.0
  0
LINE
  5
803A
  8
3
  6
CONTINUOUS
 62
     0
 10
802.25402466911135
 20
2463.4239554385308
 30
0.0
 11
1462.254024669111
 21
2463.4239554385308
 31
0.0
  0
INSERT
  5
803B
  8
3
  6
CONTINUOUS
 62
     0
  2
_OPEN
 10
772.25402466911146
 20
2463.4239554385308
 30
0.0
 41
30.0
 42
30.0
 43
30.0
 50
180.0
  0
INSERT
  5
803C
  8
3
  6
CONTINUOUS
 62
     0
  2
_OPEN
 10
1492.254024669111
 20
2463.4239554385308
 30
0.0
 41
30.0
 42
30.0
 43
30.0
  0
TEXT
  8
3
  40
45
  5
8095
  62
0
  72
0
  71
0
 10
1042.93
 20
2421.27
 30
0.000000
  1
720
  0
POINT
  5
803E
  8
DEFPOINTS
  6
CONTINUOUS
 62
     0
 10
772.25402466911146
 20
2598.9032674385321
 30
0.0
  0
POINT
  5
803F
  8
DEFPOINTS
  6
CONTINUOUS
 62
     0
 10
1492.254024669111
 20
2598.9032674385321
 30
0.0
  0
POINT
  5
8040
  8
DEFPOINTS
  6
CONTINUOUS
 62
     0
 10
1492.254024669111
 20
2463.4239554385308
 30
0.0
  0
ENDBLK
  5
7F05
  8
0
  0
BLOCK
  8
0
  2
*D4
 70
     1
 10
0.0
 20
0.0
 30
0.0
  3
*D4
  1

  0
LINE
  5
8041
  8
3
  6
CONTINUOUS
 62
     0
 10
1499.754024669111
 20
3164.9032674385321
 30
0.0
 11
1696.081321669112
 21
3164.9032674385321
 31
0.0
  0
LINE
  5
8042
  8
3
  6
CONTINUOUS
 62
     0
 10
1499.754024669111
 20
2598.9032674385321
 30
0.0
 11
1696.081321669112
 21
2598.9032674385321
 31
0.0
  0
LINE
  5
8043
  8
3
  6
CONTINUOUS
 62
     0
 10
1681.081321669111
 20
3134.903267438533
 30
0.0
 11
1681.081321669111
 21
2628.9032674385321
 31
0.0
  0
INSERT
  5
8044
  8
3
  6
CONTINUOUS
 62
     0
  2
_OPEN
 10
1681.081321669111
 20
3164.9032674385321
 30
0.0
 41
30.0
 42
30.0
 43
30.0
 50
90.0
  0
INSERT
  5
8045
  8
3
  6
CONTINUOUS
 62
     0
  2
_OPEN
 10
1681.081321669111
 20
2598.9032674385321
 30
0.0
 41
30.0
 42
30.0
 43
30.0
 50
270.0
  0
TEXT
  8
3
  40
45
  5
8096
  62
0
  72
0
  71
0
 10
1553.58
 20
2796.84
 30
0.000000
  1
566
  0
POINT
  5
8047
  8
DEFPOINTS
  6
CONTINUOUS
 62
     0
 10
1492.254024669111
 20
3164.9032674385321
 30
0.0
  0
POINT
  5
8048
  8
DEFPOINTS
  6
CONTINUOUS
 62
     0
 10
1492.254024669111
 20
2598.9032674385321
 30
0.0
  0
POINT
  5
8049
  8
DEFPOINTS
  6
CONTINUOUS
 62
     0
 10
1681.081321669111
 20
2598.9032674385321
 30
0.0
  0
ENDBLK
  5
7F10
  8
0
  0
BLOCK
  8
0
  2
*D5
 70
     1
 10
0.0
 20
0.0
 30
0.0
  3
*D5
  1

  0
LINE
  5
804A
  8
3
  6
CONTINUOUS
 62
     0
 10
2093.0721526691109
 20
2045.0057634385309
 30
0.0
 11
2093.0721526691109
 21
2175.7671144385308
 31
0.0
  0
LINE
  5
804B
  8
3
  6
CONTINUOUS
 62
     0
 10
2376.0721526691109
 20
2101.1817981736931
 30
0.0
 11
2376.0721526691109
 21
2175.7671144385308
 31
0.0
  0
LINE
  5
804C
  8
3
  6
CONTINUOUS
 62
     0
 10
2123.0721526691109
 20
2160.7671144385308
 30
0.0
 11
2346.0721526691109
 21
2160.7671144385308
 31
0.0
  0
INSERT
  5
804D
  8
3
  6
CONTINUOUS
 62
     0
  2
_OPEN
 10
2093.0721526691109
 20
2160.7671144385308
 30
0.0
 41
30.0
 42
30.0
 43
30.0
 50
180.0
  0
INSERT
  5
804E
  8
3
  6
CONTINUOUS
 62
     0
  2
_OPEN
 10
2376.0721526691109
 20
2160.7671144385308
 30
0.0
 41
30.0
 42
30.0
 43
30.0
  0
TEXT
  8
3
  40
45
  5
8097
  62
0
  72
0
  71
0
 10
2183.22
 20
2118.62
 30
0.000000
  1
283
  0
POINT
  5
8050
  8
DEFPOINTS
  6
CONTINUOUS
 62
     0
 10
2093.0721526691109
 20
2037.5057634385309
 30
0.0
  0
POINT
  5
8051
  8
DEFPOINTS
  6
CONTINUOUS
 62
     0
 10
2376.0721526691109
 20
2093.6817981736931
 30
0.0
  0
POINT
  5
8052
  8
DEFPOINTS
  6
CONTINUOUS
 62
     0
 10
2376.0721526691109
 20
2160.7671144385308
 30
0.0
  0
ENDBLK
  5
7F1B
  8
0
  0
BLOCK
  8
0
  2
*D6
 70
     1
 10
0.0
 20
0.0
 30
0.0
  3
*D6
  1

  0
LINE
  5
8053
  8
3
  6
CONTINUOUS
 62
     0
 10
2659.0721526691109
 20
2045.0057634385309
 30
0.0
 11
2659.0721526691109
 21
2175.7671144385308
 31
0.0
  0
LINE
  5
8054
  8
3
  6
CONTINUOUS
 62
     0
 10
2406.0721526691109
 20
2160.7671144385308
 30
0.0
 11
2629.0721526691109
 21
2160.7671144385308
 31
0.0
  0
INSERT
  5
8055
  8
3
  6
CONTINUOUS
 62
     0
  2
_OPEN
 10
2376.0721526691109
 20
2160.7671144385308
 30
0.0
 41
30.0
 42
30.0
 43
30.0
 50
180.0
  0
INSERT
  5
8056
  8
3
  6
CONTINUOUS
 62
     0
  2
_OPEN
 10
2659.0721526691109
 20
2160.7671144385308
 30
0.0
 41
30.0
 42
30.0
 43
30.0
  0
TEXT
  8
3
  40
45
  5
8098
  62
0
  72
0
  71
0
 10
2427.57
 20
2118.62
 30
0.000000
  1
283
  0
POINT
  5
8058
  8
DEFPOINTS
  6
CONTINUOUS
 62
     0
 10
2376.0721526691109
 20
2093.6817981736931
 30
0.0
  0
POINT
  5
8059
  8
DEFPOINTS
  6
CONTINUOUS
 62
     0
 10
2659.0721526691109
 20
2037.5057634385309
 30
0.0
  0
POINT
  5
805A
  8
DEFPOINTS
  6
CONTINUOUS
 62
     0
 10
2659.0721526691109
 20
2160.7671144385308
 30
0.0
  0
ENDBLK
  5
7F25
  8
0
  0
BLOCK
  8
0
  2
*D7
 70
     1
 10
0.0
 20
0.0
 30
0.0
  3
*D7
  1

  0
LINE
  5
805B
  8
3
  6
CONTINUOUS
 62
     0
 10
2108.0721526691109
 20
1420.0057634385321
 30
0.0
 11
2108.0721526691109
 21
1266.5771664385311
 31
0.0
  0
LINE
  5
805C
  8
3
  6
CONTINUOUS
 62
     0
 10
2644.0721526691109
 20
1420.0057634385321
 30
0.0
 11
2644.0721526691109
 21
1266.5771664385311
 31
0.0
  0
LINE
  5
805D
  8
3
  6
CONTINUOUS
 62
     0
 10
2138.0721526691109
 20
1281.5771664385311
 30
0.0
 11
2614.0721526691109
 21
1281.5771664385311
 31
0.0
  0
INSERT
  5
805E
  8
3
  6
CONTINUOUS
 62
     0
  2
_OPEN
 10
2108.0721526691109
 20
1281.5771664385311
 30
0.0
 41
30.0
 42
30.0
 43
30.0
 50
180.0
  0
INSERT
  5
805F
  8
3
  6
CONTINUOUS
 62
     0
  2
_OPEN
 10
2644.0721526691109
 20
1281.5771664385311
 30
0.0
 41
30.0
 42
30.0
 43
30.0
  0
TEXT
  8
3
  40
45
  5
8099
  62
0
  72
0
  71
0
 10
2303.08
 20
1239.43
 30
0.000000
  1
536
  0
POINT
  5
8061
  8
DEFPOINTS
  6
CONTINUOUS
 62
     0
 10
2108.0721526691109
 20
1427.5057634385321
 30
0.0
  0
POINT
  5
8062
  8
DEFPOINTS
  6
CONTINUOUS
 62
     0
 10
2644.0721526691109
 20
1427.5057634385321
 30
0.0
  0
POINT
  5
8063
  8
DEFPOINTS
  6
CONTINUOUS
 62
     0
 10
2644.0721526691109
 20
1281.5771664385311
 30
0.0
  0
ENDBLK
  5
7F30
  8
0
  0
BLOCK
  8
0
  2
*D8
 70
     1
 10
0.0
 20
0.0
 30
0.0
  3
*D8
  1

  0
LINE
  5
8064
  8
3
  6
CONTINUOUS
 62
     0
 10
1587.0330766691111
 20
1742.5057634385321
 30
0.0
 11
1659.022149669112
 21
1742.5057634385321
 31
0.0
  0
LINE
  5
8065
  8
3
  6
CONTINUOUS
 62
     0
 10
1590.142231669111
 20
1427.5057634385321
 30
0.0
 11
1659.022149669112
 21
1427.5057634385321
 31
0.0
  0
LINE
  5
8066
  8
3
  6
CONTINUOUS
 62
     0
 10
1644.022149669112
 20
1712.5057634385321
 30
0.0
 11
1644.022149669112
 21
1457.5057634385321
 31
0.0
  0
INSERT
  5
8067
  8
3
  6
CONTINUOUS
 62
     0
  2
_OPEN
 10
1644.022149669112
 20
1742.5057634385321
 30
0.0
 41
30.0
 42
30.0
 43
30.0
 50
90.0
  0
INSERT
  5
8068
  8
3
  6
CONTINUOUS
 62
     0
  2
_OPEN
 10
1644.022149669112
 20
1427.5057634385321
 30
0.0
 41
30.0
 42
30.0
 43
30.0
 50
270.0
  0
TEXT
  8
3
  40
45
  5
809A
  62
0
  72
0
  71
0
 10
1516.52
 20
1564.28
 30
0.000000
  1
315
  0
POINT
  5
806A
  8
DEFPOINTS
  6
CONTINUOUS
 62
     0
 10
1579.5330766691111
 20
1742.5057634385321
 30
0.0
  0
POINT
  5
806B
  8
DEFPOINTS
  6
CONTINUOUS
 62
     0
 10
1582.642231669111
 20
1427.5057634385321
 30
0.0
  0
POINT
  5
806C
  8
DEFPOINTS
  6
CONTINUOUS
 62
     0
 10
1644.022149669112
 20
1427.5057634385321
 30
0.0
  0
ENDBLK
  5
7F3B
  8
0
  0
BLOCK
  8
0
  2
*D9
 70
     1
 10
0.0
 20
0.0
 30
0.0
  3
*D9
  1

  0
LINE
  5
806D
  8
3
  6
CONTINUOUS
 62
     0
 10
1590.142231669111
 20
1427.5057634385321
 30
0.0
 11
1751.622956669112
 21
1427.5057634385321
 31
0.0
  0
LINE
  5
806E
  8
3
  6
CONTINUOUS
 62
     0
 10
1500.142231669111
 20
2037.5057634385309
 30
0.0
 11
1751.622956669112
 21
2037.5057634385309
 31
0.0
  0
LINE
  5
806F
  8
3
  6
CONTINUOUS
 62
     0
 10
1736.622956669112
 20
1457.5057634385321
 30
0.0
 11
1736.622956669112
 21
2007.5057634385309
 31
0.0
  0
INSERT
  5
8070
  8
3
  6
CONTINUOUS
 62
     0
  2
_OPEN
 10
1736.622956669112
 20
1427.5057634385321
 30
0.0
 41
30.0
 42
30.0
 43
30.0
 50
270.0
  0
INSERT
  5
8071
  8
3
  6
CONTINUOUS
 62
     0
  2
_OPEN
 10
1736.622956669112
 20
2037.5057634385309
 30
0.0
 41
30.0
 42
30.0
 43
30.0
 50
90.0
  0
TEXT
  8
3
  40
45
  5
809B
  62
0
  72
0
  71
0
 10
1609.12
 20
1641.82
 30
0.000000
  1
610
  0
POINT
  5
8073
  8
DEFPOINTS
  6
CONTINUOUS
 62
     0
 10
1582.642231669111
 20
1427.5057634385321
 30
0.0
  0
POINT
  5
8074
  8
DEFPOINTS
  6
CONTINUOUS
 62
     0
 10
1492.642231669111
 20
2037.5057634385309
 30
0.0
  0
POINT
  5
8075
  8
DEFPOINTS
  6
CONTINUOUS
 62
     0
 10
1736.622956669112
 20
2037.5057634385309
 30
0.0
  0
ENDBLK
  5
7F46
  8
0
  0
BLOCK
  8
0
  2
*D10
 70
     1
 10
0.0
 20
0.0
 30
0.0
  3
*D10
  1

  0
LINE
  5
8076
  8
3
  6
CONTINUOUS
 62
     0
 10
2286.0721526691109
 20
1860.0057634385309
 30
0.0
 11
2286.0721526691109
 21
1960.752481438532
 31
0.0
  0
LINE
  5
8077
  8
3
  6
CONTINUOUS
 62
     0
 10
2466.0721526691109
 20
1860.0057634385309
 30
0.0
 11
2466.0721526691109
 21
1960.752481438532
 31
0.0
  0
LINE
  5
8078
  8
3
  6
CONTINUOUS
 62
     0
 10
2256.0721526691109
 20
1945.752481438532
 30
0.0
 11
2226.0721526691109
 21
1945.752481438532
 31
0.0
  0
LINE
  5
8079
  8
3
  6
CONTINUOUS
 62
     0
 10
2496.0721526691109
 20
1945.752481438532
 30
0.0
 11
2526.0721526691109
 21
1945.752481438532
 31
0.0
  0
LINE
  5
807A
  8
3
  6
CONTINUOUS
 62
     0
 10
2286.0721526691109
 20
1945.752481438532
 30
0.0
 11
2466.0721526691109
 21
1945.752481438532
 31
0.0
  0
INSERT
  5
807B
  8
3
  6
CONTINUOUS
 62
     0
  2
_OPEN
 10
2286.0721526691109
 20
1945.752481438532
 30
0.0
 41
30.0
 42
30.0
 43
30.0
  0
INSERT
  5
807C
  8
3
  6
CONTINUOUS
 62
     0
  2
_OPEN
 10
2466.0721526691109
 20
1945.752481438532
 30
0.0
 41
30.0
 42
30.0
 43
30.0
 50
180.0
  0
TEXT
  8
3
  40
45
  5
809C
  62
0
  72
0
  71
0
 10
2286.07
 20
1903.60
 30
0.000000
  1
180
  0
POINT
  5
807E
  8
DEFPOINTS
  6
CONTINUOUS
 62
     0
 10
2286.0721526691109
 20
1852.5057634385309
 30
0.0
  0
POINT
  5
807F
  8
DEFPOINTS
  6
CONTINUOUS
 62
     0
 10
2466.0721526691109
 20
1852.5057634385309
 30
0.0
  0
POINT
  5
8080
  8
DEFPOINTS
  6
CONTINUOUS
 62
     0
 10
2466.0721526691109
 20
1945.752481438532
 30
0.0
  0
ENDBLK
  5
7F53
  8
0
  0
BLOCK
  8
0
  2
*D11
 70
     1
 10
0.0
 20
0.0
 30
0.0
  3
*D11
  1

  0
LINE
  5
8081
  8
3
  6
CONTINUOUS
 62
     0
 10
2278.5721526691109
 20
1852.5057634385309
 30
0.0
 11
2164.3636526691121
 21
1852.5057634385309
 31
0.0
  0
LINE
  5
8082
  8
3
  6
CONTINUOUS
 62
     0
 10
2278.5721526691109
 20
1612.5057634385321
 30
0.0
 11
2164.3636526691121
 21
1612.5057634385321
 31
0.0
  0
LINE
  5
8083
  8
3
  6
CONTINUOUS
 62
     0
 10
2179.3636526691121
 20
1822.5057634385309
 30
0.0
 11
2179.3636526691121
 21
1642.5057634385321
 31
0.0
  0
INSERT
  5
8084
  8
3
  6
CONTINUOUS
 62
     0
  2
_OPEN
 10
2179.3636526691121
 20
1852.5057634385309
 30
0.0
 41
30.0
 42
30.0
 43
30.0
 50
90.0
  0
INSERT
  5
8085
  8
3
  6
CONTINUOUS
 62
     0
  2
_OPEN
 10
2179.3636526691121
 20
1612.5057634385321
 30
0.0
 41
30.0
 42
30.0
 43
30.0
 50
270.0
  0
TEXT
  8
3
  40
45
  5
809D
  62
0
  72
0
  71
0
 10
2051.86
 20
1653.53
 30
0.000000
  1
240
  0
POINT
  5
8087
  8
DEFPOINTS
  6
CONTINUOUS
 62
     0
 10
2286.0721526691109
 20
1852.5057634385309
 30
0.0
  0
POINT
  5
8088
  8
DEFPOINTS
  6
CONTINUOUS
 62
     0
 10
2286.0721526691109
 20
1612.5057634385321
 30
0.0
  0
POINT
  5
8089
  8
DEFPOINTS
  6
CONTINUOUS
 62
     0
 10
2179.3636526691121
 20
1612.5057634385321
 30
0.0
  0
ENDBLK
  5
7F5E
  8
0
  0
BLOCK
  8
0
  2
*D12
 70
     1
 10
0.0
 20
0.0
 30
0.0
  3
*D12
  1

  0
LINE
  5
808A
  8
3
 62
     0
 10
675.14223166911142
 20
1427.5057634385321
 30
0.0
 11
579.21312422170035
 21
1427.5057634385321
 31
0.0
  0
LINE
  5
808B
  8
3
 62
     0
 10
675.23753366911114
 20
1742.5057634385321
 30
0.0
 11
579.21312422170035
 21
1742.5057634385321
 31
0.0
  0
LINE
  5
808C
  8
3
 62
     0
 10
594.21312422170035
 20
1457.5057634385321
 30
0.0
 11
594.21312422170035
 21
1712.5057634385321
 31
0.0
  0
INSERT
  5
808D
  8
3
 62
     0
  2
_OPEN
 10
594.21312422170035
 20
1427.5057634385321
 30
0.0
 41
30.0
 42
30.0
 43
30.0
 50
270.0
  0
INSERT
  5
808E
  8
3
 62
     0
  2
_OPEN
 10
594.21312422170035
 20
1742.5057634385321
 30
0.0
 41
30.0
 42
30.0
 43
30.0
 50
90.0
  0
TEXT
  8
3
  40
45
  5
809E
  62
0
  72
0
  71
0
 10
466.713
 20
1564.28
 30
0.000000
  1
315
  0
POINT
  5
8090
  8
DEFPOINTS
 62
     0
 10
682.64223166911142
 20
1427.5057634385321
 30
0.0
  0
POINT
  5
8091
  8
DEFPOINTS
 62
     0
 10
682.73753366911114
 20
1742.5057634385321
 30
0.0
  0
POINT
  5
8092
  8
DEFPOINTS
 62
     0
 10
594.21312422170035
 20
1742.5057634385321
 30
0.0
  0
ENDBLK
  5
7F69
  8
0
  0
ENDSEC
  0
SECTION
  2
ENTITIES
  0
LINE
  5
7B2B
  8
4
  6
CONTINUOUS
 10
2775.0
 20
750.0
 30
0.0
 11
2775.0
 21
450.0
 31
0.0
  0
LINE
  5
7B2C
  8
4
  6
CONTINUOUS
 10
1725.0
 20
750.0
 30
0.0
 11
1725.0
 21
450.0
 31
0.0
  0
LINE
  5
7B2D
  8
4
  6
CONTINUOUS
 10
975.0
 20
750.0
 30
0.0
 11
975.0
 21
450.0
 31
0.0
  0
LINE
  5
7B30
  8
4
  6
CONTINUOUS
 10
975.0
 20
450.0
 30
0.0
 11
2775.0
 21
450.0
 31
0.0
  0
LINE
  5
7B31
  8
4
  6
CONTINUOUS
 10
975.0
 20
600.0
 30
0.0
 11
2775.0
 21
600.0
 31
0.0
  0
TEXT
  5
7B32
  8
4
  6
CONTINUOUS
 10
1032.753121
 20
647.31453899999985
 30
0.0
 40
75.0
  1
機器名称
  0
TEXT
  5
7B33
  8
4
  6
CONTINUOUS
 10
1029.387158999999
 20
482.46773499999989
 30
0.0
 40
75.0
  1
機器型番
  0
TEXT
  5
7B34
  8
4
  6
CONTINUOUS
 10
1766.518118
 20
633.85765300000003
 30
0.0
 40
75.0
  1
ミツヤファンユニット
  0
TEXT
  5
7B35
  8
4
  6
CONTINUOUS
 10
1779.9817430000001
 20
475.73937599999999
 30
0.0
 40
75.0
  1
MFU#1001-1
  0
TEXT
  5
7B37
  8
4
  6
CONTINUOUS
 10
1036.5186669999989
 20
3575.1432619999991
 30
0.0
 40
75.0
  1
天井吊ベット・床置ベット
  0
TEXT
  5
7B38
  8
4
  6
CONTINUOUS
 10
474.25139000000001
 20
3800.8214640000001
 30
0.0
 40
95.0
  1
ベルト駆動式消音ボックス付き多翼ファン
  0
LINE
  5
7B39
  8
4
  6
CONTINUOUS
 10
375.0
 20
3704.1131310000001
 30
0.0
 11
2775.0
 21
3704.1131310000001
 31
0.0
  0
LINE
  5
7B3A
  8
4
  6
CONTINUOUS
 10
375.0
 20
4004.1131310000001
 30
0.0
 11
2775.0
 21
4004.1131310000001
 31
0.0
  0
LINE
  5
7B3B
  8
4
  6
CONTINUOUS
 10
975.0
 20
750.0
 30
0.0
 11
2775.0
 21
750.0
 31
0.0
  0
LINE
  5
7B3C
  8
4
  6
CONTINUOUS
 10
375.0
 20
4004.1131310000001
 30
0.0
 11
375.0
 21
3704.1131310000001
 31
0.0
  0
TEXT
  5
7B3D
  8
4
  6
CONTINUOUS
 10
434.72933599999999
 20
3573.4792159999988
 30
0.0
 40
75.0
  1
左回転右吐出
  0
TEXT
  5
7B3E
  8
4
  6
CONTINUOUS
 10
2203.454338999999
 20
4059.091621999999
 30
0.0
 40
84.0
  1
No.
  0
TEXT
  5
7B3F
  8
4
  6
CONTINUOUS
 10
2200.9392309999989
 20
3575.1432619999991
 30
0.0
 40
75.0
  1
縮尺：1/15
  0
LINE
  5
7B40
  8
4
  6
CONTINUOUS
 10
2775.0
 20
4004.1131310000001
 30
0.0
 11
2775.0
 21
3704.1131310000001
 31
0.0
  0
LINE
  5
7B42
  8
4
  6
CONTINUOUS
 10
2160.9261339999989
 20
4021.8953750000001
 30
0.0
 11
2160.9261339999989
 21
4179.978392
 31
0.0
  0
LINE
  5
7B43
  8
4
  6
CONTINUOUS
 10
2160.9261339999989
 20
4179.978392
 30
0.0
 11
2775.0
 21
4179.978392
 31
0.0
  0
LINE
  5
7B44
  8
4
  6
CONTINUOUS
 10
2775.0
 20
4179.978392
 30
0.0
 11
2775.0
 21
4021.8953750000001
 31
0.0
  0
LINE
  5
7B45
  8
4
  6
CONTINUOUS
 10
2775.0
 20
4021.8953750000001
 30
0.0
 11
2160.9261339999989
 21
4021.8953750000001
 31
0.0
  0
LINE
  5
7C60
  8
1
  6
CONTINUOUS
 10
772.64223166911142
 20
2037.50576343853
 30
0.0
 11
1492.642231669111
 21
2037.5057634385309
 31
0.0
  0
LINE
  5
7C61
  8
1
  6
CONTINUOUS
 10
1582.642231669111
 20
1502.5057634385321
 30
0.0
 11
682.64223166911142
 21
1502.5057634385321
 31
0.0
  0
LINE
  5
7C62
  8
1
  6
CONTINUOUS
 10
1582.642231669111
 20
1427.5057634385321
 30
0.0
 11
682.64223166911142
 21
1427.5057634385321
 31
0.0
  0
LINE
  5
7C63
  8
1
  6
CONTINUOUS
 10
1492.642231669111
 20
2037.5057634385309
 30
0.0
 11
1492.642231669111
 21
1507.5057634385321
 31
0.0
  0
LINE
  5
7C64
  8
1
  6
CONTINUOUS
 10
1492.642231669111
 20
2037.5057634385309
 30
0.0
 11
1492.642231669111
 21
1502.5057634385321
 31
0.0
  0
ARC
  5
7C65
  8
1
  6
CONTINUOUS
 10
1253.642231669111
 20
1819.5057634385309
 30
0.0
 40
103.3907699999999
 50
352.87498399999993
 51
84.289406999999997
  0
LINE
  5
7C66
  8
1
  6
CONTINUOUS
 10
1492.642231669111
 20
1650.5057634385321
 30
0.0
 11
1262.642231669111
 21
1650.5057634385321
 31
0.0
  0
LINE
  5
7C67
  8
1
  6
CONTINUOUS
 10
1517.642231669111
 20
1887.5057634385309
 30
0.0
 11
1517.642231669111
 21
1597.5057634385321
 31
0.0
  0
LINE
  5
7C68
  8
1
  6
CONTINUOUS
 10
1392.642231669111
 20
1810.5057634385309
 30
0.0
 11
1392.642231669111
 21
1650.5057634385321
 31
0.0
  0
LINE
  5
7C6A
  8
1
  6
CONTINUOUS
 10
1517.642231669111
 20
1597.5057634385321
 30
0.0
 11
1492.642231669111
 21
1597.5057634385321
 31
0.0
  0
LINE
  5
7C6B
  8
1
  6
CONTINUOUS
 10
1582.642231669111
 20
1502.5057634385321
 30
0.0
 11
1582.642231669111
 21
1427.5057634385321
 31
0.0
  0
LINE
  5
7C6C
  8
1
  6
CONTINUOUS
 10
1356.640538669111
 20
1810.5057634385309
 30
0.0
 11
1492.642231669111
 21
1810.5057634385309
 31
0.0
  0
LINE
  5
7C6D
  8
1
  6
CONTINUOUS
 10
1517.642231669111
 20
1887.5057634385309
 30
0.0
 11
1492.642231669111
 21
1887.5057634385309
 31
0.0
  0
ARC
  5
7C6E
  8
1
  6
CONTINUOUS
 10
1275.642231669111
 20
1797.5057634385309
 30
0.0
 40
147.57371000000001
 50
175.23635799999991
 51
264.94617399999998
  0
ARC
  5
7C6F
  8
1
  6
CONTINUOUS
 10
1251.642231669111
 20
1799.5057634385309
 30
0.0
 40
123.4905209999999
 50
84.289406999999997
 51
175.23635799999991
  0
LINE
  5
7C70
  8
1
  6
CONTINUOUS
 10
772.64223166911154
 20
1502.5057634385321
 30
0.0
 11
772.64223166911142
 21
2037.5057634385309
 31
0.0
  0
LINE
  5
7C71
  8
1
  6
CONTINUOUS
 10
747.64223166911142
 20
1877.5057634385309
 30
0.0
 11
747.64223166911142
 21
1587.5057634385321
 31
0.0
  0
LINE
  5
7C72
  8
1
  6
CONTINUOUS
 10
747.64223166911142
 20
1587.5057634385321
 30
0.0
 11
772.64223166911142
 21
1587.5057634385321
 31
0.0
  0
LINE
  5
7C74
  8
1
  6
CONTINUOUS
 10
682.64223166911142
 20
1427.5057634385321
 30
0.0
 11
682.64223166911142
 21
1502.5057634385321
 31
0.0
  0
LINE
  5
7C75
  8
1
  6
CONTINUOUS
 10
747.64223166911142
 20
1877.5057634385309
 30
0.0
 11
772.64223166911142
 21
1877.5057634385309
 31
0.0
  0
LINE
  5
7C76
  8
1
  6
CONTINUOUS
 10
1492.254024669111
 20
3164.9032674385321
 30
0.0
 11
772.25402466911146
 21
3164.9032674385321
 31
0.0
  0
LINE
  5
7C77
  8
1
  6
CONTINUOUS
 10
772.25402466911146
 20
2598.9032674385321
 30
0.0
 11
1492.254024669111
 21
2598.9032674385321
 31
0.0
  0
LINE
  5
7C78
  8
1
  6
CONTINUOUS
 10
747.25402466911146
 20
2996.9032674385321
 30
0.0
 11
747.25402466911146
 21
2766.9032674385312
 31
0.0
  0
LINE
  5
7C79
  8
1
  6
CONTINUOUS
 10
772.25402466911146
 20
3164.9032674385321
 30
0.0
 11
772.25402466911146
 21
2598.9032674385321
 31
0.0
  0
LINE
  5
7C7A
  8
1
  6
CONTINUOUS
 10
682.25402466911135
 20
2653.9032674385321
 30
0.0
 11
772.25402466911146
 21
2653.9032674385321
 31
0.0
  0
LINE
  5
7C7B
  8
1
  6
CONTINUOUS
 10
682.25402466911135
 20
2613.9032674385321
 30
0.0
 11
772.25402466911146
 21
2613.9032674385321
 31
0.0
  0
LINE
  5
7C7C
  8
1
  6
CONTINUOUS
 10
682.25402466911135
 20
2653.9032674385321
 30
0.0
 11
682.25402466911135
 21
2613.9032674385321
 31
0.0
  0
LINE
  5
7C7D
  8
1
  6
CONTINUOUS
 10
747.25402466911146
 20
2766.9032674385321
 30
0.0
 11
772.25402466911146
 21
2766.9032674385321
 31
0.0
  0
LINE
  5
7C7E
  8
1
  6
CONTINUOUS
 10
682.25402466911135
 20
3109.9032674385321
 30
0.0
 11
772.25402466911146
 21
3109.9032674385321
 31
0.0
  0
LINE
  5
7C7F
  8
1
  6
CONTINUOUS
 10
682.25402466911135
 20
3149.9032674385321
 30
0.0
 11
772.25402466911146
 21
3149.9032674385321
 31
0.0
  0
LINE
  5
7C80
  8
1
  6
CONTINUOUS
 10
682.25402466911135
 20
3149.9032674385321
 30
0.0
 11
682.25402466911135
 21
3109.9032674385321
 31
0.0
  0
LINE
  5
7C81
  8
1
  6
CONTINUOUS
 10
747.25402466911146
 20
2996.9032674385321
 30
0.0
 11
772.25402466911146
 21
2996.9032674385321
 31
0.0
  0
LINE
  5
7C82
  8
1
  6
CONTINUOUS
 10
1517.254024669111
 20
2996.9032674385312
 30
0.0
 11
1517.254024669111
 21
2766.9032674385321
 31
0.0
  0
LINE
  5
7C83
  8
1
  6
CONTINUOUS
 10
1492.254024669111
 20
2598.9032674385321
 30
0.0
 11
1492.254024669111
 21
3164.9032674385321
 31
0.0
  0
LINE
  5
7C84
  8
1
  6
CONTINUOUS
 10
1582.254024669111
 20
2613.9032674385321
 30
0.0
 11
1492.254024669111
 21
2613.9032674385321
 31
0.0
  0
LINE
  5
7C85
  8
1
  6
CONTINUOUS
 10
1582.254024669111
 20
2653.9032674385321
 30
0.0
 11
1492.254024669111
 21
2653.9032674385321
 31
0.0
  0
LINE
  5
7C86
  8
1
  6
CONTINUOUS
 10
1517.254024669111
 20
2766.9032674385321
 30
0.0
 11
1492.254024669111
 21
2766.9032674385321
 31
0.0
  0
LINE
  5
7C87
  8
1
  6
CONTINUOUS
 10
1582.254024669111
 20
2653.9032674385321
 30
0.0
 11
1582.254024669111
 21
2613.9032674385321
 31
0.0
  0
LINE
  5
7C88
  8
1
  6
CONTINUOUS
 10
1582.254024669111
 20
3149.9032674385321
 30
0.0
 11
1492.254024669111
 21
3149.9032674385321
 31
0.0
  0
LINE
  5
7C89
  8
1
  6
CONTINUOUS
 10
1582.254024669111
 20
3109.9032674385321
 30
0.0
 11
1492.254024669111
 21
3109.9032674385321
 31
0.0
  0
LINE
  5
7C8A
  8
1
  6
CONTINUOUS
 10
1517.254024669111
 20
2996.9032674385321
 30
0.0
 11
1492.254024669111
 21
2996.9032674385321
 31
0.0
  0
LINE
  5
7C8B
  8
1
  6
CONTINUOUS
 10
1582.254024669111
 20
3149.9032674385321
 30
0.0
 11
1582.254024669111
 21
3109.9032674385321
 31
0.0
  0
LINE
  5
7C8C
  8
1
  6
CONTINUOUS
 10
2644.0721526691118
 20
2037.50576343853
 30
0.0
 11
2108.0721526691109
 21
2037.5057634385309
 31
0.0
  0
LINE
  5
7C8E
  8
1
  6
CONTINUOUS
 10
2644.0721526691109
 20
1502.5057634385321
 30
0.0
 11
2108.0721526691109
 21
1502.5057634385321
 31
0.0
  0
LINE
  5
7C8F
  8
1
  6
CONTINUOUS
 10
2131.0721526691109
 20
1427.5057634385321
 30
0.0
 11
2621.0721526691109
 21
1427.5057634385321
 31
0.0
  0
LINE
  5
7C90
  8
1
  6
CONTINUOUS
 10
2108.0721526691109
 20
1427.5057634385321
 30
0.0
 11
2644.0721526691109
 21
1427.5057634385321
 31
0.0
  0
LINE
  5
7C91
  8
1
  6
CONTINUOUS
 10
2108.0721526691109
 20
1502.5057634385321
 30
0.0
 11
2108.0721526691109
 21
1427.5057634385321
 31
0.0
  0
LINE
  5
7C93
  8
1
  6
CONTINUOUS
 10
2286.0721526691109
 20
1852.5057634385309
 30
0.0
 11
2466.0721526691109
 21
1612.5057634385321
 31
0.0
  0
LINE
  5
7C94
  8
1
  6
CONTINUOUS
 10
2286.0721526691109
 20
1612.5057634385321
 30
0.0
 11
2466.0721526691109
 21
1852.5057634385309
 31
0.0
  0
POLYLINE
  5
7C95
  8
1
  6
CONTINUOUS
 66
     1
 10
0.0
 20
0.0
 30
0.0
 70
     1
  0
VERTEX
  5
8021
  8
1
  6
CONTINUOUS
 10
2261.0721526691109
 20
1587.5057634385321
 30
0.0
  0
VERTEX
  5
8022
  8
1
  6
CONTINUOUS
 10
2491.0721526691109
 20
1587.5057634385321
 30
0.0
  0
VERTEX
  5
8023
  8
1
  6
CONTINUOUS
 10
2491.0721526691109
 20
1877.5057634385309
 30
0.0
  0
VERTEX
  5
8024
  8
1
  6
CONTINUOUS
 10
2261.0721526691109
 20
1877.5057634385309
 30
0.0
  0
SEQEND
  5
8025
  8
1
  6
CONTINUOUS
  0
LINE
  5
7C9C
  8
1
  6
CONTINUOUS
 10
2644.0721526691109
 20
1427.5057634385321
 30
0.0
 11
2644.0721526691109
 21
1502.5057634385321
 31
0.0
  0
DIMENSION
  5
7C9D
  8
3
  6
CONTINUOUS
  2
*D1
 10
682.64223166911142
 20
1277.4041184385319
 30
0.0
 11
1146.988145669111
 21
1277.4041184385319
 31
0.0
 70
   128
 13
1582.642231669111
 23
1427.5057634385321
 33
0.0
 14
682.64223166911142
 24
1427.5057634385321
 34
0.0
1001
ACAD
1000
DSTYLE
1002
{
1070
   287
1070
     3
1070
   287
1070
     3
1070
   287
1070
     3
1070
    40
1040
15.0
1070
   143
1040
0.039
1070
   172
1070
     1
1070
   271
1070
     0
1070
   279
1070
     0
1070
   288
1070
     1
1002
}
  0
DIMENSION
  5
7C9E
  8
3
  6
CONTINUOUS
  2
*D2
 10
772.64223166911142
 20
2167.0778824385311
 30
0.0
 11
1125.7883276691109
 21
2167.0778824385311
 31
0.0
 70
   128
 13
1492.642231669111
 23
2037.5057634385309
 33
0.0
 14
772.64223166911142
 24
2037.50576343853
 34
0.0
1001
ACAD
1000
DSTYLE
1002
{
1070
   287
1070
     3
1070
   287
1070
     3
1070
   287
1070
     3
1070
    40
1040
15.0
1070
   143
1040
0.039
1070
   172
1070
     1
1070
   271
1070
     0
1070
   279
1070
     0
1070
   288
1070
     1
1002
}
  0
DIMENSION
  5
7C9F
  8
3
  6
CONTINUOUS
  2
*D3
 10
1492.254024669111
 20
2463.4239554385308
 30
0.0
 11
1132.9261466691109
 21
2463.4239554385308
 31
0.0
 70
   128
 13
772.25402466911146
 23
2598.9032674385321
 33
0.0
 14
1492.254024669111
 24
2598.9032674385321
 34
0.0
1001
ACAD
1000
DSTYLE
1002
{
1070
   287
1070
     3
1070
   287
1070
     3
1070
   287
1070
     3
1070
    40
1040
15.0
1070
   143
1040
0.039
1070
   172
1070
     1
1070
   271
1070
     0
1070
   279
1070
     0
1070
   288
1070
     1
1002
}
  0
DIMENSION
  5
7CA0
  8
3
  6
CONTINUOUS
  2
*D4
 10
1681.081321669111
 20
2598.9032674385321
 30
0.0
 11
1681.081321669111
 21
2876.4867774385311
 31
0.0
 70
   128
 13
1492.254024669111
 23
3164.9032674385321
 33
0.0
 14
1492.254024669111
 24
2598.9032674385321
 34
0.0
 50
90.0
1001
ACAD
1000
DSTYLE
1002
{
1070
   287
1070
     3
1070
   287
1070
     3
1070
   287
1070
     3
1070
    40
1040
15.0
1070
   143
1040
0.039
1070
   172
1070
     1
1070
   271
1070
     0
1070
   279
1070
     0
1070
   288
1070
     1
1002
}
  0
LINE
  5
7CA1
  8
1
  6
CONTINUOUS
 10
2286.0721526691109
 20
1612.5057634385321
 30
0.0
 11
2466.0721526691109
 21
1612.5057634385321
 31
0.0
  0
LINE
  5
7CA2
  8
1
  6
CONTINUOUS
 10
2466.0721526691109
 20
1612.5057634385321
 30
0.0
 11
2466.0721526691109
 21
1852.5057634385309
 31
0.0
  0
LINE
  5
7CA3
  8
1
  6
CONTINUOUS
 10
2466.0721526691109
 20
1852.5057634385309
 30
0.0
 11
2286.0721526691109
 21
1852.5057634385309
 31
0.0
  0
LINE
  5
7CA4
  8
1
  6
CONTINUOUS
 10
2286.0721526691109
 20
1852.5057634385309
 30
0.0
 11
2286.0721526691109
 21
1612.5057634385321
 31
0.0
  0
DIMENSION
  5
7CA5
  8
3
  6
CONTINUOUS
  2
*D5
 10
2376.0721526691109
 20
2160.7671144385308
 30
0.0
 11
2273.2150098119678
 21
2160.7671144385308
 31
0.0
 70
   128
 13
2093.0721526691109
 23
2037.5057634385309
 33
0.0
 14
2376.0721526691109
 24
2093.6817981736931
 34
0.0
1001
ACAD
1000
DSTYLE
1002
{
1070
   287
1070
     3
1070
   287
1070
     3
1070
   287
1070
     3
1070
    40
1040
15.0
1070
   143
1040
0.039
1070
   172
1070
     1
1070
   271
1070
     0
1070
   279
1070
     0
1070
   288
1070
     1
1002
}
  0
DIMENSION
  5
7CA6
  8
3
  6
CONTINUOUS
  2
*D6
 10
2659.0721526691109
 20
2160.7671144385308
 30
0.0
 11
2517.5721526691109
 21
2198.2671144385308
 31
0.0
 70
     0
 13
2376.0721526691109
 23
2093.6817981736931
 33
0.0
 14
2659.0721526691109
 24
2037.5057634385309
 34
0.0
1001
ACAD
1000
DSTYLE
1002
{
1070
   287
1070
     4
1070
   287
1070
     4
1070
   287
1070
     4
1070
    40
1040
15.0
1070
    75
1070
     1
1070
   143
1040
0.039
1070
   172
1070
     1
1070
   271
1070
     0
1070
   279
1070
     1
1070
   288
1070
     1
1002
}
  0
DIMENSION
  5
7CA7
  8
3
  6
CONTINUOUS
  2
*D7
 10
2644.0721526691109
 20
1281.5771664385311
 30
0.0
 11
2393.080999669111
 21
1281.5771664385311
 31
0.0
 70
   128
 13
2108.0721526691109
 23
1427.5057634385321
 33
0.0
 14
2644.0721526691109
 24
1427.5057634385321
 34
0.0
1001
ACAD
1000
DSTYLE
1002
{
1070
   287
1070
     3
1070
   287
1070
     3
1070
   287
1070
     3
1070
    40
1040
15.0
1070
   143
1040
0.039
1070
   172
1070
     1
1070
   271
1070
     0
1070
   279
1070
     0
1070
   288
1070
     1
1002
}
  0
LINE
  5
7CA8
  8
2
  6
CENTER
 10
1579.5330766691111
 20
1742.5057634385321
 30
0.0
 11
682.73753366911114
 21
1742.5057634385321
 31
0.0
  0
DIMENSION
  5
7CA9
  8
3
  6
CONTINUOUS
  2
*D8
 10
1644.022149669112
 20
1427.5057634385321
 30
0.0
 11
1644.022149669112
 21
1643.934334867103
 31
0.0
 70
   128
 13
1579.5330766691111
 23
1742.5057634385321
 33
0.0
 14
1582.642231669111
 24
1427.5057634385321
 34
0.0
 50
270.0
1001
ACAD
1000
DSTYLE
1002
{
1070
   287
1070
     3
1070
   287
1070
     3
1070
   287
1070
     3
1070
    40
1040
15.0
1070
   143
1040
0.039
1070
   172
1070
     1
1070
   271
1070
     0
1070
   279
1070
     0
1070
   288
1070
     1
1002
}
  0
DIMENSION
  5
7CAA
  8
3
  6
CONTINUOUS
  2
*D9
 10
1736.622956669112
 20
2037.5057634385309
 30
0.0
 11
1736.6229566691111
 21
1721.4699624385321
 31
0.0
 70
   128
 13
1582.642231669111
 23
1427.5057634385321
 33
0.0
 14
1492.642231669111
 24
2037.5057634385309
 34
0.0
 50
270.0
1001
ACAD
1000
DSTYLE
1002
{
1070
   287
1070
     3
1070
   287
1070
     3
1070
   287
1070
     3
1070
    40
1040
15.0
1070
   143
1040
0.039
1070
   172
1070
     1
1070
   271
1070
     0
1070
   279
1070
     0
1070
   288
1070
     1
1002
}
  0
DIMENSION
  5
7CAB
  8
3
  6
CONTINUOUS
  2
*D10
 10
2466.0721526691109
 20
1945.752481438532
 30
0.0
 11
2376.0721526691109
 21
1945.752481438532
 31
0.0
 70
   128
 13
2286.0721526691109
 23
1852.5057634385309
 33
0.0
 14
2466.0721526691109
 24
1852.5057634385309
 34
0.0
1001
ACAD
1000
DSTYLE
1002
{
1070
   287
1070
     3
1070
   287
1070
     3
1070
   287
1070
     3
1070
    40
1040
15.0
1070
   143
1040
0.039
1070
   172
1070
     1
1070
   271
1070
     0
1070
   279
1070
     0
1070
   288
1070
     1
1002
}
  0
DIMENSION
  5
7CAC
  8
3
  6
CONTINUOUS
  2
*D11
 10
2179.3636526691121
 20
1612.5057634385321
 30
0.0
 11
2179.3636526691112
 21
1733.1797654385309
 31
0.0
 70
   128
 13
2286.0721526691109
 23
1852.5057634385309
 33
0.0
 14
2286.0721526691109
 24
1612.5057634385321
 34
0.0
 50
90.0
1001
ACAD
1000
DSTYLE
1002
{
1070
   287
1070
     3
1070
   287
1070
     3
1070
   287
1070
     3
1070
    40
1040
15.0
1070
   143
1040
0.039
1070
   172
1070
     1
1070
   271
1070
     0
1070
   279
1070
     0
1070
   288
1070
     1
1002
}
  0
LINE
  5
7CC7
  8
2
 10
2376.0721526691109
 20
1413.448788513851
 30
0.0
 11
2376.0721526691109
 21
1919.39719016149
 31
0.0
  0
LINE
  5
7CC8
  8
2
 10
683.76758063232228
 20
2881.9032674385321
 30
0.0
 11
1592.579164961114
 21
2881.9032674385321
 31
0.0
  0
LINE
  5
7CC9
  8
1
  6
CONTINUOUS
 10
2093.0721526691109
 20
2037.5057634385309
 30
0.0
 11
2093.0721526691109
 21
1502.5057634385321
 31
0.0
  0
LINE
  5
7CCA
  8
1
  6
CONTINUOUS
 10
2659.0721526691118
 20
1502.5057634385321
 30
0.0
 11
2659.0721526691109
 21
2037.5057634385309
 31
0.0
  0
LINE
  5
7CCB
  8
1
 10
2108.0721526691109
 20
2037.5057634385309
 30
0.0
 11
2093.0721526691109
 21
2037.5057634385309
 31
0.0
  0
LINE
  5
7CCC
  8
1
 10
2108.0721526691109
 20
1502.5057634385321
 30
0.0
 11
2093.0721526691109
 21
1502.5057634385321
 31
0.0
  0
LINE
  5
7CCD
  8
1
 10
2644.0721526691109
 20
1502.5057634385321
 30
0.0
 11
2659.0721526691109
 21
1502.5057634385321
 31
0.0
  0
LINE
  5
7CCE
  8
1
 10
2644.0721526691109
 20
2037.50576343853
 30
0.0
 11
2659.0721526691109
 21
2037.5057634385309
 31
0.0
  0
DIMENSION
  5
7CCF
  8
3
  2
*D12
 10
594.21312422170035
 20
1742.5057634385321
 30
0.0
 11
594.21312422170001
 21
1643.934334867103
 31
0.0
 70
   128
 13
682.64223166911142
 23
1427.5057634385321
 33
0.0
 14
682.73753366911114
 24
1742.5057634385321
 34
0.0
 50
270.0
1001
ACAD
1000
DSTYLE
1002
{
1070
   287
1070
     3
1070
   287
1070
     3
1070
   287
1070
     3
1070
    40
1040
15.0
1070
   143
1040
0.039
1070
   172
1070
     1
1070
   271
1070
     0
1070
   279
1070
     0
1070
   288
1070
     1
1002
}
  0
LINE
  5
7EDB
  8
2
 10
2376.0721526691109
 20
2025.5666170540469
 30
0.0
 11
2376.0721526691109
 21
2093.6817981736931
 31
0.0
  0
ENDSEC
  0
EOF
