  0
SECTION
  2
HEADER
  9
$ACADVER
  1
AC1015
  9
$ACADMAINTVER
 70
     6
  9
$DWGCODEPAGE
  3
ANSI_932
  9
$INSBASE
 10
0.0
 20
0.0
 30
0.0
  9
$EXTMIN
 10
375.0
 20
450.0
 30
0.0
  9
$EXTMAX
 10
2775.0
 20
4179.978392
 30
0.0
  9
$LIMMIN
 10
0.0
 20
0.0
  9
$LIMMAX
 10
297.0
 20
210.0
  9
$ORTHOMODE
 70
     0
  9
$REGENMODE
 70
     1
  9
$FILLMODE
 70
     0
  9
$QTEXTMODE
 70
     0
  9
$MIRRTEXT
 70
     1
  9
$LTSCALE
 40
5.0
  9
$ATTMODE
 70
     1
  9
$TEXTSIZE
 40
180.0
  9
$TRACEWID
 40
0.05
  9
$TEXTSTYLE
  7
STANDARD
  9
$CLAYER
  8
3
  9
$CELTYPE
  6
BYLAYER
  9
$CECOLOR
 62
   256
  9
$CELTSCALE
 40
1.0
  9
$DISPSILH
 70
     0
  9
$DIMSCALE
 40
15.0
  9
$DIMASZ
 40
2.0
  9
$DIMEXO
 40
0.5
  9
$DIMDLI
 40
10.0
  9
$DIMRND
 40
0.0
  9
$DIMDLE
 40
0.0
  9
$DIMEXE
 40
1.0
  9
$DIMTP
 40
1.0
  9
$DIMTM
 40
1.0
  9
$DIMTXT
 40
3.0
  9
$DIMCEN
 40
0.0
  9
$DIMTSZ
 40
0.0
  9
$DIMTOL
 70
     0
  9
$DIMLIM
 70
     0
  9
$DIMTIH
 70
     0
  9
$DIMTOH
 70
     0
  9
$DIMSE1
 70
     0
  9
$DIMSE2
 70
     0
  9
$DIMTAD
 70
     1
  9
$DIMZIN
 70
     8
  9
$DIMBLK
  1

  9
$DIMASO
 70
     1
  9
$DIMSHO
 70
     1
  9
$DIMPOST
  1

  9
$DIMAPOST
  1

  9
$DIMALT
 70
     0
  9
$DIMALTD
 70
     2
  9
$DIMALTF
 40
0.039
  9
$DIMLFAC
 40
1.0
  9
$DIMTOFL
 70
     1
  9
$DIMTVP
 40
0.0
  9
$DIMTIX
 70
     0
  9
$DIMSOXD
 70
     0
  9
$DIMSAH
 70
     1
  9
$DIMBLK1
  1
OPEN
  9
$DIMBLK2
  1
OPEN
  9
$DIMSTYLE
  2
IGA
  9
$DIMCLRD
 70
     0
  9
$DIMCLRE
 70
     0
  9
$DIMCLRT
 70
     0
  9
$DIMTFAC
 40
10.0
  9
$DIMGAP
 40
1.0
  9
$DIMJUST
 70
     0
  9
$DIMSD1
 70
     0
  9
$DIMSD2
 70
     0
  9
$DIMTOLJ
 70
     1
  9
$DIMTZIN
 70
     8
  9
$DIMALTZ
 70
     0
  9
$DIMALTTZ
 70
     0
  9
$DIMUPT
 70
     1
  9
$DIMDEC
 70
     0
  9
$DIMTDEC
 70
     0
  9
$DIMALTU
 70
     2
  9
$DIMALTTD
 70
     2
  9
$DIMTXSTY
  7
STANDARD
  9
$DIMAUNIT
 70
     0
  9
$DIMADEC
 70
     0
  9
$DIMALTRND
 40
0.0
  9
$DIMAZIN
 70
     0
  9
$DIMDSEP
 70
    46
  9
$DIMATFIT
 70
     3
  9
$DIMFRAC
 70
     0
  9
$DIMLDRBLK
  1
OPEN
  9
$DIMLUNIT
 70
     2
  9
$DIMLWD
 70
    -2
  9
$DIMLWE
 70
    -2
  9
$DIMTMOVE
 70
     0
  9
$LUNITS
 70
     2
  9
$LUPREC
 70
     3
  9
$SKETCHINC
 40
0.1
  9
$FILLETRAD
 40
50.0
  9
$AUNITS
 70
     0
  9
$AUPREC
 70
     0
  9
$MENU
  1
acad
  9
$ELEVATION
 40
0.0
  9
$PELEVATION
 40
0.0
  9
$THICKNESS
 40
0.0
  9
$LIMCHECK
 70
     0
  9
$CHAMFERA
 40
0.5
  9
$CHAMFERB
 40
0.5
  9
$CHAMFERC
 40
20.0
  9
$CHAMFERD
 40
0.0
  9
$SKPOLY
 70
     0
  9
$TDCREATE
 40
2450785.623777430
  9
$TDUCREATE
 40
2450785.248777430
  9
$TDUPDATE
 40
2456463.648766354
  9
$TDUUPDATE
 40
2456463.273766354
  9
$TDINDWG
 40
0.3241080324
  9
$TDUSRTIMER
 40
0.3241080324
  9
$USRTIMER
 70
     1
  9
$ANGBASE
 50
0.0
  9
$ANGDIR
 70
     0
  9
$PDMODE
 70
     0
  9
$PDSIZE
 40
0.0
  9
$PLINEWID
 40
0.0
  9
$SPLFRAME
 70
     0
  9
$SPLINETYPE
 70
     6
  9
$SPLINESEGS
 70
     8
  9
$HANDSEED
  5
7FBC
  9
$SURFTAB1
 70
     6
  9
$SURFTAB2
 70
     6
  9
$SURFTYPE
 70
     6
  9
$SURFU
 70
     6
  9
$SURFV
 70
     6
  9
$UCSBASE
  2

  9
$UCSNAME
  2

  9
$UCSORG
 10
0.0
 20
0.0
 30
0.0
  9
$UCSXDIR
 10
1.0
 20
0.0
 30
0.0
  9
$UCSYDIR
 10
0.0
 20
1.0
 30
0.0
  9
$UCSORTHOREF
  2

  9
$UCSORTHOVIEW
 70
     0
  9
$UCSORGTOP
 10
0.0
 20
0.0
 30
0.0
  9
$UCSORGBOTTOM
 10
0.0
 20
0.0
 30
0.0
  9
$UCSORGLEFT
 10
0.0
 20
0.0
 30
0.0
  9
$UCSORGRIGHT
 10
0.0
 20
0.0
 30
0.0
  9
$UCSORGFRONT
 10
0.0
 20
0.0
 30
0.0
  9
$UCSORGBACK
 10
0.0
 20
0.0
 30
0.0
  9
$PUCSBASE
  2

  9
$PUCSNAME
  2

  9
$PUCSORG
 10
0.0
 20
0.0
 30
0.0
  9
$PUCSXDIR
 10
1.0
 20
0.0
 30
0.0
  9
$PUCSYDIR
 10
0.0
 20
1.0
 30
0.0
  9
$PUCSORTHOREF
  2

  9
$PUCSORTHOVIEW
 70
     0
  9
$PUCSORGTOP
 10
0.0
 20
0.0
 30
0.0
  9
$PUCSORGBOTTOM
 10
0.0
 20
0.0
 30
0.0
  9
$PUCSORGLEFT
 10
0.0
 20
0.0
 30
0.0
  9
$PUCSORGRIGHT
 10
0.0
 20
0.0
 30
0.0
  9
$PUCSORGFRONT
 10
0.0
 20
0.0
 30
0.0
  9
$PUCSORGBACK
 10
0.0
 20
0.0
 30
0.0
  9
$USERI1
 70
     0
  9
$USERI2
 70
     0
  9
$USERI3
 70
     0
  9
$USERI4
 70
     0
  9
$USERI5
 70
     0
  9
$USERR1
 40
0.0
  9
$USERR2
 40
0.0
  9
$USERR3
 40
0.0
  9
$USERR4
 40
0.0
  9
$USERR5
 40
0.0
  9
$WORLDVIEW
 70
     1
  9
$SHADEDGE
 70
     3
  9
$SHADEDIF
 70
    70
  9
$TILEMODE
 70
     1
  9
$MAXACTVP
 70
    16
  9
$PINSBASE
 10
0.0
 20
0.0
 30
0.0
  9
$PLIMCHECK
 70
     0
  9
$PEXTMIN
 10
1.000000000000000E+20
 20
1.000000000000000E+20
 30
1.000000000000000E+20
  9
$PEXTMAX
 10
-1.000000000000000E+20
 20
-1.000000000000000E+20
 30
-1.000000000000000E+20
  9
$PLIMMIN
 10
0.0
 20
0.0
  9
$PLIMMAX
 10
12.0
 20
9.0
  9
$UNITMODE
 70
     0
  9
$VISRETAIN
 70
     0
  9
$PLINEGEN
 70
     0
  9
$PSLTSCALE
 70
     1
  9
$TREEDEPTH
 70
  3020
  9
$CMLSTYLE
  2
STANDARD
  9
$CMLJUST
 70
     0
  9
$CMLSCALE
 40
20.0
  9
$PROXYGRAPHICS
 70
     1
  9
$MEASUREMENT
 70
     0
  9
$CELWEIGHT
370
    -1
  9
$ENDCAPS
280
     0
  9
$JOINSTYLE
280
     0
  9
$LWDISPLAY
290
     0
  9
$INSUNITS
 70
     0
  9
$HYPERLINKBASE
  1

  9
$STYLESHEET
  1

  9
$XEDIT
290
     1
  9
$CEPSNTYPE
380
     0
  9
$PSTYLEMODE
290
     1
  9
$FINGERPRINTGUID
  2
{A276ECBA-75B9-11D5-A85E-0080AD788799}
  9
$VERSIONGUID
  2
{459747F8-DA4F-4723-BB33-A5E792F61D9E}
  9
$EXTNAMES
290
     1
  9
$PSVPSCALE
 40
0.0
  9
$OLESTARTUP
290
     0
  0
ENDSEC
  0
SECTION
  2
CLASSES
  0
CLASS
  1
ACDBDICTIONARYWDFLT
  2
AcDbDictionaryWithDefault
  3
AutoCAD 2000
 90
        0
280
     0
281
     0
  0
CLASS
  1
ACDBPLACEHOLDER
  2
AcDbPlaceHolder
  3
AutoCAD 2000
 90
        0
280
     0
281
     0
  0
CLASS
  1
LAYOUT
  2
AcDbLayout
  3
AutoCAD 2000
 90
        0
280
     0
281
     0
  0
CLASS
  1
LONG_TRANSACTION
  2
AcDbLongTransaction
  3
AutoCAD 2000
 90
    32768
280
     0
281
     0
  0
CLASS
  1
LWPOLYLINE
  2
AcDbPolyline
  3
AutoCAD 2000
 90
    32768
280
     0
281
     1
  0
CLASS
  1
HATCH
  2
AcDbHatch
  3
AutoCAD 2000
 90
    32768
280
     0
281
     1
  0
CLASS
  1
XRECORD
  2
AcDbXrecord
  3
AutoCAD 2000
 90
    32768
280
     0
281
     0
  0
CLASS
  1
DICTIONARYVAR
  2
AcDbDictionaryVar
  3
AutoCAD 2000
 90
        0
280
     0
281
     0
  0
CLASS
  1
LONG_TRANSACTION
  2
AcDbLongTransaction
  3
AutoCAD 2000
 90
    32768
280
     0
281
     0
  0
CLASS
  1
LWPOLYLINE
  2
AcDbPolyline
  3
AutoCAD 2000
 90
    32768
280
     0
281
     1
  0
CLASS
  1
HATCH
  2
AcDbHatch
  3
AutoCAD 2000
 90
    32768
280
     0
281
     1
  0
CLASS
  1
XRECORD
  2
AcDbXrecord
  3
AutoCAD 2000
 90
    32768
280
     0
281
     0
  0
ENDSEC
  0
SECTION
  2
TABLES
  0
TABLE
  2
VPORT
  5
8
330
0
100
AcDbSymbolTable
 70
     3
  0
VPORT
  5
7FBB
330
8
100
AcDbSymbolTableRecord
100
AcDbViewportTableRecord
  2
*Active
 70
     0
 10
0.0
 20
0.0
 11
1.0
 21
1.0
 12
3068.338470781578
 22
3157.168159800004
 13
0.0
 23
0.0
 14
10.0
 24
10.0
 15
10.0
 25
10.0
 16
0.0
 26
0.0
 36
1.0
 17
0.0
 27
0.0
 37
0.0
 40
4173.265945933528
 41
1.73997233748271
 42
50.0
 43
0.0
 44
0.0
 50
0.0
 51
0.0
 71
     0
 72
   100
 73
     1
 74
     0
 75
     0
 76
     0
 77
     0
 78
     0
281
     0
 65
     1
110
0.0
120
0.0
130
0.0
111
1.0
121
0.0
131
0.0
112
0.0
122
1.0
132
0.0
 79
     0
146
0.0
  0
ENDTAB
  0
TABLE
  2
LTYPE
  5
5
330
0
100
AcDbSymbolTable
 70
     2
  0
LTYPE
  5
13
330
5
100
AcDbSymbolTableRecord
100
AcDbLinetypeTableRecord
  2
BYBLOCK
 70
     0
  3

 72
    65
 73
     0
 40
0.0
  0
LTYPE
  5
14
330
5
100
AcDbSymbolTableRecord
100
AcDbLinetypeTableRecord
  2
BYLAYER
 70
     0
  3

 72
    65
 73
     0
 40
0.0
  0
LTYPE
  5
15
330
5
100
AcDbSymbolTableRecord
100
AcDbLinetypeTableRecord
  2
CONTINUOUS
 70
     0
  3
Solid line
 72
    65
 73
     0
 40
0.0
  0
LTYPE
  5
1F
330
5
100
AcDbSymbolTableRecord
100
AcDbLinetypeTableRecord
  2
CENTER
 70
     0
  3
____ _ ____ _ ____ _ ____ _ ____ _ ____ _ ____ 
 72
    65
 73
     4
 40
2.0
 49
1.25
 74
     0
 49
-0.25
 74
     0
 49
0.25
 74
     0
 49
-0.25
 74
     0
  0
ENDTAB
  0
TABLE
  2
LAYER
  5
2
330
0
100
AcDbSymbolTable
 70
     6
  0
LAYER
  5
F
330
2
100
AcDbSymbolTableRecord
100
AcDbLayerTableRecord
  2
0
 70
     0
 62
    -7
  6
CONTINUOUS
370
    -3
390
7CD6
  0
LAYER
  5
31
330
2
100
AcDbSymbolTableRecord
100
AcDbLayerTableRecord
  2
3
 70
     0
 62
     2
  6
CONTINUOUS
370
    -3
390
7CD6
  0
LAYER
  5
76D0
330
2
100
AcDbSymbolTableRecord
100
AcDbLayerTableRecord
  2
2
 70
     0
 62
     3
  6
CENTER
370
    -3
390
7CD6
  0
LAYER
  5
76D1
330
2
100
AcDbSymbolTableRecord
100
AcDbLayerTableRecord
  2
1
 70
     0
 62
     4
  6
CONTINUOUS
370
    -3
390
7CD6
  0
LAYER
  5
76D2
330
2
100
AcDbSymbolTableRecord
100
AcDbLayerTableRecord
  2
4
 70
     0
 62
     7
  6
CONTINUOUS
370
    -3
390
7CD6
  0
LAYER
  5
7A9F
330
2
100
AcDbSymbolTableRecord
100
AcDbLayerTableRecord
  2
DEFPOINTS
 70
     0
 62
     7
  6
CONTINUOUS
290
     0
370
    -3
390
7CD6
  0
ENDTAB
  0
TABLE
  2
STYLE
  5
3
330
0
100
AcDbSymbolTable
 70
     1
  0
STYLE
  5
10
330
3
100
AcDbSymbolTableRecord
100
AcDbTextStyleTableRecord
  2
STANDARD
 70
     0
 40
0.0
 41
1.0
 50
0.0
 71
     0
 42
180.0
  3
simplex.shx
  4
extfont.shx
  0
ENDTAB
  0
TABLE
  2
VIEW
  5
6
330
0
100
AcDbSymbolTable
 70
     0
  0
ENDTAB
  0
TABLE
  2
UCS
  5
7
330
0
100
AcDbSymbolTable
 70
     0
  0
ENDTAB
  0
TABLE
  2
APPID
  5
9
330
0
100
AcDbSymbolTable
 70
     1
  0
APPID
  5
11
330
9
100
AcDbSymbolTableRecord
100
AcDbRegAppTableRecord
  2
ACAD
 70
     0
  0
ENDTAB
  0
TABLE
  2
DIMSTYLE
  5
A
330
0
100
AcDbSymbolTable
 70
     1
100
AcDbDimStyleTable
 71
     1
340
1D
  0
DIMSTYLE
105
1D
102
{ACAD_REACTORS
330
7AB1
330
7ABE
330
7AD8
330
7B10
330
7B2D
330
7B3A
330
7B4A
330
7B57
330
7CC3
330
7F56
330
7F7B
330
7FA3
102
}
330
A
100
AcDbSymbolTableRecord
100
AcDbDimStyleTableRecord
  2
IGA
 70
     0
 40
2.0
 41
2.0
 42
0.5
 43
10.0
 44
1.0
 47
1.0
 48
1.0
 73
     0
 74
     0
 77
     1
 78
     8
140
3.0
141
0.0
143
0.03937
146
10.0
147
1.0
173
     1
271
     1
272
     0
279
     2
284
     8
340
10
341
7A91
343
7A91
344
7A91
  0
ENDTAB
  0
TABLE
  2
BLOCK_RECORD
  5
1
330
0
100
AcDbSymbolTable
 70
    13
  0
BLOCK_RECORD
  5
19
102
{ACAD_XDICTIONARY
360
7D04
102
}
330
1
100
AcDbSymbolTableRecord
100
AcDbBlockTableRecord
  2
*MODEL_SPACE
340
7CD9
  0
BLOCK_RECORD
  5
16
102
{ACAD_XDICTIONARY
360
7D02
102
}
330
1
100
AcDbSymbolTableRecord
100
AcDbBlockTableRecord
  2
*PAPER_SPACE
340
7CDA
  0
BLOCK_RECORD
  5
7A91
330
1
100
AcDbSymbolTableRecord
100
AcDbBlockTableRecord
  2
_OPEN
340
0
102
{BLKREFS
331
7EE1
331
7EE2
331
7EEA
331
7EEB
331
7EF3
331
7EF4
331
7F16
331
7F17
331
7F1F
331
7F20
331
7F28
331
7F29
331
7F31
331
7F32
331
7F3A
331
7F3B
331
7F43
331
7F44
331
7F75
331
7F76
331
7F8B
331
7F8C
331
7FA8
331
7FA9
102
}
  0
BLOCK_RECORD
  5
7AA5
330
1
100
AcDbSymbolTableRecord
100
AcDbBlockTableRecord
  2
*D1
340
0
  0
BLOCK_RECORD
  5
7AB2
330
1
100
AcDbSymbolTableRecord
100
AcDbBlockTableRecord
  2
*D2
340
0
  0
BLOCK_RECORD
  5
7ACC
330
1
100
AcDbSymbolTableRecord
100
AcDbBlockTableRecord
  2
*D3
340
0
  0
BLOCK_RECORD
  5
7B04
330
1
100
AcDbSymbolTableRecord
100
AcDbBlockTableRecord
  2
*D4
340
0
  0
BLOCK_RECORD
  5
7B21
330
1
100
AcDbSymbolTableRecord
100
AcDbBlockTableRecord
  2
*D5
340
0
  0
BLOCK_RECORD
  5
7B2E
330
1
100
AcDbSymbolTableRecord
100
AcDbBlockTableRecord
  2
*D6
340
0
  0
BLOCK_RECORD
  5
7B3C
330
1
100
AcDbSymbolTableRecord
100
AcDbBlockTableRecord
  2
*D7
340
0
  0
BLOCK_RECORD
  5
7B4B
330
1
100
AcDbSymbolTableRecord
100
AcDbBlockTableRecord
  2
*D8
340
0
  0
BLOCK_RECORD
  5
7CB7
330
1
100
AcDbSymbolTableRecord
100
AcDbBlockTableRecord
  2
*D9
340
0
  0
BLOCK_RECORD
  5
7F57
330
1
100
AcDbSymbolTableRecord
100
AcDbBlockTableRecord
  2
*D10
340
0
  0
BLOCK_RECORD
  5
7F7C
330
1
100
AcDbSymbolTableRecord
100
AcDbBlockTableRecord
  2
*D11
340
0
  0
BLOCK_RECORD
  5
7FA4
330
1
100
AcDbSymbolTableRecord
100
AcDbBlockTableRecord
  2
*D12
340
0
  0
ENDTAB
  0
ENDSEC
  0
SECTION
  2
BLOCKS
  0
BLOCK
  5
1A
330
19
100
AcDbEntity
  8
0
100
AcDbBlockBegin
  2
*MODEL_SPACE
 70
     0
 10
0.0
 20
0.0
 30
0.0
  3
*MODEL_SPACE
  1

  0
ENDBLK
  5
1B
330
19
100
AcDbEntity
  8
0
100
AcDbBlockEnd
  0
BLOCK
  5
17
330
16
100
AcDbEntity
 67
     1
  8
0
100
AcDbBlockBegin
  2
*PAPER_SPACE
 70
     0
 10
0.0
 20
0.0
 30
0.0
  3
*PAPER_SPACE
  1

  0
ENDBLK
  5
18
330
16
100
AcDbEntity
 67
     1
  8
0
100
AcDbBlockEnd
  0
BLOCK
  5
7A92
330
7A91
100
AcDbEntity
  8
0
100
AcDbBlockBegin
  2
_OPEN
 70
     0
 10
0.0
 20
0.0
 30
0.0
  3
_OPEN
  1

  0
LINE
  5
7A93
330
7A91
100
AcDbEntity
  8
0
  6
ByBlock
 62
     0
100
AcDbLine
 10
-1.0
 20
0.166667
 30
0.0
 11
0.0
 21
0.0
 31
0.0
  0
LINE
  5
7A94
330
7A91
100
AcDbEntity
  8
0
  6
ByBlock
 62
     0
100
AcDbLine
 10
0.0
 20
0.0
 30
0.0
 11
-1.0
 21
-0.166667
 31
0.0
  0
LINE
  5
7A95
330
7A91
100
AcDbEntity
  8
0
  6
ByBlock
 62
     0
100
AcDbLine
 10
0.0
 20
0.0
 30
0.0
 11
-1.0
 21
0.0
 31
0.0
  0
ENDBLK
  5
7A96
330
7A91
100
AcDbEntity
  8
0
100
AcDbBlockEnd
  0
BLOCK
  5
7E19
330
7AA5
100
AcDbEntity
  8
0
100
AcDbBlockBegin
  2
*D1
 70
     1
 10
0.0
 20
0.0
 30
0.0
  3
*D1
  1

  0
LINE
  5
7EDE
330
7AA5
100
AcDbEntity
  8
3
  6
Continuous
 62
     0
100
AcDbLine
 10
714.308911
 20
1342.627483
 30
0.0
 11
714.308911
 21
1185.025838
 31
0.0
  0
LINE
  5
7EDF
330
7AA5
100
AcDbEntity
  8
3
  6
Continuous
 62
     0
100
AcDbLine
 10
1614.308911
 20
1342.627483
 30
0.0
 11
1614.308911
 21
1185.025838
 31
0.0
  0
LINE
  5
7EE0
330
7AA5
100
AcDbEntity
  8
3
  6
Continuous
 62
     0
100
AcDbLine
 10
744.308911
 20
1200.025838
 30
0.0
 11
1584.308910999999
 21
1200.025838
 31
0.0
  0
INSERT
  5
7EE1
330
7AA5
100
AcDbEntity
  8
3
  6
Continuous
 62
     0
100
AcDbBlockReference
  2
_OPEN
 10
714.308911
 20
1200.025838
 30
0.0
 41
30.0
 42
30.0
 43
30.0
 50
180.0
  0
INSERT
  5
7EE2
330
7AA5
100
AcDbEntity
  8
3
  6
Continuous
 62
     0
100
AcDbBlockReference
  2
_OPEN
 10
1614.308911
 20
1200.025838
 30
0.0
 41
30.0
 42
30.0
 43
30.0
  0
MTEXT
  5
7EE3
330
7AA5
100
AcDbEntity
  8
3
  6
Continuous
 62
     0
100
AcDbMText
 10
1149.962997
 20
1237.525838
 30
0.0
 40
45.0
 41
0.0
 71
     5
 72
     5
  1
\A1;900
 73
     1
 44
1.0
  0
POINT
  5
7EE4
330
7AA5
100
AcDbEntity
  8
DEFPOINTS
  6
Continuous
 62
     0
100
AcDbPoint
 10
714.308911
 20
1350.127483
 30
0.0
  0
POINT
  5
7EE5
330
7AA5
100
AcDbEntity
  8
DEFPOINTS
  6
Continuous
 62
     0
100
AcDbPoint
 10
1614.308911
 20
1350.127483
 30
0.0
  0
POINT
  5
7EE6
330
7AA5
100
AcDbEntity
  8
DEFPOINTS
  6
Continuous
 62
     0
100
AcDbPoint
 10
1614.308911
 20
1200.025838
 30
0.0
  0
ENDBLK
  5
7E23
330
7AA5
100
AcDbEntity
  8
0
100
AcDbBlockEnd
  0
BLOCK
  5
7E24
330
7AB2
100
AcDbEntity
  8
0
100
AcDbBlockBegin
  2
*D2
 70
     1
 10
0.0
 20
0.0
 30
0.0
  3
*D2
  1

  0
LINE
  5
7EE7
330
7AB2
100
AcDbEntity
  8
3
  6
Continuous
 62
     0
100
AcDbLine
 10
804.308911
 20
1967.627482999999
 30
0.0
 11
804.308911
 21
2104.699602
 31
0.0
  0
LINE
  5
7EE8
330
7AB2
100
AcDbEntity
  8
3
  6
Continuous
 62
     0
100
AcDbLine
 10
1524.308911
 20
1967.627482999999
 30
0.0
 11
1524.308911
 21
2104.699602
 31
0.0
  0
LINE
  5
7EE9
330
7AB2
100
AcDbEntity
  8
3
  6
Continuous
 62
     0
100
AcDbLine
 10
834.3089110000001
 20
2089.699602
 30
0.0
 11
1494.308911
 21
2089.699602
 31
0.0
  0
INSERT
  5
7EEA
330
7AB2
100
AcDbEntity
  8
3
  6
Continuous
 62
     0
100
AcDbBlockReference
  2
_OPEN
 10
804.308911
 20
2089.699602
 30
0.0
 41
30.0
 42
30.0
 43
30.0
 50
180.0
  0
INSERT
  5
7EEB
330
7AB2
100
AcDbEntity
  8
3
  6
Continuous
 62
     0
100
AcDbBlockReference
  2
_OPEN
 10
1524.308911
 20
2089.699602
 30
0.0
 41
30.0
 42
30.0
 43
30.0
  0
MTEXT
  5
7EEC
330
7AB2
100
AcDbEntity
  8
3
  6
Continuous
 62
     0
100
AcDbMText
 10
1171.162815
 20
2127.199602
 30
0.0
 40
45.0
 41
0.0
 71
     5
 72
     5
  1
\A1;720
 73
     1
 44
1.0
  0
POINT
  5
7EED
330
7AB2
100
AcDbEntity
  8
DEFPOINTS
  6
Continuous
 62
     0
100
AcDbPoint
 10
804.308911
 20
1960.127482999999
 30
0.0
  0
POINT
  5
7EEE
330
7AB2
100
AcDbEntity
  8
DEFPOINTS
  6
Continuous
 62
     0
100
AcDbPoint
 10
1524.308911
 20
1960.127482999999
 30
0.0
  0
POINT
  5
7EEF
330
7AB2
100
AcDbEntity
  8
DEFPOINTS
  6
Continuous
 62
     0
100
AcDbPoint
 10
1524.308911
 20
2089.699602
 30
0.0
  0
ENDBLK
  5
7E2E
330
7AB2
100
AcDbEntity
  8
0
100
AcDbBlockEnd
  0
BLOCK
  5
7E2F
330
7ACC
100
AcDbEntity
  8
0
100
AcDbBlockBegin
  2
*D3
 70
     1
 10
0.0
 20
0.0
 30
0.0
  3
*D3
  1

  0
LINE
  5
7EF0
330
7ACC
100
AcDbEntity
  8
3
  6
Continuous
 62
     0
100
AcDbLine
 10
803.920704
 20
2514.024987
 30
0.0
 11
803.920704
 21
2371.045674999999
 31
0.0
  0
LINE
  5
7EF1
330
7ACC
100
AcDbEntity
  8
3
  6
Continuous
 62
     0
100
AcDbLine
 10
1523.920703999999
 20
2514.024987
 30
0.0
 11
1523.920703999999
 21
2371.045674999999
 31
0.0
  0
LINE
  5
7EF2
330
7ACC
100
AcDbEntity
  8
3
  6
Continuous
 62
     0
100
AcDbLine
 10
833.9207040000001
 20
2386.045674999999
 30
0.0
 11
1493.920703999999
 21
2386.045674999999
 31
0.0
  0
INSERT
  5
7EF3
330
7ACC
100
AcDbEntity
  8
3
  6
Continuous
 62
     0
100
AcDbBlockReference
  2
_OPEN
 10
803.920704
 20
2386.045674999999
 30
0.0
 41
30.0
 42
30.0
 43
30.0
 50
180.0
  0
INSERT
  5
7EF4
330
7ACC
100
AcDbEntity
  8
3
  6
Continuous
 62
     0
100
AcDbBlockReference
  2
_OPEN
 10
1523.920703999999
 20
2386.045674999999
 30
0.0
 41
30.0
 42
30.0
 43
30.0
  0
MTEXT
  5
7EF5
330
7ACC
100
AcDbEntity
  8
3
  6
Continuous
 62
     0
100
AcDbMText
 10
1164.592826
 20
2423.545674999999
 30
0.0
 40
45.0
 41
0.0
 71
     5
 72
     5
  1
\A1;720
 73
     1
 44
1.0
  0
POINT
  5
7EF6
330
7ACC
100
AcDbEntity
  8
DEFPOINTS
  6
Continuous
 62
     0
100
AcDbPoint
 10
803.920704
 20
2521.524987
 30
0.0
  0
POINT
  5
7EF7
330
7ACC
100
AcDbEntity
  8
DEFPOINTS
  6
Continuous
 62
     0
100
AcDbPoint
 10
1523.920703999999
 20
2521.524987
 30
0.0
  0
POINT
  5
7EF8
330
7ACC
100
AcDbEntity
  8
DEFPOINTS
  6
Continuous
 62
     0
100
AcDbPoint
 10
1523.920703999999
 20
2386.045674999999
 30
0.0
  0
ENDBLK
  5
7E39
330
7ACC
100
AcDbEntity
  8
0
100
AcDbBlockEnd
  0
BLOCK
  5
7E5A
330
7B04
100
AcDbEntity
  8
0
100
AcDbBlockBegin
  2
*D4
 70
     1
 10
0.0
 20
0.0
 30
0.0
  3
*D4
  1

  0
LINE
  5
7F13
330
7B04
100
AcDbEntity
  8
3
  6
Continuous
 62
     0
100
AcDbLine
 10
2139.738832
 20
1342.627483
 30
0.0
 11
2139.738832
 21
1189.198886
 31
0.0
  0
LINE
  5
7F14
330
7B04
100
AcDbEntity
  8
3
  6
Continuous
 62
     0
100
AcDbLine
 10
2675.738832
 20
1342.627483
 30
0.0
 11
2675.738832
 21
1189.198886
 31
0.0
  0
LINE
  5
7F15
330
7B04
100
AcDbEntity
  8
3
  6
Continuous
 62
     0
100
AcDbLine
 10
2169.738832
 20
1204.198886
 30
0.0
 11
2645.738832
 21
1204.198886
 31
0.0
  0
INSERT
  5
7F16
330
7B04
100
AcDbEntity
  8
3
  6
Continuous
 62
     0
100
AcDbBlockReference
  2
_OPEN
 10
2139.738832
 20
1204.198886
 30
0.0
 41
30.0
 42
30.0
 43
30.0
 50
180.0
  0
INSERT
  5
7F17
330
7B04
100
AcDbEntity
  8
3
  6
Continuous
 62
     0
100
AcDbBlockReference
  2
_OPEN
 10
2675.738832
 20
1204.198886
 30
0.0
 41
30.0
 42
30.0
 43
30.0
  0
MTEXT
  5
7F18
330
7B04
100
AcDbEntity
  8
3
  6
Continuous
 62
     0
100
AcDbMText
 10
2424.747679
 20
1241.698886
 30
0.0
 40
45.0
 41
0.0
 71
     5
 72
     5
  1
\A1;536
 73
     1
 44
1.0
  0
POINT
  5
7F19
330
7B04
100
AcDbEntity
  8
DEFPOINTS
  6
Continuous
 62
     0
100
AcDbPoint
 10
2139.738832
 20
1350.127483
 30
0.0
  0
POINT
  5
7F1A
330
7B04
100
AcDbEntity
  8
DEFPOINTS
  6
Continuous
 62
     0
100
AcDbPoint
 10
2675.738832
 20
1350.127483
 30
0.0
  0
POINT
  5
7F1B
330
7B04
100
AcDbEntity
  8
DEFPOINTS
  6
Continuous
 62
     0
100
AcDbPoint
 10
2675.738832
 20
1204.198886
 30
0.0
  0
ENDBLK
  5
7E64
330
7B04
100
AcDbEntity
  8
0
100
AcDbBlockEnd
  0
BLOCK
  5
7E65
330
7B21
100
AcDbEntity
  8
0
100
AcDbBlockBegin
  2
*D5
 70
     1
 10
0.0
 20
0.0
 30
0.0
  3
*D5
  1

  0
LINE
  5
7F1C
330
7B21
100
AcDbEntity
  8
3
  6
Continuous
 62
     0
100
AcDbLine
 10
709.918066
 20
1665.127483
 30
0.0
 11
637.9289930000002
 21
1665.127483
 31
0.0
  0
LINE
  5
7F1D
330
7B21
100
AcDbEntity
  8
3
  6
Continuous
 62
     0
100
AcDbLine
 10
706.808911
 20
1350.127483
 30
0.0
 11
637.9289930000002
 21
1350.127483
 31
0.0
  0
LINE
  5
7F1E
330
7B21
100
AcDbEntity
  8
3
  6
Continuous
 62
     0
100
AcDbLine
 10
652.9289930000002
 20
1635.127483
 30
0.0
 11
652.9289930000002
 21
1380.127483
 31
0.0
  0
INSERT
  5
7F1F
330
7B21
100
AcDbEntity
  8
3
  6
Continuous
 62
     0
100
AcDbBlockReference
  2
_OPEN
 10
652.9289930000002
 20
1665.127483
 30
0.0
 41
30.0
 42
30.0
 43
30.0
 50
90.0
  0
INSERT
  5
7F20
330
7B21
100
AcDbEntity
  8
3
  6
Continuous
 62
     0
100
AcDbBlockReference
  2
_OPEN
 10
652.9289930000002
 20
1350.127483
 30
0.0
 41
30.0
 42
30.0
 43
30.0
 50
270.0
  0
MTEXT
  5
7F21
330
7B21
100
AcDbEntity
  8
3
  6
Continuous
 62
     0
100
AcDbMText
 10
615.428993
 20
1566.556054428571
 30
0.0
 40
45.0
 41
0.0
 71
     5
 72
     5
  1
\A1;315
 11
0.0000000000000001
 21
1.0
 31
0.0
 73
     1
 44
1.0
  0
POINT
  5
7F22
330
7B21
100
AcDbEntity
  8
DEFPOINTS
  6
Continuous
 62
     0
100
AcDbPoint
 10
717.4180660000001
 20
1665.127483
 30
0.0
  0
POINT
  5
7F23
330
7B21
100
AcDbEntity
  8
DEFPOINTS
  6
Continuous
 62
     0
100
AcDbPoint
 10
714.308911
 20
1350.127483
 30
0.0
  0
POINT
  5
7F24
330
7B21
100
AcDbEntity
  8
DEFPOINTS
  6
Continuous
 62
     0
100
AcDbPoint
 10
652.9289930000002
 20
1350.127483
 30
0.0
  0
ENDBLK
  5
7E6F
330
7B21
100
AcDbEntity
  8
0
100
AcDbBlockEnd
  0
BLOCK
  5
7E70
330
7B2E
100
AcDbEntity
  8
0
100
AcDbBlockBegin
  2
*D6
 70
     1
 10
0.0
 20
0.0
 30
0.0
  3
*D6
  1

  0
LINE
  5
7F25
330
7B2E
100
AcDbEntity
  8
3
  6
Continuous
 62
     0
100
AcDbLine
 10
706.808911
 20
1350.127483
 30
0.0
 11
545.3281860000003
 21
1350.127483
 31
0.0
  0
LINE
  5
7F26
330
7B2E
100
AcDbEntity
  8
3
  6
Continuous
 62
     0
100
AcDbLine
 10
796.8089110000001
 20
1960.127482999999
 30
0.0
 11
545.3281860000004
 21
1960.127482999999
 31
0.0
  0
LINE
  5
7F27
330
7B2E
100
AcDbEntity
  8
3
  6
Continuous
 62
     0
100
AcDbLine
 10
560.3281860000002
 20
1380.127483
 30
0.0
 11
560.3281860000004
 21
1930.127482999999
 31
0.0
  0
INSERT
  5
7F28
330
7B2E
100
AcDbEntity
  8
3
  6
Continuous
 62
     0
100
AcDbBlockReference
  2
_OPEN
 10
560.3281860000002
 20
1350.127483
 30
0.0
 41
30.0
 42
30.0
 43
30.0
 50
270.0
  0
INSERT
  5
7F29
330
7B2E
100
AcDbEntity
  8
3
  6
Continuous
 62
     0
100
AcDbBlockReference
  2
_OPEN
 10
560.3281860000004
 20
1960.127482999999
 30
0.0
 41
30.0
 42
30.0
 43
30.0
 50
90.0
  0
MTEXT
  5
7F2A
330
7B2E
100
AcDbEntity
  8
3
  6
Continuous
 62
     0
100
AcDbMText
 10
522.828186
 20
1644.091682
 30
0.0
 40
45.0
 41
0.0
 71
     5
 72
     5
  1
\A1;610
 11
0.0000000000000001
 21
1.0
 31
0.0
 73
     1
 44
1.0
  0
POINT
  5
7F2B
330
7B2E
100
AcDbEntity
  8
DEFPOINTS
  6
Continuous
 62
     0
100
AcDbPoint
 10
714.308911
 20
1350.127483
 30
0.0
  0
POINT
  5
7F2C
330
7B2E
100
AcDbEntity
  8
DEFPOINTS
  6
Continuous
 62
     0
100
AcDbPoint
 10
804.308911
 20
1960.127482999999
 30
0.0
  0
POINT
  5
7F2D
330
7B2E
100
AcDbEntity
  8
DEFPOINTS
  6
Continuous
 62
     0
100
AcDbPoint
 10
560.3281860000004
 20
1960.127482999999
 30
0.0
  0
ENDBLK
  5
7E7A
330
7B2E
100
AcDbEntity
  8
0
100
AcDbBlockEnd
  0
BLOCK
  5
7E7B
330
7B3C
100
AcDbEntity
  8
0
100
AcDbBlockBegin
  2
*D7
 70
     1
 10
0.0
 20
0.0
 30
0.0
  3
*D7
  1

  0
LINE
  5
7F2E
330
7B3C
100
AcDbEntity
  8
3
  6
Continuous
 62
     0
100
AcDbLine
 10
2317.738832
 20
1782.627482999999
 30
0.0
 11
2317.738832
 21
1883.374201
 31
0.0
  0
LINE
  5
7F2F
330
7B3C
100
AcDbEntity
  8
3
  6
Continuous
 62
     0
100
AcDbLine
 10
2497.738832
 20
1782.627482999999
 30
0.0
 11
2497.738832
 21
1883.374201
 31
0.0
  0
LINE
  5
7F30
330
7B3C
100
AcDbEntity
  8
3
  6
Continuous
 62
     0
100
AcDbLine
 10
2347.738832
 20
1868.374200999999
 30
0.0
 11
2467.738832
 21
1868.374200999999
 31
0.0
  0
INSERT
  5
7F31
330
7B3C
100
AcDbEntity
  8
3
  6
Continuous
 62
     0
100
AcDbBlockReference
  2
_OPEN
 10
2317.738832
 20
1868.374200999999
 30
0.0
 41
30.0
 42
30.0
 43
30.0
 50
180.0
  0
INSERT
  5
7F32
330
7B3C
100
AcDbEntity
  8
3
  6
Continuous
 62
     0
100
AcDbBlockReference
  2
_OPEN
 10
2497.738832
 20
1868.374200999999
 30
0.0
 41
30.0
 42
30.0
 43
30.0
  0
MTEXT
  5
7F33
330
7B3C
100
AcDbEntity
  8
3
  6
Continuous
 62
     0
100
AcDbMText
 10
2407.738832
 20
1905.874200999999
 30
0.0
 40
45.0
 41
0.0
 71
     5
 72
     5
  1
\A1;180
 73
     1
 44
1.0
  0
POINT
  5
7F34
330
7B3C
100
AcDbEntity
  8
DEFPOINTS
  6
Continuous
 62
     0
100
AcDbPoint
 10
2317.738832
 20
1775.127482999999
 30
0.0
  0
POINT
  5
7F35
330
7B3C
100
AcDbEntity
  8
DEFPOINTS
  6
Continuous
 62
     0
100
AcDbPoint
 10
2497.738832
 20
1775.127482999999
 30
0.0
  0
POINT
  5
7F36
330
7B3C
100
AcDbEntity
  8
DEFPOINTS
  6
Continuous
 62
     0
100
AcDbPoint
 10
2497.738832
 20
1868.374200999999
 30
0.0
  0
ENDBLK
  5
7E87
330
7B3C
100
AcDbEntity
  8
0
100
AcDbBlockEnd
  0
BLOCK
  5
7E88
330
7B4B
100
AcDbEntity
  8
0
100
AcDbBlockBegin
  2
*D8
 70
     1
 10
0.0
 20
0.0
 30
0.0
  3
*D8
  1

  0
LINE
  5
7F37
330
7B4B
100
AcDbEntity
  8
3
  6
Continuous
 62
     0
100
AcDbLine
 10
2310.238832
 20
1775.127482999999
 30
0.0
 11
2196.030332
 21
1775.127482999999
 31
0.0
  0
LINE
  5
7F38
330
7B4B
100
AcDbEntity
  8
3
  6
Continuous
 62
     0
100
AcDbLine
 10
2310.238832
 20
1535.127483
 30
0.0
 11
2196.030332
 21
1535.127483
 31
0.0
  0
LINE
  5
7F39
330
7B4B
100
AcDbEntity
  8
3
  6
Continuous
 62
     0
100
AcDbLine
 10
2211.030332
 20
1745.127483
 30
0.0
 11
2211.030332
 21
1565.127483
 31
0.0
  0
INSERT
  5
7F3A
330
7B4B
100
AcDbEntity
  8
3
  6
Continuous
 62
     0
100
AcDbBlockReference
  2
_OPEN
 10
2211.030332
 20
1775.127482999999
 30
0.0
 41
30.0
 42
30.0
 43
30.0
 50
90.0
  0
INSERT
  5
7F3B
330
7B4B
100
AcDbEntity
  8
3
  6
Continuous
 62
     0
100
AcDbBlockReference
  2
_OPEN
 10
2211.030332
 20
1535.127483
 30
0.0
 41
30.0
 42
30.0
 43
30.0
 50
270.0
  0
MTEXT
  5
7F3C
330
7B4B
100
AcDbEntity
  8
3
  6
Continuous
 62
     0
100
AcDbMText
 10
2173.530331999999
 20
1655.801485
 30
0.0
 40
45.0
 41
0.0
 71
     5
 72
     5
  1
\A1;240
 11
0.0000000000000001
 21
1.0
 31
0.0
 73
     1
 44
1.0
  0
POINT
  5
7F3D
330
7B4B
100
AcDbEntity
  8
DEFPOINTS
  6
Continuous
 62
     0
100
AcDbPoint
 10
2317.738832
 20
1775.127482999999
 30
0.0
  0
POINT
  5
7F3E
330
7B4B
100
AcDbEntity
  8
DEFPOINTS
  6
Continuous
 62
     0
100
AcDbPoint
 10
2317.738832
 20
1535.127483
 30
0.0
  0
POINT
  5
7F3F
330
7B4B
100
AcDbEntity
  8
DEFPOINTS
  6
Continuous
 62
     0
100
AcDbPoint
 10
2211.030332
 20
1535.127483
 30
0.0
  0
ENDBLK
  5
7E92
330
7B4B
100
AcDbEntity
  8
0
100
AcDbBlockEnd
  0
BLOCK
  5
7E93
330
7CB7
100
AcDbEntity
  8
0
100
AcDbBlockBegin
  2
*D9
 70
     1
 10
0.0
 20
0.0
 30
0.0
  3
*D9
  1

  0
LINE
  5
7F40
330
7CB7
100
AcDbEntity
  8
3
 62
     0
100
AcDbLine
 10
1621.808910999999
 20
1350.127483
 30
0.0
 11
1717.738018447411
 21
1350.127483
 31
0.0
  0
LINE
  5
7F41
330
7CB7
100
AcDbEntity
  8
3
 62
     0
100
AcDbLine
 10
1621.713609
 20
1665.127483
 30
0.0
 11
1717.738018447411
 21
1665.127483
 31
0.0
  0
LINE
  5
7F42
330
7CB7
100
AcDbEntity
  8
3
 62
     0
100
AcDbLine
 10
1702.738018447411
 20
1380.127483
 30
0.0
 11
1702.738018447411
 21
1635.127483
 31
0.0
  0
INSERT
  5
7F43
330
7CB7
100
AcDbEntity
  8
3
 62
     0
100
AcDbBlockReference
  2
_OPEN
 10
1702.738018447411
 20
1350.127483
 30
0.0
 41
30.0
 42
30.0
 43
30.0
 50
270.0
  0
INSERT
  5
7F44
330
7CB7
100
AcDbEntity
  8
3
 62
     0
100
AcDbBlockReference
  2
_OPEN
 10
1702.738018447411
 20
1665.127483
 30
0.0
 41
30.0
 42
30.0
 43
30.0
 50
90.0
  0
MTEXT
  5
7F45
330
7CB7
100
AcDbEntity
  8
3
 62
     0
100
AcDbMText
 10
1665.238018447411
 20
1566.556054428571
 30
0.0
 40
45.0
 41
0.0
 71
     5
 72
     5
  1
\A1;315
 11
0.0000000000000001
 21
1.0
 31
0.0
 73
     1
 44
1.0
  0
POINT
  5
7F46
330
7CB7
100
AcDbEntity
  8
DEFPOINTS
 62
     0
100
AcDbPoint
 10
1614.308911
 20
1350.127483
 30
0.0
  0
POINT
  5
7F47
330
7CB7
100
AcDbEntity
  8
DEFPOINTS
 62
     0
100
AcDbPoint
 10
1614.213609
 20
1665.127483
 30
0.0
  0
POINT
  5
7F48
330
7CB7
100
AcDbEntity
  8
DEFPOINTS
 62
     0
100
AcDbPoint
 10
1702.738018447411
 20
1665.127483
 30
0.0
  0
ENDBLK
  5
7E9D
330
7CB7
100
AcDbEntity
  8
0
100
AcDbBlockEnd
  0
BLOCK
  5
7F63
330
7F57
100
AcDbEntity
  8
0
100
AcDbBlockBegin
  2
*D10
 70
     1
 10
0.0
 20
0.0
 30
0.0
  3
*D10
  1

  0
LINE
  5
7F72
330
7F57
100
AcDbEntity
  8
3
 62
     0
370
    -2
100
AcDbLine
 10
2139.738831999999
 20
1967.627483
 30
0.0
 11
2139.738831999999
 21
2099.628389401166
 31
0.0
  0
LINE
  5
7F73
330
7F57
100
AcDbEntity
  8
3
 62
     0
370
    -2
100
AcDbLine
 10
2407.738832
 20
2023.803517735161
 30
0.0
 11
2407.738832
 21
2099.628389401166
 31
0.0
  0
LINE
  5
7F74
330
7F57
100
AcDbEntity
  8
3
 62
     0
370
    -2
100
AcDbLine
 10
2169.738831999999
 20
2084.628389401166
 30
0.0
 11
2377.738831999999
 21
2084.628389401166
 31
0.0
  0
INSERT
  5
7F75
330
7F57
100
AcDbEntity
  8
3
 62
     0
370
    -2
100
AcDbBlockReference
  2
_OPEN
 10
2139.738831999999
 20
2084.628389401166
 30
0.0
 41
30.0
 42
30.0
 43
30.0
 50
180.0
  0
INSERT
  5
7F76
330
7F57
100
AcDbEntity
  8
3
 62
     0
370
    -2
100
AcDbBlockReference
  2
_OPEN
 10
2407.738832
 20
2084.628389401166
 30
0.0
 41
30.0
 42
30.0
 43
30.0
  0
MTEXT
  5
7F77
330
7F57
100
AcDbEntity
  8
3
 62
     0
100
AcDbMText
 10
2274.040871696183
 20
2122.128389401166
 30
0.0
 40
45.0
 41
0.0
 71
     5
 72
     1
  1
\A1;268
 73
     1
 44
1.0
  0
POINT
  5
7F78
330
7F57
100
AcDbEntity
  8
DEFPOINTS
 62
     0
100
AcDbPoint
 10
2139.738831999999
 20
1960.127483
 30
0.0
  0
POINT
  5
7F79
330
7F57
100
AcDbEntity
  8
DEFPOINTS
 62
     0
100
AcDbPoint
 10
2407.738832
 20
2016.303517735161
 30
0.0
  0
POINT
  5
7F7A
330
7F57
100
AcDbEntity
  8
DEFPOINTS
 62
     0
100
AcDbPoint
 10
2407.738832
 20
2084.628389401166
 30
0.0
  0
ENDBLK
  5
7F64
330
7F57
100
AcDbEntity
  8
0
100
AcDbBlockEnd
  0
BLOCK
  5
7F86
330
7F7C
100
AcDbEntity
  8
0
100
AcDbBlockBegin
  2
*D11
 70
     1
 10
0.0
 20
0.0
 30
0.0
  3
*D11
  1

  0
LINE
  5
7F88
330
7F7C
100
AcDbEntity
  8
3
 62
     0
370
    -2
100
AcDbLine
 10
2675.738832
 20
1967.627483
 30
0.0
 11
2675.738832
 21
2099.628389401166
 31
0.0
  0
LINE
  5
7F89
330
7F7C
100
AcDbEntity
  8
3
 62
     0
370
    -2
100
AcDbLine
 10
2407.738832
 20
2023.803517735161
 30
0.0
 11
2407.738832
 21
2099.628389401166
 31
0.0
  0
LINE
  5
7F8A
330
7F7C
100
AcDbEntity
  8
3
 62
     0
370
    -2
100
AcDbLine
 10
2645.738832000001
 20
2084.628389401166
 30
0.0
 11
2437.738832
 21
2084.628389401166
 31
0.0
  0
INSERT
  5
7F8B
330
7F7C
100
AcDbEntity
  8
3
 62
     0
370
    -2
100
AcDbBlockReference
  2
_OPEN
 10
2675.738832
 20
2084.628389401166
 30
0.0
 41
30.0
 42
30.0
 43
30.0
  0
INSERT
  5
7F8C
330
7F7C
100
AcDbEntity
  8
3
 62
     0
370
    -2
100
AcDbBlockReference
  2
_OPEN
 10
2407.738832
 20
2084.628389401166
 30
0.0
 41
30.0
 42
30.0
 43
30.0
 50
180.0
  0
MTEXT
  5
7F8D
330
7F7C
100
AcDbEntity
  8
3
 62
     0
100
AcDbMText
 10
2541.436792303817
 20
2122.128389401166
 30
0.0
 40
45.0
 41
0.0
 71
     5
 72
     1
  1
\A1;268
 73
     1
 44
1.0
  0
POINT
  5
7F8E
330
7F7C
100
AcDbEntity
  8
DEFPOINTS
 62
     0
100
AcDbPoint
 10
2675.738832
 20
1960.127483
 30
0.0
  0
POINT
  5
7F8F
330
7F7C
100
AcDbEntity
  8
DEFPOINTS
 62
     0
100
AcDbPoint
 10
2407.738832
 20
2016.303517735161
 30
0.0
  0
POINT
  5
7F90
330
7F7C
100
AcDbEntity
  8
DEFPOINTS
 62
     0
100
AcDbPoint
 10
2407.738832
 20
2084.628389401166
 30
0.0
  0
ENDBLK
  5
7F87
330
7F7C
100
AcDbEntity
  8
0
100
AcDbBlockEnd
  0
BLOCK
  5
7FAE
330
7FA4
100
AcDbEntity
  8
0
100
AcDbBlockBegin
  2
*D12
 70
     1
 10
0.0
 20
0.0
 30
0.0
  3
*D12
  1

  0
LINE
  5
7FA5
330
7FA4
100
AcDbEntity
  8
3
 62
     0
370
    -2
100
AcDbLine
 10
1621.420703999999
 20
3072.524987
 30
0.0
 11
1753.95503264977
 21
3072.524987
 31
0.0
  0
LINE
  5
7FA6
330
7FA4
100
AcDbEntity
  8
3
 62
     0
370
    -2
100
AcDbLine
 10
1621.420703999999
 20
2536.524987
 30
0.0
 11
1753.95503264977
 21
2536.524987
 31
0.0
  0
LINE
  5
7FA7
330
7FA4
100
AcDbEntity
  8
3
 62
     0
370
    -2
100
AcDbLine
 10
1738.95503264977
 20
3042.524987000001
 30
0.0
 11
1738.95503264977
 21
2566.524987
 31
0.0
  0
INSERT
  5
7FA8
330
7FA4
100
AcDbEntity
  8
3
 62
     0
370
    -2
100
AcDbBlockReference
  2
_OPEN
 10
1738.95503264977
 20
3072.524987
 30
0.0
 41
30.0
 42
30.0
 43
30.0
 50
90.0
  0
INSERT
  5
7FA9
330
7FA4
100
AcDbEntity
  8
3
 62
     0
370
    -2
100
AcDbBlockReference
  2
_OPEN
 10
1738.95503264977
 20
2536.524987
 30
0.0
 41
30.0
 42
30.0
 43
30.0
 50
270.0
  0
MTEXT
  5
7FAA
330
7FA4
100
AcDbEntity
  8
3
 62
     0
100
AcDbMText
 10
1701.45503264977
 20
2792.243751235399
 30
0.0
 40
45.0
 41
0.0
 71
     5
 72
     1
  1
\A1;536
 11
0.0000000000000001
 21
1.0
 31
0.0
 73
     1
 44
1.0
  0
POINT
  5
7FAB
330
7FA4
100
AcDbEntity
  8
DEFPOINTS
 62
     0
100
AcDbPoint
 10
1613.920703999999
 20
3072.524987
 30
0.0
  0
POINT
  5
7FAC
330
7FA4
100
AcDbEntity
  8
DEFPOINTS
 62
     0
100
AcDbPoint
 10
1613.920703999999
 20
2536.524987
 30
0.0
  0
POINT
  5
7FAD
330
7FA4
100
AcDbEntity
  8
DEFPOINTS
 62
     0
100
AcDbPoint
 10
1738.95503264977
 20
2536.524987
 30
0.0
  0
ENDBLK
  5
7FAF
330
7FA4
100
AcDbEntity
  8
0
100
AcDbBlockEnd
  0
ENDSEC
  0
SECTION
  2
ENTITIES
  0
LINE
  5
7A4B
330
19
100
AcDbEntity
  8
1
  6
Continuous
 48
15.0
100
AcDbLine
 10
1524.308911
 20
1960.127482999999
 30
0.0
 11
804.308911
 21
1960.127482999999
 31
0.0
  0
LINE
  5
7A4C
330
19
100
AcDbEntity
  8
1
  6
Continuous
 48
15.0
100
AcDbLine
 10
714.308911
 20
1425.127482999999
 30
0.0
 11
1614.308911
 21
1425.127482999999
 31
0.0
  0
LINE
  5
7A4D
330
19
100
AcDbEntity
  8
1
  6
Continuous
 48
15.0
100
AcDbLine
 10
714.308911
 20
1350.127483
 30
0.0
 11
1614.308911
 21
1350.127483
 31
0.0
  0
LINE
  5
7A4E
330
19
100
AcDbEntity
  8
1
  6
Continuous
 48
15.0
100
AcDbLine
 10
804.308911
 20
1960.127482999999
 30
0.0
 11
804.308911
 21
1430.127483
 31
0.0
  0
LINE
  5
7A4F
330
19
100
AcDbEntity
  8
1
  6
Continuous
 48
15.0
100
AcDbLine
 10
804.308911
 20
1960.127482999999
 30
0.0
 11
804.3089110000002
 21
1425.127482999999
 31
0.0
  0
ARC
  5
7A50
330
19
100
AcDbEntity
  8
1
  6
Continuous
 48
15.0
100
AcDbCircle
 10
1043.308911
 20
1742.127482999999
 30
0.0
 40
103.3907699999999
100
AcDbArc
 50
95.71059299999999
 51
187.1250159999999
  0
LINE
  5
7A51
330
19
100
AcDbEntity
  8
1
  6
Continuous
 48
15.0
100
AcDbLine
 10
804.308911
 20
1573.127483
 30
0.0
 11
1034.308911
 21
1573.127483
 31
0.0
  0
LINE
  5
7A52
330
19
100
AcDbEntity
  8
1
  6
Continuous
 48
15.0
100
AcDbLine
 10
779.3089110000001
 20
1810.127482999999
 30
0.0
 11
779.3089110000001
 21
1520.127483
 31
0.0
  0
LINE
  5
7A53
330
19
100
AcDbEntity
  8
1
  6
Continuous
 48
15.0
100
AcDbLine
 10
904.308911
 20
1733.127482999999
 30
0.0
 11
904.308911
 21
1573.127483
 31
0.0
  0
LINE
  5
7A55
330
19
100
AcDbEntity
  8
1
  6
Continuous
 48
15.0
100
AcDbLine
 10
779.3089110000001
 20
1520.127483
 30
0.0
 11
804.308911
 21
1520.127483
 31
0.0
  0
LINE
  5
7A57
330
19
100
AcDbEntity
  8
1
  6
Continuous
 48
15.0
100
AcDbLine
 10
714.308911
 20
1425.127482999999
 30
0.0
 11
714.308911
 21
1350.127483
 31
0.0
  0
LINE
  5
7A58
330
19
100
AcDbEntity
  8
1
  6
Continuous
 48
15.0
100
AcDbLine
 10
940.3106039999999
 20
1733.127482999999
 30
0.0
 11
804.308911
 21
1733.127482999999
 31
0.0
  0
LINE
  5
7A59
330
19
100
AcDbEntity
  8
1
  6
Continuous
 48
15.0
100
AcDbLine
 10
779.3089110000001
 20
1810.127482999999
 30
0.0
 11
804.308911
 21
1810.127482999999
 31
0.0
  0
ARC
  5
7A5A
330
19
100
AcDbEntity
  8
1
  6
Continuous
 48
15.0
100
AcDbCircle
 10
1021.308910999999
 20
1720.127482999999
 30
0.0
 40
147.57371
100
AcDbArc
 50
275.0538259999999
 51
4.763641999999999
  0
ARC
  5
7A5B
330
19
100
AcDbEntity
  8
1
  6
Continuous
 48
15.0
100
AcDbCircle
 10
1045.308911
 20
1722.127482999999
 30
0.0
 40
123.4905209999999
100
AcDbArc
 50
4.763641999999999
 51
95.71059299999999
  0
LINE
  5
7A5C
330
19
100
AcDbEntity
  8
1
  6
Continuous
 48
15.0
100
AcDbLine
 10
1524.308910999999
 20
1425.127482999999
 30
0.0
 11
1524.308911
 21
1960.127482999999
 31
0.0
  0
LINE
  5
7A5D
330
19
100
AcDbEntity
  8
1
  6
Continuous
 48
15.0
100
AcDbLine
 10
1549.308910999999
 20
1800.127482999999
 30
0.0
 11
1549.308910999999
 21
1510.127483
 31
0.0
  0
LINE
  5
7A5E
330
19
100
AcDbEntity
  8
1
  6
Continuous
 48
15.0
100
AcDbLine
 10
1549.308910999999
 20
1510.127482999999
 30
0.0
 11
1524.308911
 21
1510.127482999999
 31
0.0
  0
LINE
  5
7A60
330
19
100
AcDbEntity
  8
1
  6
Continuous
 48
15.0
100
AcDbLine
 10
1614.308911
 20
1350.127483
 30
0.0
 11
1614.308911
 21
1425.127482999999
 31
0.0
  0
LINE
  5
7A61
330
19
100
AcDbEntity
  8
1
  6
Continuous
 48
15.0
100
AcDbLine
 10
1549.308910999999
 20
1800.127482999999
 30
0.0
 11
1524.308911
 21
1800.127482999999
 31
0.0
  0
LINE
  5
7A62
330
19
100
AcDbEntity
  8
1
  6
Continuous
 48
15.0
100
AcDbLine
 10
1523.920703999999
 20
3072.524987000001
 30
0.0
 11
803.920704
 21
3072.524987
 31
0.0
  0
LINE
  5
7A63
330
19
100
AcDbEntity
  8
1
  6
Continuous
 48
15.0
100
AcDbLine
 10
803.920704
 20
2536.524987
 30
0.0
 11
1523.920703999999
 21
2536.524987
 31
0.0
  0
LINE
  5
7A64
330
19
100
AcDbEntity
  8
1
  6
Continuous
 48
15.0
100
AcDbLine
 10
778.9207039999999
 20
2919.524987
 30
0.0
 11
778.9207039999999
 21
2689.524986999999
 31
0.0
  0
LINE
  5
7A65
330
19
100
AcDbEntity
  8
1
  6
Continuous
 48
15.0
100
AcDbLine
 10
803.920704
 20
3072.524987000001
 30
0.0
 11
803.920704
 21
2536.524987
 31
0.0
  0
LINE
  5
7A66
330
19
100
AcDbEntity
  8
1
  6
Continuous
 48
15.0
100
AcDbLine
 10
713.920704
 20
2576.524987
 30
0.0
 11
803.9207039999999
 21
2576.524987
 31
0.0
  0
LINE
  5
7A67
330
19
100
AcDbEntity
  8
1
  6
Continuous
 48
15.0
100
AcDbLine
 10
713.920704
 20
2536.524987
 30
0.0
 11
803.9207039999999
 21
2536.524987
 31
0.0
  0
LINE
  5
7A68
330
19
100
AcDbEntity
  8
1
  6
Continuous
 48
15.0
100
AcDbLine
 10
713.920704
 20
2576.524987
 30
0.0
 11
713.920704
 21
2536.524987
 31
0.0
  0
LINE
  5
7A69
330
19
100
AcDbEntity
  8
1
  6
Continuous
 48
15.0
100
AcDbLine
 10
778.9207039999999
 20
2689.524987
 30
0.0
 11
803.920704
 21
2689.524987
 31
0.0
  0
LINE
  5
7A6A
330
19
100
AcDbEntity
  8
1
  6
Continuous
 48
15.0
100
AcDbLine
 10
713.9207040000001
 20
3032.524987
 30
0.0
 11
803.920704
 21
3032.524987
 31
0.0
  0
LINE
  5
7A6B
330
19
100
AcDbEntity
  8
1
  6
Continuous
 48
15.0
100
AcDbLine
 10
713.9207040000001
 20
3072.524987
 30
0.0
 11
803.920704
 21
3072.524987
 31
0.0
  0
LINE
  5
7A6C
330
19
100
AcDbEntity
  8
1
  6
Continuous
 48
15.0
100
AcDbLine
 10
713.9207040000001
 20
3072.524987
 30
0.0
 11
713.9207040000001
 21
3032.524987
 31
0.0
  0
LINE
  5
7A6D
330
19
100
AcDbEntity
  8
1
  6
Continuous
 48
15.0
100
AcDbLine
 10
778.9207039999999
 20
2919.524987
 30
0.0
 11
803.920704
 21
2919.524987
 31
0.0
  0
LINE
  5
7A6E
330
19
100
AcDbEntity
  8
1
  6
Continuous
 48
15.0
100
AcDbLine
 10
1548.920704
 20
2919.524986999999
 30
0.0
 11
1548.920703999999
 21
2689.524987
 31
0.0
  0
LINE
  5
7A6F
330
19
100
AcDbEntity
  8
1
  6
Continuous
 48
15.0
100
AcDbLine
 10
1523.920703999999
 20
2536.524987
 30
0.0
 11
1523.920703999999
 21
3072.524987000001
 31
0.0
  0
LINE
  5
7A70
330
19
100
AcDbEntity
  8
1
  6
Continuous
 48
15.0
100
AcDbLine
 10
1613.920703999999
 20
2536.524987
 30
0.0
 11
1523.920703999999
 21
2536.524987
 31
0.0
  0
LINE
  5
7A71
330
19
100
AcDbEntity
  8
1
  6
Continuous
 48
15.0
100
AcDbLine
 10
1613.920703999999
 20
2576.524987
 30
0.0
 11
1523.920703999999
 21
2576.524987
 31
0.0
  0
LINE
  5
7A72
330
19
100
AcDbEntity
  8
1
  6
Continuous
 48
15.0
100
AcDbLine
 10
1548.920703999999
 20
2689.524987
 30
0.0
 11
1523.920704
 21
2689.524987
 31
0.0
  0
LINE
  5
7A73
330
19
100
AcDbEntity
  8
1
  6
Continuous
 48
15.0
100
AcDbLine
 10
1613.920703999999
 20
2576.524987
 30
0.0
 11
1613.920703999999
 21
2536.524987
 31
0.0
  0
LINE
  5
7A74
330
19
100
AcDbEntity
  8
1
  6
Continuous
 48
15.0
100
AcDbLine
 10
1613.920703999999
 20
3072.524987
 30
0.0
 11
1523.920704
 21
3072.524987
 31
0.0
  0
LINE
  5
7A75
330
19
100
AcDbEntity
  8
1
  6
Continuous
 48
15.0
100
AcDbLine
 10
1613.920703999999
 20
3032.524987
 30
0.0
 11
1523.920704
 21
3032.524987
 31
0.0
  0
LINE
  5
7A76
330
19
100
AcDbEntity
  8
1
  6
Continuous
 48
15.0
100
AcDbLine
 10
1548.920703999999
 20
2919.524987
 30
0.0
 11
1523.920704
 21
2919.524987
 31
0.0
  0
LINE
  5
7A77
330
19
100
AcDbEntity
  8
1
  6
Continuous
 48
15.0
100
AcDbLine
 10
1613.920703999999
 20
3072.524987
 30
0.0
 11
1613.920703999999
 21
3032.524987
 31
0.0
  0
LINE
  5
7A78
330
19
100
AcDbEntity
  8
1
  6
Continuous
 48
15.0
100
AcDbLine
 10
2675.738832
 20
1960.127482999999
 30
0.0
 11
2139.738832
 21
1960.127482999999
 31
0.0
  0
LINE
  5
7A79
330
19
100
AcDbEntity
  8
1
  6
Continuous
 48
15.0
100
AcDbLine
 10
2162.738832
 20
1425.127482999999
 30
0.0
 11
2652.738832
 21
1425.127482999999
 31
0.0
  0
LINE
  5
7A7A
330
19
100
AcDbEntity
  8
1
  6
Continuous
 48
15.0
100
AcDbLine
 10
2675.738832
 20
1425.127482999999
 30
0.0
 11
2139.738832
 21
1425.127483
 31
0.0
  0
LINE
  5
7A7B
330
19
100
AcDbEntity
  8
1
  6
Continuous
 48
15.0
100
AcDbLine
 10
2162.738832
 20
1350.127483
 30
0.0
 11
2652.738832
 21
1350.127483
 31
0.0
  0
LINE
  5
7A7C
330
19
100
AcDbEntity
  8
1
  6
Continuous
 48
15.0
100
AcDbLine
 10
2139.738832
 20
1350.127483
 30
0.0
 11
2675.738832
 21
1350.127483
 31
0.0
  0
LINE
  5
7A7E
330
19
100
AcDbEntity
  8
1
  6
Continuous
 48
15.0
100
AcDbLine
 10
2139.738831999999
 20
1425.127483
 30
0.0
 11
2139.738832
 21
1350.127483
 31
0.0
  0
LINE
  5
7A7F
330
19
100
AcDbEntity
  8
1
  6
Continuous
 48
15.0
100
AcDbLine
 10
2147.738831999999
 20
1425.127482999999
 30
0.0
 11
2162.738832
 21
1425.127482999999
 31
0.0
  0
LINE
  5
7A81
330
19
100
AcDbEntity
  8
1
  6
Continuous
 48
15.0
100
AcDbLine
 10
2317.738832
 20
1775.127482999999
 30
0.0
 11
2497.738832
 21
1535.127483
 31
0.0
  0
LINE
  5
7A82
330
19
100
AcDbEntity
  8
1
  6
Continuous
 48
15.0
100
AcDbLine
 10
2317.738832
 20
1535.127483
 30
0.0
 11
2497.738832
 21
1775.127482999999
 31
0.0
  0
LWPOLYLINE
  5
7A83
330
19
100
AcDbEntity
  8
1
  6
Continuous
 48
15.0
100
AcDbPolyline
 90
        4
 70
     1
 43
0.0
 10
2292.738832
 20
1510.127482999999
 10
2522.738831999999
 20
1510.127482999999
 10
2522.738831999999
 20
1800.127482999999
 10
2292.738832
 20
1800.127482999999
  0
LINE
  5
7A8F
330
19
100
AcDbEntity
  8
1
  6
Continuous
 48
15.0
100
AcDbLine
 10
2652.738832
 20
1425.127482999999
 30
0.0
 11
2667.738832
 21
1425.127482999999
 31
0.0
  0
LINE
  5
7A90
330
19
100
AcDbEntity
  8
1
  6
Continuous
 48
15.0
100
AcDbLine
 10
2675.738832
 20
1350.127483
 30
0.0
 11
2675.738831999999
 21
1425.127482999999
 31
0.0
  0
DIMENSION
  5
7AB1
330
19
100
AcDbEntity
  8
3
  6
Continuous
 48
15.0
100
AcDbDimension
  2
*D1
 10
1614.308911
 20
1200.025838
 30
0.0
 11
1149.962997
 21
1200.025838
 31
0.0
 70
   160
 71
     5
 42
-1.0
  3
IGA
100
AcDbAlignedDimension
 13
714.308911
 23
1350.127483
 33
0.0
 14
1614.308911
 24
1350.127483
 34
0.0
100
AcDbRotatedDimension
1001
ACAD
1000
DSTYLE
1002
{
1070
   287
1070
     3
1070
   287
1070
     3
1070
    40
1040
15.0
1070
   143
1040
0.039
1070
   172
1070
     1
1070
   271
1070
     0
1070
   279
1070
     0
1070
   288
1070
     1
1002
}
  0
DIMENSION
  5
7ABE
330
19
100
AcDbEntity
  8
3
  6
Continuous
 48
15.0
100
AcDbDimension
  2
*D2
 10
1524.308911
 20
2089.699602
 30
0.0
 11
1171.162815
 21
2089.699602
 31
0.0
 70
   160
 71
     5
 42
-1.0
  3
IGA
100
AcDbAlignedDimension
 13
804.308911
 23
1960.127482999999
 33
0.0
 14
1524.308911
 24
1960.127482999999
 34
0.0
100
AcDbRotatedDimension
1001
ACAD
1000
DSTYLE
1002
{
1070
   287
1070
     3
1070
   287
1070
     3
1070
    40
1040
15.0
1070
   143
1040
0.039
1070
   172
1070
     1
1070
   271
1070
     0
1070
   279
1070
     0
1070
   288
1070
     1
1002
}
  0
DIMENSION
  5
7AD8
330
19
100
AcDbEntity
  8
3
  6
Continuous
 48
15.0
100
AcDbDimension
  2
*D3
 10
1523.920703999999
 20
2386.045674999999
 30
0.0
 11
1164.592826
 21
2386.045674999999
 31
0.0
 70
   160
 71
     5
 42
-1.0
  3
IGA
100
AcDbAlignedDimension
 13
803.920704
 23
2521.524987
 33
0.0
 14
1523.920703999999
 24
2521.524987
 34
0.0
100
AcDbRotatedDimension
1001
ACAD
1000
DSTYLE
1002
{
1070
   287
1070
     3
1070
   287
1070
     3
1070
    40
1040
15.0
1070
   143
1040
0.039
1070
   172
1070
     1
1070
   271
1070
     0
1070
   279
1070
     0
1070
   288
1070
     1
1002
}
  0
LINE
  5
7AE7
330
19
100
AcDbEntity
  8
1
  6
Continuous
 48
15.0
100
AcDbLine
 10
2317.738832
 20
1535.127483
 30
0.0
 11
2497.738832
 21
1535.127483
 31
0.0
  0
LINE
  5
7AE8
330
19
100
AcDbEntity
  8
1
  6
Continuous
 48
15.0
100
AcDbLine
 10
2497.738832
 20
1535.127483
 30
0.0
 11
2497.738832
 21
1775.127482999999
 31
0.0
  0
LINE
  5
7AE9
330
19
100
AcDbEntity
  8
1
  6
Continuous
 48
15.0
100
AcDbLine
 10
2497.738832
 20
1775.127482999999
 30
0.0
 11
2317.738832
 21
1775.127482999999
 31
0.0
  0
LINE
  5
7AEA
330
19
100
AcDbEntity
  8
1
  6
Continuous
 48
15.0
100
AcDbLine
 10
2317.738832
 20
1775.127482999999
 30
0.0
 11
2317.738832
 21
1535.127483
 31
0.0
  0
DIMENSION
  5
7B10
330
19
100
AcDbEntity
  8
3
  6
Continuous
 48
15.0
100
AcDbDimension
  2
*D4
 10
2675.738832
 20
1204.198886
 30
0.0
 11
2424.747679
 21
1204.198886
 31
0.0
 70
   160
 71
     5
 42
-1.0
  3
IGA
100
AcDbAlignedDimension
 13
2139.738832
 23
1350.127483
 33
0.0
 14
2675.738832
 24
1350.127483
 34
0.0
100
AcDbRotatedDimension
1001
ACAD
1000
DSTYLE
1002
{
1070
   287
1070
     3
1070
   287
1070
     3
1070
    40
1040
15.0
1070
   143
1040
0.039
1070
   172
1070
     1
1070
   271
1070
     0
1070
   279
1070
     0
1070
   288
1070
     1
1002
}
  0
LINE
  5
7B1F
330
19
100
AcDbEntity
  8
2
  6
CENTER
 48
15.0
100
AcDbLine
 10
717.4180660000001
 20
1665.127483
 30
0.0
 11
1614.213609
 21
1665.127483
 31
0.0
  0
DIMENSION
  5
7B2D
330
19
100
AcDbEntity
  8
3
  6
Continuous
 48
15.0
100
AcDbDimension
  2
*D5
 10
652.9289930000002
 20
1350.127483
 30
0.0
 11
652.928993
 21
1566.556054428571
 31
0.0
 70
   160
 71
     5
 42
-1.0
  3
IGA
100
AcDbAlignedDimension
 13
717.4180660000001
 23
1665.127483
 33
0.0
 14
714.308911
 24
1350.127483
 34
0.0
 50
90.0
100
AcDbRotatedDimension
1001
ACAD
1000
DSTYLE
1002
{
1070
   287
1070
     3
1070
   287
1070
     3
1070
    40
1040
15.0
1070
   143
1040
0.039
1070
   172
1070
     1
1070
   271
1070
     0
1070
   279
1070
     0
1070
   288
1070
     1
1002
}
  0
DIMENSION
  5
7B3A
330
19
100
AcDbEntity
  8
3
  6
Continuous
 48
15.0
100
AcDbDimension
  2
*D6
 10
560.3281860000004
 20
1960.127482999999
 30
0.0
 11
560.328186
 21
1644.091682
 31
0.0
 70
   160
 71
     5
 42
-1.0
  3
IGA
100
AcDbAlignedDimension
 13
714.308911
 23
1350.127483
 33
0.0
 14
804.308911
 24
1960.127482999999
 34
0.0
 50
90.0
100
AcDbRotatedDimension
1001
ACAD
1000
DSTYLE
1002
{
1070
   287
1070
     3
1070
   287
1070
     3
1070
    40
1040
15.0
1070
   143
1040
0.039
1070
   172
1070
     1
1070
   271
1070
     0
1070
   279
1070
     0
1070
   288
1070
     1
1002
}
  0
DIMENSION
  5
7B4A
330
19
100
AcDbEntity
  8
3
  6
Continuous
 48
15.0
100
AcDbDimension
  2
*D7
 10
2497.738832
 20
1868.374200999999
 30
0.0
 11
2407.738832
 21
1868.374200999999
 31
0.0
 70
   160
 71
     5
 42
-1.0
  3
IGA
100
AcDbAlignedDimension
 13
2317.738832
 23
1775.127482999999
 33
0.0
 14
2497.738832
 24
1775.127482999999
 34
0.0
100
AcDbRotatedDimension
1001
ACAD
1000
DSTYLE
1002
{
1070
   287
1070
     3
1070
   287
1070
     3
1070
    40
1040
15.0
1070
   143
1040
0.039
1070
   172
1070
     1
1070
   271
1070
     0
1070
   279
1070
     0
1070
   288
1070
     1
1002
}
  0
DIMENSION
  5
7B57
330
19
100
AcDbEntity
  8
3
  6
Continuous
 48
15.0
100
AcDbDimension
  2
*D8
 10
2211.030332
 20
1535.127483
 30
0.0
 11
2211.030331999999
 21
1655.801485
 31
0.0
 70
   160
 71
     5
 42
-1.0
  3
IGA
100
AcDbAlignedDimension
 13
2317.738832
 23
1775.127482999999
 33
0.0
 14
2317.738832
 24
1535.127483
 34
0.0
 50
90.0
100
AcDbRotatedDimension
1001
ACAD
1000
DSTYLE
1002
{
1070
   287
1070
     3
1070
   287
1070
     3
1070
    40
1040
15.0
1070
   143
1040
0.039
1070
   172
1070
     1
1070
   271
1070
     0
1070
   279
1070
     0
1070
   288
1070
     1
1002
}
  0
LINE
  5
7B58
330
19
100
AcDbEntity
  8
4
  6
Continuous
 48
15.0
100
AcDbLine
 10
2775.0
 20
750.0
 30
0.0
 11
2775.0
 21
450.0
 31
0.0
  0
LINE
  5
7B59
330
19
100
AcDbEntity
  8
4
  6
Continuous
 48
15.0
100
AcDbLine
 10
1725.0
 20
750.0
 30
0.0
 11
1725.0
 21
450.0
 31
0.0
  0
LINE
  5
7B5A
330
19
100
AcDbEntity
  8
4
  6
Continuous
 48
15.0
100
AcDbLine
 10
975.0
 20
750.0
 30
0.0
 11
975.0
 21
450.0
 31
0.0
  0
LINE
  5
7B5D
330
19
100
AcDbEntity
  8
4
  6
Continuous
 48
15.0
100
AcDbLine
 10
975.0
 20
450.0
 30
0.0
 11
2775.0
 21
450.0
 31
0.0
  0
LINE
  5
7B5E
330
19
100
AcDbEntity
  8
4
  6
Continuous
 48
15.0
100
AcDbLine
 10
975.0
 20
600.0
 30
0.0
 11
2775.0
 21
600.0
 31
0.0
  0
TEXT
  5
7B5F
330
19
100
AcDbEntity
  8
4
  6
Continuous
 48
15.0
100
AcDbText
 10
1032.753121
 20
647.3145389999999
 30
0.0
 40
75.0
  1
機器名称
100
AcDbText
  0
TEXT
  5
7B60
330
19
100
AcDbEntity
  8
4
  6
Continuous
 48
15.0
100
AcDbText
 10
1029.387158999999
 20
482.4677349999999
 30
0.0
 40
75.0
  1
機器型番
100
AcDbText
  0
TEXT
  5
7B61
330
19
100
AcDbEntity
  8
4
  6
Continuous
 48
15.0
100
AcDbText
 10
1766.518118
 20
633.857653
 30
0.0
 40
75.0
  1
ミツヤファンユニット
100
AcDbText
  0
TEXT
  5
7B62
330
19
100
AcDbEntity
  8
4
  6
Continuous
 48
15.0
100
AcDbText
 10
1779.981743
 20
475.739376
 30
0.0
 40
75.0
  1
MFU#1001-1
100
AcDbText
  0
TEXT
  5
7B64
330
19
100
AcDbEntity
  8
4
  6
Continuous
 48
15.0
100
AcDbText
 10
1071.184594
 20
3575.143261999999
 30
0.0
 40
75.0
  1
天井吊りベット
100
AcDbText
  0
TEXT
  5
7B65
330
19
100
AcDbEntity
  8
4
  6
Continuous
 48
15.0
100
AcDbText
 10
474.25139
 20
3800.821464
 30
0.0
 40
95.0
  1
ベルト駆動式消音ボックス付き多翼ファン
100
AcDbText
  0
LINE
  5
7B66
330
19
100
AcDbEntity
  8
4
  6
Continuous
 48
15.0
100
AcDbLine
 10
375.0
 20
3704.113131
 30
0.0
 11
2775.0
 21
3704.113131
 31
0.0
  0
LINE
  5
7B67
330
19
100
AcDbEntity
  8
4
  6
Continuous
 48
15.0
100
AcDbLine
 10
375.0
 20
4004.113131
 30
0.0
 11
2775.0
 21
4004.113131
 31
0.0
  0
LINE
  5
7B68
330
19
100
AcDbEntity
  8
4
  6
Continuous
 48
15.0
100
AcDbLine
 10
975.0
 20
750.0
 30
0.0
 11
2775.0
 21
750.0
 31
0.0
  0
LINE
  5
7B69
330
19
100
AcDbEntity
  8
4
  6
Continuous
 48
15.0
100
AcDbLine
 10
375.0
 20
4004.113131
 30
0.0
 11
375.0
 21
3704.113131
 31
0.0
  0
TEXT
  5
7B6A
330
19
100
AcDbEntity
  8
4
  6
Continuous
 48
15.0
100
AcDbText
 10
417.396346
 20
3573.479215999999
 30
0.0
 40
75.0
  1
右回転左吐出
100
AcDbText
  0
TEXT
  5
7B6B
330
19
100
AcDbEntity
  8
4
  6
Continuous
 48
15.0
100
AcDbText
 10
2203.454338999999
 20
4059.091621999999
 30
0.0
 40
84.0
  1
No.
100
AcDbText
  0
TEXT
  5
7B6C
330
19
100
AcDbEntity
  8
4
  6
Continuous
 48
15.0
100
AcDbText
 10
2218.272186
 20
3575.143261999999
 30
0.0
 40
75.0
  1
縮尺：1/15
100
AcDbText
  0
LINE
  5
7B6D
330
19
100
AcDbEntity
  8
4
  6
Continuous
 48
15.0
100
AcDbLine
 10
2775.0
 20
4004.113131
 30
0.0
 11
2775.0
 21
3704.113131
 31
0.0
  0
LINE
  5
7B6F
330
19
100
AcDbEntity
  8
4
  6
Continuous
 48
15.0
100
AcDbLine
 10
2160.926133999999
 20
4021.895375
 30
0.0
 11
2160.926133999999
 21
4179.978392
 31
0.0
  0
LINE
  5
7B70
330
19
100
AcDbEntity
  8
4
  6
Continuous
 48
15.0
100
AcDbLine
 10
2160.926133999999
 20
4179.978392
 30
0.0
 11
2775.0
 21
4179.978392
 31
0.0
  0
LINE
  5
7B71
330
19
100
AcDbEntity
  8
4
  6
Continuous
 48
15.0
100
AcDbLine
 10
2775.0
 20
4179.978392
 30
0.0
 11
2775.0
 21
4021.895375
 31
0.0
  0
LINE
  5
7B72
330
19
100
AcDbEntity
  8
4
  6
Continuous
 48
15.0
100
AcDbLine
 10
2775.0
 20
4021.895375
 30
0.0
 11
2160.926133999999
 21
4021.895375
 31
0.0
  0
LINE
  5
7B8A
330
19
100
AcDbEntity
  8
2
 48
15.0
100
AcDbLine
 10
2407.738832
 20
1336.070508075319
 30
0.0
 11
2407.738832
 21
1860.697812985897
 31
0.0
  0
LINE
  5
7C26
330
19
100
AcDbEntity
  8
2
 48
15.0
100
AcDbLine
 10
715.4342599632109
 20
2804.524987
 30
0.0
 11
1624.245844292003
 21
2804.524987
 31
0.0
  0
LINE
  5
7C3E
330
19
100
AcDbEntity
  8
1
  6
Continuous
 48
15.0
100
AcDbLine
 10
2139.738831999999
 20
1960.127483
 30
0.0
 11
2139.738831999999
 21
1425.127483
 31
0.0
  0
LINE
  5
7C3F
330
19
100
AcDbEntity
  8
1
  6
Continuous
 48
15.0
100
AcDbLine
 10
2675.738832
 20
1425.127482999999
 30
0.0
 11
2675.738831999999
 21
1960.127482999999
 31
0.0
  0
DIMENSION
  5
7CC3
330
19
100
AcDbEntity
  8
3
 48
15.0
100
AcDbDimension
  2
*D9
 10
1702.738018447411
 20
1665.127483
 30
0.0
 11
1702.738018447411
 21
1566.556054428571
 31
0.0
 70
   160
 71
     5
 42
-1.0
  3
IGA
100
AcDbAlignedDimension
 13
1614.308911
 23
1350.127483
 33
0.0
 14
1614.213609
 24
1665.127483
 34
0.0
 50
90.0
100
AcDbRotatedDimension
1001
ACAD
1000
DSTYLE
1002
{
1070
   287
1070
     3
1070
   287
1070
     3
1070
    40
1040
15.0
1070
   143
1040
0.039
1070
   172
1070
     1
1070
   271
1070
     0
1070
   279
1070
     0
1070
   288
1070
     1
1002
}
  0
LINE
  5
7D81
330
19
100
AcDbEntity
  8
2
 48
15.0
100
AcDbLine
 10
2407.738832
 20
1938.015488779267
 30
0.0
 11
2407.738832
 21
2016.303517735161
 31
0.0
  0
DIMENSION
  5
7F56
330
19
100
AcDbEntity
  8
3
100
AcDbDimension
  2
*D10
 10
2407.738832
 20
2084.628389401166
 30
0.0
 11
2274.040871696183
 21
2084.628389401166
 31
0.0
 70
   160
 71
     5
 42
268.0000000000004
  3
IGA
100
AcDbAlignedDimension
 13
2139.738831999999
 23
1960.127483
 33
0.0
 14
2407.738832
 24
2016.303517735161
 34
0.0
100
AcDbRotatedDimension
1001
ACAD
1000
DSTYLE
1002
{
1070
    40
1040
15.0
1070
   143
1040
0.039
1070
   172
1070
     1
1070
   271
1070
     0
1070
   279
1070
     0
1070
   288
1070
     1
1002
}
  0
DIMENSION
  5
7F7B
330
19
100
AcDbEntity
  8
3
100
AcDbDimension
  2
*D11
 10
2407.738832
 20
2084.628389401166
 30
0.0
 11
2541.436792303817
 21
2084.628389401166
 31
0.0
 70
   160
 71
     5
 42
268.0000000000004
  3
IGA
100
AcDbAlignedDimension
 13
2675.738832
 23
1960.127483
 33
0.0
 14
2407.738832
 24
2016.303517735161
 34
0.0
 50
180.0
100
AcDbRotatedDimension
1001
ACAD
1000
DSTYLE
1002
{
1070
    40
1040
15.0
1070
   143
1040
0.039
1070
   172
1070
     1
1070
   271
1070
     0
1070
   279
1070
     0
1070
   288
1070
     1
1002
}
  0
DIMENSION
  5
7FA3
330
19
100
AcDbEntity
  8
3
100
AcDbDimension
  2
*D12
 10
1738.95503264977
 20
2536.524987
 30
0.0
 11
1738.95503264977
 21
2792.243751235399
 31
0.0
 70
   160
 71
     5
 42
536.0000000000004
  3
IGA
100
AcDbAlignedDimension
 13
1613.920703999999
 23
3072.524987
 33
0.0
 14
1613.920703999999
 24
2536.524987
 34
0.0
 50
90.0
100
AcDbRotatedDimension
1001
ACAD
1000
DSTYLE
1002
{
1070
    40
1040
15.0
1070
   143
1040
0.039
1070
   172
1070
     1
1070
   271
1070
     0
1070
   279
1070
     0
1070
   288
1070
     1
1002
}
  0
ENDSEC
  0
SECTION
  2
OBJECTS
  0
DICTIONARY
  5
C
330
0
100
AcDbDictionary
281
     1
  3
ACAD_GROUP
350
D
  3
ACAD_LAYOUT
350
7CD7
  3
ACAD_MLINESTYLE
350
E
  3
ACAD_PLOTSETTINGS
350
7CD8
  3
ACAD_PLOTSTYLENAME
350
7CD5
  3
AcDbVariableDictionary
350
7F4B
  0
DICTIONARY
  5
7D04
330
19
100
AcDbDictionary
280
     1
281
     1
  3
ACAD_LAYOUTSELFREF
360
7ED4
  0
DICTIONARY
  5
7D02
330
16
100
AcDbDictionary
280
     1
281
     1
  3
ACAD_LAYOUTSELFREF
360
7ED3
  0
DICTIONARY
  5
D
102
{ACAD_REACTORS
330
C
102
}
330
0
100
AcDbDictionary
281
     1
  0
DICTIONARY
  5
7CD7
102
{ACAD_REACTORS
330
C
102
}
330
C
100
AcDbDictionary
281
     1
  3
Model
350
7CD9
  3
ﾚｲｱｳﾄ1
350
7CDA
  0
DICTIONARY
  5
E
102
{ACAD_REACTORS
330
C
102
}
330
0
100
AcDbDictionary
281
     1
  3
STANDARD
350
1C
  0
DICTIONARY
  5
7CD8
102
{ACAD_REACTORS
330
C
102
}
330
C
100
AcDbDictionary
281
     1
  0
ACDBDICTIONARYWDFLT
  5
7CD5
102
{ACAD_REACTORS
330
C
102
}
330
C
100
AcDbDictionary
281
     1
  3
Normal
350
7CD6
100
AcDbDictionaryWithDefault
340
7CD6
1001
ACAD
1000
TREAT_AS_HARD
1070
     0
1000
TREAT_AS_HARD
1070
     0
  0
DICTIONARY
  5
7F4B
102
{ACAD_REACTORS
330
C
102
}
330
C
100
AcDbDictionary
281
     1
  3
DIMASSOC
350
7F4C
  0
XRECORD
  5
7ED4
102
{ACAD_REACTORS
330
7D04
102
}
330
7D04
100
AcDbXrecord
280
     1
340
19
  0
XRECORD
  5
7ED3
102
{ACAD_REACTORS
330
7D02
102
}
330
7D02
100
AcDbXrecord
280
     1
340
16
  0
LAYOUT
  5
7CD9
102
{ACAD_REACTORS
330
7CD7
102
}
330
7CD7
100
AcDbPlotSettings
  1

  2
EPSON LP-9300
  4

  6

 40
0.0
 41
0.0
 42
0.0
 43
0.0
 44
0.0
 45
0.0
 46
0.0
 47
0.0
 48
0.0
 49
0.0
140
0.0
141
0.0
142
1.0
143
1.0
 70
  1712
 72
     0
 73
     0
 74
     0
  7

 75
     0
147
1.0
148
0.0
149
0.0
100
AcDbLayout
  1
Model
 70
     1
 71
     0
 10
0.0
 20
0.0
 11
12.0
 21
9.0
 12
0.0
 22
0.0
 32
0.0
 14
0.0
 24
0.0
 34
0.0
 15
0.0
 25
0.0
 35
0.0
146
0.0
 13
0.0
 23
0.0
 33
0.0
 16
1.0
 26
0.0
 36
0.0
 17
0.0
 27
1.0
 37
0.0
 76
     0
330
19
  0
LAYOUT
  5
7CDA
102
{ACAD_REACTORS
330
7CD7
102
}
330
7CD7
100
AcDbPlotSettings
  1

  2
EPSON LP-9300
  4

  6

 40
0.0
 41
0.0
 42
0.0
 43
0.0
 44
0.0
 45
0.0
 46
0.0
 47
0.0
 48
0.0
 49
0.0
140
0.0
141
0.0
142
1.0
143
1.0
 70
   688
 72
     0
 73
     0
 74
     5
  7

 75
    16
147
1.0
148
0.0
149
0.0
100
AcDbLayout
  1
ﾚｲｱｳﾄ1
 70
     1
 71
     1
 10
0.0
 20
0.0
 11
12.0
 21
9.0
 12
0.0
 22
0.0
 32
0.0
 14
1.000000000000000E+20
 24
1.000000000000000E+20
 34
1.000000000000000E+20
 15
-1.000000000000000E+20
 25
-1.000000000000000E+20
 35
-1.000000000000000E+20
146
0.0
 13
0.0
 23
0.0
 33
0.0
 16
1.0
 26
0.0
 36
0.0
 17
0.0
 27
1.0
 37
0.0
 76
     0
330
16
  0
MLINESTYLE
  5
1C
102
{ACAD_REACTORS
330
E
102
}
330
0
100
AcDbMlineStyle
  2
STANDARD
 70
     0
  3

 62
     0
 51
90.0
 52
90.0
 71
     2
 49
0.5
 62
   256
  6
BYLAYER
 49
-0.5
 62
   256
  6
BYLAYER
  0
ACDBPLACEHOLDER
  5
7CD6
102
{ACAD_REACTORS
330
7CD5
102
}
330
7CD5
  0
DICTIONARYVAR
  5
7F4C
102
{ACAD_REACTORS
330
7F4B
102
}
330
7F4B
100
DictionaryVariables
280
     0
  1
1
  0
ENDSEC
  0
EOF
