  0
SECTION
  2
HEADER
  9
$ACADVER
  1
AC1009
  9
$INSBASE
 10
0.0
 20
0.0
 30
0.0
  9
$EXTMIN
 10
0.0
 20
0.0
 30
0.0
  9
$EXTMAX
 10
5250.0
 20
7375.0
 30
0.0
  9
$LIMMIN
 10
0.0
 20
0.0
  9
$LIMMAX
 10
297.0
 20
210.0
  9
$ORTHOMODE
 70
     0
  9
$REGENMODE
 70
     1
  9
$FILLMODE
 70
     0
  9
$QTEXTMODE
 70
     0
  9
$MIRRTEXT
 70
     1
  9
$DRAGMODE
 70
     2
  9
$LTSCALE
 40
100.0
  9
$OSMODE
 70
    37
  9
$ATTMODE
 70
     1
  9
$TEXTSIZE
 40
180.0
  9
$TRACEWID
 40
0.05
  9
$TEXTSTYLE
  7
STANDARD
  9
$CLAYER
  8
3
  9
$CELTYPE
  6
BYLAYER
  9
$CECOLOR
 62
   256
  9
$DIMSCALE
 40
25.0
  9
$DIMASZ
 40
2.0
  9
$DIMEXO
 40
0.5
  9
$DIMDLI
 40
10.0
  9
$DIMRND
 40
0.0
  9
$DIMDLE
 40
0.0
  9
$DIMEXE
 40
1.0
  9
$DIMTP
 40
1.0
  9
$DIMTM
 40
1.0
  9
$DIMTXT
 40
3.0
  9
$DIMCEN
 40
0.0
  9
$DIMTSZ
 40
0.0
  9
$DIMTOL
 70
     0
  9
$DIMLIM
 70
     0
  9
$DIMTIH
 70
     0
  9
$DIMTOH
 70
     0
  9
$DIMSE1
 70
     0
  9
$DIMSE2
 70
     0
  9
$DIMTAD
 70
     1
  9
$DIMZIN
 70
     8
  9
$DIMBLK
  1

  9
$DIMASO
 70
     1
  9
$DIMSHO
 70
     1
  9
$DIMPOST
  1

  9
$DIMAPOST
  1

  9
$DIMALT
 70
     0
  9
$DIMALTD
 70
     2
  9
$DIMALTF
 40
0.039
  9
$DIMLFAC
 40
1.0
  9
$DIMTOFL
 70
     1
  9
$DIMTVP
 40
0.0
  9
$DIMTIX
 70
     0
  9
$DIMSOXD
 70
     0
  9
$DIMSAH
 70
     1
  9
$DIMBLK1
  1
OPEN
  9
$DIMBLK2
  1
OPEN
  9
$DIMSTYLE
  2
IGA
  9
$DIMCLRD
 70
     0
  9
$DIMCLRE
 70
     0
  9
$DIMCLRT
 70
     0
  9
$DIMTFAC
 40
10.0
  9
$DIMGAP
 40
1.0
  9
$LUNITS
 70
     2
  9
$LUPREC
 70
     3
  9
$SKETCHINC
 40
0.1
  9
$FILLETRAD
 40
50.0
  9
$AUNITS
 70
     0
  9
$AUPREC
 70
     0
  9
$MENU
  1
acad
  9
$ELEVATION
 40
0.0
  9
$PELEVATION
 40
0.0
  9
$THICKNESS
 40
0.0
  9
$LIMCHECK
 70
     0
  9
$BLIPMODE
 70
     0
  9
$CHAMFERA
 40
0.5
  9
$CHAMFERB
 40
0.5
  9
$SKPOLY
 70
     0
  9
$TDCREATE
 40
2452817.4878591429
  9
$TDUPDATE
 40
2454953.8487178008
  9
$TDINDWG
 40
0.0149106134
  9
$TDUSRTIMER
 40
0.0149106134
  9
$USRTIMER
 70
     1
  9
$ANGBASE
 50
0.0
  9
$ANGDIR
 70
     0
  9
$PDMODE
 70
     0
  9
$PDSIZE
 40
0.0
  9
$PLINEWID
 40
0.0
  9
$COORDS
 70
     1
  9
$SPLFRAME
 70
     0
  9
$SPLINETYPE
 70
     6
  9
$SPLINESEGS
 70
     8
  9
$ATTDIA
 70
     0
  9
$ATTREQ
 70
     1
  9
$HANDLING
 70
 10241
  9
$HANDSEED
  5
80B9
  9
$SURFTAB1
 70
     6
  9
$SURFTAB2
 70
     6
  9
$SURFTYPE
 70
     6
  9
$SURFU
 70
     6
  9
$SURFV
 70
     6
  9
$UCSNAME
  2

  9
$UCSORG
 10
0.0
 20
0.0
 30
0.0
  9
$UCSXDIR
 10
1.0
 20
0.0
 30
0.0
  9
$UCSYDIR
 10
0.0
 20
1.0
 30
0.0
  9
$PUCSNAME
  2

  9
$PUCSORG
 10
0.0
 20
0.0
 30
0.0
  9
$PUCSXDIR
 10
1.0
 20
0.0
 30
0.0
  9
$PUCSYDIR
 10
0.0
 20
1.0
 30
0.0
  9
$USERI1
 70
     0
  9
$USERI2
 70
     0
  9
$USERI3
 70
     0
  9
$USERI4
 70
     0
  9
$USERI5
 70
     0
  9
$USERR1
 40
0.0
  9
$USERR2
 40
0.0
  9
$USERR3
 40
0.0
  9
$USERR4
 40
0.0
  9
$USERR5
 40
0.0
  9
$WORLDVIEW
 70
     1
  9
$SHADEDGE
 70
     3
  9
$SHADEDIF
 70
    70
  9
$TILEMODE
 70
     1
  9
$MAXACTVP
 70
    16
  9
$PLIMCHECK
 70
     0
  9
$PEXTMIN
 10
1.0000000000000000E+020
 20
1.0000000000000000E+020
 30
1.0000000000000000E+020
  9
$PEXTMAX
 10
-1.0000000000000000E+020
 20
-1.0000000000000000E+020
 30
-1.0000000000000000E+020
  9
$PLIMMIN
 10
0.0
 20
0.0
  9
$PLIMMAX
 10
12.0
 20
9.0
  9
$UNITMODE
 70
     0
  9
$VISRETAIN
 70
     0
  9
$PLINEGEN
 70
     0
  9
$PSLTSCALE
 70
     1
  0
ENDSEC
  0
SECTION
  2
TABLES
  0
TABLE
  2
VPORT
 70
     2
  0
VPORT
  2
*ACTIVE
 70
     0
 10
0.0
 20
0.0
 11
1.0
 21
1.0
 12
7534.9783080260304
 22
5006.2472700733688
 13
0.0
 23
0.0
 14
10.0
 24
10.0
 15
10.0
 25
10.0
 16
0.0
 26
0.0
 36
1.0
 17
0.0
 27
0.0
 37
0.0
 40
10012.49454014673
 41
1.5051150895140659
 42
50.0
 43
0.0
 44
0.0
 50
0.0
 51
0.0
 71
     0
 72
   100
 73
     1
 74
     0
 75
     0
 76
     0
 77
     0
 78
     0
  0
ENDTAB
  0
TABLE
  2
LTYPE
 70
     2
  0
LTYPE
  2
CONTINUOUS
 70
     0
  3
Solid line
 72
    65
 73
     0
 40
0.0
  0
LTYPE
  2
CENTER
 70
     0
  3
____ _ ____ _ ____ _ ____ _ ____ _ ____ _ ____ 
 72
    65
 73
     4
 40
2.0
 49
1.25
 49
-0.25
 49
0.25
 49
-0.25
  0
ENDTAB
  0
TABLE
  2
LAYER
 70
     6
  0
LAYER
  2
0
 70
     0
 62
     7
  6
CONTINUOUS
  0
LAYER
  2
3
 70
     0
 62
     2
  6
CONTINUOUS
  0
LAYER
  2
2
 70
     0
 62
     3
  6
CENTER
  0
LAYER
  2
1
 70
     0
 62
     4
  6
CONTINUOUS
  0
LAYER
  2
4
 70
     0
 62
     7
  6
CONTINUOUS
  0
LAYER
  2
DEFPOINTS
 70
     0
 62
     7
  6
CONTINUOUS
  0
ENDTAB
  0
TABLE
  2
STYLE
 70
     1
  0
STYLE
  2
STANDARD
 70
     0
 40
0.0
 41
1.0
 50
0.0
 71
     0
 42
180.0
  3
simplex.shx
  4
extfont.shx
  0
ENDTAB
  0
TABLE
  2
VIEW
 70
     0
  0
ENDTAB
  0
TABLE
  2
UCS
 70
     0
  0
ENDTAB
  0
TABLE
  2
APPID
 70
     1
  0
APPID
  2
ACAD
 70
     0
  0
ENDTAB
  0
TABLE
  2
DIMSTYLE
 70
     1
  0
DIMSTYLE
  2
IGA
 70
     0
  3

  4

  5

  6
OPEN
  7
OPEN
 40
2.0
 41
2.0
 42
0.5
 43
10.0
 44
1.0
 45
0.0
 46
0.0
 47
1.0
 48
1.0
140
3.0
141
0.0
142
0.0
143
0.03937
144
1.0
145
0.0
146
10.0
147
1.0
 71
     0
 72
     0
 73
     0
 74
     0
 75
     0
 76
     0
 77
     1
 78
     8
170
     0
171
     2
172
     0
173
     1
174
     0
175
     0
176
     0
177
     0
178
     0
  0
ENDTAB
  0
ENDSEC
  0
SECTION
  2
BLOCKS
  0
BLOCK
  8
0
  2
$MODEL_SPACE
 70
     0
 10
0.0
 20
0.0
 30
0.0
  3
$MODEL_SPACE
  1

  0
ENDBLK
  5
1B
  8
0
  0
BLOCK
 67
     1
  8
0
  2
$PAPER_SPACE
 70
     0
 10
0.0
 20
0.0
 30
0.0
  3
$PAPER_SPACE
  1

  0
ENDBLK
  5
18
 67
     1
  8
0
  0
BLOCK
  8
0
  2
_OPEN
 70
     0
 10
0.0
 20
0.0
 30
0.0
  3
_OPEN
  1

  0
LINE
  5
7C59
  8
0
  6
BYBLOCK
 62
     0
 10
-1.0
 20
0.1666666666666666
 30
0.0
 11
0.0
 21
0.0
 31
0.0
  0
LINE
  5
7C5A
  8
0
  6
BYBLOCK
 62
     0
 10
0.0
 20
0.0
 30
0.0
 11
-1.0
 21
-0.1666666666666666
 31
0.0
  0
LINE
  5
7C5B
  8
0
  6
BYBLOCK
 62
     0
 10
0.0
 20
0.0
 30
0.0
 11
-1.0
 21
0.0
 31
0.0
  0
ENDBLK
  5
7C5C
  8
0
  0
BLOCK
  8
0
  2
*D1
 70
     1
 10
0.0
 20
0.0
 30
0.0
  3
*D1
  1

  0
LINE
  5
802C
  8
3
 62
     0
 10
2858.1345569355822
 20
4936.9052370605459
 30
0.0
 11
2858.1345569355822
 21
5135.5806370564524
 31
0.0
  0
LINE
  5
802D
  8
3
 62
     0
 10
1608.1345569355819
 20
4936.9052370605459
 30
0.0
 11
1608.1345569355819
 21
5135.5806370564524
 31
0.0
  0
LINE
  5
802E
  8
3
 62
     0
 10
2808.1345569355822
 20
5110.5806370564515
 30
0.0
 11
1658.1345569355819
 21
5110.5806370564515
 31
0.0
  0
INSERT
  5
802F
  8
3
 62
     0
  2
_OPEN
 10
2858.1345569355822
 20
5110.5806370564515
 30
0.0
 41
50.0
 42
50.0
 43
50.0
  0
INSERT
  5
8030
  8
3
 62
     0
  2
_OPEN
 10
1608.1345569355819
 20
5110.5806370564515
 30
0.0
 41
50.0
 42
50.0
 43
50.0
 50
180.0
  0
TEXT
  8
3
  40
75
  5
80AA
  62
0
  72
0
  71
0
 10
2090.69
 20
5040.33
 30
0.000000
  1
1250
  0
POINT
  5
8032
  8
DEFPOINTS
 62
     0
 10
2858.1345569355822
 20
4924.4052370605468
 30
0.0
  0
POINT
  5
8033
  8
DEFPOINTS
 62
     0
 10
1608.1345569355819
 20
4924.4052370605468
 30
0.0
  0
POINT
  5
8034
  8
DEFPOINTS
 62
     0
 10
1608.1345569355819
 20
5110.5806370564515
 30
0.0
  0
ENDBLK
  5
7E78
  8
0
  0
BLOCK
  8
0
  2
*D2
 70
     1
 10
0.0
 20
0.0
 30
0.0
  3
*D2
  1

  0
LINE
  5
8035
  8
3
 62
     0
 10
2870.6345569355822
 20
4924.4052370605468
 30
0.0
 11
3093.0897071728109
 21
4924.4052370605468
 31
0.0
  0
LINE
  5
8036
  8
3
 62
     0
 10
2870.6345569355822
 20
4209.4052370605459
 30
0.0
 11
3093.0897071728109
 21
4209.4052370605459
 31
0.0
  0
LINE
  5
8037
  8
3
 62
     0
 10
3068.0897071728109
 20
4874.4052370605459
 30
0.0
 11
3068.0897071728109
 21
4259.4052370605468
 31
0.0
  0
INSERT
  5
8038
  8
3
 62
     0
  2
_OPEN
 10
3068.0897071728109
 20
4924.4052370605468
 30
0.0
 41
50.0
 42
50.0
 43
50.0
 50
90.0
  0
INSERT
  5
8039
  8
3
 62
     0
  2
_OPEN
 10
3068.0897071728109
 20
4209.4052370605459
 30
0.0
 41
50.0
 42
50.0
 43
50.0
 50
270.0
  0
TEXT
  8
3
  40
75
  5
80AB
  62
0
  72
0
  71
0
 10
2855.59
 20
4441.06
 30
0.000000
  1
715
  0
POINT
  5
803B
  8
DEFPOINTS
 62
     0
 10
2858.1345569355822
 20
4924.4052370605468
 30
0.0
  0
POINT
  5
803C
  8
DEFPOINTS
 62
     0
 10
2858.1345569355808
 20
4209.4052370605459
 30
0.0
  0
POINT
  5
803D
  8
DEFPOINTS
 62
     0
 10
3068.0897071728109
 20
4209.4052370605459
 30
0.0
  0
ENDBLK
  5
7E6D
  8
0
  0
BLOCK
  8
0
  2
*D3
 70
     1
 10
0.0
 20
0.0
 30
0.0
  3
*D3
  1

  0
LINE
  5
803E
  8
3
 62
     0
 10
1955.1345569355831
 20
3159.889091749716
 30
0.0
 11
1955.1345569355831
 21
3329.2332630682849
 31
0.0
  0
LINE
  5
803F
  8
3
 62
     0
 10
2555.1345569355831
 20
3043.9543222435091
 30
0.0
 11
2555.1345569355831
 21
3329.2332630682849
 31
0.0
  0
LINE
  5
8040
  8
3
 62
     0
 10
2005.1345569355831
 20
3304.2332630682849
 30
0.0
 11
2505.1345569355831
 21
3304.2332630682849
 31
0.0
  0
INSERT
  5
8041
  8
3
 62
     0
  2
_OPEN
 10
1955.1345569355831
 20
3304.2332630682849
 30
0.0
 41
50.0
 42
50.0
 43
50.0
 50
180.0
  0
INSERT
  5
8042
  8
3
 62
     0
  2
_OPEN
 10
2555.1345569355831
 20
3304.2332630682849
 30
0.0
 41
50.0
 42
50.0
 43
50.0
  0
TEXT
  8
3
  40
75
  5
80AC
  62
0
  72
0
  71
0
 10
2144.44
 20
3233.98
 30
0.000000
  1
600
  0
POINT
  5
8044
  8
DEFPOINTS
 62
     0
 10
1955.1345569355831
 20
3147.389091749716
 30
0.0
  0
POINT
  5
8045
  8
DEFPOINTS
 62
     0
 10
2555.1345569355831
 20
3031.4543222435091
 30
0.0
  0
POINT
  5
8046
  8
DEFPOINTS
 62
     0
 10
2555.1345569355831
 20
3304.2332630682849
 30
0.0
  0
ENDBLK
  5
7ED2
  8
0
  0
BLOCK
  8
0
  2
*D4
 70
     1
 10
0.0
 20
0.0
 30
0.0
  3
*D4
  1

  0
LINE
  5
8047
  8
3
 62
     0
 10
2555.1345569355831
 20
3043.95432224351
 30
0.0
 11
2555.1345569355831
 21
3197.3863934711089
 31
0.0
  0
LINE
  5
8048
  8
3
 62
     0
 10
1975.1345569355831
 20
3043.95432224351
 30
0.0
 11
1975.1345569355831
 21
3197.3863934711089
 31
0.0
  0
LINE
  5
8049
  8
3
 62
     0
 10
2505.1345569355831
 20
3172.3863934711089
 30
0.0
 11
2025.1345569355831
 21
3172.3863934711089
 31
0.0
  0
INSERT
  5
804A
  8
3
 62
     0
  2
_OPEN
 10
2555.1345569355831
 20
3172.3863934711089
 30
0.0
 41
50.0
 42
50.0
 43
50.0
  0
INSERT
  5
804B
  8
3
 62
     0
  2
_OPEN
 10
1975.1345569355831
 20
3172.3863934711089
 30
0.0
 41
50.0
 42
50.0
 43
50.0
 50
180.0
  0
TEXT
  8
3
  40
75
  5
80AD
  62
0
  72
0
  71
0
 10
2130.43
 20
3102.14
 30
0.000000
  1
580
  0
POINT
  5
804D
  8
DEFPOINTS
 62
     0
 10
2555.1345569355831
 20
3031.45432224351
 30
0.0
  0
POINT
  5
804E
  8
DEFPOINTS
 62
     0
 10
1975.1345569355831
 20
3031.45432224351
 30
0.0
  0
POINT
  5
804F
  8
DEFPOINTS
 62
     0
 10
1975.1345569355831
 20
3172.3863934711089
 30
0.0
  0
ENDBLK
  5
7EC7
  8
0
  0
BLOCK
  8
0
  2
*D5
 70
     1
 10
0.0
 20
0.0
 30
0.0
  3
*D5
  1

  0
LINE
  5
8050
  8
3
 62
     0
 10
1555.1345569355831
 20
2611.9543222435091
 30
0.0
 11
1555.1345569355831
 21
3329.2332630682849
 31
0.0
  0
LINE
  5
8051
  8
3
 62
     0
 10
1905.1345569355831
 20
3304.2332630682849
 30
0.0
 11
1605.1345569355831
 21
3304.2332630682849
 31
0.0
  0
INSERT
  5
8052
  8
3
 62
     0
  2
_OPEN
 10
1955.1345569355831
 20
3304.2332630682849
 30
0.0
 41
50.0
 42
50.0
 43
50.0
  0
INSERT
  5
8053
  8
3
 62
     0
  2
_OPEN
 10
1555.1345569355831
 20
3304.2332630682849
 30
0.0
 41
50.0
 42
50.0
 43
50.0
 50
180.0
  0
TEXT
  8
3
  40
75
  5
80AE
  62
0
  72
0
  71
0
 10
1605.13
 20
3233.98
 30
0.000000
  1
400
  0
POINT
  5
8055
  8
DEFPOINTS
 62
     0
 10
1955.1345569355831
 20
3147.389091749716
 30
0.0
  0
POINT
  5
8056
  8
DEFPOINTS
 62
     0
 10
1555.1345569355831
 20
2599.4543222435091
 30
0.0
  0
POINT
  5
8057
  8
DEFPOINTS
 62
     0
 10
1555.1345569355831
 20
3304.2332630682849
 30
0.0
  0
ENDBLK
  5
7EF1
  8
0
  0
BLOCK
  8
0
  2
*D6
 70
     1
 10
0.0
 20
0.0
 30
0.0
  3
*D6
  1

  0
LINE
  5
8058
  8
3
 62
     0
 10
1930.6345569355831
 20
3031.4543222435091
 30
0.0
 11
1261.294262148233
 21
3031.4543222435091
 31
0.0
  0
LINE
  5
8059
  8
3
 62
     0
 10
1516.89802713927
 20
2641.4543222435091
 30
0.0
 11
1261.294262148233
 21
2641.4543222435091
 31
0.0
  0
LINE
  5
805A
  8
3
 62
     0
 10
1286.294262148233
 20
2981.4543222435091
 30
0.0
 11
1286.294262148233
 21
2691.4543222435091
 31
0.0
  0
INSERT
  5
805B
  8
3
 62
     0
  2
_OPEN
 10
1286.294262148233
 20
3031.4543222435091
 30
0.0
 41
50.0
 42
50.0
 43
50.0
 50
90.0
  0
INSERT
  5
805C
  8
3
 62
     0
  2
_OPEN
 10
1286.294262148233
 20
2641.4543222435091
 30
0.0
 41
50.0
 42
50.0
 43
50.0
 50
270.0
  0
TEXT
  8
3
  40
75
  5
80AF
  62
0
  72
0
  71
0
 10
1073.79
 20
2727.28
 30
0.000000
  1
390
  0
POINT
  5
805E
  8
DEFPOINTS
 62
     0
 10
1943.1345569355831
 20
3031.4543222435091
 30
0.0
  0
POINT
  5
805F
  8
DEFPOINTS
 62
     0
 10
1529.39802713927
 20
2641.4543222435091
 30
0.0
  0
POINT
  5
8060
  8
DEFPOINTS
 62
     0
 10
1286.294262148233
 20
2641.4543222435091
 30
0.0
  0
ENDBLK
  5
7EB1
  8
0
  0
BLOCK
  8
0
  2
*D7
 70
     1
 10
0.0
 20
0.0
 30
0.0
  3
*D7
  1

  0
LINE
  5
8061
  8
3
 62
     0
 10
1592.6345569355831
 20
2071.4543222435091
 30
0.0
 11
1261.2942621482321
 21
2071.4543222435091
 31
0.0
  0
LINE
  5
8062
  8
3
 62
     0
 10
1286.2942621482321
 20
2591.4543222435091
 30
0.0
 11
1286.2942621482321
 21
2121.4543222435091
 31
0.0
  0
INSERT
  5
8063
  8
3
 62
     0
  2
_OPEN
 10
1286.2942621482321
 20
2641.4543222435091
 30
0.0
 41
50.0
 42
50.0
 43
50.0
 50
90.0
  0
INSERT
  5
8064
  8
3
 62
     0
  2
_OPEN
 10
1286.2942621482321
 20
2071.4543222435091
 30
0.0
 41
50.0
 42
50.0
 43
50.0
 50
270.0
  0
TEXT
  8
3
  40
75
  5
80B0
  62
0
  72
0
  71
0
 10
1073.79
 20
2223.70
 30
0.000000
  1
570
  0
POINT
  5
8066
  8
DEFPOINTS
 62
     0
 10
1529.39802713927
 20
2641.4543222435091
 30
0.0
  0
POINT
  5
8067
  8
DEFPOINTS
 62
     0
 10
1605.1345569355831
 20
2071.4543222435091
 30
0.0
  0
POINT
  5
8068
  8
DEFPOINTS
 62
     0
 10
1286.2942621482321
 20
2071.4543222435091
 30
0.0
  0
ENDBLK
  5
7EA6
  8
0
  0
BLOCK
  8
0
  2
_DOT
 70
     0
 10
0.0
 20
0.0
 30
0.0
  3
_DOT
  1

  0
LINE
  5
7F16
  8
0
  6
BYBLOCK
 62
     0
 10
0.0
 20
0.0
 30
0.0
 11
-1.0
 21
-0.0000000000000284
 31
0.0
  0
POLYLINE
  5
7F17
  8
0
  6
BYBLOCK
 62
     0
 66
     1
 10
0.0
 20
0.0
 30
0.0
 70
     1
 40
0.1666666666666666
 41
0.1666666666666666
  0
VERTEX
  5
8083
  8
0
  6
BYBLOCK
 62
     0
 10
-0.0833333333333286
 20
-0.0000000000000284
 30
0.0
 42
1.0
  0
VERTEX
  5
8084
  8
0
  6
BYBLOCK
 62
     0
 10
0.0833333333333286
 20
-0.0000000000000284
 30
0.0
 42
1.0
  0
SEQEND
  5
8085
  8
0
  6
BYBLOCK
 62
     0
  0
ENDBLK
  5
7D54
  8
0
  0
BLOCK
  8
0
  2
*D9
 70
     1
 10
0.0
 20
0.0
 30
0.0
  3
*D9
  1

  0
LINE
  5
8069
  8
3
 62
     0
 10
4017.8876673387899
 20
3013.9543222435109
 30
0.0
 11
4017.8876673387899
 21
3216.540285855323
 31
0.0
  0
LINE
  5
806A
  8
3
 62
     0
 10
4442.8876673387904
 20
3013.9543222435109
 30
0.0
 11
4442.8876673387904
 21
3216.540285855323
 31
0.0
  0
LINE
  5
806B
  8
3
 62
     0
 10
4067.8876673387899
 20
3191.5402858553221
 30
0.0
 11
4392.8876673387886
 21
3191.5402858553221
 31
0.0
  0
INSERT
  5
806C
  8
3
 62
     0
  2
_OPEN
 10
4017.8876673387899
 20
3191.5402858553221
 30
0.0
 41
50.0
 42
50.0
 43
50.0
 50
180.0
  0
INSERT
  5
806D
  8
3
 62
     0
  2
_OPEN
 10
4442.8876673387904
 20
3191.5402858553221
 30
0.0
 41
50.0
 42
50.0
 43
50.0
  0
TEXT
  8
3
  40
75
  5
80B1
  62
0
  72
0
  71
0
 10
4082.16
 20
3121.29
 30
0.000000
  1
425
  0
POINT
  5
806F
  8
DEFPOINTS
 62
     0
 10
4017.8876673387899
 20
3001.45432224351
 30
0.0
  0
POINT
  5
8070
  8
DEFPOINTS
 62
     0
 10
4442.8876673387904
 20
3001.45432224351
 30
0.0
  0
POINT
  5
8071
  8
DEFPOINTS
 62
     0
 10
4442.8876673387904
 20
3191.5402858553221
 30
0.0
  0
ENDBLK
  5
7E21
  8
0
  0
BLOCK
  8
0
  2
*D10
 70
     1
 10
0.0
 20
0.0
 30
0.0
  3
*D10
  1

  0
LINE
  5
7E23
  8
0
  6
BYBLOCK
 62
     0
 10
4445.6298262740702
 20
2660.6833005520461
 30
0.0
 11
4445.6298262740702
 21
3098.5699962001249
 31
0.0
  0
LINE
  5
7E24
  8
0
  6
BYBLOCK
 62
     0
 10
4230.3876673387904
 20
3012.285117457523
 30
0.0
 11
4230.3876673387904
 21
3098.5699962001249
 31
0.0
  0
LINE
  5
7E25
  8
0
  6
BYBLOCK
 62
     0
 10
4395.6298262740702
 20
3073.5699962001249
 30
0.0
 11
4280.3876673387904
 21
3073.5699962001249
 31
0.0
  0
TEXT
  5
7E26
  8
3
 62
     0
 10
4249.7305307156366
 20
3096.3125650638849
 30
0.0
 40
75.0
  1
215
  0
INSERT
  5
7E27
  8
0
  6
BYBLOCK
 62
     0
  2
_OPEN
 10
4445.6298262740702
 20
3073.5699962001249
 30
0.0
 41
50.0
 42
50.0
 43
50.0
  0
INSERT
  5
7E28
  8
0
  6
BYBLOCK
 62
     0
  2
_OPEN
 10
4230.3876673387904
 20
3073.5699962001249
 30
0.0
 41
50.0
 42
50.0
 43
50.0
 50
180.0
  0
POINT
  5
7E29
  8
DEFPOINTS
  6
BYBLOCK
 62
     0
 10
4445.6298262740702
 20
2648.1833005520461
 30
0.0
  0
POINT
  5
7E2A
  8
DEFPOINTS
  6
BYBLOCK
 62
     0
 10
4230.3876673387904
 20
2999.785117457523
 30
0.0
  0
POINT
  5
7E2B
  8
DEFPOINTS
  6
BYBLOCK
 62
     0
 10
4230.3876673387904
 20
3073.5699962001249
 30
0.0
  0
ENDBLK
  5
7E2C
  8
0
  0
BLOCK
  8
0
  2
*D11
 70
     1
 10
0.0
 20
0.0
 30
0.0
  3
*D11
  1

  0
LINE
  5
8072
  8
3
 62
     0
 10
3609.6143940401589
 20
2873.9543222435091
 30
0.0
 11
3609.6143940401589
 21
3401.8410178915892
 31
0.0
  0
LINE
  5
8073
  8
3
 62
     0
 10
4180.3876673387904
 20
3376.8410178915892
 30
0.0
 11
3659.6143940401589
 21
3376.8410178915892
 31
0.0
  0
INSERT
  5
8074
  8
3
 62
     0
  2
_OPEN
 10
4230.3876673387904
 20
3376.8410178915892
 30
0.0
 41
50.0
 42
50.0
 43
50.0
  0
INSERT
  5
8075
  8
3
 62
     0
  2
_OPEN
 10
3609.6143940401589
 20
3376.8410178915892
 30
0.0
 41
50.0
 42
50.0
 43
50.0
 50
180.0
  0
TEXT
  8
3
  40
75
  5
80B2
  62
0
  72
0
  71
0
 10
3770.00
 20
3369.09
 30
0.000000
  1
MAX
  0
TEXT
  8
3
  40
75
  5
80B3
  62
0
  72
0
  71
0
 10
3770.00
 20
3271.59
 30
0.000000
  1
630
  0
POINT
  5
8077
  8
DEFPOINTS
 62
     0
 10
4230.3876673387904
 20
3303.0561391489869
 30
0.0
  0
POINT
  5
8078
  8
DEFPOINTS
 62
     0
 10
3609.6143940401589
 20
2861.4543222435091
 30
0.0
  0
POINT
  5
8079
  8
DEFPOINTS
 62
     0
 10
3609.6143940401589
 20
3376.8410178915892
 30
0.0
  0
ENDBLK
  5
7E42
  8
0
  0
BLOCK
  8
0
  2
*D12
 70
     1
 10
0.0
 20
0.0
 30
0.0
  3
*D12
  1

  0
LINE
  5
807A
  8
3
 62
     0
 10
4488.5876673387902
 20
2921.45432224351
 30
0.0
 11
4690.9058980112677
 21
2921.45432224351
 31
0.0
  0
LINE
  5
807B
  8
3
 62
     0
 10
4488.5876673387902
 20
2361.4543222435091
 30
0.0
 11
4690.9058980112677
 21
2361.4543222435091
 31
0.0
  0
LINE
  5
807C
  8
3
 62
     0
 10
4665.9058980112686
 20
2871.45432224351
 30
0.0
 11
4665.9058980112686
 21
2411.45432224351
 31
0.0
  0
INSERT
  5
807D
  8
3
 62
     0
  2
_OPEN
 10
4665.9058980112686
 20
2921.45432224351
 30
0.0
 41
50.0
 42
50.0
 43
50.0
 50
90.0
  0
INSERT
  5
807E
  8
3
 62
     0
  2
_OPEN
 10
4665.9058980112686
 20
2361.4543222435091
 30
0.0
 41
50.0
 42
50.0
 43
50.0
 50
270.0
  0
TEXT
  8
3
  40
75
  5
80B4
  62
0
  72
0
  71
0
 10
4453.41
 20
2518.18
 30
0.000000
  1
φ560
  0
POINT
  5
8080
  8
DEFPOINTS
 62
     0
 10
4476.0876673387911
 20
2921.45432224351
 30
0.0
  0
POINT
  5
8081
  8
DEFPOINTS
 62
     0
 10
4476.0876673387911
 20
2361.4543222435091
 30
0.0
  0
POINT
  5
8082
  8
DEFPOINTS
 62
     0
 10
4665.9058980112686
 20
2361.4543222435091
 30
0.0
  0
ENDBLK
  5
7E5D
  8
0
  0
BLOCK
  8
0
  2
*D13
 70
     1
 10
0.0
 20
0.0
 30
0.0
  3
*D13
  1

  0
LINE
  5
8086
  8
3
 62
     0
 10
1605.1345569355831
 20
2058.9543222435091
 30
0.0
 11
1605.1345569355831
 21
1892.781995154473
 31
0.0
  0
LINE
  5
8087
  8
3
 62
     0
 10
1955.134556935584
 20
2058.9543222435091
 30
0.0
 11
1955.134556935584
 21
1892.781995154473
 31
0.0
  0
LINE
  5
8088
  8
3
 62
     0
 10
1655.1345569355831
 20
1917.781995154473
 30
0.0
 11
1905.134556935584
 21
1917.781995154473
 31
0.0
  0
INSERT
  5
8089
  8
3
 62
     0
  2
_OPEN
 10
1605.1345569355831
 20
1917.781995154473
 30
0.0
 41
50.0
 42
50.0
 43
50.0
 50
180.0
  0
INSERT
  5
808A
  8
3
 62
     0
  2
_OPEN
 10
1955.134556935584
 20
1917.781995154473
 30
0.0
 41
50.0
 42
50.0
 43
50.0
  0
TEXT
  8
3
  40
75
  5
80B5
  62
0
  72
0
  71
0
 10
1630.13
 20
1847.53
 30
0.000000
  1
350
  0
POINT
  5
808C
  8
DEFPOINTS
 62
     0
 10
1605.1345569355831
 20
2071.4543222435091
 30
0.0
  0
POINT
  5
808D
  8
DEFPOINTS
 62
     0
 10
1955.134556935584
 20
2071.4543222435091
 30
0.0
  0
POINT
  5
808E
  8
DEFPOINTS
 62
     0
 10
1955.134556935584
 20
1917.781995154473
 30
0.0
  0
ENDBLK
  5
7F32
  8
0
  0
BLOCK
  8
0
  2
*D14
 70
     1
 10
0.0
 20
0.0
 30
0.0
  3
*D14
  1

  0
LINE
  5
808F
  8
3
 62
     0
 10
1955.134556935584
 20
2058.9543222435091
 30
0.0
 11
1955.134556935584
 21
1892.781995154473
 31
0.0
  0
LINE
  5
8090
  8
3
 62
     0
 10
2855.1345569355831
 20
2058.9543222435091
 30
0.0
 11
2855.1345569355831
 21
1892.781995154473
 31
0.0
  0
LINE
  5
8091
  8
3
 62
     0
 10
2005.1345569355831
 20
1917.781995154473
 30
0.0
 11
2805.1345569355831
 21
1917.781995154473
 31
0.0
  0
INSERT
  5
8092
  8
3
 62
     0
  2
_OPEN
 10
1955.134556935584
 20
1917.781995154473
 30
0.0
 41
50.0
 42
50.0
 43
50.0
 50
180.0
  0
INSERT
  5
8093
  8
3
 62
     0
  2
_OPEN
 10
2855.1345569355831
 20
1917.781995154473
 30
0.0
 41
50.0
 42
50.0
 43
50.0
  0
TEXT
  8
3
  40
75
  5
80B6
  62
0
  72
0
  71
0
 10
2255.13
 20
1847.53
 30
0.000000
  1
900
  0
POINT
  5
8095
  8
DEFPOINTS
 62
     0
 10
1955.134556935584
 20
2071.4543222435091
 30
0.0
  0
POINT
  5
8096
  8
DEFPOINTS
 62
     0
 10
2855.1345569355831
 20
2071.4543222435091
 30
0.0
  0
POINT
  5
8097
  8
DEFPOINTS
 62
     0
 10
2855.1345569355831
 20
1917.781995154473
 30
0.0
  0
ENDBLK
  5
7F3F
  8
0
  0
BLOCK
  8
0
  2
*D15
 70
     1
 10
0.0
 20
0.0
 30
0.0
  3
*D15
  1

  0
LINE
  5
8098
  8
3
 62
     0
 10
3770.387667338789
 20
2058.95432224351
 30
0.0
 11
3770.387667338789
 21
1892.781995154473
 31
0.0
  0
LINE
  5
8099
  8
3
 62
     0
 10
4230.3876673387913
 20
2058.95432224351
 30
0.0
 11
4230.3876673387913
 21
1892.781995154473
 31
0.0
  0
LINE
  5
809A
  8
3
 62
     0
 10
3820.387667338789
 20
1917.781995154473
 30
0.0
 11
4180.3876673387904
 21
1917.781995154473
 31
0.0
  0
INSERT
  5
809B
  8
3
 62
     0
  2
_OPEN
 10
3770.387667338789
 20
1917.781995154473
 30
0.0
 41
50.0
 42
50.0
 43
50.0
 50
180.0
  0
INSERT
  5
809C
  8
3
 62
     0
  2
_OPEN
 10
4230.3876673387913
 20
1917.781995154473
 30
0.0
 41
50.0
 42
50.0
 43
50.0
  0
TEXT
  8
3
  40
75
  5
80B7
  62
0
  72
0
  71
0
 10
3850.39
 20
1847.53
 30
0.000000
  1
460
  0
POINT
  5
809E
  8
DEFPOINTS
 62
     0
 10
3770.387667338789
 20
2071.45432224351
 30
0.0
  0
POINT
  5
809F
  8
DEFPOINTS
 62
     0
 10
4230.3876673387913
 20
2071.45432224351
 30
0.0
  0
POINT
  5
80A0
  8
DEFPOINTS
 62
     0
 10
4230.3876673387913
 20
1917.781995154473
 30
0.0
  0
ENDBLK
  5
7F4C
  8
0
  0
BLOCK
  8
0
  2
*D16
 70
     1
 10
0.0
 20
0.0
 30
0.0
  3
*D16
  1

  0
LINE
  5
80A1
  8
3
 62
     0
 10
4230.3876673387913
 20
2058.95432224351
 30
0.0
 11
4230.3876673387913
 21
1892.781995154473
 31
0.0
  0
LINE
  5
80A2
  8
3
 62
     0
 10
4485.3876673387913
 20
2058.95432224351
 30
0.0
 11
4485.3876673387913
 21
1892.781995154473
 31
0.0
  0
LINE
  5
80A3
  8
3
 62
     0
 10
4280.3876673387913
 20
1917.781995154473
 30
0.0
 11
4435.3876673387913
 21
1917.781995154473
 31
0.0
  0
INSERT
  5
80A4
  8
3
 62
     0
  2
_OPEN
 10
4230.3876673387913
 20
1917.781995154473
 30
0.0
 41
50.0
 42
50.0
 43
50.0
 50
180.0
  0
INSERT
  5
80A5
  8
3
 62
     0
  2
_OPEN
 10
4485.3876673387913
 20
1917.781995154473
 30
0.0
 41
50.0
 42
50.0
 43
50.0
  0
TEXT
  8
3
  40
75
  5
80B8
  62
0
  72
0
  71
0
 10
4207.89
 20
1847.53
 30
0.000000
  1
255
  0
POINT
  5
80A7
  8
DEFPOINTS
 62
     0
 10
4230.3876673387913
 20
2071.45432224351
 30
0.0
  0
POINT
  5
80A8
  8
DEFPOINTS
 62
     0
 10
4485.3876673387913
 20
2071.45432224351
 30
0.0
  0
POINT
  5
80A9
  8
DEFPOINTS
 62
     0
 10
4485.3876673387913
 20
1917.781995154473
 30
0.0
  0
ENDBLK
  5
7F5B
  8
0
  0
ENDSEC
  0
SECTION
  2
ENTITIES
  0
LINE
  5
7B1E
  8
1
 10
2220.1345569355831
 20
2557.9543222435091
 30
0.0
 11
2220.1345569355831
 21
2151.45432224351
 31
0.0
  0
LINE
  5
7B1F
  8
1
 10
1690.1345569355831
 20
2557.9543222435091
 30
0.0
 11
1690.1345569355819
 21
2151.45432224351
 31
0.0
  0
ARC
  5
7B20
  8
1
 10
1997.1345569355831
 20
2683.4543222435091
 30
0.0
 40
526.0
 50
270.0
 51
290.62691746481647
  0
ARC
  5
7B21
  8
1
 10
1997.1345569355831
 20
2683.4543222435091
 30
0.0
 40
538.0
 50
270.0
 51
290.1466258538174
  0
LINE
  5
7B22
  8
1
 10
1727.8345569355829
 20
2577.3543222435101
 30
0.0
 11
1727.834556935582
 21
2151.45432224351
 31
0.0
  0
LINE
  5
7B23
  8
1
 10
2182.4345569355819
 20
2577.3543222435101
 30
0.0
 11
2182.4345569355819
 21
2151.45432224351
 31
0.0
  0
ARC
  5
7B24
  8
1
 10
1997.1345569355831
 20
2599.4543222435091
 30
0.0
 40
454.0
 50
209.41878919922351
 51
227.4517026551348
  0
ARC
  5
7B25
  8
1
 10
1997.1345569355831
 20
2599.4543222435091
 30
0.0
 40
442.0
 50
210.2998183743193
 51
226.00702752337131
  0
LINE
  5
7B26
  8
2
 10
1955.1345569355831
 20
3147.389091749716
 30
0.0
 11
1955.134556935584
 21
2071.4543222435091
 31
0.0
  0
LINE
  5
7B27
  8
1
 10
2220.1345569355831
 20
2151.45432224351
 30
0.0
 11
2182.4345569355819
 21
2151.45432224351
 31
0.0
  0
LINE
  5
7B28
  8
1
 10
1727.834556935582
 20
2151.45432224351
 30
0.0
 11
1690.134556935581
 21
2151.45432224351
 31
0.0
  0
LINE
  5
7B29
  8
2
 10
2628.5132010940988
 20
2641.4543222435091
 30
0.0
 11
1529.39802713927
 21
2641.4543222435091
 31
0.0
  0
LINE
  5
7B2B
  8
1
 10
2225.1345569355831
 20
2691.45432224351
 30
0.0
 11
2475.1345569355831
 21
2691.45432224351
 31
0.0
  0
LINE
  5
7B2C
  8
1
 10
2225.1345569355831
 20
2911.45432224351
 30
0.0
 11
2475.1345569355831
 21
2911.45432224351
 31
0.0
  0
LINE
  5
7B2D
  8
1
 10
2183.134556935584
 20
3001.4543222435091
 30
0.0
 11
2555.1345569355831
 21
3001.4543222435091
 31
0.0
  0
LINE
  5
7B2E
  8
1
 10
2183.134556935584
 20
3031.4543222435091
 30
0.0
 11
2587.134556935584
 21
3031.4543222435091
 31
0.0
  0
LINE
  5
7B30
  8
1
 10
2475.1345569355831
 20
2911.45432224351
 30
0.0
 11
2475.1345569355831
 21
2691.45432224351
 31
0.0
  0
LINE
  5
7B31
  8
1
 10
2460.1345569355831
 20
2911.45432224351
 30
0.0
 11
2460.1345569355831
 21
2691.45432224351
 31
0.0
  0
LINE
  5
7B32
  8
1
 10
2462.1264153642878
 20
2911.45432224351
 30
0.0
 11
2462.1264153642878
 21
2691.45432224351
 31
0.0
  0
LINE
  5
7B33
  8
1
 10
2556.587260387058
 20
3001.4543222435091
 30
0.0
 11
2520.6584695219749
 21
2632.4767492310889
 31
0.0
  0
LINE
  5
7B34
  8
1
 10
2568.5307717008159
 20
3000.291335786952
 30
0.0
 11
2532.6019808357328
 21
2631.3137627745309
 31
0.0
  0
LINE
  5
7B35
  8
1
 10
2568.5307717008159
 20
3000.291335786952
 30
0.0
 11
2556.587260387058
 21
3001.4543222435091
 31
0.0
  0
LINE
  5
7B36
  8
1
 10
2559.4345569355851
 20
3001.4543222435091
 30
0.0
 11
2557.134556935584
 21
3001.4543222435091
 31
0.0
  0
LINE
  5
7B37
  8
1
 10
2556.634556935584
 20
3001.4543222435091
 30
0.0
 11
2566.634556935584
 21
3001.4543222435091
 31
0.0
  0
LINE
  5
7B38
  8
1
 10
2587.134556935584
 20
3029.1543222435089
 30
0.0
 11
2587.134556935584
 21
3031.4543222435091
 31
0.0
  0
ARC
  5
7B39
  8
1
 10
2561.7345569355839
 20
3026.8543222435092
 30
0.0
 40
2.2999999999999989
 50
90.0
 51
180.0
  0
LINE
  5
7B3A
  8
1
 10
2559.4345569355851
 20
3001.4543222435091
 30
0.0
 11
2559.4345569355851
 21
3026.8543222435092
 31
0.0
  0
LINE
  5
7B3C
  8
1
 10
2587.134556935584
 20
3029.1543222435089
 30
0.0
 11
2561.7345569355848
 21
3029.1543222435089
 31
0.0
  0
LINE
  5
7B3D
  8
1
 10
2566.634556935584
 20
3001.4543222435091
 30
0.0
 11
2566.5401864818568
 21
3000.4851668630449
 31
0.0
  0
LINE
  5
7B3F
  8
1
 10
2554.8345569355838
 20
3001.4543222435091
 30
0.0
 11
2557.134556935584
 21
3001.4543222435091
 31
0.0
  0
LINE
  5
7B40
  8
1
 10
2225.1345569355831
 20
2911.45432224351
 30
0.0
 11
2225.1345569355831
 21
2691.45432224351
 31
0.0
  0
ARC
  5
7B41
  8
1
 10
1924.9946560015301
 20
2604.6931851078202
 30
0.0
 40
381.87862130683351
 50
127.79563499383499
 51
179.4356825541584
  0
ARC
  5
7B42
  8
1
 10
1924.9793645322279
 20
2604.8257241202532
 30
0.0
 40
369.86260750519142
 50
125.3616591129359
 51
179.4378812861205
  0
LINE
  5
7B43
  8
1
 10
1955.1345569355831
 20
2621.9543222435091
 30
0.0
 11
1577.1345569355831
 21
2621.9543222435132
 31
0.0
  0
LINE
  5
7B44
  8
1
 10
2177.8345569355829
 20
2581.95432224351
 30
0.0
 11
1732.4345569355819
 21
2581.95432224351
 31
0.0
  0
LINE
  5
7B45
  8
1
 10
2333.1345569355831
 20
2621.9543222435091
 30
0.0
 11
1955.1345569355831
 21
2621.9543222435091
 31
0.0
  0
LINE
  5
7B46
  8
1
 10
2338.1345569355831
 20
2616.9543222435091
 30
0.0
 11
2333.1345569355831
 21
2621.9543222435091
 31
0.0
  0
LINE
  5
7B47
  8
1
 10
2338.1345569355831
 20
2581.95432224351
 30
0.0
 11
2338.1345569355831
 21
2616.9543222435091
 31
0.0
  0
ARC
  5
7B48
  8
1
 10
2177.8345569355829
 20
2577.3543222435101
 30
0.0
 40
4.5999999999999988
 50
0.0
 51
90.0
  0
LINE
  5
7B49
  8
1
 10
2200.1345569355831
 20
2577.9543222435091
 30
0.0
 11
2182.3952586359801
 21
2577.9543222435091
 31
0.0
  0
LINE
  5
7B4A
  8
1
 10
2220.1345569355831
 20
2557.9543222435091
 30
0.0
 11
2200.1345569355831
 21
2577.9543222435091
 31
0.0
  0
LINE
  5
7B4B
  8
1
 10
2182.4345569355819
 20
2571.9543222435091
 30
0.0
 11
2182.4345569355819
 21
2525.0210488871262
 31
0.0
  0
ARC
  5
7B4C
  8
1
 10
1997.1345569355831
 20
2599.4543222435091
 30
0.0
 40
454.0
 50
180.0
 51
209.41878919922351
  0
ARC
  5
7B4D
  8
1
 10
1997.1345569355831
 20
2599.4543222435091
 30
0.0
 40
442.0
 50
180.0
 51
210.2998183743193
  0
LINE
  5
7B4E
  8
1
 10
1710.1345569355831
 20
2577.9543222435091
 30
0.0
 11
1690.1345569355831
 21
2557.9543222435091
 31
0.0
  0
ARC
  5
7B4F
  8
1
 10
1732.4345569355819
 20
2577.3543222435101
 30
0.0
 40
4.5999999999999988
 50
90.0
 51
180.0
  0
LINE
  5
7B50
  8
1
 10
1727.873855235187
 20
2577.9543222435091
 30
0.0
 11
1710.1345569355831
 21
2577.9543222435091
 31
0.0
  0
LINE
  5
7B51
  8
1
 10
1572.1345569355831
 20
2581.9543222435132
 30
0.0
 11
1572.1345569355831
 21
2616.9543222435132
 31
0.0
  0
LINE
  5
7B52
  8
1
 10
1577.1345569355831
 20
2621.9543222435132
 30
0.0
 11
1572.1345569355831
 21
2616.9543222435132
 31
0.0
  0
LINE
  5
7B53
  8
1
 10
1555.1345569355831
 20
2599.4543222435091
 30
0.0
 11
1555.1345569355831
 21
2608.4543222435091
 31
0.0
  0
LINE
  5
7B54
  8
1
 10
1543.1345569355831
 20
2599.4543222435091
 30
0.0
 11
1543.1345569355831
 21
2608.4543222435091
 31
0.0
  0
ARC
  5
7B55
  8
1
 10
1921.6762672054599
 20
2619.1710310233748
 30
0.0
 40
356.29631434391217
 50
96.242371589720506
 51
126.26358166358401
  0
ARC
  5
7B56
  8
1
 10
1921.7554800998621
 20
2618.2152153027018
 30
0.0
 40
369.2527910835459
 50
96.034871357880675
 51
128.68436239669199
  0
LINE
  5
7B57
  8
1
 10
2183.1345569355831
 20
3031.4543222435091
 30
0.0
 11
1975.1345569355831
 21
3031.4543222435091
 31
0.0
  0
LINE
  5
7B58
  8
1
 10
2183.134556935584
 20
3001.4543222435091
 30
0.0
 11
1970.6345569355831
 21
3001.4543222435091
 31
0.0
  0
ARC
  5
7B59
  8
1
 10
1922.1345569355831
 20
2608.4543222435091
 30
0.0
 40
367.0
 50
90.0
 51
96.131573069921643
  0
ARC
  5
7B5A
  8
1
 10
1922.1345569355831
 20
2608.4543222435091
 30
0.0
 40
379.0
 50
90.0
 51
95.936724234260424
  0
LINE
  5
7B5B
  8
1
 10
1935.634556935586
 20
2987.4543222435091
 30
0.0
 11
1922.1345569355831
 21
2987.4543222435091
 31
0.0
  0
LINE
  5
7B5C
  8
1
 10
1935.634556935586
 20
2975.4543222435091
 30
0.0
 11
1922.1345569355831
 21
2975.4543222435091
 31
0.0
  0
LINE
  5
7B5D
  8
1
 10
1970.6345569355831
 20
2975.4543222435091
 30
0.0
 11
1935.634556935586
 21
2975.4543222435091
 31
0.0
  0
LINE
  5
7B5E
  8
1
 10
1973.1345569355819
 20
3031.4543222435091
 30
0.0
 11
1973.6345569355831
 21
3031.4543222435091
 31
0.0
  0
LINE
  5
7B5F
  8
1
 10
1970.6345569355831
 20
2987.4543222435091
 30
0.0
 11
1970.6345569355831
 21
2975.4543222435091
 31
0.0
  0
LINE
  5
7B60
  8
1
 10
1970.6345569355831
 20
2987.4543222435091
 30
0.0
 11
1935.634556935586
 21
2987.4543222435091
 31
0.0
  0
LINE
  5
7B62
  8
1
 10
1943.1345569355819
 20
3029.1543222435089
 30
0.0
 11
1943.1345569355831
 21
3031.4543222435091
 31
0.0
  0
ARC
  5
7B63
  8
1
 10
1968.5345569355829
 20
3026.8543222435092
 30
0.0
 40
2.2999999999999989
 50
0.0
 51
90.0
  0
LINE
  5
7B64
  8
1
 10
1943.1345569355831
 20
3031.4543222435091
 30
0.0
 11
1975.1345569355831
 21
3031.4543222435091
 31
0.0
  0
LINE
  5
7B65
  8
1
 10
1943.1345569355831
 20
3029.1543222435089
 30
0.0
 11
1968.5345569355829
 21
3029.1543222435089
 31
0.0
  0
LINE
  5
7B66
  8
1
 10
1970.834556935582
 20
3001.4543222435091
 30
0.0
 11
1970.834556935582
 21
3026.8543222435092
 31
0.0
  0
LINE
  5
7B69
  8
1
 10
1970.6345569355831
 20
2985.4543222435091
 30
0.0
 11
1970.6345569355831
 21
3001.4543222435091
 31
0.0
  0
LINE
  5
7B6A
  8
1
 10
4485.3876673387904
 20
2406.45432224351
 30
0.0
 11
4485.3876673387913
 21
2071.45432224351
 31
0.0
  0
LINE
  5
7B6B
  8
1
 10
4015.0876673387902
 20
2147.4543222435091
 30
0.0
 11
4015.0876673387511
 21
3001.45432224351
 31
0.0
  0
LINE
  5
7B6C
  8
1
 10
4445.6876673387906
 20
2147.4543222435091
 30
0.0
 11
4445.6876673387133
 21
3001.45432224351
 31
0.0
  0
LINE
  5
7B6D
  8
1
 10
4017.8876673387899
 20
2157.45432224351
 30
0.0
 11
4442.8876673387904
 21
2157.45432224351
 31
0.0
  0
ARC
  5
7B6E
  8
1
 10
4017.0876673387902
 20
2147.4543222435091
 30
0.0
 40
1.9999999999997271
 50
180.0
 51
293.57817847822491
  0
ARC
  5
7B6F
  8
1
 10
4443.6876673387897
 20
2147.4543222435091
 30
0.0
 40
1.999999999999954
 50
246.42182152182039
 51
0.0000000000081563
  0
LINE
  5
7B70
  8
1
 10
4476.0876673387911
 20
2415.7543222435102
 30
0.0
 11
4476.0876673387911
 21
2918.95432224351
 31
0.0
  0
LINE
  5
7B71
  8
2
 10
4230.3876673387904
 20
3176.704815364968
 30
0.0
 11
4230.3876673387913
 21
2071.45432224351
 31
0.0
  0
LINE
  5
7B72
  8
2
 10
3579.3683460792049
 20
2641.45432224351
 30
0.0
 11
4501.3514928763407
 21
2641.45432224351
 31
0.0
  0
LINE
  5
7B73
  8
1
 10
3750.3876673387908
 20
2616.45432224351
 30
0.0
 11
4015.0876673387688
 21
2616.45432224351
 31
0.0
  0
LINE
  5
7B74
  8
1
 10
3750.3876673387908
 20
2666.4543222435091
 30
0.0
 11
4015.0876673387661
 21
2666.4543222435091
 31
0.0
  0
LINE
  5
7B75
  8
1
 10
3750.3876673387899
 20
2616.45432224351
 30
0.0
 11
3750.3876673387899
 21
2666.4543222435091
 31
0.0
  0
LINE
  5
7B76
  8
1
 10
3675.3876673387908
 20
2659.45432224351
 30
0.0
 11
3675.3876673387908
 21
2623.45432224351
 31
0.0
  0
LINE
  5
7B77
  8
1
 10
3676.3876673387908
 20
2622.45432224351
 30
0.0
 11
3748.3876673387908
 21
2622.45432224351
 31
0.0
  0
LINE
  5
7B78
  8
1
 10
3675.3876673387908
 20
2623.45432224351
 30
0.0
 11
3676.3876673387908
 21
2622.45432224351
 31
0.0
  0
ARC
  5
7B79
  8
1
 10
3748.3876673387908
 20
2620.45432224351
 30
0.0
 40
2.0
 50
0.0
 51
90.0
  0
LINE
  5
7B7A
  8
1
 10
4015.0876673387711
 20
2581.9543222435109
 30
0.0
 11
3770.3876673387899
 21
2581.95432224351
 31
0.0
  0
LINE
  5
7B7B
  8
1
 10
3676.3876673387908
 20
2660.45432224351
 30
0.0
 11
3748.3876673387908
 21
2660.45432224351
 31
0.0
  0
LINE
  5
7B7C
  8
1
 10
3675.3876673387908
 20
2659.45432224351
 30
0.0
 11
3676.3876673387908
 21
2660.45432224351
 31
0.0
  0
ARC
  5
7B7D
  8
1
 10
3748.3876673387908
 20
2662.45432224351
 30
0.0
 40
2.0
 50
270.0
 51
0.0
  0
LINE
  5
7B7E
  8
1
 10
4475.3876673387904
 20
2416.45432224351
 30
0.0
 11
4485.3876673387904
 21
2406.45432224351
 31
0.0
  0
LINE
  5
7B7F
  8
1
 10
4475.3876673387904
 20
2416.45432224351
 30
0.0
 11
4445.3876673387904
 21
2416.45432224351
 31
0.0
  0
LINE
  5
7B80
  8
1
 10
3985.387667338789
 20
3031.4543222435109
 30
0.0
 11
4475.3876673387886
 21
3031.4543222435109
 31
0.0
  0
LINE
  5
7B81
  8
1
 10
4475.3876673387886
 20
3029.1543222435112
 30
0.0
 11
3985.387667338789
 21
3029.1543222435112
 31
0.0
  0
LINE
  5
7B82
  8
1
 10
4475.3876673387886
 20
3001.45432224351
 30
0.0
 11
3985.387667338789
 21
3001.45432224351
 31
0.0
  0
LINE
  5
7B83
  8
1
 10
3985.387667338789
 20
3001.45432224351
 30
0.0
 11
3985.387667338789
 21
3031.4543222435109
 31
0.0
  0
LINE
  5
7B84
  8
1
 10
4476.0876673387911
 20
2918.95432224351
 30
0.0
 11
4476.0876673387911
 21
2922.45432224351
 31
0.0
  0
LINE
  5
7B85
  8
1
 10
4453.0876673387902
 20
2924.45432224351
 30
0.0
 11
4474.0876673387902
 21
2924.45432224351
 31
0.0
  0
ARC
  5
7B86
  8
1
 10
4474.0876673387902
 20
2922.45432224351
 30
0.0
 40
2.0
 50
0.0
 51
90.000000000000028
  0
ARC
  5
7B87
  8
1
 10
4453.0876673387902
 20
2928.45432224351
 30
0.0
 40
4.0
 50
180.0
 51
270.0
  0
LINE
  5
7B88
  8
1
 10
4446.0876673387893
 20
2951.45432224351
 30
0.0
 11
4447.0876673387911
 21
2951.45432224351
 31
0.0
  0
ARC
  5
7B89
  8
1
 10
4447.0876673387911
 20
2949.45432224351
 30
0.0
 40
2.0
 50
0.0
 51
90.000000000000028
  0
LINE
  5
7B8A
  8
1
 10
4449.0876673387902
 20
2928.45432224351
 30
0.0
 11
4449.0876673387902
 21
2949.45432224351
 31
0.0
  0
LINE
  5
7B8B
  8
1
 10
4475.3876673387886
 20
3001.45432224351
 30
0.0
 11
4475.3876673387886
 21
3031.4543222435109
 31
0.0
  0
LINE
  5
7B8C
  8
1
 10
1983.1345569355831
 20
4364.405237060545
 30
0.0
 11
2266.1345569355822
 21
4364.405237060545
 31
0.0
  0
LINE
  5
7B8D
  8
1
 10
2218.1345569355822
 20
4213.4052370605468
 30
0.0
 11
2185.3952586359792
 21
4213.4052370605468
 31
0.0
  0
LINE
  5
7B8E
  8
2
 10
1495.790559635265
 20
4669.4052370605468
 30
0.0
 11
2744.2564929383989
 21
4669.4052370605468
 31
0.0
  0
LINE
  5
7B8F
  8
1
 10
1575.1345569355819
 20
4439.405237060545
 30
0.0
 11
1650.1345569355819
 21
4364.405237060545
 31
0.0
  0
LINE
  5
7B90
  8
1
 10
1558.1345569355831
 20
4881.9052370605459
 30
0.0
 11
1558.1345569355831
 21
4456.9052370605468
 31
0.0
  0
LINE
  5
7B91
  8
1
 10
1575.1345569355819
 20
4439.405237060545
 30
0.0
 11
1575.1345569355819
 21
4456.9052370605468
 31
0.0
  0
LINE
  5
7B92
  8
2
 10
1958.1345569355819
 20
4940.5505979019636
 30
0.0
 11
1958.1345569355819
 21
4018.7757765304
 31
0.0
  0
LINE
  5
7B93
  8
1
 10
1650.1345569355819
 20
4364.405237060545
 30
0.0
 11
1933.1345569355831
 21
4364.405237060545
 31
0.0
  0
LINE
  5
7B94
  8
1
 10
1730.834556935582
 20
4214.0052370605463
 30
0.0
 11
1730.834556935582
 21
4364.4052370605468
 31
0.0
  0
LINE
  5
7B95
  8
1
 10
1693.134556935581
 20
4218.4052370605459
 30
0.0
 11
1693.1345569355819
 21
4364.405237060545
 31
0.0
  0
ARC
  5
7B96
  8
1
 10
1735.4345569355819
 20
4214.0052370605463
 30
0.0
 40
4.5999999999999988
 50
180.0
 51
270.0
  0
LINE
  5
7B97
  8
1
 10
1698.134556935581
 20
4213.4052370605468
 30
0.0
 11
1693.134556935581
 21
4218.4052370605459
 31
0.0
  0
LINE
  5
7B98
  8
1
 10
1730.8738552351849
 20
4213.4052370605468
 30
0.0
 11
1698.134556935581
 21
4213.4052370605468
 31
0.0
  0
LINE
  5
7B99
  8
1
 10
1933.1345569355831
 20
4209.4052370605459
 30
0.0
 11
1732.8345569355811
 21
4209.4052370605459
 31
0.0
  0
LINE
  5
7B9A
  8
1
 10
1933.1345569355831
 20
4207.1052370605457
 30
0.0
 11
1732.8345569355811
 21
4207.1052370605457
 31
0.0
  0
LINE
  5
7B9B
  8
1
 10
1732.8345569355811
 20
4207.1052370605457
 30
0.0
 11
1732.834556935582
 21
4209.4052370605459
 31
0.0
  0
LINE
  5
7B9C
  8
1
 10
2185.434556935581
 20
4214.0052370605472
 30
0.0
 11
2185.434556935581
 21
4364.4052370605468
 31
0.0
  0
LINE
  5
7B9D
  8
1
 10
1933.1345569355819
 20
4189.4052370605468
 30
0.0
 11
1933.1345569355819
 21
4456.9052370605468
 31
0.0
  0
LINE
  5
7B9E
  8
1
 10
1983.1345569355819
 20
4189.4052370605468
 30
0.0
 11
1983.1345569355819
 21
4426.9052370605468
 31
0.0
  0
LINE
  5
7B9F
  8
1
 10
1933.1345569355819
 20
4189.4052370605468
 30
0.0
 11
1983.1345569355819
 21
4189.4052370605468
 31
0.0
  0
LINE
  5
7BA0
  8
1
 10
1976.1345569355819
 20
4114.4052370605468
 30
0.0
 11
1940.1345569355819
 21
4114.4052370605468
 31
0.0
  0
LINE
  5
7BA1
  8
1
 10
1939.1345569355819
 20
4115.4052370605477
 30
0.0
 11
1939.1345569355819
 21
4187.4052370605477
 31
0.0
  0
LINE
  5
7BA2
  8
1
 10
1940.1345569355819
 20
4114.4052370605468
 30
0.0
 11
1939.1345569355819
 21
4115.4052370605477
 31
0.0
  0
LINE
  5
7BA3
  8
1
 10
1977.1345569355819
 20
4115.4052370605477
 30
0.0
 11
1977.1345569355819
 21
4187.4052370605477
 31
0.0
  0
LINE
  5
7BA4
  8
1
 10
1976.1345569355819
 20
4114.4052370605468
 30
0.0
 11
1977.1345569355819
 21
4115.4052370605477
 31
0.0
  0
LINE
  5
7BA5
  8
1
 10
2183.4345569355819
 20
4207.1052370605457
 30
0.0
 11
1983.1345569355819
 21
4207.1052370605457
 31
0.0
  0
LINE
  5
7BA6
  8
1
 10
2183.4345569355819
 20
4209.4052370605468
 30
0.0
 11
1983.1345569355819
 21
4209.4052370605459
 31
0.0
  0
LINE
  5
7BA7
  8
1
 10
2183.4345569355819
 20
4207.1052370605457
 30
0.0
 11
2183.4345569355828
 21
4209.4052370605468
 31
0.0
  0
ARC
  5
7BA8
  8
1
 10
2180.834556935582
 20
4214.0052370605463
 30
0.0
 40
4.5999999999999988
 50
270.0
 51
0.0
  0
LINE
  5
7BA9
  8
1
 10
2223.1345569355822
 20
4218.4052370605459
 30
0.0
 11
2223.1345569355822
 21
4364.405237060545
 31
0.0
  0
LINE
  5
7BAA
  8
1
 10
2223.1345569355822
 20
4218.4052370605459
 30
0.0
 11
2218.1345569355822
 21
4213.4052370605468
 31
0.0
  0
LINE
  5
7BAB
  8
1
 10
2328.6345569355831
 20
4426.9052370605468
 30
0.0
 11
2266.1345569355822
 21
4364.405237060545
 31
0.0
  0
LINE
  5
7BAC
  8
1
 10
2555.1345569355831
 20
3031.45432224351
 30
0.0
 11
2555.1345569355831
 21
3001.4543222435091
 31
0.0
  0
LINE
  5
7BAD
  8
1
 10
1975.1345569355831
 20
3031.45432224351
 30
0.0
 11
1975.1345569355831
 21
3001.4543222435091
 31
0.0
  0
LINE
  5
7BAE
  8
1
 10
1572.1345569355831
 20
2581.9543222435132
 30
0.0
 11
2338.1345569355831
 21
2581.95432224351
 31
0.0
  0
LINE
  5
7BAF
  8
1
 10
2855.1345569355831
 20
2071.4543222435091
 30
0.0
 11
1605.1345569355831
 21
2071.4543222435091
 31
0.0
  0
LINE
  5
7BB0
  8
1
 10
2855.1345569355831
 20
2151.4543222435091
 30
0.0
 11
1605.1345569355831
 21
2151.4543222435091
 31
0.0
  0
LINE
  5
7BB1
  8
1
 10
2855.1345569355831
 20
2151.4543222435091
 30
0.0
 11
2855.1345569355831
 21
2071.4543222435091
 31
0.0
  0
LINE
  5
7BB2
  8
1
 10
1605.1345569355831
 20
2151.4543222435091
 30
0.0
 11
1605.1345569355831
 21
2071.4543222435091
 31
0.0
  0
LINE
  5
7BB7
  8
1
 10
3770.3876673387899
 20
2071.45432224351
 30
0.0
 11
4485.3876673387904
 21
2071.45432224351
 31
0.0
  0
LINE
  5
7BB8
  8
1
 10
3770.3876673387899
 20
2151.45432224351
 30
0.0
 11
4485.3876673387904
 21
2151.45432224351
 31
0.0
  0
LINE
  5
7BB9
  8
1
 10
3770.3876673387899
 20
2581.95432224351
 30
0.0
 11
3770.3876673387899
 21
2375.254322243507
 31
0.0
  0
LINE
  5
7BBE
  8
1
 10
1558.1345569355831
 20
4881.9052370605459
 30
0.0
 11
1948.1345569355819
 21
4881.9052370605459
 31
0.0
  0
LINE
  5
7BBF
  8
1
 10
1558.1345569355831
 20
4456.9052370605468
 30
0.0
 11
1948.1345569355819
 21
4456.9052370605468
 31
0.0
  0
LINE
  5
7BC0
  8
1
 10
4442.8876673387904
 20
3001.45432224351
 30
0.0
 11
4442.8876673387904
 21
2145.6212919655268
 31
0.0
  0
LINE
  5
7BC1
  8
1
 10
4017.8876673387899
 20
3001.45432224351
 30
0.0
 11
4017.8876673387899
 21
2145.6212919655281
 31
0.0
  0
CIRCLE
  5
7BC2
  8
1
 10
1955.1345569355831
 20
2641.45432224351
 30
0.0
 40
139.69999999999999
  0
LINE
  5
7BC3
  8
1
 10
3656.5546323896692
 20
2781.1543222435089
 30
0.0
 11
3656.554632389672
 21
2501.7543222435079
 31
0.0
  0
LINE
  5
7BC4
  8
1
 10
3696.5546323896692
 20
2781.1543222435089
 30
0.0
 11
3696.554632389672
 21
2501.7543222435079
 31
0.0
  0
LINE
  5
7BC5
  8
1
 10
3609.6143940401589
 20
2861.4543222435091
 30
0.0
 11
3609.6143940401612
 21
2163.4543222435141
 31
0.0
  0
CIRCLE
  5
7BC6
  8
1
 10
2705.1345569355831
 20
2274.4543222435082
 30
0.0
 40
57.149999999999991
  0
LINE
  5
7BC7
  8
2
 10
2705.1345569355858
 20
2071.4543222435091
 30
0.0
 11
2705.1345569355831
 21
2382.9154222435081
 31
0.0
  0
LINE
  5
7BC8
  8
1
 10
2828.8504514603992
 20
2151.4543222435082
 30
0.0
 11
2581.4186624107729
 21
2151.4543222435068
 31
0.0
  0
LINE
  5
7BC9
  8
1
 10
3656.554632389672
 20
2501.7543222435079
 30
0.0
 11
3656.554632389672
 21
2217.3043222435081
 31
0.0
  0
LINE
  5
7BCA
  8
1
 10
3696.554632389672
 20
2501.7543222435079
 30
0.0
 11
3696.554632389672
 21
2217.3043222435081
 31
0.0
  0
LINE
  5
7BCB
  8
1
 10
3656.5546323896729
 20
2217.3043222435081
 30
0.0
 11
3696.554632389672
 21
2217.3043222435081
 31
0.0
  0
LINE
  5
7BCC
  8
1
 10
3609.6143940401612
 20
2163.4543222435141
 30
0.0
 11
3731.6143940401598
 21
2163.4543222435141
 31
0.0
  0
LINE
  5
7BCD
  8
1
 10
3656.554632389672
 20
2501.7543222435079
 30
0.0
 11
3696.554632389672
 21
2501.7543222435079
 31
0.0
1001
ACAD
1000
ASC_BOUNDS
1002
{
1070
    19
1002
}
  0
LINE
  5
7BCE
  8
1
 10
3656.5546323896729
 20
2331.6043222435078
 30
0.0
 11
3696.554632389672
 21
2331.6043222435078
 31
0.0
  0
LINE
  5
7BCF
  8
1
 10
3731.6143940401598
 20
2861.4543222435091
 30
0.0
 11
3609.6143940401589
 21
2861.4543222435091
 31
0.0
  0
LINE
  5
7BD0
  8
1
 10
3609.6143940401589
 20
2861.4543222435082
 30
0.0
 11
3731.6143940401598
 21
2861.4543222435082
 31
0.0
  0
LINE
  5
7BD1
  8
1
 10
3656.5546323896692
 20
2781.1543222435089
 30
0.0
 11
3696.5546323896692
 21
2781.1543222435089
 31
0.0
1001
ACAD
1000
ASC_BOUNDS
1002
{
1070
    19
1002
}
  0
LINE
  5
7BD2
  8
1
 10
3731.6143940401598
 20
2841.4543222435091
 30
0.0
 11
3731.6143940401598
 21
2861.4543222435091
 31
0.0
  0
LINE
  5
7BD3
  8
1
 10
2014.7714500510599
 20
2767.7853595207098
 30
0.0
 11
2733.9603760368609
 21
2323.039733263136
 31
0.0
  0
LINE
  5
7BD4
  8
1
 10
1955.134556935581
 20
2905.0371333995581
 30
0.0
 11
2805.1345569355849
 21
2354.2837293912871
 31
0.0
  0
LINE
  5
7BD5
  8
1
 10
1926.433442609957
 20
2504.7344040294201
 30
0.0
 11
2681.620409405903
 21
2222.3658651157289
 31
0.0
  0
LINE
  5
7BD6
  8
1
 10
1715.1345569355819
 20
2765.9803554712871
 30
0.0
 11
1715.1345569355869
 21
2151.4543222435091
 31
0.0
  0
LINE
  5
7BD7
  8
1
 10
1955.134556935581
 20
2905.0371333995581
 30
0.0
 11
1715.1345569355819
 21
2765.9803554712871
 31
0.0
  0
ARC
  5
7BD8
  8
1
 10
2705.1345569355831
 20
2274.4543222435082
 30
0.0
 40
100.8
 50
300.3932999999999
 51
0.0
  0
ARC
  5
7BD9
  8
1
 10
2705.1345569355831
 20
2274.4543222435082
 30
0.0
 40
100.8
 50
0.0
 51
239.69929999999999
  0
LINE
  5
7BDA
  8
1
 10
2770.1345569355831
 20
2194.4543222435082
 30
0.0
 11
2770.1345569355831
 21
2184.4543222435082
 31
0.0
  0
LINE
  5
7BDB
  8
1
 10
2780.1345569355831
 20
2194.4543222435082
 30
0.0
 11
2780.1345569355831
 21
2184.4543222435082
 31
0.0
  0
LINE
  5
7BDC
  8
1
 10
2775.1345569355831
 20
2180.0878222435081
 30
0.0
 11
2775.1345569355831
 21
2196.9912222435082
 31
0.0
  0
LINE
  5
7BDD
  8
1
 10
2793.134556935584
 20
2184.4543222435082
 30
0.0
 11
2793.134556935584
 21
2192.4543222435082
 31
0.0
  0
LINE
  5
7BDE
  8
1
 10
2640.1345569355831
 20
2194.4543222435082
 30
0.0
 11
2640.1345569355831
 21
2184.4543222435082
 31
0.0
  0
LINE
  5
7BDF
  8
1
 10
2630.1345569355831
 20
2194.4543222435082
 30
0.0
 11
2630.1345569355831
 21
2184.4543222435082
 31
0.0
  0
LINE
  5
7BE0
  8
1
 10
2635.1345569355831
 20
2180.0878222435081
 30
0.0
 11
2635.1345569355831
 21
2196.9912222435082
 31
0.0
  0
LINE
  5
7BE1
  8
1
 10
2617.1345569355831
 20
2184.4543222435082
 30
0.0
 11
2617.1345569355831
 21
2192.4543222435082
 31
0.0
  0
ARC
  5
7BE2
  8
1
 10
2705.1345569355831
 20
2274.4543222435082
 30
0.0
 40
100.8
 50
300.3932999999999
 51
0.0
  0
LINE
  5
7BE3
  8
1
 10
2660.304056935583
 20
2188.4543222435068
 30
0.0
 11
2750.258456935584
 21
2188.4543222435068
 31
0.0
  0
LINE
  5
7BE4
  8
1
 10
2654.2104569355829
 20
2187.4543222435082
 30
0.0
 11
2756.1655569355839
 21
2187.4543222435082
 31
0.0
  0
LINE
  5
7BE5
  8
1
 10
2654.2104569355829
 20
2187.4543222435082
 30
0.0
 11
2756.1655569355839
 21
2187.4543222435082
 31
0.0
  0
LINE
  5
7BE6
  8
1
 10
2617.1345569355831
 20
2184.4543222435082
 30
0.0
 11
2657.1345569355831
 21
2184.4543222435082
 31
0.0
  0
LINE
  5
7BE7
  8
1
 10
2657.1345569355831
 20
2187.4271222435082
 30
0.0
 11
2657.1345569355831
 21
2184.4543222435082
 31
0.0
  0
LINE
  5
7BE8
  8
1
 10
2793.134556935584
 20
2184.4543222435082
 30
0.0
 11
2753.1345569355831
 21
2184.4543222435082
 31
0.0
  0
LINE
  5
7BE9
  8
1
 10
2753.1345569355831
 20
2187.3853222435082
 30
0.0
 11
2753.1345569355831
 21
2184.4543222435082
 31
0.0
  0
LINE
  5
7BEA
  8
2
 10
2600.6693569355839
 20
2274.4543222435082
 30
0.0
 11
2811.2373569355841
 21
2274.4543222435082
 31
0.0
  0
LINE
  5
7BEB
  8
1
 10
2643.8105569355839
 20
2194.4543222435082
 30
0.0
 11
2619.1345569355831
 21
2194.4543222435082
 31
0.0
  0
LINE
  5
7BEC
  8
1
 10
2622.9880569355842
 20
2216.0370222435072
 30
0.0
 11
2617.1345569355831
 21
2192.4543222435082
 31
0.0
  0
ARC
  5
7BED
  8
1
 10
2619.1345569355831
 20
2192.4543222435082
 30
0.0
 40
2.0
 50
90.0
 51
180.0
  0
LINE
  5
7BEE
  8
1
 10
2766.4234569355849
 20
2194.4543222435082
 30
0.0
 11
2791.1345569355831
 21
2194.4543222435082
 31
0.0
  0
LINE
  5
7BEF
  8
1
 10
2787.2811569355831
 20
2216.0370222435072
 30
0.0
 11
2793.134556935584
 21
2192.4543222435082
 31
0.0
  0
ARC
  5
7BF0
  8
1
 10
2791.1345569355831
 20
2192.4543222435082
 30
0.0
 40
2.0
 50
0.0
 51
90.0
  0
LINE
  5
7BF1
  8
1
 10
2828.8504514603969
 20
2151.4543222435091
 30
0.0
 11
2817.6345569355849
 21
2186.4543222435091
 31
0.0
  0
LINE
  5
7BF2
  8
1
 10
2733.5373088520719
 20
2186.4543222435082
 30
0.0
 11
2733.5373088520719
 21
2180.157650608598
 31
0.0
  0
LINE
  5
7BF3
  8
1
 10
2676.7318050190988
 20
2180.1576506085971
 30
0.0
 11
2676.7318050190988
 21
2186.4543222435082
 31
0.0
  0
LINE
  5
7BF4
  8
1
 10
2592.6345569355849
 20
2186.4543222435068
 30
0.0
 11
2581.4186624107729
 21
2151.4543222435068
 31
0.0
  0
LINE
  5
7BF5
  8
1
 10
2581.4186624107729
 20
2151.4543222435068
 30
0.0
 11
2676.7318050190988
 21
2151.4543222435082
 31
0.0
  0
LINE
  5
7BF6
  8
1
 10
2733.5373088520719
 20
2151.4543222435082
 30
0.0
 11
2828.8504514603969
 21
2151.4543222435091
 31
0.0
  0
LINE
  5
7BF7
  8
1
 10
2676.7318050190988
 20
2158.5949570198418
 30
0.0
 11
2733.5373088520719
 21
2158.5949570198418
 31
0.0
  0
LINE
  5
7BF8
  8
1
 10
2733.5373088520719
 20
2180.157650608598
 30
0.0
 11
2676.7318050190988
 21
2180.1576506085971
 31
0.0
  0
LINE
  5
7BF9
  8
1
 10
2676.7318050190988
 20
2151.4543222435082
 30
0.0
 11
2676.7318050190988
 21
2158.5949570198418
 31
0.0
  0
LINE
  5
7BFA
  8
1
 10
2733.5373088520719
 20
2158.5949570198418
 30
0.0
 11
2733.5373088520719
 21
2151.4543222435082
 31
0.0
  0
LINE
  5
7BFB
  8
1
 10
2676.7318050190988
 20
2186.4543222435082
 30
0.0
 11
2592.6345569355849
 21
2186.4543222435068
 31
0.0
  0
LINE
  5
7BFC
  8
1
 10
2817.6345569355849
 20
2186.4543222435091
 30
0.0
 11
2733.5373088520719
 21
2186.4543222435082
 31
0.0
  0
LINE
  5
7BFD
  8
1
 10
2805.1345569355849
 20
2354.2837293912871
 30
0.0
 11
2805.1345569355872
 21
2151.4543222435082
 31
0.0
  0
LINE
  5
7BFE
  8
2
 10
2705.1345569355831
 20
4441.7404611068132
 30
0.0
 11
2705.1345569355858
 21
4006.1129179800141
 31
0.0
  0
LINE
  5
7BFF
  8
1
 10
2717.1345569355849
 20
4160.8034611068133
 30
0.0
 11
2717.1345569355849
 21
4110.8034611068133
 31
0.0
  0
LINE
  5
7C00
  8
1
 10
2693.1345569355849
 20
4160.8034611068133
 30
0.0
 11
2693.1345569355849
 21
4110.8034611068133
 31
0.0
  0
LINE
  5
7C01
  8
1
 10
2717.1345569355849
 20
4110.8034611068133
 30
0.0
 11
2690.1345569355849
 21
4110.8034611068133
 31
0.0
  0
LINE
  5
7C02
  8
1
 10
2690.1345569355849
 20
4150.8034611068133
 30
0.0
 11
2690.1345569355849
 21
4110.8034611068133
 31
0.0
  0
LINE
  5
7C03
  8
1
 10
2693.1345569355849
 20
4150.8034611068133
 30
0.0
 11
2690.1345569355849
 21
4150.8034611068133
 31
0.0
  0
LINE
  5
7C04
  8
1
 10
2717.6345569355849
 20
4160.8034611068133
 30
0.0
 11
2692.6345569355849
 21
4160.8034611068133
 31
0.0
  0
LINE
  5
7C05
  8
1
 10
2825.9345569355842
 20
4175.8034611068142
 30
0.0
 11
2584.3345569355838
 21
4175.8034611068124
 31
0.0
  0
LINE
  5
7C06
  8
1
 10
2668.6345569355849
 20
4165.8034611068124
 30
0.0
 11
2741.6345569355849
 21
4165.8034611068133
 31
0.0
  0
LINE
  5
7C07
  8
1
 10
2742.6345569355849
 20
4166.8034611068133
 30
0.0
 11
2742.6345569355849
 21
4174.8034611068133
 31
0.0
  0
ARC
  5
7C08
  8
1
 10
2743.6345569355849
 20
4174.8034611068133
 30
0.0
 40
1.0000999999999991
 50
90.0035000000005
 51
180.00000000000051
  0
ARC
  5
7C09
  8
1
 10
2741.6344569355838
 20
4166.8034611068133
 30
0.0
 40
1.0000999999999991
 50
270.00350000000037
 51
0.0000000000004834
  0
LINE
  5
7C0A
  8
1
 10
2717.6345569355849
 20
4165.8034611068133
 30
0.0
 11
2717.6345569355849
 21
4160.8034611068133
 31
0.0
  0
LINE
  5
7C0B
  8
1
 10
2667.6345569355849
 20
4166.8034611068124
 30
0.0
 11
2667.6345569355849
 21
4174.8034611068124
 31
0.0
  0
ARC
  5
7C0C
  8
1
 10
2666.6345569355849
 20
4174.8034611068124
 30
0.0
 40
1.0000999999999991
 50
0.0035000000004552
 51
90.000000000000483
  0
ARC
  5
7C0D
  8
1
 10
2668.6345569355849
 20
4166.8035611068126
 30
0.0
 40
1.0000999999999991
 50
180.00350000000051
 51
270.00000000000051
  0
LINE
  5
7C0E
  8
1
 10
2692.6345569355849
 20
4165.8034611068133
 30
0.0
 11
2692.6345569355849
 21
4160.8034611068133
 31
0.0
  0
LINE
  5
7C0F
  8
1
 10
2825.9345569355828
 20
4437.8034611068142
 30
0.0
 11
2584.3345569355829
 21
4437.8034611068124
 31
0.0
  0
LINE
  5
7C10
  8
1
 10
2584.3345569355838
 20
4175.8034611068124
 30
0.0
 11
2584.3345569355829
 21
4437.8034611068124
 31
0.0
  0
LINE
  5
7C11
  8
1
 10
2825.9345569355842
 20
4175.8034611068133
 30
0.0
 11
2825.9345569355828
 21
4437.8034611068124
 31
0.0
  0
LINE
  5
7C12
  8
1
 10
3731.6143940401598
 20
2163.4543222435141
 30
0.0
 11
3731.6143940401598
 21
2183.4543222435141
 31
0.0
  0
LINE
  5
7C13
  8
2
 10
4047.3855233233012
 20
2274.4543222435082
 30
0.0
 11
3583.9387015948382
 21
2274.4543222435082
 31
0.0
  0
LINE
  5
7C14
  8
1
 10
1738.1345569355831
 20
4048.6319637619149
 30
0.0
 11
2816.1345569355799
 21
4048.6319637619208
 31
0.0
  0
LINE
  5
7C15
  8
1
 10
1818.434556935583
 20
4135.5722021114261
 30
0.0
 11
2097.8345569355838
 21
4135.5722021114279
 31
0.0
  0
LINE
  5
7C16
  8
1
 10
1818.434556935583
 20
4095.5722021114261
 30
0.0
 11
2097.8345569355838
 21
4095.5722021114289
 31
0.0
  0
LINE
  5
7C17
  8
1
 10
2816.1345569355799
 20
4170.6319637619208
 30
0.0
 11
2796.1345569355799
 21
4170.6319637619208
 31
0.0
  0
LINE
  5
7C18
  8
1
 10
2816.1345569355799
 20
4048.6319637619208
 30
0.0
 11
2816.1345569355799
 21
4170.6319637619208
 31
0.0
  0
LINE
  5
7C19
  8
1
 10
2097.8345569355838
 20
4095.5722021114289
 30
0.0
 11
2762.2845569355859
 21
4095.572202111432
 31
0.0
  0
LINE
  5
7C1A
  8
1
 10
2097.8345569355838
 20
4135.5722021114279
 30
0.0
 11
2762.2845569355859
 21
4135.5722021114316
 31
0.0
  0
LINE
  5
7C1B
  8
1
 10
2762.2845569355859
 20
4095.5722021114329
 30
0.0
 11
2762.2845569355859
 21
4135.5722021114316
 31
0.0
  0
LINE
  5
7C1C
  8
1
 10
2647.9845569355862
 20
4095.5722021114329
 30
0.0
 11
2647.9845569355862
 21
4135.5722021114316
 31
0.0
  0
LINE
  5
7C1D
  8
1
 10
2097.8345569355838
 20
4095.5722021114289
 30
0.0
 11
2097.8345569355838
 21
4135.5722021114279
 31
0.0
1001
ACAD
1000
ASC_BOUNDS
1002
{
1070
    19
1002
}
  0
LINE
  5
7C1E
  8
1
 10
1738.134556935584
 20
4048.6319637619149
 30
0.0
 11
1738.134556935584
 21
4170.6319637619163
 31
0.0
  0
LINE
  5
7C1F
  8
1
 10
1738.1345569355831
 20
4170.6319637619163
 30
0.0
 11
1738.1345569355831
 21
4048.6319637619149
 31
0.0
  0
LINE
  5
7C20
  8
1
 10
1818.434556935583
 20
4095.5722021114261
 30
0.0
 11
1818.434556935583
 21
4135.5722021114261
 31
0.0
1001
ACAD
1000
ASC_BOUNDS
1002
{
1070
    19
1002
}
  0
LINE
  5
7C21
  8
1
 10
1758.1345569355831
 20
4170.6319637619163
 30
0.0
 11
1738.1345569355831
 21
4170.6319637619163
 31
0.0
  0
LINE
  5
7C22
  8
1
 10
1608.1345569355819
 20
4924.4052370605468
 30
0.0
 11
2858.1345569355822
 21
4924.4052370605468
 31
0.0
  0
LINE
  5
7C23
  8
1
 10
1608.1345569355819
 20
4209.4052370605459
 30
0.0
 11
1735.4345569355819
 21
4209.4052370605459
 31
0.0
  0
LINE
  5
7C24
  8
1
 10
1608.1345569355819
 20
4924.4052370605477
 30
0.0
 11
1608.1345569355819
 21
4881.9052370605459
 31
0.0
  0
LINE
  5
7C25
  8
1
 10
2858.1345569355822
 20
4924.4052370605468
 30
0.0
 11
2858.1345569355808
 21
4209.4052370605459
 31
0.0
  0
LINE
  5
7C26
  8
1
 10
1608.1345569355819
 20
4884.4052370605468
 30
0.0
 11
2858.1345569355822
 21
4884.4052370605468
 31
0.0
  0
LINE
  5
7C27
  8
1
 10
2818.1345569355822
 20
4884.4052370605468
 30
0.0
 11
2818.1345569355822
 21
4437.8034611068142
 31
0.0
  0
LINE
  5
7C28
  8
1
 10
1608.1345569355819
 20
4249.4052370605459
 30
0.0
 11
1693.134556935581
 21
4249.4052370605459
 31
0.0
  0
LINE
  5
7C29
  8
1
 10
1648.1345569355819
 20
4884.4052370605468
 30
0.0
 11
1648.1345569355819
 21
4881.9052370605459
 31
0.0
  0
LINE
  5
7C2A
  8
1
 10
1648.1345569355819
 20
4366.4052370605459
 30
0.0
 11
1648.1345569355819
 21
4249.405237060545
 31
0.0
  0
LINE
  5
7C2B
  8
1
 10
1608.1345569355819
 20
4406.405237060545
 30
0.0
 11
1608.1345569355819
 21
4209.4052370605459
 31
0.0
  0
LINE
  5
7C2C
  8
1
 10
2825.9345569355842
 20
4249.405237060545
 30
0.0
 11
2858.1345569355808
 21
4249.4052370605459
 31
0.0
  0
LINE
  5
7C2D
  8
1
 10
2825.9345569355842
 20
4209.4052370605459
 30
0.0
 11
2858.1345569355808
 21
4209.4052370605459
 31
0.0
  0
LINE
  5
7C2E
  8
1
 10
2223.1345569355822
 20
4249.405237060545
 30
0.0
 11
2584.3345569355838
 21
4249.405237060545
 31
0.0
  0
LINE
  5
7C2F
  8
1
 10
2180.834556935582
 20
4209.4052370605459
 30
0.0
 11
2584.3345569355838
 21
4209.4052370605459
 31
0.0
  0
LINE
  5
7C30
  8
1
 10
2558.1345569355822
 20
4881.9052370605459
 30
0.0
 11
2558.1345569355822
 21
4456.9052370605468
 31
0.0
  0
LINE
  5
7C31
  8
1
 10
1948.1345569355819
 20
4911.9052370605468
 30
0.0
 11
2588.1345569355822
 21
4911.9052370605468
 31
0.0
  0
LINE
  5
7C32
  8
1
 10
2588.1345569355822
 20
4911.9052370605468
 30
0.0
 11
2588.1345569355822
 21
4426.9052370605468
 31
0.0
  0
LINE
  5
7C33
  8
1
 10
1978.1345569355819
 20
4881.9052370605468
 30
0.0
 11
1978.1345569355819
 21
4456.9052370605468
 31
0.0
  0
LINE
  5
7C34
  8
1
 10
1948.1345569355819
 20
4426.9052370605468
 30
0.0
 11
2588.1345569355822
 21
4426.9052370605468
 31
0.0
  0
LINE
  5
7C35
  8
1
 10
1948.1345569355819
 20
4911.9052370605459
 30
0.0
 11
1948.1345569355819
 21
4426.9052370605468
 31
0.0
  0
LINE
  5
7C36
  8
1
 10
1978.1345569355819
 20
4456.9052370605468
 30
0.0
 11
2558.1345569355822
 21
4456.9052370605468
 31
0.0
  0
LINE
  5
7C37
  8
1
 10
1978.1345569355819
 20
4881.9052370605459
 30
0.0
 11
2558.1345569355822
 21
4881.9052370605459
 31
0.0
  0
LINE
  5
7C38
  8
4
 10
4625.0
 20
1250.0
 30
0.0
 11
4625.0
 21
750.0
 31
0.0
  0
LINE
  5
7C39
  8
4
 10
2875.0
 20
1250.0
 30
0.0
 11
2875.0
 21
750.0
 31
0.0
  0
LINE
  5
7C3A
  8
4
 10
1625.0
 20
1250.0
 30
0.0
 11
1625.0
 21
750.0
 31
0.0
  0
LINE
  5
7C3D
  8
4
 10
1625.0
 20
750.0
 30
0.0
 11
4625.0
 21
750.0
 31
0.0
  0
LINE
  5
7C3E
  8
4
 10
1625.0
 20
1000.0
 30
0.0
 11
4625.0
 21
1000.0
 31
0.0
  0
TEXT
  5
7C3F
  8
4
 10
1721.2552021172539
 20
1078.857564666532
 30
0.0
 40
125.0
  1
機器名称
  0
TEXT
  5
7C40
  8
4
 10
1715.6452650619931
 20
804.11289183002725
 30
0.0
 40
125.0
  1
機器型番
  0
TEXT
  5
7C41
  8
4
 10
2944.1968637191621
 20
1056.429422393921
 30
0.0
 40
125.0
  1
ミツヤ厨房用ファン
  0
TEXT
  5
7C42
  8
4
 10
2966.6362389637011
 20
792.89896069985843
 30
0.0
 40
125.0
  1
MFK#3 1/2-1
  0
TEXT
  5
7C44
  8
4
 10
1917.0874697443651
 20
5958.5721033312893
 30
0.0
 40
135.0
  1
床置ベット
  0
TEXT
  5
7C45
  8
4
 10
790.41898332361586
 20
6334.7024404982449
 30
0.0
 40
180.0
  1
ベルト駆動式片吸込片持多翼ファン
  0
LINE
  5
7C46
  8
4
 10
625.0
 20
6173.5218856620122
 30
0.0
 11
4625.0
 21
6173.5218856620122
 31
0.0
  0
LINE
  5
7C47
  8
4
 10
625.0
 20
6673.5218856620122
 30
0.0
 11
4625.0
 21
6673.5218856620122
 31
0.0
  0
LINE
  5
7C48
  8
4
 10
1625.0
 20
1250.0
 30
0.0
 11
4625.0
 21
1250.0
 31
0.0
  0
LINE
  5
7C49
  8
4
 10
625.0
 20
6673.5218856620122
 30
0.0
 11
625.0
 21
6173.5218856620122
 31
0.0
  0
TEXT
  5
7C4A
  8
4
 10
827.44038913760949
 20
5955.7986938658578
 30
0.0
 40
135.0
  1
左回転上向
  0
TEXT
  5
7C4B
  8
4
 10
3672.4238981232238
 20
6765.1527037382721
 30
0.0
 40
140.0
  1
No.
  0
TEXT
  5
7C4C
  8
4
 10
3278.2401565000318
 20
5958.5721033312893
 30
0.0
 40
135.0
  1
縮尺：1/25
  0
LINE
  5
7C4D
  8
4
 10
4625.0
 20
6673.5218856620122
 30
0.0
 11
4625.0
 21
6173.5218856620122
 31
0.0
  0
LINE
  5
7C4E
  8
4
 10
5250.0
 20
7375.0
 30
0.0
 11
5250.0
 21
7375.0
 31
0.0
  0
LINE
  5
7C4F
  8
4
 10
3601.543555899661
 20
6703.1589578135026
 30
0.0
 11
3601.543555899661
 21
6966.6306538743811
 31
0.0
  0
LINE
  5
7C50
  8
4
 10
3601.543555899661
 20
6966.6306538743811
 30
0.0
 11
4625.0
 21
6966.6306538743811
 31
0.0
  0
LINE
  5
7C51
  8
4
 10
4625.0
 20
6966.6306538743811
 30
0.0
 11
4625.0
 21
6703.1589578135026
 31
0.0
  0
LINE
  5
7C52
  8
4
 10
4625.0
 20
6703.1589578135026
 30
0.0
 11
3601.543555899661
 21
6703.1589578135026
 31
0.0
  0
LINE
  5
7C53
  8
4
 10
0.0
 20
0.0
 30
0.0
 11
0.0
 21
7375.0
 31
0.0
  0
LINE
  5
7C54
  8
4
 10
0.0
 20
7375.0
 30
0.0
 11
5250.0
 21
7375.0
 31
0.0
  0
LINE
  5
7C55
  8
4
 10
5250.0
 20
7375.0
 30
0.0
 11
5250.0
 21
0.0
 31
0.0
  0
LINE
  5
7C56
  8
4
 10
5250.0
 20
0.0
 30
0.0
 11
0.0
 21
0.0
 31
0.0
  0
DIMENSION
  5
7C6D
  8
3
  2
*D1
 10
1608.1345569355819
 20
5110.5806370564515
 30
0.0
 11
2240.6944608224071
 21
5110.5806370564515
 31
0.0
 70
   128
 13
2858.1345569355822
 23
4924.4052370605468
 33
0.0
 14
1608.1345569355819
 24
4924.4052370605468
 34
0.0
1001
ACAD
1000
DSTYLE
1002
{
1070
   287
1070
     3
1070
   287
1070
     3
1070
    40
1040
25.0
1070
   143
1040
0.039
1070
   172
1070
     1
1070
   271
1070
     0
1070
   279
1070
     0
1070
   288
1070
     1
1002
}
  0
DIMENSION
  5
7C7A
  8
3
  2
*D2
 10
3068.0897071728109
 20
4209.4052370605459
 30
0.0
 11
3068.08970717281
 21
4573.8140995921294
 31
0.0
 70
   128
 13
2858.1345569355822
 23
4924.4052370605468
 33
0.0
 14
2858.1345569355808
 24
4209.4052370605459
 34
0.0
 50
270.0
1001
ACAD
1000
DSTYLE
1002
{
1070
   287
1070
     3
1070
   287
1070
     3
1070
    40
1040
25.0
1070
   143
1040
0.039
1070
   172
1070
     1
1070
   271
1070
     0
1070
   279
1070
     0
1070
   288
1070
     1
1002
}
  0
DIMENSION
  5
7CA0
  8
3
  2
*D3
 10
2555.1345569355831
 20
3304.2332630682849
 30
0.0
 11
2294.443686088277
 21
3304.2332630682849
 31
0.0
 70
   128
 13
1955.1345569355831
 23
3147.389091749716
 33
0.0
 14
2555.1345569355831
 24
3031.4543222435091
 34
0.0
1001
ACAD
1000
DSTYLE
1002
{
1070
   287
1070
     3
1070
   287
1070
     3
1070
    40
1040
25.0
1070
   143
1040
0.039
1070
   172
1070
     1
1070
   271
1070
     0
1070
   279
1070
     0
1070
   288
1070
     1
1002
}
  0
DIMENSION
  5
7CB8
  8
3
  2
*D4
 10
1975.1345569355831
 20
3172.3863934711089
 30
0.0
 11
2280.427850187737
 21
3172.3863934711089
 31
0.0
 70
   128
 13
2555.1345569355831
 23
3031.45432224351
 33
0.0
 14
1975.1345569355831
 24
3031.45432224351
 34
0.0
1001
ACAD
1000
DSTYLE
1002
{
1070
   287
1070
     3
1070
   287
1070
     3
1070
    40
1040
25.0
1070
   143
1040
0.039
1070
   172
1070
     1
1070
   271
1070
     0
1070
   279
1070
     0
1070
   288
1070
     1
1002
}
  0
DIMENSION
  5
7CDA
  8
3
  2
*D5
 10
1555.1345569355831
 20
3304.2332630682849
 30
0.0
 11
1755.1345569355831
 21
3366.7332630682849
 31
0.0
 70
     0
 13
1955.1345569355831
 23
3147.389091749716
 33
0.0
 14
1555.1345569355831
 24
2599.4543222435091
 34
0.0
1001
ACAD
1000
DSTYLE
1002
{
1070
   287
1070
     4
1070
   287
1070
     4
1070
    40
1040
25.0
1070
    75
1070
     1
1070
   143
1040
0.039
1070
   172
1070
     1
1070
   271
1070
     0
1070
   279
1070
     1
1070
   288
1070
     1
1002
}
  0
DIMENSION
  5
7CE7
  8
3
  2
*D6
 10
1286.294262148233
 20
2641.4543222435091
 30
0.0
 11
1286.2942621482321
 21
2860.0257508149371
 31
0.0
 70
   128
 13
1943.1345569355831
 23
3031.4543222435091
 33
0.0
 14
1529.39802713927
 24
2641.4543222435091
 34
0.0
 50
270.0
1001
ACAD
1000
DSTYLE
1002
{
1070
   287
1070
     3
1070
   287
1070
     3
1070
    40
1040
25.0
1070
   143
1040
0.039
1070
   172
1070
     1
1070
   271
1070
     0
1070
   279
1070
     0
1070
   288
1070
     1
1002
}
  0
DIMENSION
  5
7CF3
  8
3
  2
*D7
 10
1286.2942621482321
 20
2071.4543222435091
 30
0.0
 11
1223.7942621482321
 21
2356.45432224351
 31
0.0
 70
     0
 13
1529.39802713927
 23
2641.4543222435091
 33
0.0
 14
1605.1345569355831
 24
2071.4543222435091
 34
0.0
 50
270.0
1001
ACAD
1000
DSTYLE
1002
{
1070
   287
1070
     4
1070
   287
1070
     4
1070
    40
1040
25.0
1070
    75
1070
     1
1070
   143
1040
0.039
1070
   172
1070
     1
1070
   271
1070
     0
1070
   279
1070
     1
1070
   288
1070
     1
1002
}
  0
DIMENSION
  5
7DDA
  8
3
  2
*D9
 10
4442.8876673387904
 20
3191.5402858553221
 30
0.0
 11
4232.1640618641613
 21
3191.5402858553221
 31
0.0
 70
   128
 13
4017.8876673387899
 23
3001.45432224351
 33
0.0
 14
4442.8876673387904
 24
3001.45432224351
 34
0.0
1001
ACAD
1000
DSTYLE
1002
{
1070
   287
1070
     3
1070
   287
1070
     3
1070
    40
1040
25.0
1070
   143
1040
0.039
1070
   172
1070
     1
1070
   271
1070
     0
1070
   279
1070
     0
1070
   288
1070
     1
1002
}
  0
DIMENSION
  5
7DE8
  8
3
  2
*D10
 10
4230.3876673387904
 20
3376.8410178915892
 30
0.0
 11
4339.0162450013522
 21
3437.0835867553492
 31
0.0
 12
0.0
 22
303.27102169146377
 32
0.0
 70
   128
 13
4445.6298262740702
 23
2951.45432224351
 33
0.0
 14
4230.3876673387904
 24
3303.0561391489869
 34
0.0
1001
ACAD
1000
DSTYLE
1002
{
1070
   288
1070
     1
1070
   172
1070
     1
1070
    40
1040
25.0
1070
   271
1070
     0
1070
   143
1040
0.039
1002
}
  0
DIMENSION
  5
7E38
  8
3
  2
*D11
 10
3609.6143940401589
 20
3376.8410178915892
 30
0.0
 11
3920.0010306894751
 21
3501.8410178915892
 31
0.0
 70
     0
  1
MAX\P630
 13
4230.3876673387904
 23
3303.0561391489869
 33
0.0
 14
3609.6143940401589
 24
2861.4543222435091
 34
0.0
1001
ACAD
1000
DSTYLE
1002
{
1070
   287
1070
     4
1070
   287
1070
     4
1070
    40
1040
25.0
1070
    75
1070
     1
1070
   143
1040
0.039
1070
   172
1070
     1
1070
   271
1070
     0
1070
   279
1070
     1
1070
   288
1070
     1
1002
}
  0
DIMENSION
  5
7E52
  8
3
  2
*D12
 10
4665.9058980112686
 20
2361.4543222435091
 30
0.0
 11
4665.9058980112668
 21
2650.9266581091561
 31
0.0
 70
   128
 13
4476.0876673387911
 23
2921.45432224351
 33
0.0
 14
4476.0876673387911
 24
2361.4543222435091
 34
0.0
 50
90.0
1001
ACAD
1000
DSTYLE
1002
{
1070
   287
1070
     3
1070
   287
1070
     3
1070
     3
1000
φ<>
1070
    40
1040
25.0
1070
   143
1040
0.039
1070
   172
1070
     1
1070
   271
1070
     0
1070
   279
1070
     0
1070
   288
1070
     1
1002
}
  0
LINE
  5
7EF2
  8
1
 10
3736.8802241816238
 20
2186.4543222435091
 30
0.0
 11
3736.880224181622
 21
2375.254322243507
 31
0.0
  0
LINE
  5
7EF3
  8
1
 10
3998.8802241816238
 20
2186.4543222435091
 30
0.0
 11
3998.880224181622
 21
2375.254322243507
 31
0.0
  0
LINE
  5
7EFA
  8
1
 10
3726.880224181622
 20
2310.9543222435068
 30
0.0
 11
3726.8802241816229
 21
2237.9543222435068
 31
0.0
  0
LINE
  5
7EFB
  8
1
 10
3721.8802241816229
 20
2286.4543222435068
 30
0.0
 11
3671.8802241816229
 21
2286.4543222435068
 31
0.0
  0
LINE
  5
7EFC
  8
1
 10
3711.8802241816229
 20
2289.4543222435068
 30
0.0
 11
3671.8802241816229
 21
2289.4543222435068
 31
0.0
  0
LINE
  5
7EFE
  8
1
 10
3721.8802241816229
 20
2262.4543222435068
 30
0.0
 11
3671.8802241816229
 21
2262.4543222435068
 31
0.0
  0
LINE
  5
7EFF
  8
1
 10
3671.8802241816229
 20
2262.4543222435068
 30
0.0
 11
3671.8802241816229
 21
2289.4543222435068
 31
0.0
  0
LINE
  5
7F00
  8
1
 10
3727.880224181622
 20
2311.9543222435068
 30
0.0
 11
3735.880224181622
 21
2311.9543222435068
 31
0.0
  0
ARC
  5
7F01
  8
1
 10
3735.880224181622
 20
2312.9543222435068
 30
0.0
 40
1.0000999999999991
 50
270.00350000000037
 51
0.0000000000004962
  0
ARC
  5
7F02
  8
1
 10
3727.8803241816231
 20
2310.9543222435068
 30
0.0
 40
1.0000999999999991
 50
90.0035000000005
 51
180.00000000000051
  0
LINE
  5
7F03
  8
1
 10
3711.8802241816229
 20
2286.4543222435068
 30
0.0
 11
3711.8802241816229
 21
2289.4543222435068
 31
0.0
  0
LINE
  5
7F04
  8
1
 10
3726.8802241816229
 20
2286.9543222435068
 30
0.0
 11
3721.8802241816229
 21
2286.9543222435068
 31
0.0
  0
LINE
  5
7F05
  8
1
 10
3726.8802241816229
 20
2261.9543222435068
 30
0.0
 11
3721.8802241816229
 21
2261.9543222435068
 31
0.0
  0
LINE
  5
7F06
  8
1
 10
3721.8802241816229
 20
2261.9543222435068
 30
0.0
 11
3721.8802241816229
 21
2286.9543222435068
 31
0.0
  0
LINE
  5
7F09
  8
1
 10
3727.8802241816229
 20
2236.9543222435068
 30
0.0
 11
3735.8802241816229
 21
2236.9543222435068
 31
0.0
  0
ARC
  5
7F0A
  8
1
 10
3735.8802241816229
 20
2235.9543222435068
 30
0.0
 40
1.0000999999999991
 50
0.0035000000005061
 51
90.000000000000483
  0
ARC
  5
7F0B
  8
1
 10
3727.8802241816229
 20
2237.9544222435079
 30
0.0
 40
1.0000999999999991
 50
180.0035000000004
 51
270.00000000000051
  0
LINE
  5
7F0D
  8
1
 10
3736.880224181622
 20
2375.254322243507
 30
0.0
 11
3998.880224181622
 21
2375.254322243507
 31
0.0
  0
LINE
  5
7F0E
  8
1
 10
3736.8802241816238
 20
2186.4543222435091
 30
0.0
 11
3998.8802241816238
 21
2186.4543222435091
 31
0.0
  0
LINE
  5
7F0F
  8
1
 10
3786.8094306197818
 20
2186.4543222435091
 30
0.0
 11
3786.8094306197809
 21
2151.45432224351
 31
0.0
  0
LINE
  5
7F10
  8
1
 10
3971.4931969875511
 20
2186.4543222435091
 30
0.0
 11
3971.4931969875502
 21
2151.45432224351
 31
0.0
  0
LINE
  5
7F11
  8
1
 10
3770.387667338789
 20
2186.4543222435091
 30
0.0
 11
3770.387667338789
 21
2071.45432224351
 31
0.0
  0
ARC
  5
7F1F
  8
1
 10
1997.1345569355831
 20
2599.4543222435091
 30
0.0
 40
442.0
 50
232.46282724926269
 51
270.0
  0
ARC
  5
7F20
  8
1
 10
1997.1345569355831
 20
2599.4543222435091
 30
0.0
 40
454.0
 50
233.61758625158291
 51
270.0
  0
ARC
  5
7F21
  8
1
 10
1997.1345569355831
 20
2683.4543222435091
 30
0.0
 40
526.0
 50
295.08449654165162
 51
355.42017641768598
  0
ARC
  5
7F22
  8
1
 10
1997.1345569355831
 20
2683.4543222435091
 30
0.0
 40
538.0
 50
294.48771602624799
 51
355.52253946365141
  0
DIMENSION
  5
7F33
  8
3
  2
*D13
 10
1955.134556935584
 20
1917.781995154473
 30
0.0
 11
1780.1345569355831
 21
1980.281995154473
 31
0.0
 70
     0
 13
1605.1345569355831
 23
2071.4543222435091
 33
0.0
 14
1955.134556935584
 24
2071.4543222435091
 34
0.0
1001
ACAD
1000
DSTYLE
1002
{
1070
   287
1070
     3
1070
   287
1070
     3
1070
    40
1040
25.0
1070
   143
1040
0.039
1070
   172
1070
     1
1070
   271
1070
     0
1070
   279
1070
     0
1002
}
  0
DIMENSION
  5
7F40
  8
3
  2
*D14
 10
2855.1345569355831
 20
1917.781995154473
 30
0.0
 11
2405.1345569355831
 21
1980.281995154473
 31
0.0
 70
     0
 13
1955.134556935584
 23
2071.4543222435091
 33
0.0
 14
2855.1345569355831
 24
2071.4543222435091
 34
0.0
1001
ACAD
1000
DSTYLE
1002
{
1070
   287
1070
     3
1070
   287
1070
     3
1070
    40
1040
25.0
1070
   143
1040
0.039
1070
   172
1070
     1
1070
   271
1070
     0
1070
   279
1070
     0
1002
}
  0
DIMENSION
  5
7F4D
  8
3
  2
*D15
 10
4230.3876673387913
 20
1917.781995154473
 30
0.0
 11
4000.3876673387908
 21
1980.281995154473
 31
0.0
 70
     0
 13
3770.387667338789
 23
2071.45432224351
 33
0.0
 14
4230.3876673387913
 24
2071.45432224351
 34
0.0
1001
ACAD
1000
DSTYLE
1002
{
1070
   287
1070
     3
1070
   287
1070
     3
1070
    40
1040
25.0
1070
   143
1040
0.039
1070
   172
1070
     1
1070
   271
1070
     0
1070
   279
1070
     0
1002
}
  0
DIMENSION
  5
7F5C
  8
3
  2
*D16
 10
4485.3876673387913
 20
1917.781995154473
 30
0.0
 11
4357.8876673387922
 21
1980.281995154473
 31
0.0
 70
     0
 13
4230.3876673387913
 23
2071.45432224351
 33
0.0
 14
4485.3876673387913
 24
2071.45432224351
 34
0.0
1001
ACAD
1000
DSTYLE
1002
{
1070
   287
1070
     3
1070
   287
1070
     3
1070
    40
1040
25.0
1070
   143
1040
0.039
1070
   172
1070
     1
1070
   271
1070
     0
1070
   279
1070
     0
1002
}
  0
ENDSEC
  0
EOF
