  0
SECTION
  2
HEADER
  9
$ACADVER
  1
AC1009
  9
$INSBASE
 10
0.0
 20
0.0
 30
0.0
  9
$EXTMIN
 10
0.0
 20
0.0
 30
0.0
  9
$EXTMAX
 10
5250.0
 20
7375.0
 30
0.0
  9
$LIMMIN
 10
0.0
 20
0.0
  9
$LIMMAX
 10
297.0
 20
210.0
  9
$ORTHOMODE
 70
     0
  9
$REGENMODE
 70
     1
  9
$FILLMODE
 70
     0
  9
$QTEXTMODE
 70
     0
  9
$MIRRTEXT
 70
     1
  9
$DRAGMODE
 70
     2
  9
$LTSCALE
 40
100.0
  9
$OSMODE
 70
    37
  9
$ATTMODE
 70
     1
  9
$TEXTSIZE
 40
180.0
  9
$TRACEWID
 40
0.05
  9
$TEXTSTYLE
  7
STANDARD
  9
$CLAYER
  8
3
  9
$CELTYPE
  6
BYLAYER
  9
$CECOLOR
 62
   256
  9
$DIMSCALE
 40
25.0
  9
$DIMASZ
 40
2.0
  9
$DIMEXO
 40
0.5
  9
$DIMDLI
 40
10.0
  9
$DIMRND
 40
0.0
  9
$DIMDLE
 40
0.0
  9
$DIMEXE
 40
1.0
  9
$DIMTP
 40
1.0
  9
$DIMTM
 40
1.0
  9
$DIMTXT
 40
3.0
  9
$DIMCEN
 40
0.0
  9
$DIMTSZ
 40
0.0
  9
$DIMTOL
 70
     0
  9
$DIMLIM
 70
     0
  9
$DIMTIH
 70
     0
  9
$DIMTOH
 70
     0
  9
$DIMSE1
 70
     0
  9
$DIMSE2
 70
     0
  9
$DIMTAD
 70
     1
  9
$DIMZIN
 70
     8
  9
$DIMBLK
  1

  9
$DIMASO
 70
     1
  9
$DIMSHO
 70
     1
  9
$DIMPOST
  1
(<>)
  9
$DIMAPOST
  1

  9
$DIMALT
 70
     0
  9
$DIMALTD
 70
     2
  9
$DIMALTF
 40
0.039
  9
$DIMLFAC
 40
1.0
  9
$DIMTOFL
 70
     1
  9
$DIMTVP
 40
0.0
  9
$DIMTIX
 70
     0
  9
$DIMSOXD
 70
     0
  9
$DIMSAH
 70
     1
  9
$DIMBLK1
  1
OPEN
  9
$DIMBLK2
  1
OPEN
  9
$DIMSTYLE
  2
IGA
  9
$DIMCLRD
 70
     0
  9
$DIMCLRE
 70
     0
  9
$DIMCLRT
 70
     0
  9
$DIMTFAC
 40
10.0
  9
$DIMGAP
 40
1.0
  9
$LUNITS
 70
     2
  9
$LUPREC
 70
     3
  9
$SKETCHINC
 40
0.1
  9
$FILLETRAD
 40
50.0
  9
$AUNITS
 70
     0
  9
$AUPREC
 70
     0
  9
$MENU
  1
acad
  9
$ELEVATION
 40
0.0
  9
$PELEVATION
 40
0.0
  9
$THICKNESS
 40
0.0
  9
$LIMCHECK
 70
     0
  9
$BLIPMODE
 70
     0
  9
$CHAMFERA
 40
0.5
  9
$CHAMFERB
 40
0.5
  9
$SKPOLY
 70
     0
  9
$TDCREATE
 40
2452817.4878591429
  9
$TDUPDATE
 40
2454953.8485939228
  9
$TDINDWG
 40
0.0155102083
  9
$TDUSRTIMER
 40
0.0155102083
  9
$USRTIMER
 70
     1
  9
$ANGBASE
 50
0.0
  9
$ANGDIR
 70
     0
  9
$PDMODE
 70
     0
  9
$PDSIZE
 40
0.0
  9
$PLINEWID
 40
0.0
  9
$COORDS
 70
     1
  9
$SPLFRAME
 70
     0
  9
$SPLINETYPE
 70
     6
  9
$SPLINESEGS
 70
     8
  9
$ATTDIA
 70
     0
  9
$ATTREQ
 70
     1
  9
$HANDLING
 70
 10241
  9
$HANDSEED
  5
80BC
  9
$SURFTAB1
 70
     6
  9
$SURFTAB2
 70
     6
  9
$SURFTYPE
 70
     6
  9
$SURFU
 70
     6
  9
$SURFV
 70
     6
  9
$UCSNAME
  2

  9
$UCSORG
 10
0.0
 20
0.0
 30
0.0
  9
$UCSXDIR
 10
1.0
 20
0.0
 30
0.0
  9
$UCSYDIR
 10
0.0
 20
1.0
 30
0.0
  9
$PUCSNAME
  2

  9
$PUCSORG
 10
0.0
 20
0.0
 30
0.0
  9
$PUCSXDIR
 10
1.0
 20
0.0
 30
0.0
  9
$PUCSYDIR
 10
0.0
 20
1.0
 30
0.0
  9
$USERI1
 70
     0
  9
$USERI2
 70
     0
  9
$USERI3
 70
     0
  9
$USERI4
 70
     0
  9
$USERI5
 70
     0
  9
$USERR1
 40
0.0
  9
$USERR2
 40
0.0
  9
$USERR3
 40
0.0
  9
$USERR4
 40
0.0
  9
$USERR5
 40
0.0
  9
$WORLDVIEW
 70
     1
  9
$SHADEDGE
 70
     3
  9
$SHADEDIF
 70
    70
  9
$TILEMODE
 70
     1
  9
$MAXACTVP
 70
    16
  9
$PLIMCHECK
 70
     0
  9
$PEXTMIN
 10
1.0000000000000000E+020
 20
1.0000000000000000E+020
 30
1.0000000000000000E+020
  9
$PEXTMAX
 10
-1.0000000000000000E+020
 20
-1.0000000000000000E+020
 30
-1.0000000000000000E+020
  9
$PLIMMIN
 10
0.0
 20
0.0
  9
$PLIMMAX
 10
12.0
 20
9.0
  9
$UNITMODE
 70
     0
  9
$VISRETAIN
 70
     0
  9
$PLINEGEN
 70
     0
  9
$PSLTSCALE
 70
     1
  0
ENDSEC
  0
SECTION
  2
TABLES
  0
TABLE
  2
VPORT
 70
     2
  0
VPORT
  2
*ACTIVE
 70
     0
 10
0.0
 20
0.0
 11
1.0
 21
1.0
 12
7534.9783080260304
 22
5006.2472700733688
 13
0.0
 23
0.0
 14
10.0
 24
10.0
 15
10.0
 25
10.0
 16
0.0
 26
0.0
 36
1.0
 17
0.0
 27
0.0
 37
0.0
 40
10012.49454014673
 41
1.5051150895140659
 42
50.0
 43
0.0
 44
0.0
 50
0.0
 51
0.0
 71
     0
 72
   100
 73
     1
 74
     0
 75
     0
 76
     0
 77
     0
 78
     0
  0
ENDTAB
  0
TABLE
  2
LTYPE
 70
     2
  0
LTYPE
  2
CONTINUOUS
 70
     0
  3
Solid line
 72
    65
 73
     0
 40
0.0
  0
LTYPE
  2
CENTER
 70
     0
  3
____ _ ____ _ ____ _ ____ _ ____ _ ____ _ ____ 
 72
    65
 73
     4
 40
2.0
 49
1.25
 49
-0.25
 49
0.25
 49
-0.25
  0
ENDTAB
  0
TABLE
  2
LAYER
 70
     6
  0
LAYER
  2
0
 70
     0
 62
     7
  6
CONTINUOUS
  0
LAYER
  2
3
 70
     0
 62
     2
  6
CONTINUOUS
  0
LAYER
  2
2
 70
     0
 62
     3
  6
CENTER
  0
LAYER
  2
1
 70
     0
 62
     4
  6
CONTINUOUS
  0
LAYER
  2
4
 70
     0
 62
     7
  6
CONTINUOUS
  0
LAYER
  2
DEFPOINTS
 70
     0
 62
     7
  6
CONTINUOUS
  0
ENDTAB
  0
TABLE
  2
STYLE
 70
     1
  0
STYLE
  2
STANDARD
 70
     0
 40
0.0
 41
1.0
 50
0.0
 71
     0
 42
180.0
  3
simplex.shx
  4
extfont.shx
  0
ENDTAB
  0
TABLE
  2
VIEW
 70
     0
  0
ENDTAB
  0
TABLE
  2
UCS
 70
     0
  0
ENDTAB
  0
TABLE
  2
APPID
 70
     1
  0
APPID
  2
ACAD
 70
     0
  0
ENDTAB
  0
TABLE
  2
DIMSTYLE
 70
     1
  0
DIMSTYLE
  2
IGA
 70
     0
  3

  4

  5

  6
OPEN
  7
OPEN
 40
2.0
 41
2.0
 42
0.5
 43
10.0
 44
1.0
 45
0.0
 46
0.0
 47
1.0
 48
1.0
140
3.0
141
0.0
142
0.0
143
0.03937
144
1.0
145
0.0
146
10.0
147
1.0
 71
     0
 72
     0
 73
     0
 74
     0
 75
     0
 76
     0
 77
     1
 78
     8
170
     0
171
     2
172
     0
173
     1
174
     0
175
     0
176
     0
177
     0
178
     0
  0
ENDTAB
  0
ENDSEC
  0
SECTION
  2
BLOCKS
  0
BLOCK
  8
0
  2
$MODEL_SPACE
 70
     0
 10
0.0
 20
0.0
 30
0.0
  3
$MODEL_SPACE
  1

  0
ENDBLK
  5
1B
  8
0
  0
BLOCK
 67
     1
  8
0
  2
$PAPER_SPACE
 70
     0
 10
0.0
 20
0.0
 30
0.0
  3
$PAPER_SPACE
  1

  0
ENDBLK
  5
18
 67
     1
  8
0
  0
BLOCK
  8
0
  2
_OPEN
 70
     0
 10
0.0
 20
0.0
 30
0.0
  3
_OPEN
  1

  0
LINE
  5
7C59
  8
0
  6
BYBLOCK
 62
     0
 10
-1.0
 20
0.1666666666666666
 30
0.0
 11
0.0
 21
0.0
 31
0.0
  0
LINE
  5
7C5A
  8
0
  6
BYBLOCK
 62
     0
 10
0.0
 20
0.0
 30
0.0
 11
-1.0
 21
-0.1666666666666666
 31
0.0
  0
LINE
  5
7C5B
  8
0
  6
BYBLOCK
 62
     0
 10
0.0
 20
0.0
 30
0.0
 11
-1.0
 21
0.0
 31
0.0
  0
ENDBLK
  5
7C5C
  8
0
  0
BLOCK
  8
0
  2
*D1
 70
     1
 10
0.0
 20
0.0
 30
0.0
  3
*D1
  1

  0
LINE
  5
800F
  8
3
 62
     0
 10
2142.0034559741898
 20
3159.889091749716
 30
0.0
 11
2142.0034559741898
 21
3329.2332630682849
 31
0.0
  0
LINE
  5
8010
  8
3
 62
     0
 10
1542.00345597419
 20
3043.9543222435091
 30
0.0
 11
1542.00345597419
 21
3329.2332630682849
 31
0.0
  0
LINE
  5
8011
  8
3
 62
     0
 10
2092.0034559741898
 20
3304.2332630682849
 30
0.0
 11
1592.00345597419
 21
3304.2332630682849
 31
0.0
  0
INSERT
  5
8012
  8
3
 62
     0
  2
_OPEN
 10
2142.0034559741898
 20
3304.2332630682849
 30
0.0
 41
50.0
 42
50.0
 43
50.0
  0
INSERT
  5
8013
  8
3
 62
     0
  2
_OPEN
 10
1542.00345597419
 20
3304.2332630682849
 30
0.0
 41
50.0
 42
50.0
 43
50.0
 50
180.0
  0
TEXT
  8
3
  40
75
  5
80AA
  62
0
  72
0
  71
0
 10
1652.69
 20
3233.98
 30
0.000000
  1
600
  0
POINT
  5
8015
  8
DEFPOINTS
 62
     0
 10
2142.0034559741898
 20
3147.389091749716
 30
0.0
  0
POINT
  5
8016
  8
DEFPOINTS
 62
     0
 10
1542.00345597419
 20
3031.4543222435091
 30
0.0
  0
POINT
  5
8017
  8
DEFPOINTS
 62
     0
 10
1542.00345597419
 20
3304.2332630682849
 30
0.0
  0
ENDBLK
  5
7CC3
  8
0
  0
BLOCK
  8
0
  2
*D2
 70
     1
 10
0.0
 20
0.0
 30
0.0
  3
*D2
  1

  0
LINE
  5
8018
  8
3
 62
     0
 10
1542.00345597419
 20
3043.95432224351
 30
0.0
 11
1542.00345597419
 21
3197.3863934711089
 31
0.0
  0
LINE
  5
8019
  8
3
 62
     0
 10
2122.0034559741898
 20
3043.95432224351
 30
0.0
 11
2122.0034559741898
 21
3197.3863934711089
 31
0.0
  0
LINE
  5
801A
  8
3
 62
     0
 10
1592.00345597419
 20
3172.3863934711089
 30
0.0
 11
2072.0034559741898
 21
3172.3863934711089
 31
0.0
  0
INSERT
  5
801B
  8
3
 62
     0
  2
_OPEN
 10
1542.00345597419
 20
3172.3863934711089
 30
0.0
 41
50.0
 42
50.0
 43
50.0
 50
180.0
  0
INSERT
  5
801C
  8
3
 62
     0
  2
_OPEN
 10
2122.0034559741898
 20
3172.3863934711089
 30
0.0
 41
50.0
 42
50.0
 43
50.0
  0
TEXT
  8
3
  40
75
  5
80AB
  62
0
  72
0
  71
0
 10
1666.71
 20
3102.14
 30
0.000000
  1
580
  0
POINT
  5
801E
  8
DEFPOINTS
 62
     0
 10
1542.00345597419
 20
3031.45432224351
 30
0.0
  0
POINT
  5
801F
  8
DEFPOINTS
 62
     0
 10
2122.0034559741898
 20
3031.45432224351
 30
0.0
  0
POINT
  5
8020
  8
DEFPOINTS
 62
     0
 10
2122.0034559741898
 20
3172.3863934711089
 30
0.0
  0
ENDBLK
  5
7CCE
  8
0
  0
BLOCK
  8
0
  2
*D3
 70
     1
 10
0.0
 20
0.0
 30
0.0
  3
*D3
  1

  0
LINE
  5
8021
  8
3
 62
     0
 10
2542.0034559741912
 20
2611.9543222435091
 30
0.0
 11
2542.0034559741912
 21
3329.2332630682849
 31
0.0
  0
LINE
  5
8022
  8
3
 62
     0
 10
2192.0034559741898
 20
3304.2332630682849
 30
0.0
 11
2492.0034559741898
 21
3304.2332630682849
 31
0.0
  0
INSERT
  5
8023
  8
3
 62
     0
  2
_OPEN
 10
2142.0034559741898
 20
3304.2332630682849
 30
0.0
 41
50.0
 42
50.0
 43
50.0
 50
180.0
  0
INSERT
  5
8024
  8
3
 62
     0
  2
_OPEN
 10
2542.0034559741912
 20
3304.2332630682849
 30
0.0
 41
50.0
 42
50.0
 43
50.0
  0
TEXT
  8
3
  40
75
  5
80AC
  62
0
  72
0
  71
0
 10
2192.00
 20
3233.98
 30
0.000000
  1
400
  0
POINT
  5
8026
  8
DEFPOINTS
 62
     0
 10
2142.0034559741898
 20
3147.389091749716
 30
0.0
  0
POINT
  5
8027
  8
DEFPOINTS
 62
     0
 10
2542.0034559741912
 20
2599.4543222435091
 30
0.0
  0
POINT
  5
8028
  8
DEFPOINTS
 62
     0
 10
2542.0034559741912
 20
3304.2332630682849
 30
0.0
  0
ENDBLK
  5
7CD9
  8
0
  0
BLOCK
  8
0
  2
*D4
 70
     1
 10
0.0
 20
0.0
 30
0.0
  3
*D4
  1

  0
LINE
  5
8029
  8
3
 62
     0
 10
2166.5034559741898
 20
3031.4543222435091
 30
0.0
 11
2835.8437507615422
 21
3031.4543222435091
 31
0.0
  0
LINE
  5
802A
  8
3
 62
     0
 10
2580.2399857705041
 20
2641.4543222435091
 30
0.0
 11
2835.8437507615422
 21
2641.4543222435091
 31
0.0
  0
LINE
  5
802B
  8
3
 62
     0
 10
2810.8437507615422
 20
2981.4543222435091
 30
0.0
 11
2810.8437507615422
 21
2691.4543222435091
 31
0.0
  0
INSERT
  5
802C
  8
3
 62
     0
  2
_OPEN
 10
2810.8437507615422
 20
3031.4543222435091
 30
0.0
 41
50.0
 42
50.0
 43
50.0
 50
90.0
  0
INSERT
  5
802D
  8
3
 62
     0
  2
_OPEN
 10
2810.8437507615422
 20
2641.4543222435091
 30
0.0
 41
50.0
 42
50.0
 43
50.0
 50
270.0
  0
TEXT
  8
3
  40
75
  5
80AD
  62
0
  72
0
  71
0
 10
2598.34
 20
2727.28
 30
0.000000
  1
390
  0
POINT
  5
802F
  8
DEFPOINTS
 62
     0
 10
2154.0034559741898
 20
3031.4543222435091
 30
0.0
  0
POINT
  5
8030
  8
DEFPOINTS
 62
     0
 10
2567.7399857705041
 20
2641.4543222435091
 30
0.0
  0
POINT
  5
8031
  8
DEFPOINTS
 62
     0
 10
2810.8437507615422
 20
2641.4543222435091
 30
0.0
  0
ENDBLK
  5
7CE6
  8
0
  0
BLOCK
  8
0
  2
*D5
 70
     1
 10
0.0
 20
0.0
 30
0.0
  3
*D5
  1

  0
LINE
  5
8032
  8
3
 62
     0
 10
2504.5034559741898
 20
2071.4543222435091
 30
0.0
 11
2835.8437507615422
 21
2071.4543222435091
 31
0.0
  0
LINE
  5
8033
  8
3
 62
     0
 10
2810.8437507615422
 20
2591.4543222435091
 30
0.0
 11
2810.8437507615422
 21
2121.4543222435091
 31
0.0
  0
INSERT
  5
8034
  8
3
 62
     0
  2
_OPEN
 10
2810.8437507615422
 20
2641.4543222435091
 30
0.0
 41
50.0
 42
50.0
 43
50.0
 50
90.0
  0
INSERT
  5
8035
  8
3
 62
     0
  2
_OPEN
 10
2810.8437507615422
 20
2071.4543222435091
 30
0.0
 41
50.0
 42
50.0
 43
50.0
 50
270.0
  0
TEXT
  8
3
  40
75
  5
80AE
  62
0
  72
0
  71
0
 10
2598.34
 20
2223.70
 30
0.000000
  1
570
  0
POINT
  5
8037
  8
DEFPOINTS
 62
     0
 10
2567.7399857705041
 20
2641.4543222435091
 30
0.0
  0
POINT
  5
8038
  8
DEFPOINTS
 62
     0
 10
2492.0034559741898
 20
2071.4543222435091
 30
0.0
  0
POINT
  5
8039
  8
DEFPOINTS
 62
     0
 10
2810.8437507615422
 20
2071.4543222435091
 30
0.0
  0
ENDBLK
  5
7CF2
  8
0
  0
BLOCK
  8
0
  2
_DOT
 70
     0
 10
0.0
 20
0.0
 30
0.0
  3
_DOT
  1

  0
LINE
  5
7E62
  8
0
  6
BYBLOCK
 62
     0
 10
0.0
 20
0.0
 30
0.0
 11
-1.0
 21
-0.0000000000000284
 31
0.0
  0
POLYLINE
  5
7E63
  8
0
  6
BYBLOCK
 62
     0
 66
     1
 10
0.0
 20
0.0
 30
0.0
 70
     1
 40
0.1666666666666666
 41
0.1666666666666666
  0
VERTEX
  5
805D
  8
0
  6
BYBLOCK
 62
     0
 10
-0.0833333333333286
 20
-0.0000000000000284
 30
0.0
 42
1.0
  0
VERTEX
  5
805E
  8
0
  6
BYBLOCK
 62
     0
 10
0.0833333333333286
 20
-0.0000000000000284
 30
0.0
 42
1.0
  0
SEQEND
  5
805F
  8
0
  6
BYBLOCK
 62
     0
  0
ENDBLK
  5
7D54
  8
0
  0
BLOCK
  8
0
  2
*D7
 70
     1
 10
0.0
 20
0.0
 30
0.0
  3
*D7
  1

  0
LINE
  5
803A
  8
3
 62
     0
 10
2542.0034559741912
 20
2611.9543222435091
 30
0.0
 11
2542.0034559741912
 21
3491.939241151596
 31
0.0
  0
LINE
  5
803B
  8
3
 62
     0
 10
1242.00345597419
 20
2163.9543222435091
 30
0.0
 11
1242.00345597419
 21
3491.939241151596
 31
0.0
  0
LINE
  5
803C
  8
3
 62
     0
 10
2492.0034559741898
 20
3466.939241151596
 30
0.0
 11
1292.00345597419
 21
3466.939241151596
 31
0.0
  0
INSERT
  5
803D
  8
3
 62
     0
  2
_OPEN
 10
2542.0034559741912
 20
3466.939241151596
 30
0.0
 41
50.0
 42
50.0
 43
50.0
  0
INSERT
  5
803E
  8
3
 62
     0
  2
_OPEN
 10
1242.00345597419
 20
3466.939241151596
 30
0.0
 41
50.0
 42
50.0
 43
50.0
 50
180.0
  0
TEXT
  8
3
  40
75
  5
80AF
  62
0
  72
0
  71
0
 10
1746.82
 20
3396.69
 30
0.000000
  1
1300
  0
POINT
  5
8040
  8
DEFPOINTS
 62
     0
 10
2542.0034559741912
 20
2599.4543222435091
 30
0.0
  0
POINT
  5
8041
  8
DEFPOINTS
 62
     0
 10
1242.00345597419
 20
2151.4543222435091
 30
0.0
  0
POINT
  5
8042
  8
DEFPOINTS
 62
     0
 10
1242.00345597419
 20
3466.939241151596
 30
0.0
  0
ENDBLK
  5
7D9D
  8
0
  0
BLOCK
  8
0
  2
*D8
 70
     1
 10
0.0
 20
0.0
 30
0.0
  3
*D8
  1

  0
LINE
  5
8043
  8
3
 62
     0
 10
4017.8876673387899
 20
3013.9543222435109
 30
0.0
 11
4017.8876673387899
 21
3216.540285855323
 31
0.0
  0
LINE
  5
8044
  8
3
 62
     0
 10
4442.8876673387904
 20
3013.9543222435109
 30
0.0
 11
4442.8876673387904
 21
3216.540285855323
 31
0.0
  0
LINE
  5
8045
  8
3
 62
     0
 10
4067.8876673387899
 20
3191.5402858553221
 30
0.0
 11
4392.8876673387886
 21
3191.5402858553221
 31
0.0
  0
INSERT
  5
8046
  8
3
 62
     0
  2
_OPEN
 10
4017.8876673387899
 20
3191.5402858553221
 30
0.0
 41
50.0
 42
50.0
 43
50.0
 50
180.0
  0
INSERT
  5
8047
  8
3
 62
     0
  2
_OPEN
 10
4442.8876673387904
 20
3191.5402858553221
 30
0.0
 41
50.0
 42
50.0
 43
50.0
  0
TEXT
  8
3
  40
75
  5
80B0
  62
0
  72
0
  71
0
 10
4082.16
 20
3121.29
 30
0.000000
  1
425
  0
POINT
  5
8049
  8
DEFPOINTS
 62
     0
 10
4017.8876673387899
 20
3001.45432224351
 30
0.0
  0
POINT
  5
804A
  8
DEFPOINTS
 62
     0
 10
4442.8876673387904
 20
3001.45432224351
 30
0.0
  0
POINT
  5
804B
  8
DEFPOINTS
 62
     0
 10
4442.8876673387904
 20
3191.5402858553221
 30
0.0
  0
ENDBLK
  5
7E21
  8
0
  0
BLOCK
  8
0
  2
*D9
 70
     1
 10
0.0
 20
0.0
 30
0.0
  3
*D9
  1

  0
LINE
  5
7E23
  8
0
  6
BYBLOCK
 62
     0
 10
4445.6298262740702
 20
2660.6833005520461
 30
0.0
 11
4445.6298262740702
 21
3098.5699962001249
 31
0.0
  0
LINE
  5
7E24
  8
0
  6
BYBLOCK
 62
     0
 10
4230.3876673387904
 20
3012.285117457523
 30
0.0
 11
4230.3876673387904
 21
3098.5699962001249
 31
0.0
  0
LINE
  5
7E25
  8
0
  6
BYBLOCK
 62
     0
 10
4395.6298262740702
 20
3073.5699962001249
 30
0.0
 11
4280.3876673387904
 21
3073.5699962001249
 31
0.0
  0
TEXT
  5
7E26
  8
3
 62
     0
 10
4249.7305307156366
 20
3096.3125650638849
 30
0.0
 40
75.0
  1
215
  0
INSERT
  5
7E27
  8
0
  6
BYBLOCK
 62
     0
  2
_OPEN
 10
4445.6298262740702
 20
3073.5699962001249
 30
0.0
 41
50.0
 42
50.0
 43
50.0
  0
INSERT
  5
7E28
  8
0
  6
BYBLOCK
 62
     0
  2
_OPEN
 10
4230.3876673387904
 20
3073.5699962001249
 30
0.0
 41
50.0
 42
50.0
 43
50.0
 50
180.0
  0
POINT
  5
7E29
  8
DEFPOINTS
  6
BYBLOCK
 62
     0
 10
4445.6298262740702
 20
2648.1833005520461
 30
0.0
  0
POINT
  5
7E2A
  8
DEFPOINTS
  6
BYBLOCK
 62
     0
 10
4230.3876673387904
 20
2999.785117457523
 30
0.0
  0
POINT
  5
7E2B
  8
DEFPOINTS
  6
BYBLOCK
 62
     0
 10
4230.3876673387904
 20
3073.5699962001249
 30
0.0
  0
ENDBLK
  5
7E2C
  8
0
  0
BLOCK
  8
0
  2
*D10
 70
     1
 10
0.0
 20
0.0
 30
0.0
  3
*D10
  1

  0
LINE
  5
804C
  8
3
 62
     0
 10
3609.6143940401589
 20
2873.9543222435091
 30
0.0
 11
3609.6143940401589
 21
3401.8410178915892
 31
0.0
  0
LINE
  5
804D
  8
3
 62
     0
 10
4180.3876673387904
 20
3376.8410178915892
 30
0.0
 11
3659.6143940401589
 21
3376.8410178915892
 31
0.0
  0
INSERT
  5
804E
  8
3
 62
     0
  2
_OPEN
 10
4230.3876673387904
 20
3376.8410178915892
 30
0.0
 41
50.0
 42
50.0
 43
50.0
  0
INSERT
  5
804F
  8
3
 62
     0
  2
_OPEN
 10
3609.6143940401589
 20
3376.8410178915892
 30
0.0
 41
50.0
 42
50.0
 43
50.0
 50
180.0
  0
TEXT
  8
3
  40
75
  5
80B1
  62
0
  72
0
  71
0
 10
3770.00
 20
3369.09
 30
0.000000
  1
MAX
  0
TEXT
  8
3
  40
75
  5
80B2
  62
0
  72
0
  71
0
 10
3770.00
 20
3271.59
 30
0.000000
  1
630
  0
POINT
  5
8051
  8
DEFPOINTS
 62
     0
 10
4230.3876673387904
 20
3303.0561391489869
 30
0.0
  0
POINT
  5
8052
  8
DEFPOINTS
 62
     0
 10
3609.6143940401589
 20
2861.4543222435091
 30
0.0
  0
POINT
  5
8053
  8
DEFPOINTS
 62
     0
 10
3609.6143940401589
 20
3376.8410178915892
 30
0.0
  0
ENDBLK
  5
7E42
  8
0
  0
BLOCK
  8
0
  2
*D11
 70
     1
 10
0.0
 20
0.0
 30
0.0
  3
*D11
  1

  0
LINE
  5
8054
  8
3
 62
     0
 10
4488.5876673387902
 20
2921.45432224351
 30
0.0
 11
4690.9058980112677
 21
2921.45432224351
 31
0.0
  0
LINE
  5
8055
  8
3
 62
     0
 10
4488.5876673387902
 20
2361.4543222435091
 30
0.0
 11
4690.9058980112677
 21
2361.4543222435091
 31
0.0
  0
LINE
  5
8056
  8
3
 62
     0
 10
4665.9058980112686
 20
2871.45432224351
 30
0.0
 11
4665.9058980112686
 21
2411.45432224351
 31
0.0
  0
INSERT
  5
8057
  8
3
 62
     0
  2
_OPEN
 10
4665.9058980112686
 20
2921.45432224351
 30
0.0
 41
50.0
 42
50.0
 43
50.0
 50
90.0
  0
INSERT
  5
8058
  8
3
 62
     0
  2
_OPEN
 10
4665.9058980112686
 20
2361.4543222435091
 30
0.0
 41
50.0
 42
50.0
 43
50.0
 50
270.0
  0
TEXT
  8
3
  40
75
  5
80B3
  62
0
  72
0
  71
0
 10
4453.41
 20
2518.18
 30
0.000000
  1
φ560
  0
POINT
  5
805A
  8
DEFPOINTS
 62
     0
 10
4476.0876673387911
 20
2921.45432224351
 30
0.0
  0
POINT
  5
805B
  8
DEFPOINTS
 62
     0
 10
4476.0876673387911
 20
2361.4543222435091
 30
0.0
  0
POINT
  5
805C
  8
DEFPOINTS
 62
     0
 10
4665.9058980112686
 20
2361.4543222435091
 30
0.0
  0
ENDBLK
  5
7E5D
  8
0
  0
BLOCK
  8
0
  2
*D12
 70
     1
 10
0.0
 20
0.0
 30
0.0
  3
*D12
  1

  0
LINE
  5
8060
  8
3
 62
     0
 10
3575.3876673387908
 20
1858.9543222435091
 30
0.0
 11
3575.3876673387908
 21
1680.472095201457
 31
0.0
  0
LINE
  5
8061
  8
3
 62
     0
 10
4230.3876673387913
 20
1858.9543222435091
 30
0.0
 11
4230.3876673387913
 21
1680.472095201457
 31
0.0
  0
LINE
  5
8062
  8
3
 62
     0
 10
3625.3876673387908
 20
1705.472095201457
 30
0.0
 11
4180.3876673387904
 21
1705.472095201457
 31
0.0
  0
INSERT
  5
8063
  8
3
 62
     0
  2
_OPEN
 10
3575.3876673387908
 20
1705.472095201457
 30
0.0
 41
50.0
 42
50.0
 43
50.0
 50
180.0
  0
INSERT
  5
8064
  8
3
 62
     0
  2
_OPEN
 10
4230.3876673387913
 20
1705.472095201457
 30
0.0
 41
50.0
 42
50.0
 43
50.0
  0
TEXT
  8
3
  40
75
  5
80B4
  62
0
  72
0
  71
0
 10
3752.89
 20
1635.22
 30
0.000000
  1
655
  0
POINT
  5
8066
  8
DEFPOINTS
 62
     0
 10
3575.3876673387908
 20
1871.4543222435091
 30
0.0
  0
POINT
  5
8067
  8
DEFPOINTS
 62
     0
 10
4230.3876673387913
 20
1871.4543222435091
 30
0.0
  0
POINT
  5
8068
  8
DEFPOINTS
 62
     0
 10
4230.3876673387913
 20
1705.472095201457
 30
0.0
  0
ENDBLK
  5
7E87
  8
0
  0
BLOCK
  8
0
  2
*D13
 70
     1
 10
0.0
 20
0.0
 30
0.0
  3
*D13
  1

  0
LINE
  5
8069
  8
3
 62
     0
 10
4230.3876673387913
 20
1858.9543222435091
 30
0.0
 11
4230.3876673387913
 21
1680.472095201457
 31
0.0
  0
LINE
  5
806A
  8
3
 62
     0
 10
4555.3876673387904
 20
1858.95432224351
 30
0.0
 11
4555.3876673387904
 21
1680.472095201457
 31
0.0
  0
LINE
  5
806B
  8
3
 62
     0
 10
4280.3876673387913
 20
1705.472095201457
 30
0.0
 11
4505.3876673387913
 21
1705.472095201457
 31
0.0
  0
INSERT
  5
806C
  8
3
 62
     0
  2
_OPEN
 10
4230.3876673387913
 20
1705.472095201457
 30
0.0
 41
50.0
 42
50.0
 43
50.0
 50
180.0
  0
INSERT
  5
806D
  8
3
 62
     0
  2
_OPEN
 10
4555.3876673387904
 20
1705.472095201457
 30
0.0
 41
50.0
 42
50.0
 43
50.0
  0
TEXT
  8
3
  40
75
  5
80B5
  62
0
  72
0
  71
0
 10
4242.89
 20
1635.22
 30
0.000000
  1
325
  0
POINT
  5
806F
  8
DEFPOINTS
 62
     0
 10
4230.3876673387913
 20
1871.4543222435091
 30
0.0
  0
POINT
  5
8070
  8
DEFPOINTS
 62
     0
 10
4555.3876673387904
 20
1871.45432224351
 30
0.0
  0
POINT
  5
8071
  8
DEFPOINTS
 62
     0
 10
4555.3876673387904
 20
1705.472095201457
 30
0.0
  0
ENDBLK
  5
7E96
  8
0
  0
BLOCK
  8
0
  2
*D14
 70
     1
 10
0.0
 20
0.0
 30
0.0
  3
*D14
  1

  0
LINE
  5
8072
  8
3
 62
     0
 10
2142.0034559741898
 20
1898.9543222435091
 30
0.0
 11
2142.0034559741898
 21
1680.472095201457
 31
0.0
  0
LINE
  5
8073
  8
3
 62
     0
 10
2496.0034559741898
 20
1858.9543222435091
 30
0.0
 11
2496.0034559741898
 21
1680.472095201457
 31
0.0
  0
LINE
  5
8074
  8
3
 62
     0
 10
2192.0034559741898
 20
1705.472095201457
 30
0.0
 11
2446.0034559741898
 21
1705.472095201457
 31
0.0
  0
INSERT
  5
8075
  8
3
 62
     0
  2
_OPEN
 10
2142.0034559741898
 20
1705.472095201457
 30
0.0
 41
50.0
 42
50.0
 43
50.0
 50
180.0
  0
INSERT
  5
8076
  8
3
 62
     0
  2
_OPEN
 10
2496.0034559741898
 20
1705.472095201457
 30
0.0
 41
50.0
 42
50.0
 43
50.0
  0
TEXT
  8
3
  40
75
  5
80B6
  62
0
  72
0
  71
0
 10
2169.00
 20
1635.22
 30
0.000000
  1
354
  0
POINT
  5
8078
  8
DEFPOINTS
 62
     0
 10
2142.0034559741898
 20
1911.4543222435091
 30
0.0
  0
POINT
  5
8079
  8
DEFPOINTS
 62
     0
 10
2496.0034559741898
 20
1871.4543222435091
 30
0.0
  0
POINT
  5
807A
  8
DEFPOINTS
 62
     0
 10
2496.0034559741898
 20
1705.472095201457
 30
0.0
  0
ENDBLK
  5
7EA3
  8
0
  0
BLOCK
  8
0
  2
*D15
 70
     1
 10
0.0
 20
0.0
 30
0.0
  3
*D15
  1

  0
LINE
  5
807B
  8
3
 62
     0
 10
1238.00345597419
 20
1858.9543222435091
 30
0.0
 11
1238.00345597419
 21
1680.472095201457
 31
0.0
  0
LINE
  5
807C
  8
3
 62
     0
 10
2142.0034559741898
 20
1898.9543222435091
 30
0.0
 11
2142.0034559741898
 21
1680.472095201457
 31
0.0
  0
LINE
  5
807D
  8
3
 62
     0
 10
1288.00345597419
 20
1705.472095201457
 30
0.0
 11
2092.0034559741898
 21
1705.472095201457
 31
0.0
  0
INSERT
  5
807E
  8
3
 62
     0
  2
_OPEN
 10
1238.00345597419
 20
1705.472095201457
 30
0.0
 41
50.0
 42
50.0
 43
50.0
 50
180.0
  0
INSERT
  5
807F
  8
3
 62
     0
  2
_OPEN
 10
2142.0034559741898
 20
1705.472095201457
 30
0.0
 41
50.0
 42
50.0
 43
50.0
  0
TEXT
  8
3
  40
75
  5
80B7
  62
0
  72
0
  71
0
 10
1540.00
 20
1635.22
 30
0.000000
  1
904
  0
POINT
  5
8081
  8
DEFPOINTS
 62
     0
 10
1238.00345597419
 20
1871.4543222435091
 30
0.0
  0
POINT
  5
8082
  8
DEFPOINTS
 62
     0
 10
2142.0034559741898
 20
1911.4543222435091
 30
0.0
  0
POINT
  5
8083
  8
DEFPOINTS
 62
     0
 10
2142.0034559741898
 20
1705.472095201457
 30
0.0
  0
ENDBLK
  5
7EB0
  8
0
  0
BLOCK
  8
0
  2
*D16
 70
     1
 10
0.0
 20
0.0
 30
0.0
  3
*D16
  1

  0
LINE
  5
8084
  8
3
 62
     0
 10
1235.003455974191
 20
5006.9052370605468
 30
0.0
 11
1235.003455974191
 21
5165.5723466741183
 31
0.0
  0
LINE
  5
8085
  8
3
 62
     0
 10
2493.0034559741912
 20
5006.9052370605459
 30
0.0
 11
2493.0034559741912
 21
5165.5723466741183
 31
0.0
  0
LINE
  5
8086
  8
3
 62
     0
 10
1285.003455974191
 20
5140.5723466741192
 30
0.0
 11
2443.0034559741912
 21
5140.5723466741192
 31
0.0
  0
INSERT
  5
8087
  8
3
 62
     0
  2
_OPEN
 10
1235.003455974191
 20
5140.5723466741192
 30
0.0
 41
50.0
 42
50.0
 43
50.0
 50
180.0
  0
INSERT
  5
8088
  8
3
 62
     0
  2
_OPEN
 10
2493.0034559741912
 20
5140.5723466741192
 30
0.0
 41
50.0
 42
50.0
 43
50.0
  0
TEXT
  8
3
  40
75
  5
80B8
  62
0
  72
0
  71
0
 10
1714.00
 20
5070.32
 30
0.000000
  1
1258
  0
POINT
  5
808A
  8
DEFPOINTS
 62
     0
 10
1235.003455974191
 20
4994.4052370605468
 30
0.0
  0
POINT
  5
808B
  8
DEFPOINTS
 62
     0
 10
2493.0034559741912
 20
4994.4052370605468
 30
0.0
  0
POINT
  5
808C
  8
DEFPOINTS
 62
     0
 10
2493.0034559741912
 20
5140.5723466741192
 30
0.0
  0
ENDBLK
  5
7EE6
  8
0
  0
BLOCK
  8
0
  2
*D17
 70
     1
 10
0.0
 20
0.0
 30
0.0
  3
*D17
  1

  0
LINE
  5
808D
  8
3
 62
     0
 10
1222.503455974191
 20
4994.4052370605468
 30
0.0
 11
1056.1818526787749
 21
4994.4052370605468
 31
0.0
  0
LINE
  5
808E
  8
3
 62
     0
 10
1222.5034559741921
 20
4014.4052370605482
 30
0.0
 11
1056.1818526787749
 21
4014.4052370605482
 31
0.0
  0
LINE
  5
808F
  8
3
 62
     0
 10
1081.1818526787749
 20
4944.4052370605468
 30
0.0
 11
1081.1818526787749
 21
4064.4052370605482
 31
0.0
  0
INSERT
  5
8090
  8
3
 62
     0
  2
_OPEN
 10
1081.1818526787749
 20
4994.4052370605468
 30
0.0
 41
50.0
 42
50.0
 43
50.0
 50
90.0
  0
INSERT
  5
8091
  8
3
 62
     0
  2
_OPEN
 10
1081.1818526787749
 20
4014.4052370605482
 30
0.0
 41
50.0
 42
50.0
 43
50.0
 50
270.0
  0
TEXT
  8
3
  40
75
  5
80B9
  62
0
  72
0
  71
0
 10
868.682
 20
4371.66
 30
0.000000
  1
980
  0
POINT
  5
8093
  8
DEFPOINTS
 62
     0
 10
1235.003455974191
 20
4994.4052370605468
 30
0.0
  0
POINT
  5
8094
  8
DEFPOINTS
 62
     0
 10
1235.0034559741921
 20
4014.4052370605482
 30
0.0
  0
POINT
  5
8095
  8
DEFPOINTS
 62
     0
 10
1081.1818526787749
 20
4014.4052370605482
 30
0.0
  0
ENDBLK
  5
7EF3
  8
0
  0
BLOCK
  8
0
  2
*D18
 70
     1
 10
0.0
 20
0.0
 30
0.0
  3
*D18
  1

  0
LINE
  5
8096
  8
3
 62
     0
 10
2504.5034559741898
 20
1976.4543222435091
 30
0.0
 11
2833.4457987253109
 21
1976.4543222435091
 31
0.0
  0
LINE
  5
8097
  8
3
 62
     0
 10
2508.5034559741898
 20
1871.4543222435091
 30
0.0
 11
2833.4457987253109
 21
1871.4543222435091
 31
0.0
  0
LINE
  5
8098
  8
3
 62
     0
 10
2808.4457987253122
 20
2026.4543222435091
 30
0.0
 11
2808.4457987253122
 21
2076.4543222435091
 31
0.0
  0
LINE
  5
8099
  8
3
 62
     0
 10
2808.4457987253122
 20
1821.4543222435091
 30
0.0
 11
2808.4457987253122
 21
1542.8828936720799
 31
0.0
  0
LINE
  5
809A
  8
3
 62
     0
 10
2808.4457987253122
 20
1976.4543222435091
 30
0.0
 11
2808.4457987253122
 21
1871.4543222435091
 31
0.0
  0
INSERT
  5
809B
  8
3
 62
     0
  2
_DOT
 10
2808.4457987253122
 20
1976.4543222435091
 30
0.0
 41
50.0
 42
50.0
 43
50.0
 50
270.0
  0
INSERT
  5
809C
  8
3
 62
     0
  2
_OPEN
 10
2808.4457987253122
 20
1871.4543222435091
 30
0.0
 41
50.0
 42
50.0
 43
50.0
 50
90.0
  0
TEXT
  8
3
  40
75
  5
80BA
  62
0
  72
0
  71
0
 10
2595.95
 20
1524.42
 30
0.000000
  1
105
  0
POINT
  5
809E
  8
DEFPOINTS
 62
     0
 10
2492.0034559741898
 20
1976.4543222435091
 30
0.0
  0
POINT
  5
809F
  8
DEFPOINTS
 62
     0
 10
2496.0034559741898
 20
1871.4543222435091
 30
0.0
  0
POINT
  5
80A0
  8
DEFPOINTS
 62
     0
 10
2808.4457987253122
 20
1871.4543222435091
 30
0.0
  0
ENDBLK
  5
7F07
  8
0
  0
BLOCK
  8
0
  2
*D19
 70
     1
 10
0.0
 20
0.0
 30
0.0
  3
*D19
  1

  0
LINE
  5
7F0B
  8
0
  6
BYBLOCK
 62
     0
 10
2504.5034559741898
 20
1976.4543222435091
 30
0.0
 11
2833.4457987253109
 21
1976.4543222435091
 31
0.0
  0
LINE
  5
7F0C
  8
0
  6
BYBLOCK
 62
     0
 10
2504.5034559741898
 20
2071.4543222435091
 30
0.0
 11
2833.4457987253109
 21
2071.4543222435091
 31
0.0
  0
LINE
  5
7F0D
  8
0
  6
BYBLOCK
 62
     0
 10
2808.4457987253122
 20
1926.4543222435091
 30
0.0
 11
2808.4457987253122
 21
1876.4543222435091
 31
0.0
  0
LINE
  5
7F0E
  8
0
  6
BYBLOCK
 62
     0
 10
2808.4457987253122
 20
2121.4543222435091
 30
0.0
 11
2808.4457987253122
 21
2171.4543222435091
 31
0.0
  0
TEXT
  5
7F0F
  8
3
 62
     0
 10
2953.0886558681691
 20
1915.025750814938
 30
0.0
 40
75.0
  1
(95)
 50
90.0
  0
LINE
  5
7F10
  8
0
  6
BYBLOCK
 62
     0
 10
2808.4457987253122
 20
1976.4543222435091
 30
0.0
 11
2808.4457987253122
 21
2071.4543222435091
 31
0.0
  0
INSERT
  5
7F11
  8
0
  6
BYBLOCK
 62
     0
  2
_DOT
 10
2808.4457987253122
 20
1976.4543222435091
 30
0.0
 41
50.0
 42
50.0
 43
50.0
 50
90.0
  0
INSERT
  5
7F12
  8
0
  6
BYBLOCK
 62
     0
  2
_OPEN
 10
2808.4457987253122
 20
2071.4543222435091
 30
0.0
 41
50.0
 42
50.0
 43
50.0
 50
270.0
  0
POINT
  5
7F13
  8
DEFPOINTS
  6
BYBLOCK
 62
     0
 10
2492.0034559741898
 20
1976.4543222435091
 30
0.0
  0
POINT
  5
7F14
  8
DEFPOINTS
  6
BYBLOCK
 62
     0
 10
2492.0034559741898
 20
2071.4543222435091
 30
0.0
  0
POINT
  5
7F15
  8
DEFPOINTS
  6
BYBLOCK
 62
     0
 10
2808.4457987253122
 20
2071.4543222435091
 30
0.0
  0
ENDBLK
  5
7F16
  8
0
  0
BLOCK
  8
0
  2
*D20
 70
     1
 10
0.0
 20
0.0
 30
0.0
  3
*D20
  1

  0
LINE
  5
80A1
  8
3
 62
     0
 10
2166.5034559741898
 20
3031.4543222435091
 30
0.0
 11
3055.2716265367558
 21
3031.4543222435091
 31
0.0
  0
LINE
  5
80A2
  8
3
 62
     0
 10
2508.5034559741898
 20
1871.4543222435091
 30
0.0
 11
3055.2716265367558
 21
1871.4543222435091
 31
0.0
  0
LINE
  5
80A3
  8
3
 62
     0
 10
3030.2716265367558
 20
2981.4543222435091
 30
0.0
 11
3030.2716265367558
 21
1921.4543222435091
 31
0.0
  0
INSERT
  5
80A4
  8
3
 62
     0
  2
_OPEN
 10
3030.2716265367558
 20
3031.4543222435091
 30
0.0
 41
50.0
 42
50.0
 43
50.0
 50
90.0
  0
INSERT
  5
80A5
  8
3
 62
     0
  2
_OPEN
 10
3030.2716265367558
 20
1871.4543222435091
 30
0.0
 41
50.0
 42
50.0
 43
50.0
 50
270.0
  0
TEXT
  8
3
  40
75
  5
80BB
  62
0
  72
0
  71
0
 10
2798.13
 20
2318.70
 30
0.000000
  1
(1160)
  0
POINT
  5
80A7
  8
DEFPOINTS
 62
     0
 10
2154.0034559741898
 20
3031.4543222435091
 30
0.0
  0
POINT
  5
80A8
  8
DEFPOINTS
 62
     0
 10
2496.0034559741898
 20
1871.4543222435091
 30
0.0
  0
POINT
  5
80A9
  8
DEFPOINTS
 62
     0
 10
3030.2716265367558
 20
1871.4543222435091
 30
0.0
  0
ENDBLK
  5
7F23
  8
0
  0
ENDSEC
  0
SECTION
  2
ENTITIES
  0
LINE
  5
7B1E
  8
1
 10
1877.003455974191
 20
2557.9543222435091
 30
0.0
 11
1877.003455974191
 21
2151.45432224351
 31
0.0
  0
LINE
  5
7B1F
  8
1
 10
2407.0034559741912
 20
2557.9543222435091
 30
0.0
 11
2407.0034559741912
 21
2151.45432224351
 31
0.0
  0
ARC
  5
7B20
  8
1
 10
2100.0034559741898
 20
2683.4543222435091
 30
0.0
 40
526.0
 50
184.57982358231391
 51
244.91550345834821
  0
ARC
  5
7B21
  8
1
 10
2100.0034559741898
 20
2683.4543222435091
 30
0.0
 40
538.0
 50
184.4774605363485
 51
245.51228397375189
  0
LINE
  5
7B22
  8
1
 10
2369.3034559741909
 20
2577.3543222435101
 30
0.0
 11
2369.3034559741909
 21
2151.45432224351
 31
0.0
  0
LINE
  5
7B23
  8
1
 10
1914.703455974191
 20
2577.3543222435101
 30
0.0
 11
1914.703455974191
 21
2151.45432224351
 31
0.0
  0
ARC
  5
7B24
  8
1
 10
2100.0034559741898
 20
2599.4543222435091
 30
0.0
 40
454.0
 50
270.0
 51
306.38241374841698
  0
ARC
  5
7B25
  8
1
 10
2100.0034559741898
 20
2599.4543222435091
 30
0.0
 40
442.0
 50
270.0
 51
307.53717275073728
  0
LINE
  5
7B26
  8
2
 10
2142.0034559741898
 20
3147.389091749716
 30
0.0
 11
2142.0034559741898
 21
1911.4543222435091
 31
0.0
  0
LINE
  5
7B27
  8
1
 10
1877.003455974191
 20
2151.45432224351
 30
0.0
 11
1914.703455974191
 21
2151.45432224351
 31
0.0
  0
LINE
  5
7B28
  8
1
 10
2369.3034559741909
 20
2151.45432224351
 30
0.0
 11
2407.003455974193
 21
2151.45432224351
 31
0.0
  0
LINE
  5
7B29
  8
2
 10
1468.624811815675
 20
2641.4543222435091
 30
0.0
 11
2567.7399857705041
 21
2641.4543222435091
 31
0.0
  0
LINE
  5
7B2B
  8
1
 10
1872.00345597419
 20
2691.45432224351
 30
0.0
 11
1622.00345597419
 21
2691.45432224351
 31
0.0
  0
LINE
  5
7B2C
  8
1
 10
1872.00345597419
 20
2911.45432224351
 30
0.0
 11
1622.00345597419
 21
2911.45432224351
 31
0.0
  0
LINE
  5
7B2D
  8
1
 10
1914.00345597419
 20
3001.4543222435091
 30
0.0
 11
1542.00345597419
 21
3001.4543222435091
 31
0.0
  0
LINE
  5
7B2E
  8
1
 10
1914.00345597419
 20
3031.4543222435091
 30
0.0
 11
1510.0034559741889
 21
3031.4543222435091
 31
0.0
  0
LINE
  5
7B30
  8
1
 10
1622.00345597419
 20
2911.45432224351
 30
0.0
 11
1622.00345597419
 21
2691.45432224351
 31
0.0
  0
LINE
  5
7B31
  8
1
 10
1637.00345597419
 20
2911.45432224351
 30
0.0
 11
1637.00345597419
 21
2691.45432224351
 31
0.0
  0
LINE
  5
7B32
  8
1
 10
1635.011597545486
 20
2911.45432224351
 30
0.0
 11
1635.011597545486
 21
2691.45432224351
 31
0.0
  0
LINE
  5
7B33
  8
1
 10
1540.5507525227149
 20
3001.4543222435091
 30
0.0
 11
1576.479543387798
 21
2632.4767492310889
 31
0.0
  0
LINE
  5
7B34
  8
1
 10
1528.607241208957
 20
3000.291335786952
 30
0.0
 11
1564.536032074041
 21
2631.3137627745309
 31
0.0
  0
LINE
  5
7B35
  8
1
 10
1528.607241208957
 20
3000.291335786952
 30
0.0
 11
1540.5507525227149
 21
3001.4543222435091
 31
0.0
  0
LINE
  5
7B36
  8
1
 10
1537.703455974189
 20
3001.4543222435091
 30
0.0
 11
1540.0034559741889
 21
3001.4543222435091
 31
0.0
  0
LINE
  5
7B37
  8
1
 10
1540.5034559741889
 20
3001.4543222435091
 30
0.0
 11
1530.5034559741889
 21
3001.4543222435091
 31
0.0
  0
LINE
  5
7B38
  8
1
 10
1510.0034559741889
 20
3029.1543222435089
 30
0.0
 11
1510.0034559741889
 21
3031.4543222435091
 31
0.0
  0
ARC
  5
7B39
  8
1
 10
1535.4034559741899
 20
3026.8543222435092
 30
0.0
 40
2.2999999999999989
 50
0.0
 51
90.0
  0
LINE
  5
7B3A
  8
1
 10
1537.703455974189
 20
3001.4543222435091
 30
0.0
 11
1537.703455974189
 21
3026.8543222435092
 31
0.0
  0
LINE
  5
7B3C
  8
1
 10
1510.0034559741889
 20
3029.1543222435089
 30
0.0
 11
1535.403455974189
 21
3029.1543222435089
 31
0.0
  0
LINE
  5
7B3D
  8
1
 10
1530.5034559741889
 20
3001.4543222435091
 30
0.0
 11
1530.597826427917
 21
3000.4851668630449
 31
0.0
  0
LINE
  5
7B3F
  8
1
 10
1542.30345597419
 20
3001.4543222435091
 30
0.0
 11
1540.0034559741889
 21
3001.4543222435091
 31
0.0
  0
LINE
  5
7B40
  8
1
 10
1872.00345597419
 20
2911.45432224351
 30
0.0
 11
1872.00345597419
 21
2691.45432224351
 31
0.0
  0
ARC
  5
7B41
  8
1
 10
2172.1433569082442
 20
2604.6931851078202
 30
0.0
 40
381.87862130683351
 50
0.5643174458415633
 51
52.204365006164977
  0
ARC
  5
7B42
  8
1
 10
2172.158648377545
 20
2604.8257241202532
 30
0.0
 40
369.86260750519142
 50
0.5621187138794902
 51
54.638340887064018
  0
LINE
  5
7B43
  8
1
 10
2142.0034559741898
 20
2621.9543222435091
 30
0.0
 11
2520.0034559741898
 21
2621.9543222435132
 31
0.0
  0
LINE
  5
7B44
  8
1
 10
1919.3034559741909
 20
2581.95432224351
 30
0.0
 11
2364.703455974191
 21
2581.95432224351
 31
0.0
  0
LINE
  5
7B45
  8
1
 10
1764.00345597419
 20
2621.9543222435091
 30
0.0
 11
2142.0034559741898
 21
2621.9543222435091
 31
0.0
  0
LINE
  5
7B46
  8
1
 10
1759.00345597419
 20
2616.9543222435091
 30
0.0
 11
1764.00345597419
 21
2621.9543222435091
 31
0.0
  0
LINE
  5
7B47
  8
1
 10
1759.00345597419
 20
2581.95432224351
 30
0.0
 11
1759.00345597419
 21
2616.9543222435091
 31
0.0
  0
ARC
  5
7B48
  8
1
 10
1919.3034559741909
 20
2577.3543222435101
 30
0.0
 40
4.5999999999999988
 50
90.0
 51
180.0
  0
LINE
  5
7B49
  8
1
 10
1897.00345597419
 20
2577.9543222435091
 30
0.0
 11
1914.7427542737939
 21
2577.9543222435091
 31
0.0
  0
LINE
  5
7B4A
  8
1
 10
1877.003455974191
 20
2557.9543222435091
 30
0.0
 11
1897.00345597419
 21
2577.9543222435091
 31
0.0
  0
LINE
  5
7B4B
  8
1
 10
1914.703455974191
 20
2571.9543222435091
 30
0.0
 11
1914.703455974191
 21
2525.0210488871262
 31
0.0
  0
ARC
  5
7B4C
  8
1
 10
2100.0034559741898
 20
2599.4543222435091
 30
0.0
 40
454.0
 50
330.58121080077638
 51
0.0
  0
ARC
  5
7B4D
  8
1
 10
2100.0034559741898
 20
2599.4543222435091
 30
0.0
 40
442.0
 50
329.70018162568061
 51
0.0
  0
LINE
  5
7B4E
  8
1
 10
2387.0034559741898
 20
2577.9543222435091
 30
0.0
 11
2407.0034559741912
 21
2557.9543222435091
 31
0.0
  0
ARC
  5
7B4F
  8
1
 10
2364.703455974191
 20
2577.3543222435101
 30
0.0
 40
4.5999999999999988
 50
0.0
 51
90.0
  0
LINE
  5
7B50
  8
1
 10
2369.2641576745868
 20
2577.9543222435091
 30
0.0
 11
2387.0034559741898
 21
2577.9543222435091
 31
0.0
  0
LINE
  5
7B51
  8
1
 10
2525.0034559741912
 20
2581.9543222435132
 30
0.0
 11
2525.0034559741912
 21
2616.9543222435132
 31
0.0
  0
LINE
  5
7B52
  8
1
 10
2520.0034559741898
 20
2621.9543222435132
 30
0.0
 11
2525.0034559741912
 21
2616.9543222435132
 31
0.0
  0
LINE
  5
7B53
  8
1
 10
2542.0034559741912
 20
2599.4543222435091
 30
0.0
 11
2542.0034559741912
 21
2608.4543222435091
 31
0.0
  0
LINE
  5
7B54
  8
1
 10
2554.0034559741912
 20
2599.4543222435091
 30
0.0
 11
2554.0034559741912
 21
2608.4543222435091
 31
0.0
  0
ARC
  5
7B55
  8
1
 10
2175.4617457043141
 20
2619.1710310233748
 30
0.0
 40
356.29631434391217
 50
53.73641833641593
 51
83.757628410279509
  0
ARC
  5
7B56
  8
1
 10
2175.3825328099119
 20
2618.2152153027018
 30
0.0
 40
369.2527910835459
 50
51.315637603307948
 51
83.965128642119311
  0
LINE
  5
7B57
  8
1
 10
1914.00345597419
 20
3031.4543222435091
 30
0.0
 11
2122.0034559741898
 21
3031.4543222435091
 31
0.0
  0
LINE
  5
7B58
  8
1
 10
1914.00345597419
 20
3001.4543222435091
 30
0.0
 11
2126.5034559741898
 21
3001.4543222435091
 31
0.0
  0
ARC
  5
7B59
  8
1
 10
2175.0034559741912
 20
2608.4543222435091
 30
0.0
 40
367.0
 50
83.868426930078371
 51
90.0
  0
ARC
  5
7B5A
  8
1
 10
2175.0034559741912
 20
2608.4543222435091
 30
0.0
 40
379.0
 50
84.063275765739547
 51
90.0
  0
LINE
  5
7B5B
  8
1
 10
2161.5034559741871
 20
2987.4543222435091
 30
0.0
 11
2175.0034559741912
 21
2987.4543222435091
 31
0.0
  0
LINE
  5
7B5C
  8
1
 10
2161.5034559741871
 20
2975.4543222435091
 30
0.0
 11
2175.0034559741912
 21
2975.4543222435091
 31
0.0
  0
LINE
  5
7B5D
  8
1
 10
2126.5034559741898
 20
2975.4543222435091
 30
0.0
 11
2161.5034559741871
 21
2975.4543222435091
 31
0.0
  0
LINE
  5
7B5E
  8
1
 10
2124.0034559741912
 20
3031.4543222435091
 30
0.0
 11
2123.5034559741898
 21
3031.4543222435091
 31
0.0
  0
LINE
  5
7B5F
  8
1
 10
2126.5034559741898
 20
2987.4543222435091
 30
0.0
 11
2126.5034559741898
 21
2975.4543222435091
 31
0.0
  0
LINE
  5
7B60
  8
1
 10
2126.5034559741898
 20
2987.4543222435091
 30
0.0
 11
2161.5034559741871
 21
2987.4543222435091
 31
0.0
  0
LINE
  5
7B62
  8
1
 10
2154.0034559741912
 20
3029.1543222435089
 30
0.0
 11
2154.0034559741898
 21
3031.4543222435091
 31
0.0
  0
ARC
  5
7B63
  8
1
 10
2128.6034559741911
 20
3026.8543222435092
 30
0.0
 40
2.2999999999999989
 50
90.0
 51
180.0
  0
LINE
  5
7B64
  8
1
 10
2154.0034559741898
 20
3031.4543222435091
 30
0.0
 11
2122.0034559741898
 21
3031.4543222435091
 31
0.0
  0
LINE
  5
7B65
  8
1
 10
2154.0034559741898
 20
3029.1543222435089
 30
0.0
 11
2128.6034559741911
 21
3029.1543222435089
 31
0.0
  0
LINE
  5
7B66
  8
1
 10
2126.3034559741909
 20
3001.4543222435091
 30
0.0
 11
2126.3034559741909
 21
3026.8543222435092
 31
0.0
  0
LINE
  5
7B69
  8
1
 10
2126.5034559741898
 20
2985.4543222435091
 30
0.0
 11
2126.5034559741898
 21
3001.4543222435091
 31
0.0
  0
LINE
  5
7B6A
  8
1
 10
4485.3876673387904
 20
2406.45432224351
 30
0.0
 11
4485.3876673387913
 21
2071.45432224351
 31
0.0
  0
LINE
  5
7B6B
  8
1
 10
4015.0876673387902
 20
2147.4543222435091
 30
0.0
 11
4015.0876673387511
 21
3001.45432224351
 31
0.0
  0
LINE
  5
7B6C
  8
1
 10
4445.6876673387906
 20
2147.4543222435091
 30
0.0
 11
4445.6876673387133
 21
3001.45432224351
 31
0.0
  0
LINE
  5
7B6D
  8
1
 10
4017.8876673387899
 20
2157.45432224351
 30
0.0
 11
4442.8876673387904
 21
2157.45432224351
 31
0.0
  0
ARC
  5
7B6E
  8
1
 10
4017.0876673387902
 20
2147.4543222435091
 30
0.0
 40
1.9999999999997271
 50
180.0
 51
293.57817847822491
  0
ARC
  5
7B6F
  8
1
 10
4443.6876673387897
 20
2147.4543222435091
 30
0.0
 40
1.999999999999954
 50
246.42182152182039
 51
0.0000000000081563
  0
LINE
  5
7B70
  8
1
 10
4476.0876673387911
 20
2415.7543222435102
 30
0.0
 11
4476.0876673387911
 21
2918.95432224351
 31
0.0
  0
LINE
  5
7B71
  8
2
 10
4230.3876673387904
 20
3176.704815364968
 30
0.0
 11
4230.3876673387904
 21
1871.4543222435091
 31
0.0
  0
LINE
  5
7B72
  8
2
 10
3579.3683460792049
 20
2641.45432224351
 30
0.0
 11
4501.3514928763407
 21
2641.45432224351
 31
0.0
  0
LINE
  5
7B73
  8
1
 10
3750.3876673387908
 20
2616.45432224351
 30
0.0
 11
4015.0876673387688
 21
2616.45432224351
 31
0.0
  0
LINE
  5
7B74
  8
1
 10
3750.3876673387908
 20
2666.4543222435091
 30
0.0
 11
4015.0876673387661
 21
2666.4543222435091
 31
0.0
  0
LINE
  5
7B75
  8
1
 10
3750.3876673387899
 20
2616.45432224351
 30
0.0
 11
3750.3876673387899
 21
2666.4543222435091
 31
0.0
  0
LINE
  5
7B76
  8
1
 10
3675.3876673387908
 20
2659.45432224351
 30
0.0
 11
3675.3876673387908
 21
2623.45432224351
 31
0.0
  0
LINE
  5
7B77
  8
1
 10
3676.3876673387908
 20
2622.45432224351
 30
0.0
 11
3748.3876673387908
 21
2622.45432224351
 31
0.0
  0
LINE
  5
7B78
  8
1
 10
3675.3876673387908
 20
2623.45432224351
 30
0.0
 11
3676.3876673387908
 21
2622.45432224351
 31
0.0
  0
ARC
  5
7B79
  8
1
 10
3748.3876673387908
 20
2620.45432224351
 30
0.0
 40
2.0
 50
0.0
 51
90.0
  0
LINE
  5
7B7A
  8
1
 10
4015.0876673387711
 20
2581.9543222435109
 30
0.0
 11
3770.3876673387899
 21
2581.95432224351
 31
0.0
  0
LINE
  5
7B7B
  8
1
 10
3676.3876673387908
 20
2660.45432224351
 30
0.0
 11
3748.3876673387908
 21
2660.45432224351
 31
0.0
  0
LINE
  5
7B7C
  8
1
 10
3675.3876673387908
 20
2659.45432224351
 30
0.0
 11
3676.3876673387908
 21
2660.45432224351
 31
0.0
  0
ARC
  5
7B7D
  8
1
 10
3748.3876673387908
 20
2662.45432224351
 30
0.0
 40
2.0
 50
270.0
 51
0.0
  0
LINE
  5
7B7E
  8
1
 10
4475.3876673387904
 20
2416.45432224351
 30
0.0
 11
4485.3876673387904
 21
2406.45432224351
 31
0.0
  0
LINE
  5
7B7F
  8
1
 10
4475.3876673387904
 20
2416.45432224351
 30
0.0
 11
4445.3876673387904
 21
2416.45432224351
 31
0.0
  0
LINE
  5
7B80
  8
1
 10
3985.387667338789
 20
3031.4543222435109
 30
0.0
 11
4475.3876673387886
 21
3031.4543222435109
 31
0.0
  0
LINE
  5
7B81
  8
1
 10
4475.3876673387886
 20
3029.1543222435112
 30
0.0
 11
3985.387667338789
 21
3029.1543222435112
 31
0.0
  0
LINE
  5
7B82
  8
1
 10
4475.3876673387886
 20
3001.45432224351
 30
0.0
 11
3985.387667338789
 21
3001.45432224351
 31
0.0
  0
LINE
  5
7B83
  8
1
 10
3985.387667338789
 20
3001.45432224351
 30
0.0
 11
3985.387667338789
 21
3031.4543222435109
 31
0.0
  0
LINE
  5
7B84
  8
1
 10
4476.0876673387911
 20
2918.95432224351
 30
0.0
 11
4476.0876673387911
 21
2922.45432224351
 31
0.0
  0
LINE
  5
7B85
  8
1
 10
4453.0876673387902
 20
2924.45432224351
 30
0.0
 11
4474.0876673387902
 21
2924.45432224351
 31
0.0
  0
ARC
  5
7B86
  8
1
 10
4474.0876673387902
 20
2922.45432224351
 30
0.0
 40
2.0
 50
0.0
 51
90.000000000000028
  0
ARC
  5
7B87
  8
1
 10
4453.0876673387902
 20
2928.45432224351
 30
0.0
 40
4.0
 50
180.0
 51
270.0
  0
LINE
  5
7B88
  8
1
 10
4446.0876673387893
 20
2951.45432224351
 30
0.0
 11
4447.0876673387911
 21
2951.45432224351
 31
0.0
  0
ARC
  5
7B89
  8
1
 10
4447.0876673387911
 20
2949.45432224351
 30
0.0
 40
2.0
 50
0.0
 51
90.000000000000028
  0
LINE
  5
7B8A
  8
1
 10
4449.0876673387902
 20
2928.45432224351
 30
0.0
 11
4449.0876673387902
 21
2949.45432224351
 31
0.0
  0
LINE
  5
7B8B
  8
1
 10
4475.3876673387886
 20
3001.45432224351
 30
0.0
 11
4475.3876673387886
 21
3031.4543222435109
 31
0.0
  0
LINE
  5
7B8C
  8
1
 10
2114.0034559741898
 20
4364.405237060545
 30
0.0
 11
1831.0034559741921
 21
4364.405237060545
 31
0.0
  0
LINE
  5
7B8D
  8
1
 10
1879.0034559741921
 20
4213.4052370605468
 30
0.0
 11
1911.7427542737951
 21
4213.4052370605468
 31
0.0
  0
LINE
  5
7B8E
  8
2
 10
2601.3474532745081
 20
4669.4052370605468
 30
0.0
 11
1352.881519971374
 21
4669.4052370605468
 31
0.0
  0
LINE
  5
7B8F
  8
1
 10
2522.0034559741921
 20
4439.405237060545
 30
0.0
 11
2447.0034559741921
 21
4364.405237060545
 31
0.0
  0
LINE
  5
7B90
  8
1
 10
2539.0034559741898
 20
4881.9052370605459
 30
0.0
 11
2539.0034559741912
 21
4456.9052370605468
 31
0.0
  0
LINE
  5
7B91
  8
1
 10
2522.0034559741921
 20
4439.405237060545
 30
0.0
 11
2522.0034559741912
 21
4456.9052370605468
 31
0.0
  0
LINE
  5
7B92
  8
2
 10
2139.0034559741912
 20
4940.5505979019636
 30
0.0
 11
2139.0034559741912
 21
4018.7757765304
 31
0.0
  0
LINE
  5
7B93
  8
1
 10
2447.0034559741921
 20
4364.405237060545
 30
0.0
 11
2164.0034559741898
 21
4364.405237060545
 31
0.0
  0
LINE
  5
7B94
  8
1
 10
2366.3034559741918
 20
4214.0052370605463
 30
0.0
 11
2366.3034559741918
 21
4364.4052370605468
 31
0.0
  0
LINE
  5
7B95
  8
1
 10
2404.0034559741921
 20
4218.4052370605459
 30
0.0
 11
2404.0034559741921
 21
4364.405237060545
 31
0.0
  0
ARC
  5
7B96
  8
1
 10
2361.7034559741919
 20
4214.0052370605463
 30
0.0
 40
4.5999999999999988
 50
270.0
 51
0.0
  0
LINE
  5
7B97
  8
1
 10
2399.0034559741921
 20
4213.4052370605468
 30
0.0
 11
2404.0034559741921
 21
4218.4052370605459
 31
0.0
  0
LINE
  5
7B98
  8
1
 10
2366.2641576745882
 20
4213.4052370605468
 30
0.0
 11
2399.0034559741921
 21
4213.4052370605468
 31
0.0
  0
LINE
  5
7B99
  8
1
 10
2164.0034559741912
 20
4209.4052370605459
 30
0.0
 11
2364.3034559741918
 21
4209.4052370605459
 31
0.0
  0
LINE
  5
7B9A
  8
1
 10
2164.0034559741912
 20
4207.1052370605457
 30
0.0
 11
2364.3034559741918
 21
4207.1052370605457
 31
0.0
  0
LINE
  5
7B9B
  8
1
 10
2364.3034559741918
 20
4207.1052370605457
 30
0.0
 11
2364.3034559741918
 21
4209.4052370605459
 31
0.0
  0
LINE
  5
7B9C
  8
1
 10
1911.7034559741919
 20
4214.0052370605472
 30
0.0
 11
1911.7034559741919
 21
4364.4052370605468
 31
0.0
  0
LINE
  5
7B9D
  8
1
 10
2164.0034559741912
 20
4189.4052370605468
 30
0.0
 11
2164.0034559741912
 21
4456.9052370605468
 31
0.0
  0
LINE
  5
7B9E
  8
1
 10
2114.0034559741912
 20
4189.4052370605468
 30
0.0
 11
2114.0034559741912
 21
4426.9052370605468
 31
0.0
  0
LINE
  5
7B9F
  8
1
 10
2164.0034559741912
 20
4189.4052370605468
 30
0.0
 11
2114.0034559741912
 21
4189.4052370605468
 31
0.0
  0
LINE
  5
7BA0
  8
1
 10
2121.0034559741912
 20
4114.4052370605468
 30
0.0
 11
2157.0034559741912
 21
4114.4052370605468
 31
0.0
  0
LINE
  5
7BA1
  8
1
 10
2158.0034559741921
 20
4115.4052370605477
 30
0.0
 11
2158.0034559741921
 21
4187.4052370605477
 31
0.0
  0
LINE
  5
7BA2
  8
1
 10
2157.0034559741912
 20
4114.4052370605468
 30
0.0
 11
2158.0034559741921
 21
4115.4052370605477
 31
0.0
  0
LINE
  5
7BA3
  8
1
 10
2120.0034559741912
 20
4115.4052370605477
 30
0.0
 11
2120.0034559741912
 21
4187.4052370605477
 31
0.0
  0
LINE
  5
7BA4
  8
1
 10
2121.0034559741912
 20
4114.4052370605468
 30
0.0
 11
2120.0034559741912
 21
4115.4052370605477
 31
0.0
  0
LINE
  5
7BA5
  8
1
 10
1913.7034559741919
 20
4207.1052370605457
 30
0.0
 11
2114.0034559741912
 21
4207.1052370605457
 31
0.0
  0
LINE
  5
7BA6
  8
1
 10
1913.7034559741919
 20
4209.4052370605468
 30
0.0
 11
2114.0034559741912
 21
4209.4052370605459
 31
0.0
  0
LINE
  5
7BA7
  8
1
 10
1913.7034559741919
 20
4207.1052370605457
 30
0.0
 11
1913.7034559741901
 21
4209.4052370605468
 31
0.0
  0
ARC
  5
7BA8
  8
1
 10
1916.303455974192
 20
4214.0052370605463
 30
0.0
 40
4.5999999999999988
 50
180.0
 51
270.0
  0
LINE
  5
7BA9
  8
1
 10
1874.0034559741921
 20
4218.4052370605459
 30
0.0
 11
1874.0034559741921
 21
4364.405237060545
 31
0.0
  0
LINE
  5
7BAA
  8
1
 10
1874.0034559741921
 20
4218.4052370605459
 30
0.0
 11
1879.0034559741921
 21
4213.4052370605468
 31
0.0
  0
LINE
  5
7BAB
  8
1
 10
1768.50345597419
 20
4426.9052370605468
 30
0.0
 11
1831.0034559741921
 21
4364.405237060545
 31
0.0
  0
LINE
  5
7BAC
  8
1
 10
1542.00345597419
 20
3031.45432224351
 30
0.0
 11
1542.00345597419
 21
3001.4543222435091
 31
0.0
  0
LINE
  5
7BAD
  8
1
 10
2122.0034559741898
 20
3031.45432224351
 30
0.0
 11
2122.0034559741898
 21
3001.4543222435091
 31
0.0
  0
LINE
  5
7BAE
  8
1
 10
2525.0034559741912
 20
2581.9543222435132
 30
0.0
 11
1759.00345597419
 21
2581.95432224351
 31
0.0
  0
LINE
  5
7BAF
  8
1
 10
1242.00345597419
 20
2071.4543222435091
 30
0.0
 11
2492.0034559741898
 21
2071.4543222435091
 31
0.0
  0
LINE
  5
7BB0
  8
1
 10
1242.00345597419
 20
2151.4543222435091
 30
0.0
 11
2492.0034559741898
 21
2151.4543222435091
 31
0.0
  0
LINE
  5
7BB1
  8
1
 10
1242.00345597419
 20
2151.4543222435091
 30
0.0
 11
1242.00345597419
 21
2071.4543222435091
 31
0.0
  0
LINE
  5
7BB2
  8
1
 10
2492.0034559741898
 20
2151.4543222435091
 30
0.0
 11
2492.0034559741898
 21
2071.4543222435091
 31
0.0
  0
LINE
  5
7BB3
  8
1
 10
1242.00345597419
 20
1976.4543222435091
 30
0.0
 11
2492.0034559741898
 21
1976.4543222435091
 31
0.0
  0
LINE
  5
7BB4
  8
1
 10
1238.00345597419
 20
1911.45432224351
 30
0.0
 11
2496.0034559741898
 21
1911.4543222435091
 31
0.0
  0
LINE
  5
7BB5
  8
1
 10
2492.0034559741898
 20
1976.4543222435091
 30
0.0
 11
2492.0034559741898
 21
1911.4543222435091
 31
0.0
  0
LINE
  5
7BB6
  8
1
 10
1242.00345597419
 20
1976.4543222435091
 30
0.0
 11
1242.00345597419
 21
1911.4543222435091
 31
0.0
  0
LINE
  5
7BB7
  8
1
 10
3770.3876673387899
 20
2071.45432224351
 30
0.0
 11
4485.3876673387904
 21
2071.45432224351
 31
0.0
  0
LINE
  5
7BB8
  8
1
 10
3770.3876673387899
 20
2151.45432224351
 30
0.0
 11
4485.3876673387904
 21
2151.45432224351
 31
0.0
  0
LINE
  5
7BB9
  8
1
 10
3770.3876673387899
 20
2581.95432224351
 30
0.0
 11
3770.387667338789
 21
2071.45432224351
 31
0.0
  0
LINE
  5
7BBA
  8
1
 10
3770.3876673387899
 20
1976.45432224351
 30
0.0
 11
4485.3876673387904
 21
1976.45432224351
 31
0.0
  0
LINE
  5
7BBB
  8
1
 10
3575.3876673387908
 20
1911.45432224351
 30
0.0
 11
4555.3876673387904
 21
1911.45432224351
 31
0.0
  0
LINE
  5
7BBC
  8
1
 10
4485.3876673387913
 20
1976.45432224351
 30
0.0
 11
4485.3876673387913
 21
1911.45432224351
 31
0.0
  0
LINE
  5
7BBD
  8
1
 10
3770.387667338789
 20
1976.45432224351
 30
0.0
 11
3770.3876673387899
 21
1911.45432224351
 31
0.0
  0
LINE
  5
7BBE
  8
1
 10
2539.0034559741898
 20
4881.9052370605459
 30
0.0
 11
2149.0034559741912
 21
4881.9052370605459
 31
0.0
  0
LINE
  5
7BBF
  8
1
 10
2539.0034559741912
 20
4456.9052370605468
 30
0.0
 11
2149.0034559741912
 21
4456.9052370605468
 31
0.0
  0
LINE
  5
7BC0
  8
1
 10
4442.8876673387904
 20
3001.45432224351
 30
0.0
 11
4442.8876673387904
 21
2145.6212919655268
 31
0.0
  0
LINE
  5
7BC1
  8
1
 10
4017.8876673387899
 20
3001.45432224351
 30
0.0
 11
4017.8876673387899
 21
2145.6212919655281
 31
0.0
  0
CIRCLE
  5
7BC2
  8
1
 10
2142.0034559741898
 20
2641.45432224351
 30
0.0
 40
139.69999999999999
  0
LINE
  5
7BC3
  8
1
 10
3656.5546323896692
 20
2781.1543222435089
 30
0.0
 11
3656.554632389672
 21
2501.7543222435079
 31
0.0
  0
LINE
  5
7BC4
  8
1
 10
3696.5546323896692
 20
2781.1543222435089
 30
0.0
 11
3696.554632389672
 21
2501.7543222435079
 31
0.0
  0
LINE
  5
7BC5
  8
1
 10
3609.6143940401589
 20
2861.4543222435091
 30
0.0
 11
3609.6143940401612
 21
2163.4543222435141
 31
0.0
  0
CIRCLE
  5
7BC6
  8
1
 10
1392.00345597419
 20
2274.4543222435082
 30
0.0
 40
57.149999999999991
  0
LINE
  5
7BC7
  8
2
 10
1392.0034559741871
 20
2034.9417967119559
 30
0.0
 11
1392.00345597419
 21
2382.9154222435081
 31
0.0
  0
LINE
  5
7BC8
  8
1
 10
1268.2875614493751
 20
2151.4543222435082
 30
0.0
 11
1515.7193504990009
 21
2151.4543222435068
 31
0.0
  0
LINE
  5
7BC9
  8
1
 10
3656.554632389672
 20
2501.7543222435079
 30
0.0
 11
3656.554632389672
 21
2217.3043222435081
 31
0.0
  0
LINE
  5
7BCA
  8
1
 10
3696.554632389672
 20
2501.7543222435079
 30
0.0
 11
3696.554632389672
 21
2217.3043222435081
 31
0.0
  0
LINE
  5
7BCB
  8
1
 10
3656.5546323896729
 20
2217.3043222435081
 30
0.0
 11
3696.554632389672
 21
2217.3043222435081
 31
0.0
  0
LINE
  5
7BCC
  8
1
 10
3609.6143940401612
 20
2163.4543222435141
 30
0.0
 11
3731.6143940401598
 21
2163.4543222435141
 31
0.0
  0
LINE
  5
7BCD
  8
1
 10
3656.554632389672
 20
2501.7543222435079
 30
0.0
 11
3696.554632389672
 21
2501.7543222435079
 31
0.0
1001
ACAD
1000
ASC_BOUNDS
1002
{
1070
    19
1002
}
  0
LINE
  5
7BCE
  8
1
 10
3656.5546323896729
 20
2331.6043222435078
 30
0.0
 11
3696.554632389672
 21
2331.6043222435078
 31
0.0
  0
LINE
  5
7BCF
  8
1
 10
3731.6143940401598
 20
2861.4543222435091
 30
0.0
 11
3609.6143940401589
 21
2861.4543222435091
 31
0.0
  0
LINE
  5
7BD0
  8
1
 10
3609.6143940401589
 20
2861.4543222435082
 30
0.0
 11
3731.6143940401598
 21
2861.4543222435082
 31
0.0
  0
LINE
  5
7BD1
  8
1
 10
3656.5546323896692
 20
2781.1543222435089
 30
0.0
 11
3696.5546323896692
 21
2781.1543222435089
 31
0.0
1001
ACAD
1000
ASC_BOUNDS
1002
{
1070
    19
1002
}
  0
LINE
  5
7BD2
  8
1
 10
3731.6143940401598
 20
2841.4543222435091
 30
0.0
 11
3731.6143940401598
 21
2861.4543222435091
 31
0.0
  0
LINE
  5
7BD3
  8
1
 10
2082.3665628587132
 20
2767.7853595207098
 30
0.0
 11
1363.1776368729129
 21
2323.039733263136
 31
0.0
  0
LINE
  5
7BD4
  8
1
 10
2142.0034559741921
 20
2905.0371333995581
 30
0.0
 11
1292.0034559741889
 21
2354.2837293912871
 31
0.0
  0
LINE
  5
7BD5
  8
1
 10
2170.7045702998162
 20
2504.7344040294201
 30
0.0
 11
1415.517603503871
 21
2222.3658651157289
 31
0.0
  0
LINE
  5
7BD6
  8
1
 10
2382.0034559741921
 20
2765.9803554712871
 30
0.0
 11
2382.0034559741862
 21
2151.4543222435091
 31
0.0
  0
LINE
  5
7BD7
  8
1
 10
2142.0034559741921
 20
2905.0371333995581
 30
0.0
 11
2382.0034559741921
 21
2765.9803554712871
 31
0.0
  0
ARC
  5
7BD8
  8
1
 10
1392.00345597419
 20
2274.4543222435082
 30
0.0
 40
100.8
 50
180.0
 51
239.6066999999999
  0
ARC
  5
7BD9
  8
1
 10
1392.00345597419
 20
2274.4543222435082
 30
0.0
 40
100.8
 50
300.30070000000001
 51
180.0
  0
LINE
  5
7BDA
  8
1
 10
1327.00345597419
 20
2194.4543222435082
 30
0.0
 11
1327.00345597419
 21
2184.4543222435082
 31
0.0
  0
LINE
  5
7BDB
  8
1
 10
1317.00345597419
 20
2194.4543222435082
 30
0.0
 11
1317.00345597419
 21
2184.4543222435082
 31
0.0
  0
LINE
  5
7BDC
  8
1
 10
1322.00345597419
 20
2180.0878222435081
 30
0.0
 11
1322.00345597419
 21
2196.9912222435082
 31
0.0
  0
LINE
  5
7BDD
  8
1
 10
1304.00345597419
 20
2184.4543222435082
 30
0.0
 11
1304.00345597419
 21
2192.4543222435082
 31
0.0
  0
LINE
  5
7BDE
  8
1
 10
1457.00345597419
 20
2194.4543222435082
 30
0.0
 11
1457.00345597419
 21
2184.4543222435082
 31
0.0
  0
LINE
  5
7BDF
  8
1
 10
1467.00345597419
 20
2194.4543222435082
 30
0.0
 11
1467.00345597419
 21
2184.4543222435082
 31
0.0
  0
LINE
  5
7BE0
  8
1
 10
1462.003455974191
 20
2180.0878222435081
 30
0.0
 11
1462.003455974191
 21
2196.9912222435082
 31
0.0
  0
LINE
  5
7BE1
  8
1
 10
1480.00345597419
 20
2184.4543222435082
 30
0.0
 11
1480.00345597419
 21
2192.4543222435082
 31
0.0
  0
ARC
  5
7BE2
  8
1
 10
1392.00345597419
 20
2274.4543222435082
 30
0.0
 40
100.8
 50
180.0
 51
239.6066999999999
  0
LINE
  5
7BE3
  8
1
 10
1436.8339559741901
 20
2188.4543222435068
 30
0.0
 11
1346.87955597419
 21
2188.4543222435068
 31
0.0
  0
LINE
  5
7BE4
  8
1
 10
1442.9275559741909
 20
2187.4543222435082
 30
0.0
 11
1340.9724559741901
 21
2187.4543222435082
 31
0.0
  0
LINE
  5
7BE5
  8
1
 10
1442.9275559741909
 20
2187.4543222435082
 30
0.0
 11
1340.9724559741901
 21
2187.4543222435082
 31
0.0
  0
LINE
  5
7BE6
  8
1
 10
1480.00345597419
 20
2184.4543222435082
 30
0.0
 11
1440.00345597419
 21
2184.4543222435082
 31
0.0
  0
LINE
  5
7BE7
  8
1
 10
1440.00345597419
 20
2187.4271222435082
 30
0.0
 11
1440.00345597419
 21
2184.4543222435082
 31
0.0
  0
LINE
  5
7BE8
  8
1
 10
1304.00345597419
 20
2184.4543222435082
 30
0.0
 11
1344.00345597419
 21
2184.4543222435082
 31
0.0
  0
LINE
  5
7BE9
  8
1
 10
1344.00345597419
 20
2187.3853222435082
 30
0.0
 11
1344.00345597419
 21
2184.4543222435082
 31
0.0
  0
LINE
  5
7BEA
  8
2
 10
1496.468655974189
 20
2274.4543222435082
 30
0.0
 11
1285.9006559741899
 21
2274.4543222435082
 31
0.0
  0
LINE
  5
7BEB
  8
1
 10
1453.327455974189
 20
2194.4543222435082
 30
0.0
 11
1478.00345597419
 21
2194.4543222435082
 31
0.0
  0
LINE
  5
7BEC
  8
1
 10
1474.149955974189
 20
2216.0370222435072
 30
0.0
 11
1480.00345597419
 21
2192.4543222435082
 31
0.0
  0
ARC
  5
7BED
  8
1
 10
1478.00345597419
 20
2192.4543222435082
 30
0.0
 40
2.0
 50
0.0
 51
90.0
  0
LINE
  5
7BEE
  8
1
 10
1330.7145559741889
 20
2194.4543222435082
 30
0.0
 11
1306.00345597419
 21
2194.4543222435082
 31
0.0
  0
LINE
  5
7BEF
  8
1
 10
1309.85685597419
 20
2216.0370222435072
 30
0.0
 11
1304.00345597419
 21
2192.4543222435082
 31
0.0
  0
ARC
  5
7BF0
  8
1
 10
1306.00345597419
 20
2192.4543222435082
 30
0.0
 40
2.0
 50
90.0
 51
180.0
  0
LINE
  5
7BF1
  8
1
 10
1268.287561449376
 20
2151.4543222435091
 30
0.0
 11
1279.5034559741889
 21
2186.4543222435091
 31
0.0
  0
LINE
  5
7BF2
  8
1
 10
1363.6007040577019
 20
2186.4543222435082
 30
0.0
 11
1363.6007040577019
 21
2180.157650608598
 31
0.0
  0
LINE
  5
7BF3
  8
1
 10
1420.406207890675
 20
2180.1576506085971
 30
0.0
 11
1420.406207890675
 21
2186.4543222435082
 31
0.0
  0
LINE
  5
7BF4
  8
1
 10
1504.503455974188
 20
2186.4543222435068
 30
0.0
 11
1515.7193504990009
 21
2151.4543222435068
 31
0.0
  0
LINE
  5
7BF5
  8
1
 10
1515.7193504990009
 20
2151.4543222435068
 30
0.0
 11
1420.406207890675
 21
2151.4543222435082
 31
0.0
  0
LINE
  5
7BF6
  8
1
 10
1363.6007040577019
 20
2151.4543222435082
 30
0.0
 11
1268.287561449376
 21
2151.4543222435091
 31
0.0
  0
LINE
  5
7BF7
  8
1
 10
1420.406207890675
 20
2158.5949570198418
 30
0.0
 11
1363.6007040577019
 21
2158.5949570198418
 31
0.0
  0
LINE
  5
7BF8
  8
1
 10
1363.6007040577019
 20
2180.157650608598
 30
0.0
 11
1420.406207890675
 21
2180.1576506085971
 31
0.0
  0
LINE
  5
7BF9
  8
1
 10
1420.406207890675
 20
2151.4543222435082
 30
0.0
 11
1420.406207890675
 21
2158.5949570198418
 31
0.0
  0
LINE
  5
7BFA
  8
1
 10
1363.6007040577019
 20
2158.5949570198418
 30
0.0
 11
1363.6007040577019
 21
2151.4543222435082
 31
0.0
  0
LINE
  5
7BFB
  8
1
 10
1420.406207890675
 20
2186.4543222435082
 30
0.0
 11
1504.503455974188
 21
2186.4543222435068
 31
0.0
  0
LINE
  5
7BFC
  8
1
 10
1279.5034559741889
 20
2186.4543222435091
 30
0.0
 11
1363.6007040577019
 21
2186.4543222435082
 31
0.0
  0
LINE
  5
7BFD
  8
1
 10
1292.0034559741889
 20
2354.2837293912871
 30
0.0
 11
1292.0034559741871
 21
2151.4543222435082
 31
0.0
  0
LINE
  5
7BFE
  8
2
 10
1392.00345597419
 20
4441.7404611068132
 30
0.0
 11
1392.003455974188
 21
4006.1129179800141
 31
0.0
  0
LINE
  5
7BFF
  8
1
 10
1380.003455974188
 20
4160.8034611068133
 30
0.0
 11
1380.003455974188
 21
4110.8034611068133
 31
0.0
  0
LINE
  5
7C00
  8
1
 10
1404.003455974188
 20
4160.8034611068133
 30
0.0
 11
1404.003455974188
 21
4110.8034611068133
 31
0.0
  0
LINE
  5
7C01
  8
1
 10
1380.003455974188
 20
4110.8034611068133
 30
0.0
 11
1407.0034559741889
 21
4110.8034611068133
 31
0.0
  0
LINE
  5
7C02
  8
1
 10
1407.0034559741889
 20
4150.8034611068133
 30
0.0
 11
1407.0034559741889
 21
4110.8034611068133
 31
0.0
  0
LINE
  5
7C03
  8
1
 10
1404.003455974188
 20
4150.8034611068133
 30
0.0
 11
1407.0034559741889
 21
4150.8034611068133
 31
0.0
  0
LINE
  5
7C04
  8
1
 10
1379.503455974188
 20
4160.8034611068133
 30
0.0
 11
1404.5034559741889
 21
4160.8034611068133
 31
0.0
  0
LINE
  5
7C05
  8
1
 10
1271.2034559741901
 20
4175.8034611068142
 30
0.0
 11
1512.80345597419
 21
4175.8034611068124
 31
0.0
  0
LINE
  5
7C06
  8
1
 10
1428.5034559741889
 20
4165.8034611068124
 30
0.0
 11
1355.503455974188
 21
4165.8034611068133
 31
0.0
  0
LINE
  5
7C07
  8
1
 10
1354.5034559741889
 20
4166.8034611068133
 30
0.0
 11
1354.5034559741889
 21
4174.8034611068133
 31
0.0
  0
ARC
  5
7C08
  8
1
 10
1353.503455974188
 20
4174.8034611068133
 30
0.0
 40
1.0000999999999991
 50
359.99999999999937
 51
89.996499999999514
  0
ARC
  5
7C09
  8
1
 10
1355.50355597419
 20
4166.8034611068133
 30
0.0
 40
1.0000999999999991
 50
179.99999999999949
 51
269.99649999999951
  0
LINE
  5
7C0A
  8
1
 10
1379.503455974188
 20
4165.8034611068133
 30
0.0
 11
1379.503455974188
 21
4160.8034611068133
 31
0.0
  0
LINE
  5
7C0B
  8
1
 10
1429.5034559741889
 20
4166.8034611068124
 30
0.0
 11
1429.5034559741889
 21
4174.8034611068124
 31
0.0
  0
ARC
  5
7C0C
  8
1
 10
1430.503455974188
 20
4174.8034611068124
 30
0.0
 40
1.0000999999999991
 50
89.999999999999474
 51
179.99649999999949
  0
ARC
  5
7C0D
  8
1
 10
1428.5034559741889
 20
4166.8035611068126
 30
0.0
 40
1.0000999999999991
 50
269.99999999999937
 51
359.99649999999951
  0
LINE
  5
7C0E
  8
1
 10
1404.5034559741889
 20
4165.8034611068133
 30
0.0
 11
1404.5034559741889
 21
4160.8034611068133
 31
0.0
  0
LINE
  5
7C0F
  8
1
 10
1271.203455974191
 20
4437.8034611068142
 30
0.0
 11
1512.80345597419
 21
4437.8034611068124
 31
0.0
  0
LINE
  5
7C10
  8
1
 10
1512.80345597419
 20
4175.8034611068124
 30
0.0
 11
1512.80345597419
 21
4437.8034611068124
 31
0.0
  0
LINE
  5
7C11
  8
1
 10
1271.2034559741901
 20
4175.8034611068133
 30
0.0
 11
1271.203455974191
 21
4437.8034611068124
 31
0.0
  0
LINE
  5
7C12
  8
1
 10
3731.6143940401598
 20
2163.4543222435141
 30
0.0
 11
3731.6143940401598
 21
2183.4543222435141
 31
0.0
  0
LINE
  5
7C13
  8
2
 10
3794.5067015948371
 20
2274.4543222435082
 30
0.0
 11
3583.9387015948382
 21
2274.4543222435082
 31
0.0
  0
LINE
  5
7C14
  8
1
 10
2359.0034559741912
 20
4048.6319637619149
 30
0.0
 11
1281.0034559741939
 21
4048.6319637619208
 31
0.0
  0
LINE
  5
7C15
  8
1
 10
2278.703455974191
 20
4135.5722021114261
 30
0.0
 11
1999.30345597419
 21
4135.5722021114279
 31
0.0
  0
LINE
  5
7C16
  8
1
 10
2278.703455974191
 20
4095.5722021114261
 30
0.0
 11
1999.30345597419
 21
4095.5722021114289
 31
0.0
  0
LINE
  5
7C17
  8
1
 10
1281.0034559741939
 20
4170.6319637619208
 30
0.0
 11
1301.0034559741939
 21
4170.6319637619208
 31
0.0
  0
LINE
  5
7C18
  8
1
 10
1281.0034559741939
 20
4048.6319637619208
 30
0.0
 11
1281.0034559741939
 21
4170.6319637619208
 31
0.0
  0
LINE
  5
7C19
  8
1
 10
1999.30345597419
 20
4095.5722021114289
 30
0.0
 11
1334.8534559741879
 21
4095.572202111432
 31
0.0
  0
LINE
  5
7C1A
  8
1
 10
1999.30345597419
 20
4135.5722021114279
 30
0.0
 11
1334.8534559741879
 21
4135.5722021114316
 31
0.0
  0
LINE
  5
7C1B
  8
1
 10
1334.8534559741879
 20
4095.5722021114329
 30
0.0
 11
1334.8534559741879
 21
4135.5722021114316
 31
0.0
  0
LINE
  5
7C1C
  8
1
 10
1449.1534559741881
 20
4095.5722021114329
 30
0.0
 11
1449.1534559741881
 21
4135.5722021114316
 31
0.0
  0
LINE
  5
7C1D
  8
1
 10
1999.30345597419
 20
4095.5722021114289
 30
0.0
 11
1999.30345597419
 21
4135.5722021114279
 31
0.0
1001
ACAD
1000
ASC_BOUNDS
1002
{
1070
    19
1002
}
  0
LINE
  5
7C1E
  8
1
 10
2359.0034559741898
 20
4048.6319637619149
 30
0.0
 11
2359.0034559741898
 21
4170.6319637619163
 31
0.0
  0
LINE
  5
7C1F
  8
1
 10
2359.0034559741912
 20
4170.6319637619163
 30
0.0
 11
2359.0034559741912
 21
4048.6319637619149
 31
0.0
  0
LINE
  5
7C20
  8
1
 10
2278.703455974191
 20
4095.5722021114261
 30
0.0
 11
2278.703455974191
 21
4135.5722021114261
 31
0.0
1001
ACAD
1000
ASC_BOUNDS
1002
{
1070
    19
1002
}
  0
LINE
  5
7C21
  8
1
 10
2339.0034559741912
 20
4170.6319637619163
 30
0.0
 11
2359.0034559741912
 21
4170.6319637619163
 31
0.0
  0
LINE
  5
7C22
  8
1
 10
2489.0034559741921
 20
4924.4052370605468
 30
0.0
 11
1239.003455974191
 21
4924.4052370605468
 31
0.0
  0
LINE
  5
7C23
  8
1
 10
2489.0034559741921
 20
4209.4052370605459
 30
0.0
 11
2361.7034559741919
 21
4209.4052370605459
 31
0.0
  0
LINE
  5
7C24
  8
1
 10
2489.0034559741921
 20
4924.4052370605477
 30
0.0
 11
2489.0034559741921
 21
4881.9052370605459
 31
0.0
  0
LINE
  5
7C25
  8
1
 10
1239.003455974191
 20
4924.4052370605468
 30
0.0
 11
1239.0034559741921
 21
4209.4052370605459
 31
0.0
  0
LINE
  5
7C26
  8
1
 10
2489.0034559741921
 20
4884.4052370605468
 30
0.0
 11
1239.003455974191
 21
4884.4052370605468
 31
0.0
  0
LINE
  5
7C27
  8
1
 10
1279.003455974191
 20
4884.4052370605468
 30
0.0
 11
1279.003455974191
 21
4437.8034611068142
 31
0.0
  0
LINE
  5
7C28
  8
1
 10
2489.0034559741921
 20
4249.4052370605459
 30
0.0
 11
2404.0034559741921
 21
4249.4052370605459
 31
0.0
  0
LINE
  5
7C29
  8
1
 10
2449.0034559741921
 20
4884.4052370605468
 30
0.0
 11
2449.0034559741921
 21
4881.9052370605459
 31
0.0
  0
LINE
  5
7C2A
  8
1
 10
2449.0034559741921
 20
4366.4052370605459
 30
0.0
 11
2449.0034559741921
 21
4249.405237060545
 31
0.0
  0
LINE
  5
7C2B
  8
1
 10
2489.0034559741921
 20
4406.405237060545
 30
0.0
 11
2489.0034559741921
 21
4209.4052370605459
 31
0.0
  0
LINE
  5
7C2C
  8
1
 10
1271.2034559741901
 20
4249.405237060545
 30
0.0
 11
1239.0034559741921
 21
4249.4052370605459
 31
0.0
  0
LINE
  5
7C2D
  8
1
 10
1271.2034559741901
 20
4209.4052370605459
 30
0.0
 11
1239.0034559741921
 21
4209.4052370605459
 31
0.0
  0
LINE
  5
7C2E
  8
1
 10
1874.0034559741921
 20
4249.405237060545
 30
0.0
 11
1512.80345597419
 21
4249.405237060545
 31
0.0
  0
LINE
  5
7C2F
  8
1
 10
1916.303455974192
 20
4209.4052370605459
 30
0.0
 11
1512.80345597419
 21
4209.4052370605459
 31
0.0
  0
LINE
  5
7C30
  8
1
 10
1539.003455974191
 20
4881.9052370605459
 30
0.0
 11
1539.003455974191
 21
4456.9052370605468
 31
0.0
  0
LINE
  5
7C31
  8
1
 10
2149.0034559741912
 20
4911.9052370605468
 30
0.0
 11
1509.003455974191
 21
4911.9052370605468
 31
0.0
  0
LINE
  5
7C32
  8
1
 10
1509.003455974191
 20
4911.9052370605468
 30
0.0
 11
1509.003455974191
 21
4426.9052370605468
 31
0.0
  0
LINE
  5
7C33
  8
1
 10
2119.0034559741912
 20
4881.9052370605468
 30
0.0
 11
2119.0034559741912
 21
4456.9052370605468
 31
0.0
  0
LINE
  5
7C34
  8
1
 10
2149.0034559741912
 20
4426.9052370605468
 30
0.0
 11
1509.003455974191
 21
4426.9052370605468
 31
0.0
  0
LINE
  5
7C35
  8
1
 10
2149.0034559741912
 20
4911.9052370605459
 30
0.0
 11
2149.0034559741912
 21
4426.9052370605468
 31
0.0
  0
LINE
  5
7C36
  8
1
 10
2119.0034559741912
 20
4456.9052370605468
 30
0.0
 11
1539.003455974191
 21
4456.9052370605468
 31
0.0
  0
LINE
  5
7C37
  8
1
 10
2119.0034559741912
 20
4881.9052370605459
 30
0.0
 11
1539.003455974191
 21
4881.9052370605459
 31
0.0
  0
LINE
  5
7C38
  8
4
 10
4625.0
 20
1250.0
 30
0.0
 11
4625.0
 21
750.0
 31
0.0
  0
LINE
  5
7C39
  8
4
 10
2875.0
 20
1250.0
 30
0.0
 11
2875.0
 21
750.0
 31
0.0
  0
LINE
  5
7C3A
  8
4
 10
1625.0
 20
1250.0
 30
0.0
 11
1625.0
 21
750.0
 31
0.0
  0
LINE
  5
7C3D
  8
4
 10
1625.0
 20
750.0
 30
0.0
 11
4625.0
 21
750.0
 31
0.0
  0
LINE
  5
7C3E
  8
4
 10
1625.0
 20
1000.0
 30
0.0
 11
4625.0
 21
1000.0
 31
0.0
  0
TEXT
  5
7C3F
  8
4
 10
1721.2552021172539
 20
1078.857564666532
 30
0.0
 40
125.0
  1
機器名称
  0
TEXT
  5
7C40
  8
4
 10
1715.6452650619931
 20
804.11289183002725
 30
0.0
 40
125.0
  1
機器型番
  0
TEXT
  5
7C41
  8
4
 10
2944.1968637191621
 20
1056.429422393921
 30
0.0
 40
125.0
  1
ミツヤ厨房用ファン
  0
TEXT
  5
7C42
  8
4
 10
2966.6362389637011
 20
792.89896069985843
 30
0.0
 40
125.0
  1
MFK#3 1/2-1
  0
TEXT
  5
7C44
  8
4
 10
1917.0874697443651
 20
5958.5721033312893
 30
0.0
 40
135.0
  1
天吊防振ベット
  0
TEXT
  5
7C45
  8
4
 10
790.41898332361586
 20
6334.7024404982449
 30
0.0
 40
180.0
  1
ベルト駆動式片吸込片持多翼ファン
  0
LINE
  5
7C46
  8
4
 10
625.0
 20
6173.5218856620122
 30
0.0
 11
4625.0
 21
6173.5218856620122
 31
0.0
  0
LINE
  5
7C47
  8
4
 10
625.0
 20
6673.5218856620122
 30
0.0
 11
4625.0
 21
6673.5218856620122
 31
0.0
  0
LINE
  5
7C48
  8
4
 10
1625.0
 20
1250.0
 30
0.0
 11
4625.0
 21
1250.0
 31
0.0
  0
LINE
  5
7C49
  8
4
 10
625.0
 20
6673.5218856620122
 30
0.0
 11
625.0
 21
6173.5218856620122
 31
0.0
  0
TEXT
  5
7C4A
  8
4
 10
827.44038913760949
 20
5955.7986938658578
 30
0.0
 40
135.0
  1
右回転上向
  0
TEXT
  5
7C4B
  8
4
 10
3672.4238981232238
 20
6765.1527037382721
 30
0.0
 40
140.0
  1
No.
  0
TEXT
  5
7C4C
  8
4
 10
3278.2401565000318
 20
5958.5721033312893
 30
0.0
 40
135.0
  1
縮尺：1/25
  0
LINE
  5
7C4D
  8
4
 10
4625.0
 20
6673.5218856620122
 30
0.0
 11
4625.0
 21
6173.5218856620122
 31
0.0
  0
LINE
  5
7C4E
  8
4
 10
5250.0
 20
7375.0
 30
0.0
 11
5250.0
 21
7375.0
 31
0.0
  0
LINE
  5
7C4F
  8
4
 10
3601.543555899661
 20
6703.1589578135026
 30
0.0
 11
3601.543555899661
 21
6966.6306538743811
 31
0.0
  0
LINE
  5
7C50
  8
4
 10
3601.543555899661
 20
6966.6306538743811
 30
0.0
 11
4625.0
 21
6966.6306538743811
 31
0.0
  0
LINE
  5
7C51
  8
4
 10
4625.0
 20
6966.6306538743811
 30
0.0
 11
4625.0
 21
6703.1589578135026
 31
0.0
  0
LINE
  5
7C52
  8
4
 10
4625.0
 20
6703.1589578135026
 30
0.0
 11
3601.543555899661
 21
6703.1589578135026
 31
0.0
  0
LINE
  5
7C53
  8
4
 10
0.0
 20
0.0
 30
0.0
 11
0.0
 21
7375.0
 31
0.0
  0
LINE
  5
7C54
  8
4
 10
0.0
 20
7375.0
 30
0.0
 11
5250.0
 21
7375.0
 31
0.0
  0
LINE
  5
7C55
  8
4
 10
5250.0
 20
7375.0
 30
0.0
 11
5250.0
 21
0.0
 31
0.0
  0
LINE
  5
7C56
  8
4
 10
5250.0
 20
0.0
 30
0.0
 11
0.0
 21
0.0
 31
0.0
  0
DIMENSION
  5
7CA0
  8
3
  2
*D1
 10
1542.00345597419
 20
3304.2332630682849
 30
0.0
 11
1802.6943268214959
 21
3304.2332630682849
 31
0.0
 70
   128
 13
2142.0034559741898
 23
3147.389091749716
 33
0.0
 14
1542.00345597419
 24
3031.4543222435091
 34
0.0
1001
ACAD
1000
DSTYLE
1002
{
1070
   287
1070
     3
1070
   287
1070
     3
1070
    40
1040
25.0
1070
   143
1040
0.039
1070
   172
1070
     1
1070
   271
1070
     0
1070
   279
1070
     0
1070
   288
1070
     1
1002
}
  0
DIMENSION
  5
7CB8
  8
3
  2
*D2
 10
2122.0034559741898
 20
3172.3863934711089
 30
0.0
 11
1816.7101627220361
 21
3172.3863934711089
 31
0.0
 70
   128
 13
1542.00345597419
 23
3031.45432224351
 33
0.0
 14
2122.0034559741898
 24
3031.45432224351
 34
0.0
1001
ACAD
1000
DSTYLE
1002
{
1070
   287
1070
     3
1070
   287
1070
     3
1070
    40
1040
25.0
1070
   143
1040
0.039
1070
   172
1070
     1
1070
   271
1070
     0
1070
   279
1070
     0
1070
   288
1070
     1
1002
}
  0
DIMENSION
  5
7CDA
  8
3
  2
*D3
 10
2542.0034559741912
 20
3304.2332630682849
 30
0.0
 11
2342.0034559741898
 21
3366.7332630682849
 31
0.0
 70
     0
 13
2142.0034559741898
 23
3147.389091749716
 33
0.0
 14
2542.0034559741912
 24
2599.4543222435091
 34
0.0
1001
ACAD
1000
DSTYLE
1002
{
1070
   287
1070
     4
1070
   287
1070
     4
1070
    40
1040
25.0
1070
    75
1070
     1
1070
   143
1040
0.039
1070
   172
1070
     1
1070
   271
1070
     0
1070
   279
1070
     1
1070
   288
1070
     1
1002
}
  0
DIMENSION
  5
7CE7
  8
3
  2
*D4
 10
2810.8437507615422
 20
2641.4543222435091
 30
0.0
 11
2810.8437507615422
 21
2860.0257508149371
 31
0.0
 70
   128
 13
2154.0034559741898
 23
3031.4543222435091
 33
0.0
 14
2567.7399857705041
 24
2641.4543222435091
 34
0.0
 50
90.0
1001
ACAD
1000
DSTYLE
1002
{
1070
   287
1070
     3
1070
   287
1070
     3
1070
    40
1040
25.0
1070
   143
1040
0.039
1070
   172
1070
     1
1070
   271
1070
     0
1070
   279
1070
     0
1070
   288
1070
     1
1002
}
  0
DIMENSION
  5
7CF3
  8
3
  2
*D5
 10
2810.8437507615422
 20
2071.4543222435091
 30
0.0
 11
2748.3437507615408
 21
2356.45432224351
 31
0.0
 70
     0
 13
2567.7399857705041
 23
2641.4543222435091
 33
0.0
 14
2492.0034559741898
 24
2071.4543222435091
 34
0.0
 50
90.0
1001
ACAD
1000
DSTYLE
1002
{
1070
   287
1070
     4
1070
   287
1070
     4
1070
    40
1040
25.0
1070
    75
1070
     1
1070
   143
1040
0.039
1070
   172
1070
     1
1070
   271
1070
     0
1070
   279
1070
     1
1070
   288
1070
     1
1002
}
  0
DIMENSION
  5
7D9E
  8
3
  2
*D7
 10
1242.00345597419
 20
3466.939241151596
 30
0.0
 11
1896.823151234835
 21
3466.939241151596
 31
0.0
 70
   128
 13
2542.0034559741912
 23
2599.4543222435091
 33
0.0
 14
1242.00345597419
 24
2151.4543222435091
 34
0.0
1001
ACAD
1000
DSTYLE
1002
{
1070
   287
1070
     3
1070
   287
1070
     3
1070
    40
1040
25.0
1070
   143
1040
0.039
1070
   172
1070
     1
1070
   271
1070
     0
1070
   279
1070
     0
1070
   288
1070
     1
1002
}
  0
DIMENSION
  5
7DDA
  8
3
  2
*D8
 10
4442.8876673387904
 20
3191.5402858553221
 30
0.0
 11
4232.1640618641613
 21
3191.5402858553221
 31
0.0
 70
   128
 13
4017.8876673387899
 23
3001.45432224351
 33
0.0
 14
4442.8876673387904
 24
3001.45432224351
 34
0.0
1001
ACAD
1000
DSTYLE
1002
{
1070
   287
1070
     3
1070
   287
1070
     3
1070
    40
1040
25.0
1070
   143
1040
0.039
1070
   172
1070
     1
1070
   271
1070
     0
1070
   279
1070
     0
1070
   288
1070
     1
1002
}
  0
DIMENSION
  5
7DE8
  8
3
  2
*D9
 10
4230.3876673387904
 20
3376.8410178915892
 30
0.0
 11
4339.0162450013522
 21
3437.0835867553492
 31
0.0
 12
0.0
 22
303.27102169146377
 32
0.0
 70
   128
 13
4445.6298262740702
 23
2951.45432224351
 33
0.0
 14
4230.3876673387904
 24
3303.0561391489869
 34
0.0
1001
ACAD
1000
DSTYLE
1002
{
1070
   288
1070
     1
1070
   172
1070
     1
1070
    40
1040
25.0
1070
   271
1070
     0
1070
   143
1040
0.039
1002
}
  0
DIMENSION
  5
7E38
  8
3
  2
*D10
 10
3609.6143940401589
 20
3376.8410178915892
 30
0.0
 11
3920.0010306894751
 21
3501.8410178915892
 31
0.0
 70
     0
  1
MAX\P630
 13
4230.3876673387904
 23
3303.0561391489869
 33
0.0
 14
3609.6143940401589
 24
2861.4543222435091
 34
0.0
1001
ACAD
1000
DSTYLE
1002
{
1070
   287
1070
     4
1070
   287
1070
     4
1070
    40
1040
25.0
1070
    75
1070
     1
1070
   143
1040
0.039
1070
   172
1070
     1
1070
   271
1070
     0
1070
   279
1070
     1
1070
   288
1070
     1
1002
}
  0
DIMENSION
  5
7E52
  8
3
  2
*D11
 10
4665.9058980112686
 20
2361.4543222435091
 30
0.0
 11
4665.9058980112668
 21
2650.9266581091561
 31
0.0
 70
   128
 13
4476.0876673387911
 23
2921.45432224351
 33
0.0
 14
4476.0876673387911
 24
2361.4543222435091
 34
0.0
 50
90.0
1001
ACAD
1000
DSTYLE
1002
{
1070
   287
1070
     3
1070
   287
1070
     3
1070
     3
1000
φ<>
1070
    40
1040
25.0
1070
   143
1040
0.039
1070
   172
1070
     1
1070
   271
1070
     0
1070
   279
1070
     0
1070
   288
1070
     1
1002
}
  0
ARC
  5
7E6D
  8
1
 10
2100.0034559741898
 20
2683.4543222435091
 30
0.0
 40
538.0
 50
249.8533741461826
 51
270.0
  0
ARC
  5
7E6E
  8
1
 10
2100.0034559741898
 20
2683.4543222435091
 30
0.0
 40
526.0
 50
249.37308253518341
 51
270.0
  0
ARC
  5
7E6F
  8
1
 10
2100.0034559741898
 20
2599.4543222435091
 30
0.0
 40
454.0
 50
312.5482973448652
 51
330.58121080077638
  0
ARC
  5
7E70
  8
1
 10
2100.0034559741898
 20
2599.4543222435091
 30
0.0
 40
442.0
 50
313.99297247662861
 51
329.70018162568061
  0
LINE
  5
7E75
  8
1
 10
3575.3876673387908
 20
1871.45432224351
 30
0.0
 11
4555.3876673387904
 21
1871.4543222435091
 31
0.0
  0
LINE
  5
7E76
  8
1
 10
3575.3876673387899
 20
1911.45432224351
 30
0.0
 11
3575.3876673387908
 21
1871.4543222435091
 31
0.0
  0
LINE
  5
7E77
  8
1
 10
4555.3876673387904
 20
1911.45432224351
 30
0.0
 11
4555.3876673387904
 21
1871.45432224351
 31
0.0
  0
LINE
  5
7E78
  8
1
 10
2496.0034559741898
 20
1911.4543222435091
 30
0.0
 11
2496.0034559741898
 21
1871.4543222435091
 31
0.0
  0
LINE
  5
7E79
  8
1
 10
1238.00345597419
 20
1911.4543222435091
 30
0.0
 11
1238.00345597419
 21
1871.4543222435091
 31
0.0
  0
LINE
  5
7E7A
  8
1
 10
2416.0034559741912
 20
1911.4543222435091
 30
0.0
 11
2416.0034559741912
 21
1871.4543222435091
 31
0.0
  0
LINE
  5
7E7B
  8
1
 10
1318.00345597419
 20
1911.4543222435091
 30
0.0
 11
1318.00345597419
 21
1871.4543222435091
 31
0.0
  0
DIMENSION
  5
7E88
  8
3
  2
*D12
 10
4230.3876673387913
 20
1705.472095201457
 30
0.0
 11
3902.8876673387908
 21
1767.972095201457
 31
0.0
 70
     0
 13
3575.3876673387908
 23
1871.4543222435091
 33
0.0
 14
4230.3876673387913
 24
1871.4543222435091
 34
0.0
1001
ACAD
1000
DSTYLE
1002
{
1070
   287
1070
     3
1070
   287
1070
     3
1070
    40
1040
25.0
1070
   143
1040
0.039
1070
   172
1070
     1
1070
   271
1070
     0
1070
   279
1070
     0
1002
}
  0
DIMENSION
  5
7E97
  8
3
  2
*D13
 10
4555.3876673387904
 20
1705.472095201457
 30
0.0
 11
4392.8876673387913
 21
1767.972095201457
 31
0.0
 70
     0
 13
4230.3876673387913
 23
1871.4543222435091
 33
0.0
 14
4555.3876673387904
 24
1871.45432224351
 34
0.0
1001
ACAD
1000
DSTYLE
1002
{
1070
   287
1070
     3
1070
   287
1070
     3
1070
    40
1040
25.0
1070
   143
1040
0.039
1070
   172
1070
     1
1070
   271
1070
     0
1070
   279
1070
     0
1002
}
  0
DIMENSION
  5
7EA4
  8
3
  2
*D14
 10
2496.0034559741898
 20
1705.472095201457
 30
0.0
 11
2319.0034559741898
 21
1767.972095201457
 31
0.0
 70
     0
 13
2142.0034559741898
 23
1911.4543222435091
 33
0.0
 14
2496.0034559741898
 24
1871.4543222435091
 34
0.0
1001
ACAD
1000
DSTYLE
1002
{
1070
   287
1070
     3
1070
   287
1070
     3
1070
    40
1040
25.0
1070
   143
1040
0.039
1070
   172
1070
     1
1070
   271
1070
     0
1070
   279
1070
     0
1002
}
  0
DIMENSION
  5
7EB1
  8
3
  2
*D15
 10
2142.0034559741898
 20
1705.472095201457
 30
0.0
 11
1690.00345597419
 21
1767.972095201457
 31
0.0
 70
     0
 13
1238.00345597419
 23
1871.4543222435091
 33
0.0
 14
2142.0034559741898
 24
1911.4543222435091
 34
0.0
1001
ACAD
1000
DSTYLE
1002
{
1070
   287
1070
     3
1070
   287
1070
     3
1070
    40
1040
25.0
1070
   143
1040
0.039
1070
   172
1070
     1
1070
   271
1070
     0
1070
   279
1070
     0
1002
}
  0
LINE
  5
7ECE
  8
1
 10
2493.0034559741912
 20
4994.4052370605468
 30
0.0
 11
2413.0034559741912
 21
4994.4052370605468
 31
0.0
  0
LINE
  5
7ED0
  8
1
 10
2493.0034559741921
 20
4014.4052370605468
 30
0.0
 11
2413.0034559741921
 21
4014.4052370605468
 31
0.0
  0
LINE
  5
7ED1
  8
1
 10
1235.003455974191
 20
4994.4052370605486
 30
0.0
 11
1235.0034559741921
 21
4014.4052370605482
 31
0.0
  0
LINE
  5
7ED2
  8
1
 10
2493.0034559741912
 20
4994.4052370605468
 30
0.0
 11
2493.0034559741912
 21
4881.9052370605459
 31
0.0
  0
LINE
  5
7ED3
  8
1
 10
1315.003455974191
 20
4994.4052370605486
 30
0.0
 11
1315.003455974191
 21
4924.4052370605477
 31
0.0
  0
LINE
  5
7ED4
  8
1
 10
2413.0034559741912
 20
4994.4052370605468
 30
0.0
 11
2413.0034559741912
 21
4924.4052370605468
 31
0.0
  0
LINE
  5
7ED5
  8
1
 10
1315.003455974191
 20
4994.4052370605468
 30
0.0
 11
1235.003455974191
 21
4994.4052370605468
 31
0.0
  0
LINE
  5
7ED6
  8
1
 10
1315.0034559741921
 20
4014.4052370605468
 30
0.0
 11
1235.0034559741921
 21
4014.4052370605468
 31
0.0
  0
LINE
  5
7ED7
  8
1
 10
1315.0034559741921
 20
4175.8034611068142
 30
0.0
 11
1315.0034559741921
 21
4014.4052370605482
 31
0.0
  0
LINE
  5
7ED8
  8
1
 10
1315.003455974191
 20
4884.4052370605477
 30
0.0
 11
1315.0034559741921
 21
4437.8034611068142
 31
0.0
  0
LINE
  5
7ED9
  8
1
 10
2413.0034559741921
 20
4209.4052370605459
 30
0.0
 11
2413.0034559741921
 21
4014.4052370605468
 31
0.0
  0
LINE
  5
7EDA
  8
1
 10
2493.0034559741921
 20
4410.405237060545
 30
0.0
 11
2493.0034559741921
 21
4014.4052370605468
 31
0.0
  0
DIMENSION
  5
7EE7
  8
3
  2
*D16
 10
2493.0034559741912
 20
5140.5723466741192
 30
0.0
 11
1864.003455974191
 21
5203.0723466741192
 31
0.0
 70
     0
 13
1235.003455974191
 23
4994.4052370605468
 33
0.0
 14
2493.0034559741912
 24
4994.4052370605468
 34
0.0
1001
ACAD
1000
DSTYLE
1002
{
1070
   287
1070
     3
1070
   287
1070
     3
1070
    40
1040
25.0
1070
   143
1040
0.039
1070
   172
1070
     1
1070
   271
1070
     0
1070
   279
1070
     0
1002
}
  0
DIMENSION
  5
7EF4
  8
3
  2
*D17
 10
1081.1818526787749
 20
4014.4052370605482
 30
0.0
 11
1018.681852678775
 21
4504.4052370605477
 31
0.0
 70
     0
 13
1235.003455974191
 23
4994.4052370605468
 33
0.0
 14
1235.0034559741921
 24
4014.4052370605482
 34
0.0
 50
90.0
1001
ACAD
1000
DSTYLE
1002
{
1070
   287
1070
     3
1070
   287
1070
     3
1070
    40
1040
25.0
1070
   143
1040
0.039
1070
   172
1070
     1
1070
   271
1070
     0
1070
   279
1070
     0
1002
}
  0
DIMENSION
  5
7F08
  8
3
  2
*D18
 10
2808.4457987253122
 20
1871.4543222435091
 30
0.0
 11
2745.9457987253109
 21
1657.1686079577951
 31
0.0
 70
     0
 13
2492.0034559741898
 23
1976.4543222435091
 33
0.0
 14
2496.0034559741898
 24
1871.4543222435091
 34
0.0
 50
90.0
1001
ACAD
1000
DSTYLE
1002
{
1070
   287
1070
     3
1070
   287
1070
     3
1070
    40
1040
25.0
1070
   143
1040
0.039
1070
   172
1070
     1
1070
   271
1070
     0
1070
   279
1070
     0
1070
     6
1000
DOT
1002
}
  0
DIMENSION
  5
7F17
  8
3
  2
*D19
 10
2808.4457987253122
 20
2071.4543222435091
 30
0.0
 11
2928.0886558681691
 21
2023.9543222435091
 31
0.0
 70
     0
 13
2492.0034559741898
 23
1976.4543222435091
 33
0.0
 14
2492.0034559741898
 24
2071.4543222435091
 34
0.0
 50
90.0
1001
ACAD
1000
DSTYLE
1002
{
1070
   172
1070
     1
1070
    40
1040
25.0
1070
     3
1000
(<>)
1070
   271
1070
     0
1070
     6
1000
_DOT
1070
   143
1040
0.039
1002
}
  0
DIMENSION
  5
7F24
  8
3
  2
*D20
 10
3030.2716265367558
 20
1871.4543222435091
 30
0.0
 11
2948.128769393898
 21
2451.45432224351
 31
0.0
 70
     0
 13
2154.0034559741898
 23
3031.4543222435091
 33
0.0
 14
2496.0034559741898
 24
1871.4543222435091
 34
0.0
 50
90.0
1001
ACAD
1000
DSTYLE
1002
{
1070
   287
1070
     3
1070
   287
1070
     3
1070
     3
1000
(<>)
1070
    40
1040
25.0
1070
   143
1040
0.039
1070
   172
1070
     1
1070
   271
1070
     0
1070
   279
1070
     0
1002
}
  0
ENDSEC
  0
EOF
