  0
SECTION
  2
HEADER
  9
$ACADVER
  1
AC1009
  9
$INSBASE
 10
0.0
 20
0.0
 30
0.0
  9
$EXTMIN
 10
0.0
 20
0.0
 30
0.0
  9
$EXTMAX
 10
5250.0
 20
7375.0
 30
0.0
  9
$LIMMIN
 10
0.0
 20
0.0
  9
$LIMMAX
 10
297.0
 20
210.0
  9
$ORTHOMODE
 70
     0
  9
$REGENMODE
 70
     1
  9
$FILLMODE
 70
     0
  9
$QTEXTMODE
 70
     0
  9
$MIRRTEXT
 70
     1
  9
$DRAGMODE
 70
     2
  9
$LTSCALE
 40
100.0
  9
$OSMODE
 70
    37
  9
$ATTMODE
 70
     1
  9
$TEXTSIZE
 40
180.0
  9
$TRACEWID
 40
0.05
  9
$TEXTSTYLE
  7
STANDARD
  9
$CLAYER
  8
3
  9
$CELTYPE
  6
BYLAYER
  9
$CECOLOR
 62
   256
  9
$DIMSCALE
 40
25.0
  9
$DIMASZ
 40
2.0
  9
$DIMEXO
 40
0.5
  9
$DIMDLI
 40
10.0
  9
$DIMRND
 40
0.0
  9
$DIMDLE
 40
0.0
  9
$DIMEXE
 40
1.0
  9
$DIMTP
 40
1.0
  9
$DIMTM
 40
1.0
  9
$DIMTXT
 40
3.0
  9
$DIMCEN
 40
0.0
  9
$DIMTSZ
 40
0.0
  9
$DIMTOL
 70
     0
  9
$DIMLIM
 70
     0
  9
$DIMTIH
 70
     0
  9
$DIMTOH
 70
     0
  9
$DIMSE1
 70
     0
  9
$DIMSE2
 70
     0
  9
$DIMTAD
 70
     1
  9
$DIMZIN
 70
     8
  9
$DIMBLK
  1

  9
$DIMASO
 70
     1
  9
$DIMSHO
 70
     1
  9
$DIMPOST
  1

  9
$DIMAPOST
  1

  9
$DIMALT
 70
     0
  9
$DIMALTD
 70
     2
  9
$DIMALTF
 40
0.039
  9
$DIMLFAC
 40
1.0
  9
$DIMTOFL
 70
     1
  9
$DIMTVP
 40
0.0
  9
$DIMTIX
 70
     0
  9
$DIMSOXD
 70
     0
  9
$DIMSAH
 70
     1
  9
$DIMBLK1
  1
OPEN
  9
$DIMBLK2
  1
OPEN
  9
$DIMSTYLE
  2
IGA
  9
$DIMCLRD
 70
     0
  9
$DIMCLRE
 70
     0
  9
$DIMCLRT
 70
     0
  9
$DIMTFAC
 40
10.0
  9
$DIMGAP
 40
1.0
  9
$LUNITS
 70
     2
  9
$LUPREC
 70
     3
  9
$SKETCHINC
 40
0.1
  9
$FILLETRAD
 40
50.0
  9
$AUNITS
 70
     0
  9
$AUPREC
 70
     0
  9
$MENU
  1
acad
  9
$ELEVATION
 40
0.0
  9
$PELEVATION
 40
0.0
  9
$THICKNESS
 40
0.0
  9
$LIMCHECK
 70
     0
  9
$BLIPMODE
 70
     0
  9
$CHAMFERA
 40
0.0
  9
$CHAMFERB
 40
0.0
  9
$SKPOLY
 70
     0
  9
$TDCREATE
 40
2452817.4878591429
  9
$TDUPDATE
 40
2454953.8548979168
  9
$TDINDWG
 40
0.0703475463
  9
$TDUSRTIMER
 40
0.0703475463
  9
$USRTIMER
 70
     1
  9
$ANGBASE
 50
0.0
  9
$ANGDIR
 70
     0
  9
$PDMODE
 70
     0
  9
$PDSIZE
 40
0.0
  9
$PLINEWID
 40
0.0
  9
$COORDS
 70
     1
  9
$SPLFRAME
 70
     0
  9
$SPLINETYPE
 70
     6
  9
$SPLINESEGS
 70
     8
  9
$ATTDIA
 70
     0
  9
$ATTREQ
 70
     1
  9
$HANDLING
 70
 10241
  9
$HANDSEED
  5
82E7
  9
$SURFTAB1
 70
     6
  9
$SURFTAB2
 70
     6
  9
$SURFTYPE
 70
     6
  9
$SURFU
 70
     6
  9
$SURFV
 70
     6
  9
$UCSNAME
  2

  9
$UCSORG
 10
0.0
 20
0.0
 30
0.0
  9
$UCSXDIR
 10
1.0
 20
0.0
 30
0.0
  9
$UCSYDIR
 10
0.0
 20
1.0
 30
0.0
  9
$PUCSNAME
  2

  9
$PUCSORG
 10
0.0
 20
0.0
 30
0.0
  9
$PUCSXDIR
 10
1.0
 20
0.0
 30
0.0
  9
$PUCSYDIR
 10
0.0
 20
1.0
 30
0.0
  9
$USERI1
 70
     0
  9
$USERI2
 70
     0
  9
$USERI3
 70
     0
  9
$USERI4
 70
     0
  9
$USERI5
 70
     0
  9
$USERR1
 40
0.0
  9
$USERR2
 40
0.0
  9
$USERR3
 40
0.0
  9
$USERR4
 40
0.0
  9
$USERR5
 40
0.0
  9
$WORLDVIEW
 70
     1
  9
$SHADEDGE
 70
     3
  9
$SHADEDIF
 70
    70
  9
$TILEMODE
 70
     1
  9
$MAXACTVP
 70
    16
  9
$PLIMCHECK
 70
     0
  9
$PEXTMIN
 10
1.0000000000000000E+020
 20
1.0000000000000000E+020
 30
1.0000000000000000E+020
  9
$PEXTMAX
 10
-1.0000000000000000E+020
 20
-1.0000000000000000E+020
 30
-1.0000000000000000E+020
  9
$PLIMMIN
 10
0.0
 20
0.0
  9
$PLIMMAX
 10
12.0
 20
9.0
  9
$UNITMODE
 70
     0
  9
$VISRETAIN
 70
     0
  9
$PLINEGEN
 70
     0
  9
$PSLTSCALE
 70
     1
  0
ENDSEC
  0
SECTION
  2
TABLES
  0
TABLE
  2
VPORT
 70
     2
  0
VPORT
  2
*ACTIVE
 70
     0
 10
0.0
 20
0.0
 11
1.0
 21
1.0
 12
7534.9783080260304
 22
5006.2472700733688
 13
0.0
 23
0.0
 14
10.0
 24
10.0
 15
10.0
 25
10.0
 16
0.0
 26
0.0
 36
1.0
 17
0.0
 27
0.0
 37
0.0
 40
10012.49454014673
 41
1.5051150895140659
 42
50.0
 43
0.0
 44
0.0
 50
0.0
 51
0.0
 71
     0
 72
   100
 73
     1
 74
     0
 75
     0
 76
     0
 77
     0
 78
     0
  0
ENDTAB
  0
TABLE
  2
LTYPE
 70
     2
  0
LTYPE
  2
CONTINUOUS
 70
     0
  3
Solid line
 72
    65
 73
     0
 40
0.0
  0
LTYPE
  2
CENTER
 70
     0
  3
____ _ ____ _ ____ _ ____ _ ____ _ ____ _ ____ 
 72
    65
 73
     4
 40
2.0
 49
1.25
 49
-0.25
 49
0.25
 49
-0.25
  0
ENDTAB
  0
TABLE
  2
LAYER
 70
     6
  0
LAYER
  2
0
 70
     0
 62
     7
  6
CONTINUOUS
  0
LAYER
  2
3
 70
     0
 62
     2
  6
CONTINUOUS
  0
LAYER
  2
2
 70
     0
 62
     3
  6
CENTER
  0
LAYER
  2
1
 70
     0
 62
     4
  6
CONTINUOUS
  0
LAYER
  2
4
 70
     0
 62
     7
  6
CONTINUOUS
  0
LAYER
  2
DEFPOINTS
 70
     0
 62
     7
  6
CONTINUOUS
  0
ENDTAB
  0
TABLE
  2
STYLE
 70
     1
  0
STYLE
  2
STANDARD
 70
     0
 40
0.0
 41
1.0
 50
0.0
 71
     0
 42
180.0
  3
simplex.shx
  4
extfont.shx
  0
ENDTAB
  0
TABLE
  2
VIEW
 70
     0
  0
ENDTAB
  0
TABLE
  2
UCS
 70
     0
  0
ENDTAB
  0
TABLE
  2
APPID
 70
     1
  0
APPID
  2
ACAD
 70
     0
  0
ENDTAB
  0
TABLE
  2
DIMSTYLE
 70
     1
  0
DIMSTYLE
  2
IGA
 70
     0
  3

  4

  5

  6
OPEN
  7
OPEN
 40
2.0
 41
2.0
 42
0.5
 43
10.0
 44
1.0
 45
0.0
 46
0.0
 47
1.0
 48
1.0
140
3.0
141
0.0
142
0.0
143
0.03937
144
1.0
145
0.0
146
10.0
147
1.0
 71
     0
 72
     0
 73
     0
 74
     0
 75
     0
 76
     0
 77
     1
 78
     8
170
     0
171
     2
172
     0
173
     1
174
     0
175
     0
176
     0
177
     0
178
     0
  0
ENDTAB
  0
ENDSEC
  0
SECTION
  2
BLOCKS
  0
BLOCK
  8
0
  2
$MODEL_SPACE
 70
     0
 10
0.0
 20
0.0
 30
0.0
  3
$MODEL_SPACE
  1

  0
ENDBLK
  5
1B
  8
0
  0
BLOCK
 67
     1
  8
0
  2
$PAPER_SPACE
 70
     0
 10
0.0
 20
0.0
 30
0.0
  3
$PAPER_SPACE
  1

  0
ENDBLK
  5
18
 67
     1
  8
0
  0
BLOCK
  8
0
  2
_OPEN
 70
     0
 10
0.0
 20
0.0
 30
0.0
  3
_OPEN
  1

  0
LINE
  5
7C59
  8
0
  6
BYBLOCK
 62
     0
 10
-1.0
 20
0.1666666666666666
 30
0.0
 11
0.0
 21
0.0
 31
0.0
  0
LINE
  5
7C5A
  8
0
  6
BYBLOCK
 62
     0
 10
0.0
 20
0.0
 30
0.0
 11
-1.0
 21
-0.1666666666666666
 31
0.0
  0
LINE
  5
7C5B
  8
0
  6
BYBLOCK
 62
     0
 10
0.0
 20
0.0
 30
0.0
 11
-1.0
 21
0.0
 31
0.0
  0
ENDBLK
  5
7C5C
  8
0
  0
BLOCK
  8
0
  2
*D1
 70
     1
 10
0.0
 20
0.0
 30
0.0
  3
*D1
  1

  0
LINE
  5
7D87
  8
0
  6
BYBLOCK
 62
     0
 10
2504.5034559741898
 20
2283.8001181324139
 30
0.0
 11
2835.8437507615422
 21
2283.8001181324139
 31
0.0
  0
LINE
  5
7D88
  8
0
  6
BYBLOCK
 62
     0
 10
2810.8437507615422
 20
2355.8001181324139
 30
0.0
 11
2810.8437507615422
 21
2405.8001181324139
 31
0.0
  0
LINE
  5
7D89
  8
0
  6
BYBLOCK
 62
     0
 10
2810.8437507615422
 20
2233.8001181324139
 30
0.0
 11
2810.8437507615422
 21
2183.8001181324139
 31
0.0
  0
TEXT
  5
7D8A
  8
3
 62
     0
 10
2955.4866079043991
 20
2244.5101173070461
 30
0.0
 40
75.0
  1
(22)
 50
90.0
  0
LINE
  5
7D8B
  8
0
  6
BYBLOCK
 62
     0
 10
2810.8437507615422
 20
2305.8001181324139
 30
0.0
 11
2810.8437507615422
 21
2283.8001181324139
 31
0.0
  0
INSERT
  5
7D8C
  8
0
  6
BYBLOCK
 62
     0
  2
_OPEN
 10
2810.8437507615422
 20
2305.8001181324139
 30
0.0
 41
50.0
 42
50.0
 43
50.0
 50
270.0
  0
INSERT
  5
7D8D
  8
0
  6
BYBLOCK
 62
     0
  2
_DOT
 10
2810.8437507615422
 20
2283.8001181324139
 30
0.0
 41
50.0
 42
50.0
 43
50.0
 50
90.0
  0
POINT
  5
7D8E
  8
DEFPOINTS
  6
BYBLOCK
 62
     0
 10
2492.0034559741898
 20
2305.8001181324139
 30
0.0
  0
POINT
  5
7D8F
  8
DEFPOINTS
  6
BYBLOCK
 62
     0
 10
2492.0034559741898
 20
2283.8001181324139
 30
0.0
  0
POINT
  5
7D90
  8
DEFPOINTS
  6
BYBLOCK
 62
     0
 10
2810.8437507615422
 20
2283.8001181324139
 30
0.0
  0
ENDBLK
  5
7D91
  8
0
  0
BLOCK
  8
0
  2
_DOT
 70
     0
 10
0.0
 20
0.0
 30
0.0
  3
_DOT
  1

  0
LINE
  5
80C6
  8
0
  6
BYBLOCK
 62
     0
 10
0.0
 20
0.0
 30
0.0
 11
-1.0
 21
-0.0000000000000284
 31
0.0
  0
POLYLINE
  5
80C7
  8
0
  6
BYBLOCK
 62
     0
 66
     1
 10
0.0
 20
0.0
 30
0.0
 70
     1
 40
0.1666666666666666
 41
0.1666666666666666
  0
VERTEX
  5
8288
  8
0
  6
BYBLOCK
 62
     0
 10
-0.0833333333333286
 20
-0.0000000000000284
 30
0.0
 42
1.0
  0
VERTEX
  5
8289
  8
0
  6
BYBLOCK
 62
     0
 10
0.0833333333333286
 20
-0.0000000000000284
 30
0.0
 42
1.0
  0
SEQEND
  5
828A
  8
0
  6
BYBLOCK
 62
     0
  0
ENDBLK
  5
7D54
  8
0
  0
BLOCK
  8
0
  2
*D3
 70
     1
 10
0.0
 20
0.0
 30
0.0
  3
*D3
  1

  0
LINE
  5
8047
  8
0
  6
BYBLOCK
 62
     0
 10
4445.6298262740702
 20
2963.95432224351
 30
0.0
 11
4445.6298262740702
 21
3636.1868137804968
 31
0.0
  0
LINE
  5
8048
  8
0
  6
BYBLOCK
 62
     0
 10
4230.3876673387904
 20
3523.4489323175771
 30
0.0
 11
4230.3876673387904
 21
3636.1868137804968
 31
0.0
  0
LINE
  5
8049
  8
0
  6
BYBLOCK
 62
     0
 10
4395.6298262740702
 20
3611.1868137804968
 30
0.0
 11
4280.3876673387904
 21
3611.1868137804968
 31
0.0
  0
TEXT
  5
804A
  8
3
 62
     0
 10
4249.7305307156366
 20
3633.9293826442572
 30
0.0
 40
75.0
  1
215
  0
INSERT
  5
804B
  8
0
  6
BYBLOCK
 62
     0
  2
_OPEN
 10
4445.6298262740702
 20
3611.1868137804968
 30
0.0
 41
50.0
 42
50.0
 43
50.0
  0
INSERT
  5
804C
  8
0
  6
BYBLOCK
 62
     0
  2
_OPEN
 10
4230.3876673387904
 20
3611.1868137804968
 30
0.0
 41
50.0
 42
50.0
 43
50.0
 50
180.0
  0
POINT
  5
804D
  8
DEFPOINTS
  6
BYBLOCK
 62
     0
 10
4445.6298262740702
 20
2951.45432224351
 30
0.0
  0
POINT
  5
804E
  8
DEFPOINTS
  6
BYBLOCK
 62
     0
 10
4230.3876673387904
 20
3510.9489323175781
 30
0.0
  0
POINT
  5
804F
  8
DEFPOINTS
  6
BYBLOCK
 62
     0
 10
4230.3876673387904
 20
3611.1868137804968
 30
0.0
  0
ENDBLK
  5
8050
  8
0
  0
BLOCK
  8
0
  2
*D4
 70
     1
 10
0.0
 20
0.0
 30
0.0
  3
*D4
  1

  0
LINE
  5
823A
  8
3
 62
     0
 10
3609.6143940401589
 20
2873.9543222435091
 30
0.0
 11
3609.6143940401589
 21
3636.1868137804968
 31
0.0
  0
LINE
  5
823B
  8
3
 62
     0
 10
4180.3876673387904
 20
3611.1868137804968
 30
0.0
 11
3659.6143940401589
 21
3611.1868137804968
 31
0.0
  0
INSERT
  5
823C
  8
3
 62
     0
  2
_OPEN
 10
4230.3876673387904
 20
3611.1868137804968
 30
0.0
 41
50.0
 42
50.0
 43
50.0
  0
INSERT
  5
823D
  8
3
 62
     0
  2
_OPEN
 10
3609.6143940401589
 20
3611.1868137804968
 30
0.0
 41
50.0
 42
50.0
 43
50.0
 50
180.0
  0
TEXT
  8
3
  40
75
  5
82D5
  62
0
  72
0
  71
0
 10
3770.00
 20
3603.44
 30
0.000000
  1
MAX
  0
TEXT
  8
3
  40
75
  5
82D6
  62
0
  72
0
  71
0
 10
3770.00
 20
3505.94
 30
0.000000
  1
630
  0
POINT
  5
823F
  8
DEFPOINTS
 62
     0
 10
4230.3876673387904
 20
3510.9489323175781
 30
0.0
  0
POINT
  5
8240
  8
DEFPOINTS
 62
     0
 10
3609.6143940401589
 20
2861.4543222435091
 30
0.0
  0
POINT
  5
8241
  8
DEFPOINTS
 62
     0
 10
3609.6143940401589
 20
3611.1868137804968
 30
0.0
  0
ENDBLK
  5
8045
  8
0
  0
BLOCK
  8
0
  2
*D5
 70
     1
 10
0.0
 20
0.0
 30
0.0
  3
*D5
  1

  0
LINE
  5
8242
  8
3
 62
     0
 10
4488.5876673387902
 20
2921.45432224351
 30
0.0
 11
4690.9058980112677
 21
2921.45432224351
 31
0.0
  0
LINE
  5
8243
  8
3
 62
     0
 10
4488.5876673387902
 20
2361.4543222435091
 30
0.0
 11
4690.9058980112677
 21
2361.4543222435091
 31
0.0
  0
LINE
  5
8244
  8
3
 62
     0
 10
4665.9058980112686
 20
2871.45432224351
 30
0.0
 11
4665.9058980112686
 21
2411.45432224351
 31
0.0
  0
INSERT
  5
8245
  8
3
 62
     0
  2
_OPEN
 10
4665.9058980112686
 20
2921.45432224351
 30
0.0
 41
50.0
 42
50.0
 43
50.0
 50
90.0
  0
INSERT
  5
8246
  8
3
 62
     0
  2
_OPEN
 10
4665.9058980112686
 20
2361.4543222435091
 30
0.0
 41
50.0
 42
50.0
 43
50.0
 50
270.0
  0
TEXT
  8
3
  40
75
  5
82D7
  62
0
  72
0
  71
0
 10
4453.41
 20
2518.18
 30
0.000000
  1
φ560
  0
POINT
  5
8248
  8
DEFPOINTS
 62
     0
 10
4476.0876673387911
 20
2921.45432224351
 30
0.0
  0
POINT
  5
8249
  8
DEFPOINTS
 62
     0
 10
4476.0876673387911
 20
2361.4543222435091
 30
0.0
  0
POINT
  5
824A
  8
DEFPOINTS
 62
     0
 10
4665.9058980112686
 20
2361.4543222435091
 30
0.0
  0
ENDBLK
  5
7E5D
  8
0
  0
BLOCK
  8
0
  2
*D6
 70
     1
 10
0.0
 20
0.0
 30
0.0
  3
*D6
  1

  0
LINE
  5
824B
  8
3
 62
     0
 10
4017.8876673387899
 20
3255.9543222435109
 30
0.0
 11
4017.8876673387899
 21
3424.0704282447682
 31
0.0
  0
LINE
  5
824C
  8
3
 62
     0
 10
4442.8876673387877
 20
3255.9543222435109
 30
0.0
 11
4442.8876673387877
 21
3424.0704282447682
 31
0.0
  0
LINE
  5
824D
  8
3
 62
     0
 10
4067.8876673387899
 20
3399.0704282447682
 30
0.0
 11
4392.8876673387877
 21
3399.0704282447682
 31
0.0
  0
INSERT
  5
824E
  8
3
 62
     0
  2
_OPEN
 10
4017.8876673387899
 20
3399.0704282447682
 30
0.0
 41
50.0
 42
50.0
 43
50.0
 50
180.0
  0
INSERT
  5
824F
  8
3
 62
     0
  2
_OPEN
 10
4442.8876673387877
 20
3399.0704282447682
 30
0.0
 41
50.0
 42
50.0
 43
50.0
  0
TEXT
  8
3
  40
75
  5
82D8
  62
0
  72
0
  71
0
 10
4075.97
 20
3328.82
 30
0.000000
  1
425
  0
POINT
  5
8251
  8
DEFPOINTS
 62
     0
 10
4017.8876673387899
 20
3243.4543222435109
 30
0.0
  0
POINT
  5
8252
  8
DEFPOINTS
 62
     0
 10
4442.8876673387877
 20
3243.4543222435109
 30
0.0
  0
POINT
  5
8253
  8
DEFPOINTS
 62
     0
 10
4442.8876673387877
 20
3399.0704282447682
 30
0.0
  0
ENDBLK
  5
8025
  8
0
  0
BLOCK
  8
0
  2
*D7
 70
     1
 10
0.0
 20
0.0
 30
0.0
  3
*D7
  1

  0
LINE
  5
8254
  8
3
 62
     0
 10
2532.0034559741912
 20
3285.95432224351
 30
0.0
 11
2532.0034559741912
 21
3457.1545633821961
 31
0.0
  0
LINE
  5
8255
  8
3
 62
     0
 10
2142.0034559741898
 20
3300.4784297007659
 30
0.0
 11
2142.0034559741898
 21
3457.1545633821961
 31
0.0
  0
LINE
  5
8256
  8
3
 62
     0
 10
2482.0034559741912
 20
3432.154563382197
 30
0.0
 11
2192.0034559741898
 21
3432.154563382197
 31
0.0
  0
INSERT
  5
8257
  8
3
 62
     0
  2
_OPEN
 10
2532.0034559741912
 20
3432.154563382197
 30
0.0
 41
50.0
 42
50.0
 43
50.0
  0
INSERT
  5
8258
  8
3
 62
     0
  2
_OPEN
 10
2142.0034559741898
 20
3432.154563382197
 30
0.0
 41
50.0
 42
50.0
 43
50.0
 50
180.0
  0
TEXT
  8
3
  40
75
  5
82D9
  62
0
  72
0
  71
0
 10
2163.43
 20
3361.90
 30
0.000000
  1
390
  0
POINT
  5
825A
  8
DEFPOINTS
 62
     0
 10
2532.0034559741912
 20
3273.4543222435109
 30
0.0
  0
POINT
  5
825B
  8
DEFPOINTS
 62
     0
 10
2142.0034559741898
 20
3287.9784297007659
 30
0.0
  0
POINT
  5
825C
  8
DEFPOINTS
 62
     0
 10
2142.0034559741898
 20
3432.154563382197
 30
0.0
  0
ENDBLK
  5
805C
  8
0
  0
BLOCK
  8
0
  2
*D8
 70
     1
 10
0.0
 20
0.0
 30
0.0
  3
*D8
  1

  0
LINE
  5
825D
  8
3
 62
     0
 10
1658.00345597419
 20
2695.95432224351
 30
0.0
 11
1658.00345597419
 21
3457.1545633821961
 31
0.0
  0
LINE
  5
825E
  8
3
 62
     0
 10
2092.0034559741898
 20
3432.154563382197
 30
0.0
 11
1708.00345597419
 21
3432.154563382197
 31
0.0
  0
INSERT
  5
825F
  8
3
 62
     0
  2
_OPEN
 10
2142.0034559741898
 20
3432.154563382197
 30
0.0
 41
50.0
 42
50.0
 43
50.0
  0
INSERT
  5
8260
  8
3
 62
     0
  2
_OPEN
 10
1658.00345597419
 20
3432.154563382197
 30
0.0
 41
50.0
 42
50.0
 43
50.0
 50
180.0
  0
TEXT
  8
3
  40
75
  5
82DA
  62
0
  72
0
  71
0
 10
1750.00
 20
3361.90
 30
0.000000
  1
484
  0
POINT
  5
8262
  8
DEFPOINTS
 62
     0
 10
2142.0034559741898
 20
3287.9784297007659
 30
0.0
  0
POINT
  5
8263
  8
DEFPOINTS
 62
     0
 10
1658.00345597419
 20
2683.45432224351
 30
0.0
  0
POINT
  5
8264
  8
DEFPOINTS
 62
     0
 10
1658.00345597419
 20
3432.154563382197
 30
0.0
  0
ENDBLK
  5
8068
  8
0
  0
BLOCK
  8
0
  2
*D9
 70
     1
 10
0.0
 20
0.0
 30
0.0
  3
*D9
  1

  0
LINE
  5
8265
  8
3
 62
     0
 10
2542.2034559741892
 20
3241.45432224351
 30
0.0
 11
2835.7792824562571
 21
3241.45432224351
 31
0.0
  0
LINE
  5
8266
  8
3
 62
     0
 10
2580.2399857705041
 20
2641.4543222435091
 30
0.0
 11
2835.7792824562571
 21
2641.4543222435091
 31
0.0
  0
LINE
  5
8267
  8
3
 62
     0
 10
2810.7792824562571
 20
3191.45432224351
 30
0.0
 11
2810.7792824562571
 21
2691.4543222435091
 31
0.0
  0
INSERT
  5
8268
  8
3
 62
     0
  2
_OPEN
 10
2810.7792824562571
 20
3241.45432224351
 30
0.0
 41
50.0
 42
50.0
 43
50.0
 50
90.0
  0
INSERT
  5
8269
  8
3
 62
     0
  2
_OPEN
 10
2810.7792824562571
 20
2641.4543222435091
 30
0.0
 41
50.0
 42
50.0
 43
50.0
 50
270.0
  0
TEXT
  8
3
  40
75
  5
82DB
  62
0
  72
0
  71
0
 10
2598.28
 20
2837.67
 30
0.000000
  1
600
  0
POINT
  5
826B
  8
DEFPOINTS
 62
     0
 10
2529.7034559741892
 20
3241.45432224351
 30
0.0
  0
POINT
  5
826C
  8
DEFPOINTS
 62
     0
 10
2567.7399857705041
 20
2641.4543222435091
 30
0.0
  0
POINT
  5
826D
  8
DEFPOINTS
 62
     0
 10
2810.7792824562571
 20
2641.4543222435091
 30
0.0
  0
ENDBLK
  5
8075
  8
0
  0
BLOCK
  8
0
  2
*D10
 70
     1
 10
0.0
 20
0.0
 30
0.0
  3
*D10
  1

  0
LINE
  5
826E
  8
3
 62
     0
 10
2504.5034559741898
 20
2071.4543222435091
 30
0.0
 11
2835.7792824562562
 21
2071.4543222435091
 31
0.0
  0
LINE
  5
826F
  8
3
 62
     0
 10
2810.7792824562562
 20
2591.4543222435091
 30
0.0
 11
2810.7792824562562
 21
2121.4543222435091
 31
0.0
  0
INSERT
  5
8270
  8
3
 62
     0
  2
_OPEN
 10
2810.7792824562562
 20
2641.4543222435091
 30
0.0
 41
50.0
 42
50.0
 43
50.0
 50
90.0
  0
INSERT
  5
8271
  8
3
 62
     0
  2
_OPEN
 10
2810.7792824562562
 20
2071.4543222435091
 30
0.0
 41
50.0
 42
50.0
 43
50.0
 50
270.0
  0
TEXT
  8
3
  40
75
  5
82DC
  62
0
  72
0
  71
0
 10
2598.28
 20
2223.70
 30
0.000000
  1
570
  0
POINT
  5
8273
  8
DEFPOINTS
 62
     0
 10
2567.7399857705041
 20
2641.4543222435091
 30
0.0
  0
POINT
  5
8274
  8
DEFPOINTS
 62
     0
 10
2492.0034559741898
 20
2071.4543222435091
 30
0.0
  0
POINT
  5
8275
  8
DEFPOINTS
 62
     0
 10
2810.7792824562562
 20
2071.4543222435091
 30
0.0
  0
ENDBLK
  5
808C
  8
0
  0
BLOCK
  8
0
  2
*D11
 70
     1
 10
0.0
 20
0.0
 30
0.0
  3
*D11
  1

  0
LINE
  5
8276
  8
3
 62
     0
 10
2532.0034559741912
 20
3285.95432224351
 30
0.0
 11
2532.0034559741912
 21
3671.144852878429
 31
0.0
  0
LINE
  5
8277
  8
3
 62
     0
 10
1242.00345597419
 20
2163.9543222435091
 30
0.0
 11
1242.00345597419
 21
3671.144852878429
 31
0.0
  0
LINE
  5
8278
  8
3
 62
     0
 10
2482.0034559741912
 20
3646.144852878429
 30
0.0
 11
1292.00345597419
 21
3646.144852878429
 31
0.0
  0
INSERT
  5
8279
  8
3
 62
     0
  2
_OPEN
 10
2532.0034559741912
 20
3646.144852878429
 30
0.0
 41
50.0
 42
50.0
 43
50.0
  0
INSERT
  5
827A
  8
3
 62
     0
  2
_OPEN
 10
1242.00345597419
 20
3646.144852878429
 30
0.0
 41
50.0
 42
50.0
 43
50.0
 50
180.0
  0
TEXT
  8
3
  40
75
  5
82DD
  62
0
  72
0
  71
0
 10
1815.80
 20
3575.89
 30
0.000000
  1
1290
  0
POINT
  5
827C
  8
DEFPOINTS
 62
     0
 10
2532.0034559741912
 20
3273.4543222435109
 30
0.0
  0
POINT
  5
827D
  8
DEFPOINTS
 62
     0
 10
1242.00345597419
 20
2151.4543222435091
 30
0.0
  0
POINT
  5
827E
  8
DEFPOINTS
 62
     0
 10
1242.00345597419
 20
3646.144852878429
 30
0.0
  0
ENDBLK
  5
80B0
  8
0
  0
BLOCK
  8
0
  2
*D12
 70
     1
 10
0.0
 20
0.0
 30
0.0
  3
*D12
  1

  0
LINE
  5
827F
  8
3
 62
     0
 10
2542.2034559741892
 20
3241.45432224351
 30
0.0
 11
2711.481768504681
 21
3241.45432224351
 31
0.0
  0
LINE
  5
8280
  8
3
 62
     0
 10
2542.2034559741892
 20
2661.45432224351
 30
0.0
 11
2711.4817685046801
 21
2661.45432224351
 31
0.0
  0
LINE
  5
8281
  8
3
 62
     0
 10
2686.4817685046801
 20
3191.45432224351
 30
0.0
 11
2686.4817685046801
 21
2711.4543222435091
 31
0.0
  0
INSERT
  5
8282
  8
3
 62
     0
  2
_OPEN
 10
2686.4817685046801
 20
3241.45432224351
 30
0.0
 41
50.0
 42
50.0
 43
50.0
 50
90.0
  0
INSERT
  5
8283
  8
3
 62
     0
  2
_OPEN
 10
2686.4817685046801
 20
2661.45432224351
 30
0.0
 41
50.0
 42
50.0
 43
50.0
 50
270.0
  0
TEXT
  8
3
  40
75
  5
82DE
  62
0
  72
0
  71
0
 10
2473.98
 20
2839.00
 30
0.000000
  1
580
  0
POINT
  5
8285
  8
DEFPOINTS
 62
     0
 10
2529.7034559741892
 20
3241.45432224351
 30
0.0
  0
POINT
  5
8286
  8
DEFPOINTS
 62
     0
 10
2529.7034559741892
 20
2661.45432224351
 30
0.0
  0
POINT
  5
8287
  8
DEFPOINTS
 62
     0
 10
2686.4817685046801
 20
2661.45432224351
 30
0.0
  0
ENDBLK
  5
80BE
  8
0
  0
BLOCK
  8
0
  2
*D13
 70
     1
 10
0.0
 20
0.0
 30
0.0
  3
*D13
  1

  0
LINE
  5
828B
  8
3
 62
     0
 10
3575.3876673387899
 20
1931.95432224351
 30
0.0
 11
3575.3876673387899
 21
1732.5281891983641
 31
0.0
  0
LINE
  5
828C
  8
3
 62
     0
 10
4230.3876673387904
 20
1931.95432224351
 30
0.0
 11
4230.3876673387904
 21
1732.5281891983641
 31
0.0
  0
LINE
  5
828D
  8
3
 62
     0
 10
3625.3876673387899
 20
1757.528189198365
 30
0.0
 11
4180.3876673387904
 21
1757.528189198365
 31
0.0
  0
INSERT
  5
828E
  8
3
 62
     0
  2
_OPEN
 10
3575.3876673387899
 20
1757.528189198365
 30
0.0
 41
50.0
 42
50.0
 43
50.0
 50
180.0
  0
INSERT
  5
828F
  8
3
 62
     0
  2
_OPEN
 10
4230.3876673387904
 20
1757.528189198365
 30
0.0
 41
50.0
 42
50.0
 43
50.0
  0
TEXT
  8
3
  40
75
  5
82DF
  62
0
  72
0
  71
0
 10
3752.89
 20
1687.28
 30
0.000000
  1
655
  0
POINT
  5
8291
  8
DEFPOINTS
 62
     0
 10
3575.3876673387899
 20
1944.45432224351
 30
0.0
  0
POINT
  5
8292
  8
DEFPOINTS
 62
     0
 10
4230.3876673387904
 20
1944.45432224351
 30
0.0
  0
POINT
  5
8293
  8
DEFPOINTS
 62
     0
 10
4230.3876673387904
 20
1757.528189198365
 30
0.0
  0
ENDBLK
  5
80E1
  8
0
  0
BLOCK
  8
0
  2
*D14
 70
     1
 10
0.0
 20
0.0
 30
0.0
  3
*D14
  1

  0
LINE
  5
8294
  8
3
 62
     0
 10
4230.3876673387904
 20
1931.95432224351
 30
0.0
 11
4230.3876673387904
 21
1732.5281891983641
 31
0.0
  0
LINE
  5
8295
  8
3
 62
     0
 10
4555.3876673387904
 20
1931.95432224351
 30
0.0
 11
4555.3876673387904
 21
1732.5281891983641
 31
0.0
  0
LINE
  5
8296
  8
3
 62
     0
 10
4280.3876673387904
 20
1757.528189198365
 30
0.0
 11
4505.3876673387904
 21
1757.528189198365
 31
0.0
  0
INSERT
  5
8297
  8
3
 62
     0
  2
_OPEN
 10
4230.3876673387904
 20
1757.528189198365
 30
0.0
 41
50.0
 42
50.0
 43
50.0
 50
180.0
  0
INSERT
  5
8298
  8
3
 62
     0
  2
_OPEN
 10
4555.3876673387904
 20
1757.528189198365
 30
0.0
 41
50.0
 42
50.0
 43
50.0
  0
TEXT
  8
3
  40
75
  5
82E0
  62
0
  72
0
  71
0
 10
4242.89
 20
1687.28
 30
0.000000
  1
325
  0
POINT
  5
829A
  8
DEFPOINTS
 62
     0
 10
4230.3876673387904
 20
1944.45432224351
 30
0.0
  0
POINT
  5
829B
  8
DEFPOINTS
 62
     0
 10
4555.3876673387904
 20
1944.45432224351
 30
0.0
  0
POINT
  5
829C
  8
DEFPOINTS
 62
     0
 10
4555.3876673387904
 20
1757.528189198365
 30
0.0
  0
ENDBLK
  5
80F0
  8
0
  0
BLOCK
  8
0
  2
*D15
 70
     1
 10
0.0
 20
0.0
 30
0.0
  3
*D15
  1

  0
LINE
  5
829D
  8
3
 62
     0
 10
2142.0034559741898
 20
1971.9543222435091
 30
0.0
 11
2142.0034559741898
 21
1732.5281891983641
 31
0.0
  0
LINE
  5
829E
  8
3
 62
     0
 10
2496.0034559741898
 20
1931.9543222435091
 30
0.0
 11
2496.0034559741898
 21
1732.5281891983641
 31
0.0
  0
LINE
  5
829F
  8
3
 62
     0
 10
2192.0034559741898
 20
1757.528189198365
 30
0.0
 11
2446.0034559741898
 21
1757.528189198365
 31
0.0
  0
INSERT
  5
82A0
  8
3
 62
     0
  2
_OPEN
 10
2142.0034559741898
 20
1757.528189198365
 30
0.0
 41
50.0
 42
50.0
 43
50.0
 50
180.0
  0
INSERT
  5
82A1
  8
3
 62
     0
  2
_OPEN
 10
2496.0034559741898
 20
1757.528189198365
 30
0.0
 41
50.0
 42
50.0
 43
50.0
  0
TEXT
  8
3
  40
75
  5
82E1
  62
0
  72
0
  71
0
 10
2169.00
 20
1687.28
 30
0.000000
  1
354
  0
POINT
  5
82A3
  8
DEFPOINTS
 62
     0
 10
2142.0034559741898
 20
1984.4543222435091
 30
0.0
  0
POINT
  5
82A4
  8
DEFPOINTS
 62
     0
 10
2496.0034559741898
 20
1944.4543222435091
 30
0.0
  0
POINT
  5
82A5
  8
DEFPOINTS
 62
     0
 10
2496.0034559741898
 20
1757.528189198365
 30
0.0
  0
ENDBLK
  5
80FD
  8
0
  0
BLOCK
  8
0
  2
*D16
 70
     1
 10
0.0
 20
0.0
 30
0.0
  3
*D16
  1

  0
LINE
  5
82A6
  8
3
 62
     0
 10
1238.00345597419
 20
1931.9543222435091
 30
0.0
 11
1238.00345597419
 21
1732.5281891983641
 31
0.0
  0
LINE
  5
82A7
  8
3
 62
     0
 10
2142.0034559741898
 20
1971.9543222435091
 30
0.0
 11
2142.0034559741898
 21
1732.5281891983641
 31
0.0
  0
LINE
  5
82A8
  8
3
 62
     0
 10
1288.00345597419
 20
1757.528189198365
 30
0.0
 11
2092.0034559741898
 21
1757.528189198365
 31
0.0
  0
INSERT
  5
82A9
  8
3
 62
     0
  2
_OPEN
 10
1238.00345597419
 20
1757.528189198365
 30
0.0
 41
50.0
 42
50.0
 43
50.0
 50
180.0
  0
INSERT
  5
82AA
  8
3
 62
     0
  2
_OPEN
 10
2142.0034559741898
 20
1757.528189198365
 30
0.0
 41
50.0
 42
50.0
 43
50.0
  0
TEXT
  8
3
  40
75
  5
82E2
  62
0
  72
0
  71
0
 10
1540.00
 20
1687.28
 30
0.000000
  1
904
  0
POINT
  5
82AC
  8
DEFPOINTS
 62
     0
 10
1238.00345597419
 20
1944.4543222435091
 30
0.0
  0
POINT
  5
82AD
  8
DEFPOINTS
 62
     0
 10
2142.0034559741898
 20
1984.4543222435091
 30
0.0
  0
POINT
  5
82AE
  8
DEFPOINTS
 62
     0
 10
2142.0034559741898
 20
1757.528189198365
 30
0.0
  0
ENDBLK
  5
810A
  8
0
  0
BLOCK
  8
0
  2
*D17
 70
     1
 10
0.0
 20
0.0
 30
0.0
  3
*D17
  1

  0
LINE
  5
82AF
  8
3
 62
     0
 10
2504.5034559741898
 20
2049.4543222435091
 30
0.0
 11
2837.9296115396492
 21
2049.4543222435091
 31
0.0
  0
LINE
  5
82B0
  8
3
 62
     0
 10
2508.5034559741898
 20
1944.4543222435091
 30
0.0
 11
2837.9296115396492
 21
1944.4543222435091
 31
0.0
  0
LINE
  5
82B1
  8
3
 62
     0
 10
2812.9296115396492
 20
2099.4543222435091
 30
0.0
 11
2812.9296115396492
 21
2149.4543222435091
 31
0.0
  0
LINE
  5
82B2
  8
3
 62
     0
 10
2812.9296115396492
 20
1894.4543222435091
 30
0.0
 11
2812.9296115396492
 21
1615.8828936720811
 31
0.0
  0
LINE
  5
82B3
  8
3
 62
     0
 10
2812.9296115396492
 20
2049.4543222435091
 30
0.0
 11
2812.9296115396492
 21
1944.4543222435091
 31
0.0
  0
INSERT
  5
82B4
  8
3
 62
     0
  2
_DOT
 10
2812.9296115396492
 20
2049.4543222435091
 30
0.0
 41
50.0
 42
50.0
 43
50.0
 50
270.0
  0
INSERT
  5
82B5
  8
3
 62
     0
  2
_OPEN
 10
2812.9296115396492
 20
1944.4543222435091
 30
0.0
 41
50.0
 42
50.0
 43
50.0
 50
90.0
  0
TEXT
  8
3
  40
75
  5
82E3
  62
0
  72
0
  71
0
 10
2600.43
 20
1597.42
 30
0.000000
  1
105
  0
POINT
  5
82B7
  8
DEFPOINTS
 62
     0
 10
2492.0034559741898
 20
2049.4543222435091
 30
0.0
  0
POINT
  5
82B8
  8
DEFPOINTS
 62
     0
 10
2496.0034559741898
 20
1944.4543222435091
 30
0.0
  0
POINT
  5
82B9
  8
DEFPOINTS
 62
     0
 10
2812.9296115396492
 20
1944.4543222435091
 30
0.0
  0
ENDBLK
  5
8119
  8
0
  0
BLOCK
  8
0
  2
*D18
 70
     1
 10
0.0
 20
0.0
 30
0.0
  3
*D18
  1

  0
LINE
  5
82BA
  8
3
 62
     0
 10
2544.5034559741912
 20
3273.4543222435109
 30
0.0
 11
3068.0629098116119
 21
3273.4543222435109
 31
0.0
  0
LINE
  5
82BB
  8
3
 62
     0
 10
2508.5034559741898
 20
1944.4543222435091
 30
0.0
 11
3068.062909811611
 21
1944.4543222435091
 31
0.0
  0
LINE
  5
82BC
  8
3
 62
     0
 10
3043.0629098116119
 20
3223.45432224351
 30
0.0
 11
3043.062909811611
 21
1994.4543222435091
 31
0.0
  0
INSERT
  5
82BD
  8
3
 62
     0
  2
_OPEN
 10
3043.0629098116119
 20
3273.4543222435109
 30
0.0
 41
50.0
 42
50.0
 43
50.0
 50
90.0
  0
INSERT
  5
82BE
  8
3
 62
     0
  2
_OPEN
 10
3043.062909811611
 20
1944.4543222435091
 30
0.0
 41
50.0
 42
50.0
 43
50.0
 50
270.0
  0
TEXT
  8
3
  40
75
  5
82E4
  62
0
  72
0
  71
0
 10
2810.92
 20
2476.20
 30
0.000000
  1
(1329)
  0
POINT
  5
82C0
  8
DEFPOINTS
 62
     0
 10
2532.0034559741912
 20
3273.4543222435109
 30
0.0
  0
POINT
  5
82C1
  8
DEFPOINTS
 62
     0
 10
2496.0034559741898
 20
1944.4543222435091
 30
0.0
  0
POINT
  5
82C2
  8
DEFPOINTS
 62
     0
 10
3043.062909811611
 20
1944.4543222435091
 30
0.0
  0
ENDBLK
  5
8126
  8
0
  0
BLOCK
  8
0
  2
*D19
 70
     1
 10
0.0
 20
0.0
 30
0.0
  3
*D19
  1

  0
LINE
  5
82C3
  8
3
 62
     0
 10
1235.003455974191
 20
5006.9052370605459
 30
0.0
 11
1235.003455974191
 21
5171.5848633580272
 31
0.0
  0
LINE
  5
82C4
  8
3
 62
     0
 10
2493.0034559741921
 20
5006.9052370605468
 30
0.0
 11
2493.0034559741921
 21
5171.5848633580272
 31
0.0
  0
LINE
  5
82C5
  8
3
 62
     0
 10
1285.003455974191
 20
5146.5848633580281
 30
0.0
 11
2443.0034559741921
 21
5146.5848633580281
 31
0.0
  0
INSERT
  5
82C6
  8
3
 62
     0
  2
_OPEN
 10
1235.003455974191
 20
5146.5848633580281
 30
0.0
 41
50.0
 42
50.0
 43
50.0
 50
180.0
  0
INSERT
  5
82C7
  8
3
 62
     0
  2
_OPEN
 10
2493.0034559741921
 20
5146.5848633580281
 30
0.0
 41
50.0
 42
50.0
 43
50.0
  0
TEXT
  8
3
  40
75
  5
82E5
  62
0
  72
0
  71
0
 10
1714.00
 20
5076.33
 30
0.000000
  1
1258
  0
POINT
  5
82C9
  8
DEFPOINTS
 62
     0
 10
1235.003455974191
 20
4994.4052370605468
 30
0.0
  0
POINT
  5
82CA
  8
DEFPOINTS
 62
     0
 10
2493.0034559741921
 20
4994.4052370605468
 30
0.0
  0
POINT
  5
82CB
  8
DEFPOINTS
 62
     0
 10
2493.0034559741921
 20
5146.5848633580281
 30
0.0
  0
ENDBLK
  5
8140
  8
0
  0
BLOCK
  8
0
  2
*D20
 70
     1
 10
0.0
 20
0.0
 30
0.0
  3
*D20
  1

  0
LINE
  5
82CC
  8
3
 62
     0
 10
1222.503455974191
 20
4994.4052370605468
 30
0.0
 11
1043.6432280540389
 21
4994.4052370605468
 31
0.0
  0
LINE
  5
82CD
  8
3
 62
     0
 10
1222.5034559741921
 20
4014.4052370605468
 30
0.0
 11
1043.6432280540389
 21
4014.4052370605468
 31
0.0
  0
LINE
  5
82CE
  8
3
 62
     0
 10
1068.6432280540389
 20
4944.4052370605459
 30
0.0
 11
1068.6432280540389
 21
4064.4052370605468
 31
0.0
  0
INSERT
  5
82CF
  8
3
 62
     0
  2
_OPEN
 10
1068.6432280540389
 20
4994.4052370605468
 30
0.0
 41
50.0
 42
50.0
 43
50.0
 50
90.0
  0
INSERT
  5
82D0
  8
3
 62
     0
  2
_OPEN
 10
1068.6432280540389
 20
4014.4052370605468
 30
0.0
 41
50.0
 42
50.0
 43
50.0
 50
270.0
  0
TEXT
  8
3
  40
75
  5
82E6
  62
0
  72
0
  71
0
 10
856.143
 20
4371.66
 30
0.000000
  1
980
  0
POINT
  5
82D2
  8
DEFPOINTS
 62
     0
 10
1235.003455974191
 20
4994.4052370605468
 30
0.0
  0
POINT
  5
82D3
  8
DEFPOINTS
 62
     0
 10
1235.0034559741921
 20
4014.4052370605468
 30
0.0
  0
POINT
  5
82D4
  8
DEFPOINTS
 62
     0
 10
1068.6432280540389
 20
4014.4052370605468
 30
0.0
  0
ENDBLK
  5
814D
  8
0
  0
ENDSEC
  0
SECTION
  2
ENTITIES
  0
LINE
  5
7B1E
  8
1
 10
1877.003455974191
 20
2557.9543222435091
 30
0.0
 11
1877.003455974191
 21
2151.45432224351
 31
0.0
  0
LINE
  5
7B1F
  8
1
 10
2407.0034559741912
 20
2557.9543222435091
 30
0.0
 11
2407.0034559741912
 21
2151.45432224351
 31
0.0
  0
LINE
  5
7B22
  8
1
 10
2369.3034559741909
 20
2577.3543222435101
 30
0.0
 11
2369.3034559741909
 21
2151.45432224351
 31
0.0
  0
LINE
  5
7B23
  8
1
 10
1914.703455974191
 20
2577.3543222435101
 30
0.0
 11
1914.703455974191
 21
2151.45432224351
 31
0.0
  0
LINE
  5
7B26
  8
2
 10
2142.0034559741898
 20
3287.9784297007659
 30
0.0
 11
2142.0034559741898
 21
1984.4543222435091
 31
0.0
  0
LINE
  5
7B27
  8
1
 10
1877.003455974191
 20
2151.45432224351
 30
0.0
 11
1914.703455974191
 21
2151.45432224351
 31
0.0
  0
LINE
  5
7B28
  8
1
 10
2369.3034559741909
 20
2151.45432224351
 30
0.0
 11
2407.003455974193
 21
2151.45432224351
 31
0.0
  0
LINE
  5
7B29
  8
2
 10
1468.624811815675
 20
2641.4543222435091
 30
0.0
 11
2567.7399857705041
 21
2641.4543222435091
 31
0.0
  0
LINE
  5
7B43
  8
1
 10
2142.0034559741898
 20
2621.9543222435091
 30
0.0
 11
2520.0034559741898
 21
2621.9543222435132
 31
0.0
  0
LINE
  5
7B44
  8
1
 10
1919.3034559741909
 20
2581.95432224351
 30
0.0
 11
2364.703455974191
 21
2581.95432224351
 31
0.0
  0
LINE
  5
7B45
  8
1
 10
1764.00345597419
 20
2621.9543222435091
 30
0.0
 11
2142.0034559741898
 21
2621.9543222435091
 31
0.0
  0
LINE
  5
7B46
  8
1
 10
1759.00345597419
 20
2616.9543222435091
 30
0.0
 11
1764.00345597419
 21
2621.9543222435091
 31
0.0
  0
LINE
  5
7B47
  8
1
 10
1759.00345597419
 20
2581.95432224351
 30
0.0
 11
1759.00345597419
 21
2616.9543222435091
 31
0.0
  0
ARC
  5
7B48
  8
1
 10
1919.3034559741909
 20
2577.3543222435101
 30
0.0
 40
4.5999999999999988
 50
90.0
 51
180.0
  0
LINE
  5
7B49
  8
1
 10
1897.00345597419
 20
2577.9543222435091
 30
0.0
 11
1914.7427542737939
 21
2577.9543222435091
 31
0.0
  0
LINE
  5
7B4A
  8
1
 10
1877.003455974191
 20
2557.9543222435091
 30
0.0
 11
1897.00345597419
 21
2577.9543222435091
 31
0.0
  0
LINE
  5
7B4B
  8
1
 10
1914.703455974191
 20
2571.9543222435091
 30
0.0
 11
1914.703455974191
 21
2525.0210488871262
 31
0.0
  0
LINE
  5
7B4E
  8
1
 10
2387.0034559741898
 20
2577.9543222435091
 30
0.0
 11
2407.0034559741912
 21
2557.9543222435091
 31
0.0
  0
ARC
  5
7B4F
  8
1
 10
2364.703455974191
 20
2577.3543222435101
 30
0.0
 40
4.5999999999999988
 50
0.0
 51
90.0
  0
LINE
  5
7B50
  8
1
 10
2369.2641576745868
 20
2577.9543222435091
 30
0.0
 11
2387.0034559741898
 21
2577.9543222435091
 31
0.0
  0
LINE
  5
7B51
  8
1
 10
2525.0034559741912
 20
2581.9543222435132
 30
0.0
 11
2525.0034559741912
 21
2616.9543222435132
 31
0.0
  0
LINE
  5
7B52
  8
1
 10
2520.0034559741898
 20
2621.9543222435132
 30
0.0
 11
2525.0034559741912
 21
2616.9543222435132
 31
0.0
  0
LINE
  5
7B6A
  8
1
 10
4485.3876673387904
 20
2406.45432224351
 30
0.0
 11
4485.3876673387913
 21
2071.45432224351
 31
0.0
  0
LINE
  5
7B70
  8
1
 10
4476.0876673387911
 20
2415.7543222435102
 30
0.0
 11
4476.0876673387911
 21
2918.95432224351
 31
0.0
  0
LINE
  5
7B71
  8
2
 10
4230.3876673387904
 20
3381.081119185239
 30
0.0
 11
4230.3876673387904
 21
1944.45432224351
 31
0.0
  0
LINE
  5
7B72
  8
2
 10
3579.3683460792049
 20
2641.45432224351
 30
0.0
 11
4501.3514928763407
 21
2641.45432224351
 31
0.0
  0
LINE
  5
7B73
  8
1
 10
3750.3876673387908
 20
2616.45432224351
 30
0.0
 11
4015.0876673387688
 21
2616.45432224351
 31
0.0
  0
LINE
  5
7B74
  8
1
 10
3750.3876673387908
 20
2666.4543222435091
 30
0.0
 11
3985.387667338789
 21
2666.4543222435091
 31
0.0
  0
LINE
  5
7B75
  8
1
 10
3750.3876673387899
 20
2616.45432224351
 30
0.0
 11
3750.3876673387899
 21
2666.4543222435091
 31
0.0
  0
LINE
  5
7B76
  8
1
 10
3675.3876673387908
 20
2659.45432224351
 30
0.0
 11
3675.3876673387908
 21
2623.45432224351
 31
0.0
  0
LINE
  5
7B77
  8
1
 10
3676.3876673387908
 20
2622.45432224351
 30
0.0
 11
3748.3876673387908
 21
2622.45432224351
 31
0.0
  0
LINE
  5
7B78
  8
1
 10
3675.3876673387908
 20
2623.45432224351
 30
0.0
 11
3676.3876673387908
 21
2622.45432224351
 31
0.0
  0
ARC
  5
7B79
  8
1
 10
3748.3876673387908
 20
2620.45432224351
 30
0.0
 40
2.0
 50
0.0
 51
90.0
  0
LINE
  5
7B7A
  8
1
 10
4015.0876673387711
 20
2581.9543222435109
 30
0.0
 11
3770.3876673387899
 21
2581.95432224351
 31
0.0
  0
LINE
  5
7B7B
  8
1
 10
3676.3876673387908
 20
2660.45432224351
 30
0.0
 11
3748.3876673387908
 21
2660.45432224351
 31
0.0
  0
LINE
  5
7B7C
  8
1
 10
3675.3876673387908
 20
2659.45432224351
 30
0.0
 11
3676.3876673387908
 21
2660.45432224351
 31
0.0
  0
ARC
  5
7B7D
  8
1
 10
3748.3876673387908
 20
2662.45432224351
 30
0.0
 40
2.0
 50
270.0
 51
0.0
  0
LINE
  5
7B7E
  8
1
 10
4475.3876673387904
 20
2416.45432224351
 30
0.0
 11
4485.3876673387904
 21
2406.45432224351
 31
0.0
  0
LINE
  5
7B7F
  8
1
 10
4475.3876673387904
 20
2416.45432224351
 30
0.0
 11
4445.3876673387904
 21
2416.45432224351
 31
0.0
  0
LINE
  5
7B84
  8
1
 10
4476.0876673387911
 20
2918.95432224351
 30
0.0
 11
4476.0876673387911
 21
2922.45432224351
 31
0.0
  0
LINE
  5
7B85
  8
1
 10
4453.0876673387902
 20
2924.45432224351
 30
0.0
 11
4474.0876673387902
 21
2924.45432224351
 31
0.0
  0
ARC
  5
7B86
  8
1
 10
4474.0876673387902
 20
2922.45432224351
 30
0.0
 40
2.0
 50
0.0
 51
90.000000000000028
  0
ARC
  5
7B87
  8
1
 10
4453.0876673387902
 20
2928.45432224351
 30
0.0
 40
4.0
 50
180.0
 51
270.0
  0
LINE
  5
7B88
  8
1
 10
4446.0876673387893
 20
2951.45432224351
 30
0.0
 11
4447.0876673387911
 21
2951.45432224351
 31
0.0
  0
ARC
  5
7B89
  8
1
 10
4447.0876673387911
 20
2949.45432224351
 30
0.0
 40
2.0
 50
0.0
 51
90.000000000000028
  0
LINE
  5
7B8A
  8
1
 10
4449.0876673387902
 20
2928.45432224351
 30
0.0
 11
4449.0876673387902
 21
2949.45432224351
 31
0.0
  0
LINE
  5
7B8C
  8
1
 10
2114.0034559741898
 20
4364.405237060545
 30
0.0
 11
1831.0034559741921
 21
4364.405237060545
 31
0.0
  0
LINE
  5
7B8D
  8
1
 10
1879.0034559741921
 20
4213.4052370605468
 30
0.0
 11
1911.7427542737951
 21
4213.4052370605468
 31
0.0
  0
LINE
  5
7B8F
  8
1
 10
2507.003455974193
 20
4424.4052370605459
 30
0.0
 11
2447.0034559741921
 21
4364.405237060545
 31
0.0
  0
LINE
  5
7B93
  8
1
 10
2447.0034559741921
 20
4364.405237060545
 30
0.0
 11
2164.0034559741898
 21
4364.405237060545
 31
0.0
  0
LINE
  5
7B94
  8
1
 10
2366.3034559741918
 20
4214.0052370605463
 30
0.0
 11
2366.3034559741918
 21
4364.4052370605468
 31
0.0
  0
LINE
  5
7B95
  8
1
 10
2404.0034559741921
 20
4218.4052370605459
 30
0.0
 11
2404.0034559741921
 21
4364.405237060545
 31
0.0
  0
ARC
  5
7B96
  8
1
 10
2361.7034559741919
 20
4214.0052370605463
 30
0.0
 40
4.5999999999999988
 50
270.0
 51
0.0
  0
LINE
  5
7B97
  8
1
 10
2399.0034559741921
 20
4213.4052370605468
 30
0.0
 11
2404.0034559741921
 21
4218.4052370605459
 31
0.0
  0
LINE
  5
7B98
  8
1
 10
2366.2641576745882
 20
4213.4052370605468
 30
0.0
 11
2399.0034559741921
 21
4213.4052370605468
 31
0.0
  0
LINE
  5
7B99
  8
1
 10
2164.0034559741912
 20
4209.4052370605459
 30
0.0
 11
2364.3034559741918
 21
4209.4052370605459
 31
0.0
  0
LINE
  5
7B9A
  8
1
 10
2164.0034559741912
 20
4207.1052370605457
 30
0.0
 11
2364.3034559741918
 21
4207.1052370605457
 31
0.0
  0
LINE
  5
7B9B
  8
1
 10
2364.3034559741918
 20
4207.1052370605457
 30
0.0
 11
2364.3034559741918
 21
4209.4052370605459
 31
0.0
  0
LINE
  5
7B9C
  8
1
 10
1911.7034559741919
 20
4214.0052370605472
 30
0.0
 11
1911.7034559741919
 21
4364.4052370605468
 31
0.0
  0
LINE
  5
7B9D
  8
1
 10
2164.0034559741912
 20
4189.4052370605468
 30
0.0
 11
2164.0034559741912
 21
4456.9052370605468
 31
0.0
  0
LINE
  5
7B9E
  8
1
 10
2114.0034559741912
 20
4189.4052370605468
 30
0.0
 11
2114.0034559741912
 21
4426.9052370605468
 31
0.0
  0
LINE
  5
7B9F
  8
1
 10
2164.0034559741912
 20
4189.4052370605468
 30
0.0
 11
2114.0034559741912
 21
4189.4052370605468
 31
0.0
  0
LINE
  5
7BA0
  8
1
 10
2121.0034559741912
 20
4114.4052370605468
 30
0.0
 11
2157.0034559741912
 21
4114.4052370605468
 31
0.0
  0
LINE
  5
7BA1
  8
1
 10
2158.0034559741921
 20
4115.4052370605477
 30
0.0
 11
2158.0034559741921
 21
4187.4052370605477
 31
0.0
  0
LINE
  5
7BA2
  8
1
 10
2157.0034559741912
 20
4114.4052370605468
 30
0.0
 11
2158.0034559741921
 21
4115.4052370605477
 31
0.0
  0
LINE
  5
7BA3
  8
1
 10
2120.0034559741912
 20
4115.4052370605477
 30
0.0
 11
2120.0034559741912
 21
4187.4052370605477
 31
0.0
  0
LINE
  5
7BA4
  8
1
 10
2121.0034559741912
 20
4114.4052370605468
 30
0.0
 11
2120.0034559741912
 21
4115.4052370605477
 31
0.0
  0
LINE
  5
7BA5
  8
1
 10
1913.7034559741919
 20
4207.1052370605457
 30
0.0
 11
2114.0034559741912
 21
4207.1052370605457
 31
0.0
  0
LINE
  5
7BA6
  8
1
 10
1913.7034559741919
 20
4209.4052370605468
 30
0.0
 11
2114.0034559741912
 21
4209.4052370605459
 31
0.0
  0
LINE
  5
7BA7
  8
1
 10
1913.7034559741919
 20
4207.1052370605457
 30
0.0
 11
1913.7034559741901
 21
4209.4052370605468
 31
0.0
  0
ARC
  5
7BA8
  8
1
 10
1916.303455974192
 20
4214.0052370605463
 30
0.0
 40
4.5999999999999988
 50
180.0
 51
270.0
  0
LINE
  5
7BA9
  8
1
 10
1874.0034559741921
 20
4218.4052370605459
 30
0.0
 11
1874.0034559741921
 21
4364.405237060545
 31
0.0
  0
LINE
  5
7BAA
  8
1
 10
1874.0034559741921
 20
4218.4052370605459
 30
0.0
 11
1879.0034559741921
 21
4213.4052370605468
 31
0.0
  0
LINE
  5
7BAB
  8
1
 10
1756.003455974191
 20
4439.4052370605459
 30
0.0
 11
1831.0034559741921
 21
4364.405237060545
 31
0.0
  0
LINE
  5
7BAE
  8
1
 10
2525.0034559741912
 20
2581.9543222435132
 30
0.0
 11
1759.00345597419
 21
2581.95432224351
 31
0.0
  0
LINE
  5
7BAF
  8
1
 10
1242.00345597419
 20
2071.4543222435091
 30
0.0
 11
2492.0034559741898
 21
2071.4543222435091
 31
0.0
  0
LINE
  5
7BB0
  8
1
 10
1242.00345597419
 20
2151.4543222435091
 30
0.0
 11
2492.0034559741898
 21
2151.4543222435091
 31
0.0
  0
LINE
  5
7BB1
  8
1
 10
1242.00345597419
 20
2151.4543222435091
 30
0.0
 11
1242.00345597419
 21
2071.4543222435091
 31
0.0
  0
LINE
  5
7BB2
  8
1
 10
2492.0034559741898
 20
2151.4543222435091
 30
0.0
 11
2492.0034559741898
 21
2071.4543222435091
 31
0.0
  0
LINE
  5
7BB3
  8
1
 10
1242.00345597419
 20
2049.4543222435091
 30
0.0
 11
2492.0034559741898
 21
2049.4543222435091
 31
0.0
  0
LINE
  5
7BB4
  8
1
 10
1238.00345597419
 20
1984.4543222435091
 30
0.0
 11
2496.0034559741898
 21
1984.4543222435091
 31
0.0
  0
LINE
  5
7BB5
  8
1
 10
2492.0034559741898
 20
2049.4543222435091
 30
0.0
 11
2492.0034559741898
 21
1984.4543222435091
 31
0.0
  0
LINE
  5
7BB6
  8
1
 10
1242.00345597419
 20
2049.4543222435091
 30
0.0
 11
1242.00345597419
 21
1984.4543222435091
 31
0.0
  0
LINE
  5
7BB7
  8
1
 10
3770.3876673387899
 20
2071.45432224351
 30
0.0
 11
4485.3876673387904
 21
2071.45432224351
 31
0.0
  0
LINE
  5
7BB8
  8
1
 10
3770.3876673387899
 20
2151.45432224351
 30
0.0
 11
4485.3876673387904
 21
2151.45432224351
 31
0.0
  0
LINE
  5
7BB9
  8
1
 10
3770.3876673387899
 20
2581.95432224351
 30
0.0
 11
3770.387667338789
 21
2071.45432224351
 31
0.0
  0
LINE
  5
7BBA
  8
1
 10
3770.3876673387899
 20
2049.45432224351
 30
0.0
 11
4485.3876673387904
 21
2049.45432224351
 31
0.0
  0
LINE
  5
7BBB
  8
1
 10
3575.3876673387899
 20
1984.4543222435091
 30
0.0
 11
4555.3876673387904
 21
1984.4543222435091
 31
0.0
  0
LINE
  5
7BBC
  8
1
 10
4485.3876673387913
 20
2049.45432224351
 30
0.0
 11
4485.3876673387913
 21
1984.4543222435091
 31
0.0
  0
LINE
  5
7BBD
  8
1
 10
3770.387667338789
 20
2049.45432224351
 30
0.0
 11
3770.3876673387899
 21
1984.4543222435091
 31
0.0
  0
CIRCLE
  5
7BC2
  8
1
 10
2142.0034559741898
 20
2641.45432224351
 30
0.0
 40
139.69999999999999
  0
LINE
  5
7BC3
  8
1
 10
3656.5546323896692
 20
2781.1543222435089
 30
0.0
 11
3656.554632389672
 21
2501.7543222435079
 31
0.0
  0
LINE
  5
7BC4
  8
1
 10
3696.5546323896692
 20
2781.1543222435089
 30
0.0
 11
3696.554632389672
 21
2501.7543222435079
 31
0.0
  0
LINE
  5
7BC5
  8
1
 10
3609.6143940401589
 20
2861.4543222435091
 30
0.0
 11
3609.6143940401612
 21
2163.4543222435141
 31
0.0
  0
CIRCLE
  5
7BC6
  8
1
 10
1392.00345597419
 20
2274.4543222435082
 30
0.0
 40
57.149999999999991
  0
LINE
  5
7BC7
  8
2
 10
1392.0034559741871
 20
2034.9417967119559
 30
0.0
 11
1392.00345597419
 21
2382.9154222435081
 31
0.0
  0
LINE
  5
7BC8
  8
1
 10
1268.2875614493751
 20
2151.4543222435082
 30
0.0
 11
1515.7193504990009
 21
2151.4543222435068
 31
0.0
  0
LINE
  5
7BC9
  8
1
 10
3656.554632389672
 20
2501.7543222435079
 30
0.0
 11
3656.554632389672
 21
2217.3043222435081
 31
0.0
  0
LINE
  5
7BCA
  8
1
 10
3696.554632389672
 20
2501.7543222435079
 30
0.0
 11
3696.554632389672
 21
2217.3043222435081
 31
0.0
  0
LINE
  5
7BCB
  8
1
 10
3656.5546323896729
 20
2217.3043222435081
 30
0.0
 11
3696.554632389672
 21
2217.3043222435081
 31
0.0
  0
LINE
  5
7BCC
  8
1
 10
3609.6143940401612
 20
2163.4543222435141
 30
0.0
 11
3731.6143940401598
 21
2163.4543222435141
 31
0.0
  0
LINE
  5
7BCD
  8
1
 10
3656.554632389672
 20
2501.7543222435079
 30
0.0
 11
3696.554632389672
 21
2501.7543222435079
 31
0.0
1001
ACAD
1000
ASC_BOUNDS
1002
{
1070
    19
1002
}
  0
LINE
  5
7BCE
  8
1
 10
3656.5546323896729
 20
2331.6043222435078
 30
0.0
 11
3696.554632389672
 21
2331.6043222435078
 31
0.0
  0
LINE
  5
7BCF
  8
1
 10
3731.6143940401598
 20
2861.4543222435091
 30
0.0
 11
3609.6143940401589
 21
2861.4543222435091
 31
0.0
  0
LINE
  5
7BD0
  8
1
 10
3609.6143940401589
 20
2861.4543222435082
 30
0.0
 11
3731.6143940401598
 21
2861.4543222435082
 31
0.0
  0
LINE
  5
7BD1
  8
1
 10
3656.5546323896692
 20
2781.1543222435089
 30
0.0
 11
3696.5546323896692
 21
2781.1543222435089
 31
0.0
1001
ACAD
1000
ASC_BOUNDS
1002
{
1070
    19
1002
}
  0
LINE
  5
7BD2
  8
1
 10
3731.6143940401598
 20
2841.4543222435091
 30
0.0
 11
3731.6143940401598
 21
2861.4543222435091
 31
0.0
  0
LINE
  5
7BD3
  8
1
 10
2082.3665628587132
 20
2767.7853595207098
 30
0.0
 11
1363.1776368729129
 21
2323.039733263136
 31
0.0
  0
LINE
  5
7BD4
  8
1
 10
2142.0034559741921
 20
2905.0371333995581
 30
0.0
 11
1292.0034559741889
 21
2354.2837293912871
 31
0.0
  0
LINE
  5
7BD5
  8
1
 10
2170.7045702998162
 20
2504.7344040294201
 30
0.0
 11
1415.517603503871
 21
2222.3658651157289
 31
0.0
  0
LINE
  5
7BD6
  8
1
 10
2382.0034559741921
 20
2765.9803554712871
 30
0.0
 11
2382.0034559741862
 21
2151.4543222435091
 31
0.0
  0
LINE
  5
7BD7
  8
1
 10
2142.0034559741921
 20
2905.0371333995581
 30
0.0
 11
2382.0034559741921
 21
2765.9803554712871
 31
0.0
  0
ARC
  5
7BD8
  8
1
 10
1392.00345597419
 20
2274.4543222435082
 30
0.0
 40
100.8
 50
180.0
 51
239.6066999999999
  0
ARC
  5
7BD9
  8
1
 10
1392.00345597419
 20
2274.4543222435082
 30
0.0
 40
100.8
 50
300.30070000000001
 51
180.0
  0
LINE
  5
7BDA
  8
1
 10
1327.00345597419
 20
2194.4543222435082
 30
0.0
 11
1327.00345597419
 21
2184.4543222435082
 31
0.0
  0
LINE
  5
7BDB
  8
1
 10
1317.00345597419
 20
2194.4543222435082
 30
0.0
 11
1317.00345597419
 21
2184.4543222435082
 31
0.0
  0
LINE
  5
7BDC
  8
1
 10
1322.00345597419
 20
2180.0878222435081
 30
0.0
 11
1322.00345597419
 21
2196.9912222435082
 31
0.0
  0
LINE
  5
7BDD
  8
1
 10
1304.00345597419
 20
2184.4543222435082
 30
0.0
 11
1304.00345597419
 21
2192.4543222435082
 31
0.0
  0
LINE
  5
7BDE
  8
1
 10
1457.00345597419
 20
2194.4543222435082
 30
0.0
 11
1457.00345597419
 21
2184.4543222435082
 31
0.0
  0
LINE
  5
7BDF
  8
1
 10
1467.00345597419
 20
2194.4543222435082
 30
0.0
 11
1467.00345597419
 21
2184.4543222435082
 31
0.0
  0
LINE
  5
7BE0
  8
1
 10
1462.003455974191
 20
2180.0878222435081
 30
0.0
 11
1462.003455974191
 21
2196.9912222435082
 31
0.0
  0
LINE
  5
7BE1
  8
1
 10
1480.00345597419
 20
2184.4543222435082
 30
0.0
 11
1480.00345597419
 21
2192.4543222435082
 31
0.0
  0
ARC
  5
7BE2
  8
1
 10
1392.00345597419
 20
2274.4543222435082
 30
0.0
 40
100.8
 50
180.0
 51
239.6066999999999
  0
LINE
  5
7BE3
  8
1
 10
1436.8339559741901
 20
2188.4543222435068
 30
0.0
 11
1346.87955597419
 21
2188.4543222435068
 31
0.0
  0
LINE
  5
7BE4
  8
1
 10
1442.9275559741909
 20
2187.4543222435082
 30
0.0
 11
1340.9724559741901
 21
2187.4543222435082
 31
0.0
  0
LINE
  5
7BE5
  8
1
 10
1442.9275559741909
 20
2187.4543222435082
 30
0.0
 11
1340.9724559741901
 21
2187.4543222435082
 31
0.0
  0
LINE
  5
7BE6
  8
1
 10
1480.00345597419
 20
2184.4543222435082
 30
0.0
 11
1440.00345597419
 21
2184.4543222435082
 31
0.0
  0
LINE
  5
7BE7
  8
1
 10
1440.00345597419
 20
2187.4271222435082
 30
0.0
 11
1440.00345597419
 21
2184.4543222435082
 31
0.0
  0
LINE
  5
7BE8
  8
1
 10
1304.00345597419
 20
2184.4543222435082
 30
0.0
 11
1344.00345597419
 21
2184.4543222435082
 31
0.0
  0
LINE
  5
7BE9
  8
1
 10
1344.00345597419
 20
2187.3853222435082
 30
0.0
 11
1344.00345597419
 21
2184.4543222435082
 31
0.0
  0
LINE
  5
7BEA
  8
2
 10
1496.468655974189
 20
2274.4543222435082
 30
0.0
 11
1285.9006559741899
 21
2274.4543222435082
 31
0.0
  0
LINE
  5
7BEB
  8
1
 10
1453.327455974189
 20
2194.4543222435082
 30
0.0
 11
1478.00345597419
 21
2194.4543222435082
 31
0.0
  0
LINE
  5
7BEC
  8
1
 10
1474.149955974189
 20
2216.0370222435072
 30
0.0
 11
1480.00345597419
 21
2192.4543222435082
 31
0.0
  0
ARC
  5
7BED
  8
1
 10
1478.00345597419
 20
2192.4543222435082
 30
0.0
 40
2.0
 50
0.0
 51
90.0
  0
LINE
  5
7BEE
  8
1
 10
1330.7145559741889
 20
2194.4543222435082
 30
0.0
 11
1306.00345597419
 21
2194.4543222435082
 31
0.0
  0
LINE
  5
7BEF
  8
1
 10
1309.85685597419
 20
2216.0370222435072
 30
0.0
 11
1304.00345597419
 21
2192.4543222435082
 31
0.0
  0
ARC
  5
7BF0
  8
1
 10
1306.00345597419
 20
2192.4543222435082
 30
0.0
 40
2.0
 50
90.0
 51
180.0
  0
LINE
  5
7BF1
  8
1
 10
1268.287561449376
 20
2151.4543222435091
 30
0.0
 11
1279.5034559741889
 21
2186.4543222435091
 31
0.0
  0
LINE
  5
7BF2
  8
1
 10
1363.6007040577019
 20
2186.4543222435082
 30
0.0
 11
1363.6007040577019
 21
2180.157650608598
 31
0.0
  0
LINE
  5
7BF3
  8
1
 10
1420.406207890675
 20
2180.1576506085971
 30
0.0
 11
1420.406207890675
 21
2186.4543222435082
 31
0.0
  0
LINE
  5
7BF4
  8
1
 10
1504.503455974188
 20
2186.4543222435068
 30
0.0
 11
1515.7193504990009
 21
2151.4543222435068
 31
0.0
  0
LINE
  5
7BF5
  8
1
 10
1515.7193504990009
 20
2151.4543222435068
 30
0.0
 11
1420.406207890675
 21
2151.4543222435082
 31
0.0
  0
LINE
  5
7BF6
  8
1
 10
1363.6007040577019
 20
2151.4543222435082
 30
0.0
 11
1268.287561449376
 21
2151.4543222435091
 31
0.0
  0
LINE
  5
7BF7
  8
1
 10
1420.406207890675
 20
2158.5949570198418
 30
0.0
 11
1363.6007040577019
 21
2158.5949570198418
 31
0.0
  0
LINE
  5
7BF8
  8
1
 10
1363.6007040577019
 20
2180.157650608598
 30
0.0
 11
1420.406207890675
 21
2180.1576506085971
 31
0.0
  0
LINE
  5
7BF9
  8
1
 10
1420.406207890675
 20
2151.4543222435082
 30
0.0
 11
1420.406207890675
 21
2158.5949570198418
 31
0.0
  0
LINE
  5
7BFA
  8
1
 10
1363.6007040577019
 20
2158.5949570198418
 30
0.0
 11
1363.6007040577019
 21
2151.4543222435082
 31
0.0
  0
LINE
  5
7BFB
  8
1
 10
1420.406207890675
 20
2186.4543222435082
 30
0.0
 11
1504.503455974188
 21
2186.4543222435068
 31
0.0
  0
LINE
  5
7BFC
  8
1
 10
1279.5034559741889
 20
2186.4543222435091
 30
0.0
 11
1363.6007040577019
 21
2186.4543222435082
 31
0.0
  0
LINE
  5
7BFD
  8
1
 10
1292.0034559741889
 20
2354.2837293912871
 30
0.0
 11
1292.0034559741871
 21
2151.4543222435082
 31
0.0
  0
LINE
  5
7BFE
  8
2
 10
1392.00345597419
 20
4441.7404611068132
 30
0.0
 11
1392.003455974188
 21
4006.1129179800141
 31
0.0
  0
LINE
  5
7BFF
  8
1
 10
1380.003455974188
 20
4160.8034611068133
 30
0.0
 11
1380.003455974188
 21
4110.8034611068133
 31
0.0
  0
LINE
  5
7C00
  8
1
 10
1404.003455974188
 20
4160.8034611068133
 30
0.0
 11
1404.003455974188
 21
4110.8034611068133
 31
0.0
  0
LINE
  5
7C01
  8
1
 10
1380.003455974188
 20
4110.8034611068133
 30
0.0
 11
1407.0034559741889
 21
4110.8034611068133
 31
0.0
  0
LINE
  5
7C02
  8
1
 10
1407.0034559741889
 20
4150.8034611068133
 30
0.0
 11
1407.0034559741889
 21
4110.8034611068133
 31
0.0
  0
LINE
  5
7C03
  8
1
 10
1404.003455974188
 20
4150.8034611068133
 30
0.0
 11
1407.0034559741889
 21
4150.8034611068133
 31
0.0
  0
LINE
  5
7C04
  8
1
 10
1379.503455974188
 20
4160.8034611068133
 30
0.0
 11
1404.5034559741889
 21
4160.8034611068133
 31
0.0
  0
LINE
  5
7C05
  8
1
 10
1271.2034559741901
 20
4175.8034611068142
 30
0.0
 11
1512.80345597419
 21
4175.8034611068124
 31
0.0
  0
LINE
  5
7C06
  8
1
 10
1428.5034559741889
 20
4165.8034611068124
 30
0.0
 11
1355.503455974188
 21
4165.8034611068133
 31
0.0
  0
LINE
  5
7C07
  8
1
 10
1354.5034559741889
 20
4166.8034611068133
 30
0.0
 11
1354.5034559741889
 21
4174.8034611068133
 31
0.0
  0
ARC
  5
7C08
  8
1
 10
1353.503455974188
 20
4174.8034611068133
 30
0.0
 40
1.0000999999999991
 50
359.99999999999937
 51
89.996499999999514
  0
ARC
  5
7C09
  8
1
 10
1355.50355597419
 20
4166.8034611068133
 30
0.0
 40
1.0000999999999991
 50
179.99999999999949
 51
269.99649999999951
  0
LINE
  5
7C0A
  8
1
 10
1379.503455974188
 20
4165.8034611068133
 30
0.0
 11
1379.503455974188
 21
4160.8034611068133
 31
0.0
  0
LINE
  5
7C0B
  8
1
 10
1429.5034559741889
 20
4166.8034611068124
 30
0.0
 11
1429.5034559741889
 21
4174.8034611068124
 31
0.0
  0
ARC
  5
7C0C
  8
1
 10
1430.503455974188
 20
4174.8034611068124
 30
0.0
 40
1.0000999999999991
 50
89.999999999999474
 51
179.99649999999949
  0
ARC
  5
7C0D
  8
1
 10
1428.5034559741889
 20
4166.8035611068126
 30
0.0
 40
1.0000999999999991
 50
269.99999999999937
 51
359.99649999999951
  0
LINE
  5
7C0E
  8
1
 10
1404.5034559741889
 20
4165.8034611068133
 30
0.0
 11
1404.5034559741889
 21
4160.8034611068133
 31
0.0
  0
LINE
  5
7C0F
  8
1
 10
1271.203455974191
 20
4437.8034611068142
 30
0.0
 11
1512.80345597419
 21
4437.8034611068124
 31
0.0
  0
LINE
  5
7C10
  8
1
 10
1512.80345597419
 20
4175.8034611068124
 30
0.0
 11
1512.80345597419
 21
4437.8034611068124
 31
0.0
  0
LINE
  5
7C11
  8
1
 10
1271.2034559741901
 20
4175.8034611068133
 30
0.0
 11
1271.203455974191
 21
4437.8034611068124
 31
0.0
  0
LINE
  5
7C12
  8
1
 10
3731.6143940401598
 20
2163.4543222435141
 30
0.0
 11
3731.6143940401598
 21
2183.4543222435141
 31
0.0
  0
LINE
  5
7C13
  8
2
 10
3794.5067015948371
 20
2274.4543222435082
 30
0.0
 11
3583.9387015948382
 21
2274.4543222435082
 31
0.0
  0
LINE
  5
7C14
  8
1
 10
2359.0034559741912
 20
4048.6319637619149
 30
0.0
 11
1281.0034559741939
 21
4048.6319637619208
 31
0.0
  0
LINE
  5
7C15
  8
1
 10
2278.703455974191
 20
4135.5722021114261
 30
0.0
 11
1999.30345597419
 21
4135.5722021114279
 31
0.0
  0
LINE
  5
7C16
  8
1
 10
2278.703455974191
 20
4095.5722021114261
 30
0.0
 11
1999.30345597419
 21
4095.5722021114289
 31
0.0
  0
LINE
  5
7C17
  8
1
 10
1281.0034559741939
 20
4170.6319637619208
 30
0.0
 11
1301.0034559741939
 21
4170.6319637619208
 31
0.0
  0
LINE
  5
7C18
  8
1
 10
1281.0034559741939
 20
4048.6319637619208
 30
0.0
 11
1281.0034559741939
 21
4170.6319637619208
 31
0.0
  0
LINE
  5
7C19
  8
1
 10
1999.30345597419
 20
4095.5722021114289
 30
0.0
 11
1334.8534559741879
 21
4095.572202111432
 31
0.0
  0
LINE
  5
7C1A
  8
1
 10
1999.30345597419
 20
4135.5722021114279
 30
0.0
 11
1334.8534559741879
 21
4135.5722021114316
 31
0.0
  0
LINE
  5
7C1B
  8
1
 10
1334.8534559741879
 20
4095.5722021114329
 30
0.0
 11
1334.8534559741879
 21
4135.5722021114316
 31
0.0
  0
LINE
  5
7C1C
  8
1
 10
1449.1534559741881
 20
4095.5722021114329
 30
0.0
 11
1449.1534559741881
 21
4135.5722021114316
 31
0.0
  0
LINE
  5
7C1D
  8
1
 10
1999.30345597419
 20
4095.5722021114289
 30
0.0
 11
1999.30345597419
 21
4135.5722021114279
 31
0.0
1001
ACAD
1000
ASC_BOUNDS
1002
{
1070
    19
1002
}
  0
LINE
  5
7C1E
  8
1
 10
2359.0034559741898
 20
4048.6319637619149
 30
0.0
 11
2359.0034559741898
 21
4170.6319637619163
 31
0.0
  0
LINE
  5
7C1F
  8
1
 10
2359.0034559741912
 20
4170.6319637619163
 30
0.0
 11
2359.0034559741912
 21
4048.6319637619149
 31
0.0
  0
LINE
  5
7C20
  8
1
 10
2278.703455974191
 20
4095.5722021114261
 30
0.0
 11
2278.703455974191
 21
4135.5722021114261
 31
0.0
1001
ACAD
1000
ASC_BOUNDS
1002
{
1070
    19
1002
}
  0
LINE
  5
7C21
  8
1
 10
2339.0034559741912
 20
4170.6319637619163
 30
0.0
 11
2359.0034559741912
 21
4170.6319637619163
 31
0.0
  0
LINE
  5
7C22
  8
1
 10
2489.0034559741921
 20
4924.4052370605468
 30
0.0
 11
1239.003455974191
 21
4924.4052370605468
 31
0.0
  0
LINE
  5
7C23
  8
1
 10
2489.0034559741921
 20
4209.4052370605459
 30
0.0
 11
2361.7034559741919
 21
4209.4052370605459
 31
0.0
  0
LINE
  5
7C24
  8
1
 10
2489.0034559741921
 20
4924.4052370605477
 30
0.0
 11
2489.0034559741921
 21
4881.9052370605459
 31
0.0
  0
LINE
  5
7C25
  8
1
 10
1239.003455974191
 20
4924.4052370605468
 30
0.0
 11
1239.0034559741921
 21
4209.4052370605459
 31
0.0
  0
LINE
  5
7C26
  8
1
 10
2489.0034559741921
 20
4884.4052370605468
 30
0.0
 11
1239.003455974191
 21
4884.4052370605468
 31
0.0
  0
LINE
  5
7C27
  8
1
 10
1279.003455974191
 20
4884.4052370605468
 30
0.0
 11
1279.003455974191
 21
4437.8034611068142
 31
0.0
  0
LINE
  5
7C28
  8
1
 10
2489.0034559741921
 20
4249.4052370605459
 30
0.0
 11
2404.0034559741921
 21
4249.4052370605459
 31
0.0
  0
LINE
  5
7C29
  8
1
 10
2449.0034559741921
 20
4884.4052370605468
 30
0.0
 11
2449.0034559741921
 21
4881.9052370605459
 31
0.0
  0
LINE
  5
7C2A
  8
1
 10
2449.0034559741921
 20
4366.4052370605459
 30
0.0
 11
2449.0034559741921
 21
4249.405237060545
 31
0.0
  0
LINE
  5
7C2B
  8
1
 10
2489.0034559741921
 20
4406.405237060545
 30
0.0
 11
2489.0034559741921
 21
4209.4052370605459
 31
0.0
  0
LINE
  5
7C2C
  8
1
 10
1271.2034559741901
 20
4249.405237060545
 30
0.0
 11
1239.0034559741921
 21
4249.4052370605459
 31
0.0
  0
LINE
  5
7C2D
  8
1
 10
1271.2034559741901
 20
4209.4052370605459
 30
0.0
 11
1239.0034559741921
 21
4209.4052370605459
 31
0.0
  0
LINE
  5
7C2E
  8
1
 10
1874.0034559741921
 20
4249.405237060545
 30
0.0
 11
1512.80345597419
 21
4249.405237060545
 31
0.0
  0
LINE
  5
7C2F
  8
1
 10
1916.303455974192
 20
4209.4052370605459
 30
0.0
 11
1512.80345597419
 21
4209.4052370605459
 31
0.0
  0
LINE
  5
7C38
  8
4
 10
4625.0
 20
1250.0
 30
0.0
 11
4625.0
 21
750.0
 31
0.0
  0
LINE
  5
7C39
  8
4
 10
2875.0
 20
1250.0
 30
0.0
 11
2875.0
 21
750.0
 31
0.0
  0
LINE
  5
7C3A
  8
4
 10
1625.0
 20
1250.0
 30
0.0
 11
1625.0
 21
750.0
 31
0.0
  0
LINE
  5
7C3D
  8
4
 10
1625.0
 20
750.0
 30
0.0
 11
4625.0
 21
750.0
 31
0.0
  0
LINE
  5
7C3E
  8
4
 10
1625.0
 20
1000.0
 30
0.0
 11
4625.0
 21
1000.0
 31
0.0
  0
TEXT
  5
7C3F
  8
4
 10
1721.2552021172539
 20
1078.857564666532
 30
0.0
 40
125.0
  1
機器名称
  0
TEXT
  5
7C40
  8
4
 10
1715.6452650619931
 20
804.11289183002725
 30
0.0
 40
125.0
  1
機器型番
  0
TEXT
  5
7C41
  8
4
 10
2944.1968637191621
 20
1056.429422393921
 30
0.0
 40
125.0
  1
ミツヤ厨房用ファン
  0
TEXT
  5
7C42
  8
4
 10
2966.6362389637011
 20
792.89896069985843
 30
0.0
 40
125.0
  1
MFK#3 1/2-1
  0
TEXT
  5
7C44
  8
4
 10
1917.0874697443651
 20
5958.5721033312893
 30
0.0
 40
135.0
  1
天吊防振ベット
  0
TEXT
  5
7C45
  8
4
 10
790.41898332361586
 20
6334.7024404982449
 30
0.0
 40
180.0
  1
ベルト駆動式片吸込片持多翼ファン
  0
LINE
  5
7C46
  8
4
 10
625.0
 20
6173.5218856620122
 30
0.0
 11
4625.0
 21
6173.5218856620122
 31
0.0
  0
LINE
  5
7C47
  8
4
 10
625.0
 20
6673.5218856620122
 30
0.0
 11
4625.0
 21
6673.5218856620122
 31
0.0
  0
LINE
  5
7C48
  8
4
 10
1625.0
 20
1250.0
 30
0.0
 11
4625.0
 21
1250.0
 31
0.0
  0
LINE
  5
7C49
  8
4
 10
625.0
 20
6673.5218856620122
 30
0.0
 11
625.0
 21
6173.5218856620122
 31
0.0
  0
TEXT
  5
7C4A
  8
4
 10
827.44038913760949
 20
5955.7986938658578
 30
0.0
 40
135.0
  1
右回転右横向
  0
TEXT
  5
7C4B
  8
4
 10
3672.4238981232238
 20
6765.1527037382721
 30
0.0
 40
140.0
  1
No.
  0
TEXT
  5
7C4C
  8
4
 10
3278.2401565000318
 20
5958.5721033312893
 30
0.0
 40
135.0
  1
縮尺：1/25
  0
LINE
  5
7C4D
  8
4
 10
4625.0
 20
6673.5218856620122
 30
0.0
 11
4625.0
 21
6173.5218856620122
 31
0.0
  0
LINE
  5
7C4E
  8
4
 10
5250.0
 20
7375.0
 30
0.0
 11
5250.0
 21
7375.0
 31
0.0
  0
LINE
  5
7C4F
  8
4
 10
3601.543555899661
 20
6703.1589578135026
 30
0.0
 11
3601.543555899661
 21
6966.6306538743811
 31
0.0
  0
LINE
  5
7C50
  8
4
 10
3601.543555899661
 20
6966.6306538743811
 30
0.0
 11
4625.0
 21
6966.6306538743811
 31
0.0
  0
LINE
  5
7C51
  8
4
 10
4625.0
 20
6966.6306538743811
 30
0.0
 11
4625.0
 21
6703.1589578135026
 31
0.0
  0
LINE
  5
7C52
  8
4
 10
4625.0
 20
6703.1589578135026
 30
0.0
 11
3601.543555899661
 21
6703.1589578135026
 31
0.0
  0
LINE
  5
7C53
  8
4
 10
0.0
 20
0.0
 30
0.0
 11
0.0
 21
7375.0
 31
0.0
  0
LINE
  5
7C54
  8
4
 10
0.0
 20
7375.0
 30
0.0
 11
5250.0
 21
7375.0
 31
0.0
  0
LINE
  5
7C55
  8
4
 10
5250.0
 20
7375.0
 30
0.0
 11
5250.0
 21
0.0
 31
0.0
  0
LINE
  5
7C56
  8
4
 10
5250.0
 20
0.0
 30
0.0
 11
0.0
 21
0.0
 31
0.0
  0
DIMENSION
  5
7D03
  8
3
  2
*D1
 10
2810.8437507615422
 20
2049.4543222435091
 30
0.0
 11
2930.4866079043982
 21
2119.0928928467129
 31
0.0
 12
0.0
 22
-234.3457958889048
 32
0.0
 70
   128
  1
(<>)
 13
2492.0034559741898
 23
2071.4543222435091
 33
0.0
 14
2492.0034559741898
 24
2049.4543222435091
 34
0.0
 50
90.0
1001
ACAD
1000
DSTYLE
1002
{
1070
   288
1070
     1
1070
   172
1070
     1
1070
    75
1070
     1
1070
    40
1040
25.0
1070
   271
1070
     0
1070
     7
1000
_DOT
1070
   143
1040
0.039
1002
}
  0
DIMENSION
  5
7DE8
  8
3
  2
*D3
 10
4230.3876673387904
 20
3611.1868137804968
 30
0.0
 11
4339.0162450013522
 21
3671.4293826442572
 31
0.0
 70
   128
 13
4445.6298262740702
 23
2951.45432224351
 33
0.0
 14
4230.3876673387904
 24
3510.9489323175781
 34
0.0
1001
ACAD
1000
DSTYLE
1002
{
1070
   288
1070
     1
1070
   172
1070
     1
1070
    40
1040
25.0
1070
   271
1070
     0
1070
   143
1040
0.039
1002
}
  0
DIMENSION
  5
7E38
  8
3
  2
*D4
 10
3609.6143940401589
 20
3611.1868137804968
 30
0.0
 11
3920.0010306894751
 21
3736.1868137804968
 31
0.0
 70
     0
  1
MAX\P630
 13
4230.3876673387904
 23
3510.9489323175781
 33
0.0
 14
3609.6143940401589
 24
2861.4543222435091
 34
0.0
1001
ACAD
1000
DSTYLE
1002
{
1070
   287
1070
     4
1070
   287
1070
     4
1070
    40
1040
25.0
1070
    75
1070
     1
1070
   143
1040
0.039
1070
   172
1070
     1
1070
   271
1070
     0
1070
   279
1070
     1
1070
   288
1070
     1
1002
}
  0
DIMENSION
  5
7E52
  8
3
  2
*D5
 10
4665.9058980112686
 20
2361.4543222435091
 30
0.0
 11
4665.9058980112668
 21
2650.9266581091561
 31
0.0
 70
   128
 13
4476.0876673387911
 23
2921.45432224351
 33
0.0
 14
4476.0876673387911
 24
2361.4543222435091
 34
0.0
 50
90.0
1001
ACAD
1000
DSTYLE
1002
{
1070
   287
1070
     3
1070
   287
1070
     3
1070
     3
1000
φ<>
1070
    40
1040
25.0
1070
   143
1040
0.039
1070
   172
1070
     1
1070
   271
1070
     0
1070
   279
1070
     0
1070
   288
1070
     1
1002
}
  0
ARC
  5
7F3E
  8
1
 10
2100.0034559741898
 20
2683.45432224351
 30
0.0
 40
454.0
 50
180.0
 51
240.5812108007764
  0
ARC
  5
7F3F
  8
1
 10
2184.0034559741898
 20
2683.45432224351
 30
0.0
 40
538.0
 50
95.56158088546583
 51
180.0
  0
ARC
  5
7F40
  8
1
 10
2100.0034559741898
 20
2683.45432224351
 30
0.0
 40
442.0
 50
180.0
 51
239.70018162568061
  0
ARC
  5
7F41
  8
1
 10
2184.0034559741898
 20
2683.45432224351
 30
0.0
 40
526.0
 50
95.56158088546583
 51
180.0
  0
LINE
  5
7F43
  8
1
 10
2529.7034559741892
 20
2869.45432224351
 30
0.0
 11
2529.7034559741901
 21
2654.8543222435092
 31
0.0
  0
LINE
  5
7F44
  8
1
 10
2532.0034559741912
 20
2869.45432224351
 30
0.0
 11
2532.0034559741912
 21
2654.8543222435092
 31
0.0
  0
LINE
  5
7F45
  8
1
 10
2502.0034559741889
 20
2869.4543222435109
 30
0.0
 11
2502.0034559741912
 21
2661.45432224351
 31
0.0
  0
ARC
  5
7F50
  8
1
 10
2109.0034559741898
 20
2608.45432224351
 30
0.0
 40
367.0
 50
275.15890444506329
 51
315.175088661318
  0
ARC
  5
7F51
  8
1
 10
2109.0034559741898
 20
2608.45432224351
 30
0.0
 40
379.0
 50
274.99513987898081
 51
313.37791426177438
  0
LINE
  5
7F52
  8
1
 10
2502.0034559741912
 20
2657.1543222435089
 30
0.0
 11
2502.0034559741912
 21
2659.4543222435091
 31
0.0
  0
LINE
  5
7F53
  8
1
 10
2502.0034559741912
 20
2659.95432224351
 30
0.0
 11
2502.0034559741912
 21
2656.95432224351
 31
0.0
  0
LINE
  5
7F59
  8
1
 10
2476.0034559741898
 20
2656.95432224351
 30
0.0
 11
2476.0034559741898
 21
2621.9543222435132
 31
0.0
  0
LINE
  5
7F5A
  8
1
 10
2488.0034559741898
 20
2656.95432224351
 30
0.0
 11
2476.0034559741898
 21
2656.95432224351
 31
0.0
  0
LINE
  5
7F5B
  8
1
 10
2488.0034559741898
 20
2656.95432224351
 30
0.0
 11
2488.0034559741898
 21
2621.9543222435132
 31
0.0
  0
LINE
  5
7F5C
  8
1
 10
2529.7034559741892
 20
2629.4543222435091
 30
0.0
 11
2532.0034559741912
 21
2629.4543222435091
 31
0.0
  0
ARC
  5
7F5D
  8
1
 10
2527.4034559741899
 20
2654.8543222435092
 30
0.0
 40
2.2999999999999989
 50
0.0
 51
90.0
  0
LINE
  5
7F5E
  8
1
 10
2532.0034559741912
 20
2629.4543222435091
 30
0.0
 11
2532.0034559741912
 21
2654.8543222435092
 31
0.0
  0
LINE
  5
7F5F
  8
1
 10
2529.7034559741892
 20
2629.4543222435091
 30
0.0
 11
2529.7034559741892
 21
2654.8543222435092
 31
0.0
  0
LINE
  5
7F60
  8
1
 10
2502.0034559741912
 20
2657.1543222435089
 30
0.0
 11
2527.4034559741899
 21
2657.1543222435089
 31
0.0
  0
LINE
  5
7F61
  8
1
 10
2486.0034559741912
 20
2656.95432224351
 30
0.0
 11
2502.0034559741912
 21
2656.95432224351
 31
0.0
  0
LINE
  5
7F62
  8
1
 10
2502.0034559741912
 20
2661.7543222435102
 30
0.0
 11
2502.0034559741912
 21
2659.45432224351
 31
0.0
  0
LINE
  5
7F63
  8
1
 10
2412.0034559741898
 20
2911.45432224351
 30
0.0
 11
2192.0034559741898
 21
2911.45432224351
 31
0.0
  0
LINE
  5
7F64
  8
1
 10
2412.0034559741898
 20
3161.45432224351
 30
0.0
 11
2192.0034559741898
 21
3161.45432224351
 31
0.0
  0
LINE
  5
7F65
  8
1
 10
2412.0034559741898
 20
3146.45432224351
 30
0.0
 11
2192.0034559741898
 21
3146.45432224351
 31
0.0
  0
LINE
  5
7F66
  8
1
 10
2412.0034559741898
 20
3148.4461806722138
 30
0.0
 11
2192.0034559741898
 21
3148.4461806722138
 31
0.0
  0
LINE
  5
7F67
  8
1
 10
2502.0034559741912
 20
3242.907025694984
 30
0.0
 11
2133.0258829617692
 21
3206.9782348299009
 31
0.0
  0
LINE
  5
7F68
  8
1
 10
2500.8404695176332
 20
3254.8505370087419
 30
0.0
 11
2131.8628965052121
 21
3218.9217461436601
 31
0.0
  0
LINE
  5
7F69
  8
1
 10
2192.0034559741898
 20
2911.45432224351
 30
0.0
 11
2192.0034559741898
 21
3161.45432224351
 31
0.0
  0
LINE
  5
7F6A
  8
1
 10
2412.0034559741898
 20
2911.45432224351
 30
0.0
 11
2412.0034559741898
 21
3161.45432224351
 31
0.0
  0
LINE
  5
7F6B
  8
1
 10
2502.0034559741889
 20
2869.45432224351
 30
0.0
 11
2502.0034559741912
 21
3241.1543222435098
 31
0.0
  0
LINE
  5
7F6C
  8
1
 10
2532.0034559741912
 20
2869.45432224351
 30
0.0
 11
2532.0034559741912
 21
3248.0543222435108
 31
0.0
  0
LINE
  5
7F6D
  8
1
 10
2529.7034559741892
 20
2869.45432224351
 30
0.0
 11
2529.7034559741892
 21
3248.0543222435108
 31
0.0
  0
LINE
  5
7F6E
  8
1
 10
2500.8404695176332
 20
3254.8505370087419
 30
0.0
 11
2502.0034559741912
 21
3242.907025694984
 31
0.0
  0
LINE
  5
7F6F
  8
1
 10
2502.0034559741912
 20
3241.1543222435098
 30
0.0
 11
2502.0034559741912
 21
3243.45432224351
 31
0.0
  0
LINE
  5
7F70
  8
1
 10
2529.7034559741892
 20
3273.4543222435109
 30
0.0
 11
2532.0034559741912
 21
3273.4543222435109
 31
0.0
  0
LINE
  5
7F71
  8
1
 10
2502.0034559741912
 20
3245.7543222435102
 30
0.0
 11
2502.0034559741912
 21
3243.4543222435109
 31
0.0
  0
ARC
  5
7F72
  8
1
 10
2527.4034559741899
 20
3248.0543222435108
 30
0.0
 40
2.2999999999999989
 50
270.0
 51
0.0
  0
LINE
  5
7F73
  8
1
 10
2502.0034559741912
 20
3245.7543222435102
 30
0.0
 11
2527.4034559741899
 21
3245.7543222435102
 31
0.0
  0
LINE
  5
7F74
  8
1
 10
2532.0034559741912
 20
3273.4543222435109
 30
0.0
 11
2532.0034559741912
 21
3248.0543222435108
 31
0.0
  0
LINE
  5
7F75
  8
1
 10
2529.7034559741892
 20
3273.4543222435109
 30
0.0
 11
2529.7034559741892
 21
3248.0543222435108
 31
0.0
  0
LINE
  5
7F76
  8
1
 10
2502.0034559741912
 20
3252.95432224351
 30
0.0
 11
2501.0343005937261
 21
3252.8599517897828
 31
0.0
  0
LINE
  5
7F77
  8
1
 10
2502.0034559741912
 20
3242.9543222435109
 30
0.0
 11
2502.0034559741912
 21
3252.95432224351
 31
0.0
  0
LINE
  5
7F7B
  8
1
 10
4475.3876673387886
 20
3242.45432224351
 30
0.0
 11
4475.3876673387886
 21
2660.45432224351
 31
0.0
  0
LINE
  5
7F7C
  8
1
 10
3985.3876673387881
 20
3242.45432224351
 30
0.0
 11
3985.3876673387881
 21
2660.45432224351
 31
0.0
  0
LINE
  5
7F7E
  8
1
 10
4016.2876673387891
 20
3243.4543222435109
 30
0.0
 11
4016.2876673387891
 21
2659.45432224351
 31
0.0
  0
LINE
  5
7F7F
  8
1
 10
4444.4876673387889
 20
3243.4543222435109
 30
0.0
 11
4444.487667338788
 21
2659.45432224351
 31
0.0
  0
LINE
  5
7F80
  8
1
 10
4442.8876673387877
 20
3243.4543222435109
 30
0.0
 11
4442.8876673387904
 21
2659.45432224351
 31
0.0
  0
LINE
  5
7F82
  8
1
 10
3985.3876673387899
 20
3243.45432224351
 30
0.0
 11
3985.3876673387899
 21
2629.45432224351
 31
0.0
  0
LINE
  5
7F83
  8
1
 10
4475.3876673387886
 20
3243.45432224351
 30
0.0
 11
4475.3876673387886
 21
2659.45432224351
 31
0.0
  0
LINE
  5
7F84
  8
1
 10
3985.3876673387881
 20
2656.45432224351
 30
0.0
 11
4475.3876673387886
 21
2656.45432224351
 31
0.0
  0
LINE
  5
7F85
  8
1
 10
3985.3876673387881
 20
2659.45432224351
 30
0.0
 11
4475.3876673387886
 21
2659.45432224351
 31
0.0
  0
LINE
  5
7F86
  8
1
 10
4475.3876673387886
 20
2629.45432224351
 30
0.0
 11
3985.3876673387881
 21
2629.45432224351
 31
0.0
  0
LINE
  5
7F88
  8
1
 10
4442.8876673387904
 20
2241.45432224351
 30
0.0
 11
4017.8876673387899
 21
2241.45432224351
 31
0.0
  0
LINE
  5
7F89
  8
1
 10
3985.3876673387899
 20
2659.4543222435091
 30
0.0
 11
4475.3876673387886
 21
2659.45432224351
 31
0.0
  0
LINE
  5
7F8A
  8
1
 10
3985.3876673387899
 20
2629.45432224351
 30
0.0
 11
4475.3876673387886
 21
2629.45432224351
 31
0.0
  0
ARC
  5
7F8B
  8
1
 10
4017.0876673387911
 20
2231.45432224351
 30
0.0
 40
1.999999999999954
 50
246.42182152177051
 51
293.57817847818689
  0
LINE
  5
7F98
  8
1
 10
4011.3876673387972
 20
2659.45432224351
 30
0.0
 11
3985.3876673387899
 21
2659.45432224351
 31
0.0
  0
LINE
  5
7FA2
  8
1
 10
4475.3876673387886
 20
2659.45432224351
 30
0.0
 11
4475.3876673387886
 21
2629.45432224351
 31
0.0
  0
LINE
  5
7FA3
  8
1
 10
4475.3876673387886
 20
2659.45432224351
 30
0.0
 11
4475.3876673387886
 21
2629.45432224351
 31
0.0
  0
LINE
  5
7FA4
  8
1
 10
4449.3876673387822
 20
2659.45432224351
 30
0.0
 11
4475.3876673387886
 21
2659.45432224351
 31
0.0
  0
LINE
  5
7FA5
  8
1
 10
4475.3876673387886
 20
3246.45432224351
 30
0.0
 11
3985.3876673387881
 21
3246.45432224351
 31
0.0
  0
LINE
  5
7FA6
  8
1
 10
4475.3876673387886
 20
3243.45432224351
 30
0.0
 11
3985.3876673387881
 21
3243.45432224351
 31
0.0
  0
LINE
  5
7FA7
  8
1
 10
3985.3876673387881
 20
3273.4543222435109
 30
0.0
 11
4475.3876673387886
 21
3273.4543222435109
 31
0.0
  0
LINE
  5
7FA8
  8
1
 10
3985.3876673387899
 20
3273.4543222435109
 30
0.0
 11
4475.3876673387886
 21
3273.4543222435109
 31
0.0
  0
LINE
  5
7FA9
  8
1
 10
3985.3876673387899
 20
3243.4543222435109
 30
0.0
 11
4475.3876673387886
 21
3243.4543222435109
 31
0.0
  0
LINE
  5
7FAA
  8
1
 10
3985.3876673387881
 20
3243.45432224351
 30
0.0
 11
3985.3876673387881
 21
3273.4543222435109
 31
0.0
  0
LINE
  5
7FAB
  8
1
 10
4011.3876673387899
 20
3243.45432224351
 30
0.0
 11
3985.3876673387899
 21
3243.45432224351
 31
0.0
  0
LINE
  5
7FAC
  8
1
 10
3985.3876673387899
 20
3243.4543222435109
 30
0.0
 11
3985.3876673387899
 21
3273.4543222435109
 31
0.0
  0
LINE
  5
7FAD
  8
1
 10
4475.3876673387886
 20
3273.4543222435109
 30
0.0
 11
4475.3876673387886
 21
3243.45432224351
 31
0.0
  0
LINE
  5
7FAE
  8
1
 10
4449.3876673387886
 20
3243.45432224351
 30
0.0
 11
4475.3876673387886
 21
3243.45432224351
 31
0.0
  0
LINE
  5
7FAF
  8
1
 10
4475.3876673387886
 20
3243.45432224351
 30
0.0
 11
4475.3876673387886
 21
3273.4543222435109
 31
0.0
  0
LINE
  5
7FB2
  8
1
 10
1655.003455974191
 20
4458.1052370605457
 30
0.0
 11
2497.8404559741912
 21
4458.1052370605057
 31
0.0
  0
LINE
  5
7FB3
  8
1
 10
1655.00345597419
 20
4880.705237060547
 30
0.0
 11
2497.8404559741912
 21
4880.705237060547
 31
0.0
  0
LINE
  5
7FB4
  8
2
 10
2573.4203108540019
 20
4669.4052370605468
 30
0.0
 11
1398.214907937152
 21
4669.4052370605468
 31
0.0
  0
LINE
  5
7FB6
  8
1
 10
2499.0034559741912
 20
4424.4052370605459
 30
0.0
 11
2529.0034559741912
 21
4424.4052370605459
 31
0.0
  0
LINE
  5
7FB7
  8
1
 10
2499.0034559741912
 20
4914.405237060545
 30
0.0
 11
2529.0034559741912
 21
4914.405237060545
 31
0.0
  0
LINE
  5
7FB8
  8
1
 10
2529.0034559741912
 20
4424.4052370605459
 30
0.0
 11
2529.0034559741912
 21
4914.405237060545
 31
0.0
  0
LINE
  5
7FB9
  8
1
 10
2526.703455974191
 20
4914.405237060545
 30
0.0
 11
2526.703455974191
 21
4424.4052370605459
 31
0.0
  0
LINE
  5
7FBA
  8
2
 10
2139.0034559741912
 20
4940.5505979019636
 30
0.0
 11
2139.0034559741912
 21
4009.400161454329
 31
0.0
  0
LINE
  5
7FBB
  8
1
 10
2499.0034559741912
 20
4914.405237060545
 30
0.0
 11
2499.0034559741912
 21
4424.4052370605459
 31
0.0
  0
LINE
  5
7FCE
  8
1
 10
2497.8404559741912
 20
4884.7052370604697
 30
0.0
 11
2497.8404559741912
 21
4880.7052370605479
 31
0.0
  0
LINE
  5
7FCF
  8
1
 10
2499.0034559741912
 20
4883.5052370605472
 30
0.0
 11
2497.8404559741921
 21
4883.5052370605472
 31
0.0
  0
LINE
  5
7FD0
  8
1
 10
2499.0034559741912
 20
4881.9052370605459
 30
0.0
 11
2497.8404559741921
 21
4881.9052370605459
 31
0.0
  0
LINE
  5
7FD1
  8
1
 10
1655.003455974191
 20
4458.1052370605457
 30
0.0
 11
1655.003455974191
 21
4880.705237060547
 31
0.0
  0
ARC
  5
7FD6
  8
1
 10
1654.2034559741901
 20
4458.9052370605468
 30
0.0
 40
0.8
 50
270.0
 51
0.0
  0
ARC
  5
7FD7
  8
1
 10
1654.2034559741901
 20
4879.9052370605468
 30
0.0
 40
0.8
 50
0.0
 51
90.0
  0
LINE
  5
7FD8
  8
1
 10
2502.0034559741912
 20
3241.45432224351
 30
0.0
 11
2529.7034559741892
 21
3241.45432224351
 31
0.0
  0
LINE
  5
7FD9
  8
1
 10
2502.0034559741912
 20
2661.45432224351
 30
0.0
 11
2529.7034559741892
 21
2661.45432224351
 31
0.0
  0
ARC
  5
7FDA
  8
1
 10
2100.0034559741898
 20
2683.45432224351
 30
0.0
 40
442.0
 50
245.21396773932051
 51
275.45262198781251
  0
ARC
  5
7FDB
  8
1
 10
2100.0034559741898
 20
2683.45432224351
 30
0.0
 40
454.0
 50
245.91134026366561
 51
275.30808040273439
  0
ARC
  5
7FDC
  8
1
 10
2109.0034559741898
 20
2608.45432224351
 30
0.0
 40
379.0
 50
321.83918871138758
 51
355.99055920772071
  0
ARC
  5
7FDD
  8
1
 10
2109.0034559741898
 20
2608.45432224351
 30
0.0
 40
367.0
 50
324.29072969238712
 51
355.8592352491288
  0
LINE
  5
7FDE
  8
1
 10
4017.8876673387899
 20
3243.4543222435109
 30
0.0
 11
4017.8876673387899
 21
2659.4543222435091
 31
0.0
  0
LINE
  5
7FE0
  8
1
 10
4017.8876673387899
 20
2629.45432224351
 30
0.0
 11
4017.8876673387899
 21
2229.6212919655281
 31
0.0
  0
LINE
  5
7FE1
  8
1
 10
4442.8876673387904
 20
2629.45432224351
 30
0.0
 11
4442.8876673387904
 21
2229.6212919655281
 31
0.0
  0
LINE
  5
7FEF
  8
1
 10
4442.8876673387904
 20
2229.6212919655281
 30
0.0
 11
4444.4876673387898
 21
2229.6212919655281
 31
0.0
  0
LINE
  5
7FFB
  8
1
 10
2449.0034559741921
 20
4884.4052370605459
 30
0.0
 11
2449.0034559741921
 21
4880.705237060547
 31
0.0
  0
LINE
  5
8015
  8
1
 10
4444.487667338788
 20
2629.45432224351
 30
0.0
 11
4444.487667338788
 21
2151.4543222435091
 31
0.0
  0
LINE
  5
8016
  8
1
 10
4016.2876673387891
 20
2629.45432224351
 30
0.0
 11
4016.2876673387891
 21
2151.4543222435091
 31
0.0
  0
LINE
  5
8018
  8
1
 10
1756.003455974191
 20
4439.4052370605459
 30
0.0
 11
1756.003455974191
 21
4456.9052370605468
 31
0.0
  0
DIMENSION
  5
8026
  8
3
  2
*D6
 10
4442.8876673387877
 20
3399.0704282447682
 30
0.0
 11
4225.9737506649444
 21
3399.0704282447682
 31
0.0
 70
   128
 13
4017.8876673387899
 23
3243.4543222435109
 33
0.0
 14
4442.8876673387877
 24
3243.4543222435109
 34
0.0
1001
ACAD
1000
DSTYLE
1002
{
1070
   287
1070
     3
1070
   287
1070
     3
1070
    40
1040
25.0
1070
   143
1040
0.039
1070
   172
1070
     1
1070
   271
1070
     0
1070
   279
1070
     0
1070
   288
1070
     1
1002
}
  0
DIMENSION
  5
805D
  8
3
  2
*D7
 10
2142.0034559741898
 20
3432.154563382197
 30
0.0
 11
2313.4320274027618
 21
3432.154563382197
 31
0.0
 70
   128
 13
2532.0034559741912
 23
3273.4543222435109
 33
0.0
 14
2142.0034559741898
 24
3287.9784297007659
 34
0.0
1001
ACAD
1000
DSTYLE
1002
{
1070
   287
1070
     3
1070
   287
1070
     3
1070
    40
1040
25.0
1070
   143
1040
0.039
1070
   172
1070
     1
1070
   271
1070
     0
1070
   279
1070
     0
1070
   288
1070
     1
1002
}
  0
DIMENSION
  5
8069
  8
3
  2
*D8
 10
1658.00345597419
 20
3432.154563382197
 30
0.0
 11
1900.00345597419
 21
3494.654563382197
 31
0.0
 70
     0
 13
2142.0034559741898
 23
3287.9784297007659
 33
0.0
 14
1658.00345597419
 24
2683.45432224351
 34
0.0
1001
ACAD
1000
DSTYLE
1002
{
1070
   287
1070
     4
1070
   287
1070
     4
1070
    40
1040
25.0
1070
    75
1070
     1
1070
   143
1040
0.039
1070
   172
1070
     1
1070
   271
1070
     0
1070
   279
1070
     1
1070
   288
1070
     1
1002
}
  0
DIMENSION
  5
8076
  8
3
  2
*D9
 10
2810.7792824562571
 20
2641.4543222435091
 30
0.0
 11
2810.7792824562562
 21
2970.419900118211
 31
0.0
 70
   128
 13
2529.7034559741892
 23
3241.45432224351
 33
0.0
 14
2567.7399857705041
 24
2641.4543222435091
 34
0.0
 50
90.0
1001
ACAD
1000
DSTYLE
1002
{
1070
   287
1070
     3
1070
   287
1070
     3
1070
    40
1040
25.0
1070
   143
1040
0.039
1070
   172
1070
     1
1070
   271
1070
     0
1070
   279
1070
     0
1070
   288
1070
     1
1002
}
  0
DIMENSION
  5
8082
  8
3
  2
*D10
 10
2810.7792824562562
 20
2071.4543222435091
 30
0.0
 11
2748.2792824562562
 21
2356.45432224351
 31
0.0
 70
     0
 13
2567.7399857705041
 23
2641.4543222435091
 33
0.0
 14
2492.0034559741898
 24
2071.4543222435091
 34
0.0
 50
90.0
1001
ACAD
1000
DSTYLE
1002
{
1070
   287
1070
     4
1070
   287
1070
     4
1070
    40
1040
25.0
1070
    75
1070
     1
1070
   143
1040
0.039
1070
   172
1070
     1
1070
   271
1070
     0
1070
   279
1070
     1
1070
   288
1070
     1
1002
}
  0
DIMENSION
  5
80B1
  8
3
  2
*D11
 10
1242.00345597419
 20
3646.144852878429
 30
0.0
 11
1965.7985630639339
 21
3646.144852878429
 31
0.0
 70
   128
 13
2532.0034559741912
 23
3273.4543222435109
 33
0.0
 14
1242.00345597419
 24
2151.4543222435091
 34
0.0
1001
ACAD
1000
DSTYLE
1002
{
1070
   287
1070
     3
1070
   287
1070
     3
1070
    40
1040
25.0
1070
   143
1040
0.039
1070
   172
1070
     1
1070
   271
1070
     0
1070
   279
1070
     0
1070
   288
1070
     1
1002
}
  0
DIMENSION
  5
80BF
  8
3
  2
*D12
 10
2686.4817685046801
 20
2661.45432224351
 30
0.0
 11
2686.4817685046801
 21
2971.7468622872711
 31
0.0
 70
   128
 13
2529.7034559741892
 23
3241.45432224351
 33
0.0
 14
2529.7034559741892
 24
2661.45432224351
 34
0.0
 50
90.0
1001
ACAD
1000
DSTYLE
1002
{
1070
   287
1070
     3
1070
   287
1070
     3
1070
    40
1040
25.0
1070
   143
1040
0.039
1070
   172
1070
     1
1070
   271
1070
     0
1070
   279
1070
     0
1070
   288
1070
     1
1002
}
  0
LINE
  5
80CF
  8
1
 10
3575.3876673387899
 20
1944.45432224351
 30
0.0
 11
4555.3876673387904
 21
1944.45432224351
 31
0.0
  0
LINE
  5
80D0
  8
1
 10
3575.3876673387899
 20
1984.4543222435091
 30
0.0
 11
3575.3876673387899
 21
1944.45432224351
 31
0.0
  0
LINE
  5
80D1
  8
1
 10
4555.3876673387904
 20
1984.4543222435091
 30
0.0
 11
4555.3876673387904
 21
1944.45432224351
 31
0.0
  0
LINE
  5
80D2
  8
1
 10
2496.0034559741898
 20
1984.4543222435091
 30
0.0
 11
2496.0034559741898
 21
1944.4543222435091
 31
0.0
  0
LINE
  5
80D3
  8
1
 10
1238.00345597419
 20
1984.4543222435091
 30
0.0
 11
1238.00345597419
 21
1944.4543222435091
 31
0.0
  0
LINE
  5
80D4
  8
1
 10
2416.0034559741912
 20
1984.4543222435091
 30
0.0
 11
2416.0034559741912
 21
1944.4543222435091
 31
0.0
  0
LINE
  5
80D5
  8
1
 10
1318.00345597419
 20
1984.4543222435091
 30
0.0
 11
1318.00345597419
 21
1944.4543222435091
 31
0.0
  0
DIMENSION
  5
80E2
  8
3
  2
*D13
 10
4230.3876673387904
 20
1757.528189198365
 30
0.0
 11
3902.8876673387899
 21
1820.028189198365
 31
0.0
 70
     0
 13
3575.3876673387899
 23
1944.45432224351
 33
0.0
 14
4230.3876673387904
 24
1944.45432224351
 34
0.0
1001
ACAD
1000
DSTYLE
1002
{
1070
   287
1070
     3
1070
   287
1070
     3
1070
    40
1040
25.0
1070
   143
1040
0.039
1070
   172
1070
     1
1070
   271
1070
     0
1070
   279
1070
     0
1002
}
  0
DIMENSION
  5
80F1
  8
3
  2
*D14
 10
4555.3876673387904
 20
1757.528189198365
 30
0.0
 11
4392.8876673387904
 21
1820.028189198365
 31
0.0
 70
     0
 13
4230.3876673387904
 23
1944.45432224351
 33
0.0
 14
4555.3876673387904
 24
1944.45432224351
 34
0.0
1001
ACAD
1000
DSTYLE
1002
{
1070
   287
1070
     3
1070
   287
1070
     3
1070
    40
1040
25.0
1070
   143
1040
0.039
1070
   172
1070
     1
1070
   271
1070
     0
1070
   279
1070
     0
1002
}
  0
DIMENSION
  5
80FE
  8
3
  2
*D15
 10
2496.0034559741898
 20
1757.528189198365
 30
0.0
 11
2319.0034559741898
 21
1820.028189198365
 31
0.0
 70
     0
 13
2142.0034559741898
 23
1984.4543222435091
 33
0.0
 14
2496.0034559741898
 24
1944.4543222435091
 34
0.0
1001
ACAD
1000
DSTYLE
1002
{
1070
   287
1070
     3
1070
   287
1070
     3
1070
    40
1040
25.0
1070
   143
1040
0.039
1070
   172
1070
     1
1070
   271
1070
     0
1070
   279
1070
     0
1002
}
  0
DIMENSION
  5
810B
  8
3
  2
*D16
 10
2142.0034559741898
 20
1757.528189198365
 30
0.0
 11
1690.00345597419
 21
1820.028189198365
 31
0.0
 70
     0
 13
1238.00345597419
 23
1944.4543222435091
 33
0.0
 14
2142.0034559741898
 24
1984.4543222435091
 34
0.0
1001
ACAD
1000
DSTYLE
1002
{
1070
   287
1070
     3
1070
   287
1070
     3
1070
    40
1040
25.0
1070
   143
1040
0.039
1070
   172
1070
     1
1070
   271
1070
     0
1070
   279
1070
     0
1002
}
  0
DIMENSION
  5
811A
  8
3
  2
*D17
 10
2812.9296115396492
 20
1944.4543222435091
 30
0.0
 11
2750.4296115396492
 21
1730.1686079577951
 31
0.0
 70
     0
 13
2492.0034559741898
 23
2049.4543222435091
 33
0.0
 14
2496.0034559741898
 24
1944.4543222435091
 34
0.0
 50
90.0
1001
ACAD
1000
DSTYLE
1002
{
1070
   287
1070
     3
1070
   287
1070
     3
1070
    40
1040
25.0
1070
   143
1040
0.039
1070
   172
1070
     1
1070
   271
1070
     0
1070
   279
1070
     0
1070
     6
1000
DOT
1002
}
  0
DIMENSION
  5
8127
  8
3
  2
*D18
 10
3043.062909811611
 20
1944.4543222435091
 30
0.0
 11
2960.9200526687541
 21
2608.95432224351
 31
0.0
 70
     0
 13
2532.0034559741912
 23
3273.4543222435109
 33
0.0
 14
2496.0034559741898
 24
1944.4543222435091
 34
0.0
 50
90.0
1001
ACAD
1000
DSTYLE
1002
{
1070
   287
1070
     3
1070
   287
1070
     3
1070
     3
1000
(<>)
1070
    40
1040
25.0
1070
   143
1040
0.039
1070
   172
1070
     1
1070
   271
1070
     0
1070
   279
1070
     0
1002
}
  0
LINE
  5
8128
  8
1
 10
2493.0034559741921
 20
4994.4052370605468
 30
0.0
 11
2413.0034559741921
 21
4994.4052370605468
 31
0.0
  0
LINE
  5
812A
  8
1
 10
2493.0034559741921
 20
4014.4052370605468
 30
0.0
 11
2413.0034559741912
 21
4014.4052370605468
 31
0.0
  0
LINE
  5
812B
  8
1
 10
1235.003455974191
 20
4994.4052370605468
 30
0.0
 11
1235.0034559741921
 21
4014.4052370605468
 31
0.0
  0
LINE
  5
812C
  8
1
 10
2493.0034559741921
 20
4994.4052370605468
 30
0.0
 11
2493.0034559741921
 21
4880.705237060547
 31
0.0
  0
LINE
  5
812D
  8
1
 10
2413.0034559741921
 20
4994.4052370605468
 30
0.0
 11
2413.0034559741921
 21
4924.4052370605477
 31
0.0
  0
LINE
  5
812E
  8
1
 10
1315.003455974191
 20
4994.4052370605468
 30
0.0
 11
1315.003455974191
 21
4924.4052370605468
 31
0.0
  0
LINE
  5
812F
  8
1
 10
1315.003455974191
 20
4994.4052370605468
 30
0.0
 11
1235.003455974191
 21
4994.4052370605468
 31
0.0
  0
LINE
  5
8130
  8
1
 10
1315.0034559741921
 20
4014.4052370605468
 30
0.0
 11
1235.0034559741921
 21
4014.4052370605468
 31
0.0
  0
LINE
  5
8131
  8
1
 10
1315.0034559741921
 20
4175.8034611068142
 30
0.0
 11
1315.0034559741921
 21
4014.4052370605468
 31
0.0
  0
LINE
  5
8132
  8
1
 10
1315.003455974191
 20
4884.4052370605468
 30
0.0
 11
1315.0034559741921
 21
4437.8034611068142
 31
0.0
  0
LINE
  5
8133
  8
1
 10
2413.0034559741921
 20
4209.4052370605459
 30
0.0
 11
2413.0034559741921
 21
4014.4052370605468
 31
0.0
  0
LINE
  5
8134
  8
1
 10
2493.0034559741921
 20
4410.4052370605441
 30
0.0
 11
2493.0034559741921
 21
4014.4052370605468
 31
0.0
  0
DIMENSION
  5
8141
  8
3
  2
*D19
 10
2493.0034559741921
 20
5146.5848633580281
 30
0.0
 11
1864.003455974191
 21
5209.0848633580281
 31
0.0
 70
     0
 13
1235.003455974191
 23
4994.4052370605468
 33
0.0
 14
2493.0034559741921
 24
4994.4052370605468
 34
0.0
1001
ACAD
1000
DSTYLE
1002
{
1070
   287
1070
     3
1070
   287
1070
     3
1070
    40
1040
25.0
1070
   143
1040
0.039
1070
   172
1070
     1
1070
   271
1070
     0
1070
   279
1070
     0
1002
}
  0
DIMENSION
  5
814E
  8
3
  2
*D20
 10
1068.6432280540389
 20
4014.4052370605468
 30
0.0
 11
1006.143228054038
 21
4504.4052370605477
 31
0.0
 70
     0
 13
1235.003455974191
 23
4994.4052370605468
 33
0.0
 14
1235.0034559741921
 24
4014.4052370605468
 34
0.0
 50
90.0
1001
ACAD
1000
DSTYLE
1002
{
1070
   287
1070
     3
1070
   287
1070
     3
1070
    40
1040
25.0
1070
   143
1040
0.039
1070
   172
1070
     1
1070
   271
1070
     0
1070
   279
1070
     0
1002
}
  0
ENDSEC
  0
EOF
