  0
SECTION
  2
HEADER
  9
$ACADVER
  1
AC1009
  9
$INSBASE
 10
0.0
 20
0.0
 30
0.0
  9
$EXTMIN
 10
0.0
 20
0.0
 30
0.0
  9
$EXTMAX
 10
5250.0
 20
7375.0
 30
0.0
  9
$LIMMIN
 10
0.0
 20
0.0
  9
$LIMMAX
 10
297.0
 20
210.0
  9
$ORTHOMODE
 70
     0
  9
$REGENMODE
 70
     1
  9
$FILLMODE
 70
     0
  9
$QTEXTMODE
 70
     0
  9
$MIRRTEXT
 70
     1
  9
$DRAGMODE
 70
     2
  9
$LTSCALE
 40
100.0
  9
$OSMODE
 70
    37
  9
$ATTMODE
 70
     1
  9
$TEXTSIZE
 40
180.0
  9
$TRACEWID
 40
0.05
  9
$TEXTSTYLE
  7
STANDARD
  9
$CLAYER
  8
3
  9
$CELTYPE
  6
BYLAYER
  9
$CECOLOR
 62
   256
  9
$DIMSCALE
 40
25.0
  9
$DIMASZ
 40
2.0
  9
$DIMEXO
 40
0.5
  9
$DIMDLI
 40
10.0
  9
$DIMRND
 40
0.0
  9
$DIMDLE
 40
0.0
  9
$DIMEXE
 40
1.0
  9
$DIMTP
 40
1.0
  9
$DIMTM
 40
1.0
  9
$DIMTXT
 40
3.0
  9
$DIMCEN
 40
0.0
  9
$DIMTSZ
 40
0.0
  9
$DIMTOL
 70
     0
  9
$DIMLIM
 70
     0
  9
$DIMTIH
 70
     0
  9
$DIMTOH
 70
     0
  9
$DIMSE1
 70
     0
  9
$DIMSE2
 70
     0
  9
$DIMTAD
 70
     1
  9
$DIMZIN
 70
     8
  9
$DIMBLK
  1

  9
$DIMASO
 70
     1
  9
$DIMSHO
 70
     1
  9
$DIMPOST
  1

  9
$DIMAPOST
  1

  9
$DIMALT
 70
     0
  9
$DIMALTD
 70
     2
  9
$DIMALTF
 40
0.039
  9
$DIMLFAC
 40
1.0
  9
$DIMTOFL
 70
     1
  9
$DIMTVP
 40
0.0
  9
$DIMTIX
 70
     0
  9
$DIMSOXD
 70
     0
  9
$DIMSAH
 70
     1
  9
$DIMBLK1
  1
OPEN
  9
$DIMBLK2
  1
OPEN
  9
$DIMSTYLE
  2
IGA
  9
$DIMCLRD
 70
     0
  9
$DIMCLRE
 70
     0
  9
$DIMCLRT
 70
     0
  9
$DIMTFAC
 40
10.0
  9
$DIMGAP
 40
1.0
  9
$LUNITS
 70
     2
  9
$LUPREC
 70
     3
  9
$SKETCHINC
 40
0.1
  9
$FILLETRAD
 40
50.0
  9
$AUNITS
 70
     0
  9
$AUPREC
 70
     0
  9
$MENU
  1
acad
  9
$ELEVATION
 40
0.0
  9
$PELEVATION
 40
0.0
  9
$THICKNESS
 40
0.0
  9
$LIMCHECK
 70
     0
  9
$BLIPMODE
 70
     0
  9
$CHAMFERA
 40
0.0
  9
$CHAMFERB
 40
0.0
  9
$SKPOLY
 70
     0
  9
$TDCREATE
 40
2452817.4878591429
  9
$TDUPDATE
 40
2454953.854518529
  9
$TDINDWG
 40
0.0744706481
  9
$TDUSRTIMER
 40
0.0744706481
  9
$USRTIMER
 70
     1
  9
$ANGBASE
 50
0.0
  9
$ANGDIR
 70
     0
  9
$PDMODE
 70
     0
  9
$PDSIZE
 40
0.0
  9
$PLINEWID
 40
0.0
  9
$COORDS
 70
     1
  9
$SPLFRAME
 70
     0
  9
$SPLINETYPE
 70
     6
  9
$SPLINESEGS
 70
     8
  9
$ATTDIA
 70
     0
  9
$ATTREQ
 70
     1
  9
$HANDLING
 70
 10241
  9
$HANDSEED
  5
838D
  9
$SURFTAB1
 70
     6
  9
$SURFTAB2
 70
     6
  9
$SURFTYPE
 70
     6
  9
$SURFU
 70
     6
  9
$SURFV
 70
     6
  9
$UCSNAME
  2

  9
$UCSORG
 10
0.0
 20
0.0
 30
0.0
  9
$UCSXDIR
 10
1.0
 20
0.0
 30
0.0
  9
$UCSYDIR
 10
0.0
 20
1.0
 30
0.0
  9
$PUCSNAME
  2

  9
$PUCSORG
 10
0.0
 20
0.0
 30
0.0
  9
$PUCSXDIR
 10
1.0
 20
0.0
 30
0.0
  9
$PUCSYDIR
 10
0.0
 20
1.0
 30
0.0
  9
$USERI1
 70
     0
  9
$USERI2
 70
     0
  9
$USERI3
 70
     0
  9
$USERI4
 70
     0
  9
$USERI5
 70
     0
  9
$USERR1
 40
0.0
  9
$USERR2
 40
0.0
  9
$USERR3
 40
0.0
  9
$USERR4
 40
0.0
  9
$USERR5
 40
0.0
  9
$WORLDVIEW
 70
     1
  9
$SHADEDGE
 70
     3
  9
$SHADEDIF
 70
    70
  9
$TILEMODE
 70
     1
  9
$MAXACTVP
 70
    16
  9
$PLIMCHECK
 70
     0
  9
$PEXTMIN
 10
1.0000000000000000E+020
 20
1.0000000000000000E+020
 30
1.0000000000000000E+020
  9
$PEXTMAX
 10
-1.0000000000000000E+020
 20
-1.0000000000000000E+020
 30
-1.0000000000000000E+020
  9
$PLIMMIN
 10
0.0
 20
0.0
  9
$PLIMMAX
 10
12.0
 20
9.0
  9
$UNITMODE
 70
     0
  9
$VISRETAIN
 70
     0
  9
$PLINEGEN
 70
     0
  9
$PSLTSCALE
 70
     1
  0
ENDSEC
  0
SECTION
  2
TABLES
  0
TABLE
  2
VPORT
 70
     2
  0
VPORT
  2
*ACTIVE
 70
     0
 10
0.0
 20
0.0
 11
1.0
 21
1.0
 12
7534.9783080260304
 22
5006.2472700733688
 13
0.0
 23
0.0
 14
10.0
 24
10.0
 15
10.0
 25
10.0
 16
0.0
 26
0.0
 36
1.0
 17
0.0
 27
0.0
 37
0.0
 40
10012.49454014673
 41
1.5051150895140659
 42
50.0
 43
0.0
 44
0.0
 50
0.0
 51
0.0
 71
     0
 72
   100
 73
     1
 74
     0
 75
     0
 76
     0
 77
     0
 78
     0
  0
ENDTAB
  0
TABLE
  2
LTYPE
 70
     2
  0
LTYPE
  2
CONTINUOUS
 70
     0
  3
Solid line
 72
    65
 73
     0
 40
0.0
  0
LTYPE
  2
CENTER
 70
     0
  3
____ _ ____ _ ____ _ ____ _ ____ _ ____ _ ____ 
 72
    65
 73
     4
 40
2.0
 49
1.25
 49
-0.25
 49
0.25
 49
-0.25
  0
ENDTAB
  0
TABLE
  2
LAYER
 70
     6
  0
LAYER
  2
0
 70
     0
 62
     7
  6
CONTINUOUS
  0
LAYER
  2
3
 70
     0
 62
     2
  6
CONTINUOUS
  0
LAYER
  2
2
 70
     0
 62
     3
  6
CENTER
  0
LAYER
  2
1
 70
     0
 62
     4
  6
CONTINUOUS
  0
LAYER
  2
4
 70
     0
 62
     7
  6
CONTINUOUS
  0
LAYER
  2
DEFPOINTS
 70
     0
 62
     7
  6
CONTINUOUS
  0
ENDTAB
  0
TABLE
  2
STYLE
 70
     1
  0
STYLE
  2
STANDARD
 70
     0
 40
0.0
 41
1.0
 50
0.0
 71
     0
 42
180.0
  3
simplex.shx
  4
extfont.shx
  0
ENDTAB
  0
TABLE
  2
VIEW
 70
     0
  0
ENDTAB
  0
TABLE
  2
UCS
 70
     0
  0
ENDTAB
  0
TABLE
  2
APPID
 70
     1
  0
APPID
  2
ACAD
 70
     0
  0
ENDTAB
  0
TABLE
  2
DIMSTYLE
 70
     1
  0
DIMSTYLE
  2
IGA
 70
     0
  3

  4

  5

  6
OPEN
  7
OPEN
 40
2.0
 41
2.0
 42
0.5
 43
10.0
 44
1.0
 45
0.0
 46
0.0
 47
1.0
 48
1.0
140
3.0
141
0.0
142
0.0
143
0.03937
144
1.0
145
0.0
146
10.0
147
1.0
 71
     0
 72
     0
 73
     0
 74
     0
 75
     0
 76
     0
 77
     1
 78
     8
170
     0
171
     2
172
     0
173
     1
174
     0
175
     0
176
     0
177
     0
178
     0
  0
ENDTAB
  0
ENDSEC
  0
SECTION
  2
BLOCKS
  0
BLOCK
  8
0
  2
$MODEL_SPACE
 70
     0
 10
0.0
 20
0.0
 30
0.0
  3
$MODEL_SPACE
  1

  0
ENDBLK
  5
1B
  8
0
  0
BLOCK
 67
     1
  8
0
  2
$PAPER_SPACE
 70
     0
 10
0.0
 20
0.0
 30
0.0
  3
$PAPER_SPACE
  1

  0
ENDBLK
  5
18
 67
     1
  8
0
  0
BLOCK
  8
0
  2
_OPEN
 70
     0
 10
0.0
 20
0.0
 30
0.0
  3
_OPEN
  1

  0
LINE
  5
7C59
  8
0
  6
BYBLOCK
 62
     0
 10
-1.0
 20
0.1666666666666666
 30
0.0
 11
0.0
 21
0.0
 31
0.0
  0
LINE
  5
7C5A
  8
0
  6
BYBLOCK
 62
     0
 10
0.0
 20
0.0
 30
0.0
 11
-1.0
 21
-0.1666666666666666
 31
0.0
  0
LINE
  5
7C5B
  8
0
  6
BYBLOCK
 62
     0
 10
0.0
 20
0.0
 30
0.0
 11
-1.0
 21
0.0
 31
0.0
  0
ENDBLK
  5
7C5C
  8
0
  0
BLOCK
  8
0
  2
_DOT
 70
     0
 10
0.0
 20
0.0
 30
0.0
  3
_DOT
  1

  0
LINE
  5
818C
  8
0
  6
BYBLOCK
 62
     0
 10
0.0
 20
0.0
 30
0.0
 11
-1.0
 21
-0.0000000000000284
 31
0.0
  0
POLYLINE
  5
818D
  8
0
  6
BYBLOCK
 62
     0
 66
     1
 10
0.0
 20
0.0
 30
0.0
 70
     1
 40
0.1666666666666666
 41
0.1666666666666666
  0
VERTEX
  5
8345
  8
0
  6
BYBLOCK
 62
     0
 10
-0.0833333333333286
 20
-0.0000000000000284
 30
0.0
 42
1.0
  0
VERTEX
  5
8346
  8
0
  6
BYBLOCK
 62
     0
 10
0.0833333333333286
 20
-0.0000000000000284
 30
0.0
 42
1.0
  0
SEQEND
  5
8347
  8
0
  6
BYBLOCK
 62
     0
  0
ENDBLK
  5
7D54
  8
0
  0
BLOCK
  8
0
  2
*D2
 70
     1
 10
0.0
 20
0.0
 30
0.0
  3
*D2
  1

  0
LINE
  5
8047
  8
0
  6
BYBLOCK
 62
     0
 10
4445.6298262740702
 20
2963.95432224351
 30
0.0
 11
4445.6298262740702
 21
3636.1868137804968
 31
0.0
  0
LINE
  5
8048
  8
0
  6
BYBLOCK
 62
     0
 10
4230.3876673387904
 20
3523.4489323175771
 30
0.0
 11
4230.3876673387904
 21
3636.1868137804968
 31
0.0
  0
LINE
  5
8049
  8
0
  6
BYBLOCK
 62
     0
 10
4395.6298262740702
 20
3611.1868137804968
 30
0.0
 11
4280.3876673387904
 21
3611.1868137804968
 31
0.0
  0
TEXT
  5
804A
  8
3
 62
     0
 10
4249.7305307156366
 20
3633.9293826442572
 30
0.0
 40
75.0
  1
215
  0
INSERT
  5
804B
  8
0
  6
BYBLOCK
 62
     0
  2
_OPEN
 10
4445.6298262740702
 20
3611.1868137804968
 30
0.0
 41
50.0
 42
50.0
 43
50.0
  0
INSERT
  5
804C
  8
0
  6
BYBLOCK
 62
     0
  2
_OPEN
 10
4230.3876673387904
 20
3611.1868137804968
 30
0.0
 41
50.0
 42
50.0
 43
50.0
 50
180.0
  0
POINT
  5
804D
  8
DEFPOINTS
  6
BYBLOCK
 62
     0
 10
4445.6298262740702
 20
2951.45432224351
 30
0.0
  0
POINT
  5
804E
  8
DEFPOINTS
  6
BYBLOCK
 62
     0
 10
4230.3876673387904
 20
3510.9489323175781
 30
0.0
  0
POINT
  5
804F
  8
DEFPOINTS
  6
BYBLOCK
 62
     0
 10
4230.3876673387904
 20
3611.1868137804968
 30
0.0
  0
ENDBLK
  5
8050
  8
0
  0
BLOCK
  8
0
  2
*D3
 70
     1
 10
0.0
 20
0.0
 30
0.0
  3
*D3
  1

  0
LINE
  5
8300
  8
3
 62
     0
 10
3609.6143940401589
 20
2873.9543222435091
 30
0.0
 11
3609.6143940401589
 21
3636.1868137804968
 31
0.0
  0
LINE
  5
8301
  8
3
 62
     0
 10
4180.3876673387904
 20
3611.1868137804968
 30
0.0
 11
3659.6143940401589
 21
3611.1868137804968
 31
0.0
  0
INSERT
  5
8302
  8
3
 62
     0
  2
_OPEN
 10
4230.3876673387904
 20
3611.1868137804968
 30
0.0
 41
50.0
 42
50.0
 43
50.0
  0
INSERT
  5
8303
  8
3
 62
     0
  2
_OPEN
 10
3609.6143940401589
 20
3611.1868137804968
 30
0.0
 41
50.0
 42
50.0
 43
50.0
 50
180.0
  0
TEXT
  8
3
  40
75
  5
837E
  62
0
  72
0
  71
0
 10
3770.00
 20
3603.44
 30
0.000000
  1
MAX
  0
TEXT
  8
3
  40
75
  5
837F
  62
0
  72
0
  71
0
 10
3770.00
 20
3505.94
 30
0.000000
  1
630
  0
POINT
  5
8305
  8
DEFPOINTS
 62
     0
 10
4230.3876673387904
 20
3510.9489323175781
 30
0.0
  0
POINT
  5
8306
  8
DEFPOINTS
 62
     0
 10
3609.6143940401589
 20
2861.4543222435091
 30
0.0
  0
POINT
  5
8307
  8
DEFPOINTS
 62
     0
 10
3609.6143940401589
 20
3611.1868137804968
 30
0.0
  0
ENDBLK
  5
8045
  8
0
  0
BLOCK
  8
0
  2
*D4
 70
     1
 10
0.0
 20
0.0
 30
0.0
  3
*D4
  1

  0
LINE
  5
8308
  8
3
 62
     0
 10
4488.5876673387902
 20
2921.45432224351
 30
0.0
 11
4690.9058980112677
 21
2921.45432224351
 31
0.0
  0
LINE
  5
8309
  8
3
 62
     0
 10
4488.5876673387902
 20
2361.4543222435091
 30
0.0
 11
4690.9058980112677
 21
2361.4543222435091
 31
0.0
  0
LINE
  5
830A
  8
3
 62
     0
 10
4665.9058980112686
 20
2871.45432224351
 30
0.0
 11
4665.9058980112686
 21
2411.45432224351
 31
0.0
  0
INSERT
  5
830B
  8
3
 62
     0
  2
_OPEN
 10
4665.9058980112686
 20
2921.45432224351
 30
0.0
 41
50.0
 42
50.0
 43
50.0
 50
90.0
  0
INSERT
  5
830C
  8
3
 62
     0
  2
_OPEN
 10
4665.9058980112686
 20
2361.4543222435091
 30
0.0
 41
50.0
 42
50.0
 43
50.0
 50
270.0
  0
TEXT
  8
3
  40
75
  5
8380
  62
0
  72
0
  71
0
 10
4453.41
 20
2518.18
 30
0.000000
  1
φ560
  0
POINT
  5
830E
  8
DEFPOINTS
 62
     0
 10
4476.0876673387911
 20
2921.45432224351
 30
0.0
  0
POINT
  5
830F
  8
DEFPOINTS
 62
     0
 10
4476.0876673387911
 20
2361.4543222435091
 30
0.0
  0
POINT
  5
8310
  8
DEFPOINTS
 62
     0
 10
4665.9058980112686
 20
2361.4543222435091
 30
0.0
  0
ENDBLK
  5
7E5D
  8
0
  0
BLOCK
  8
0
  2
*D5
 70
     1
 10
0.0
 20
0.0
 30
0.0
  3
*D5
  1

  0
LINE
  5
8311
  8
3
 62
     0
 10
4017.8876673387899
 20
3255.9543222435109
 30
0.0
 11
4017.8876673387899
 21
3424.0704282447682
 31
0.0
  0
LINE
  5
8312
  8
3
 62
     0
 10
4442.8876673387877
 20
3255.9543222435109
 30
0.0
 11
4442.8876673387877
 21
3424.0704282447682
 31
0.0
  0
LINE
  5
8313
  8
3
 62
     0
 10
4067.8876673387899
 20
3399.0704282447682
 30
0.0
 11
4392.8876673387877
 21
3399.0704282447682
 31
0.0
  0
INSERT
  5
8314
  8
3
 62
     0
  2
_OPEN
 10
4017.8876673387899
 20
3399.0704282447682
 30
0.0
 41
50.0
 42
50.0
 43
50.0
 50
180.0
  0
INSERT
  5
8315
  8
3
 62
     0
  2
_OPEN
 10
4442.8876673387877
 20
3399.0704282447682
 30
0.0
 41
50.0
 42
50.0
 43
50.0
  0
TEXT
  8
3
  40
75
  5
8381
  62
0
  72
0
  71
0
 10
4075.97
 20
3328.82
 30
0.000000
  1
425
  0
POINT
  5
8317
  8
DEFPOINTS
 62
     0
 10
4017.8876673387899
 20
3243.4543222435109
 30
0.0
  0
POINT
  5
8318
  8
DEFPOINTS
 62
     0
 10
4442.8876673387877
 20
3243.4543222435109
 30
0.0
  0
POINT
  5
8319
  8
DEFPOINTS
 62
     0
 10
4442.8876673387877
 20
3399.0704282447682
 30
0.0
  0
ENDBLK
  5
8025
  8
0
  0
BLOCK
  8
0
  2
*D6
 70
     1
 10
0.0
 20
0.0
 30
0.0
  3
*D6
  1

  0
LINE
  5
831A
  8
3
 62
     0
 10
1592.7247455540919
 20
3285.95432224351
 30
0.0
 11
1592.7247455540919
 21
3457.1545633821961
 31
0.0
  0
LINE
  5
831B
  8
3
 62
     0
 10
1982.7247455540919
 20
3300.4784297007659
 30
0.0
 11
1982.7247455540919
 21
3457.1545633821961
 31
0.0
  0
LINE
  5
831C
  8
3
 62
     0
 10
1642.7247455540919
 20
3432.154563382197
 30
0.0
 11
1932.7247455540919
 21
3432.154563382197
 31
0.0
  0
INSERT
  5
831D
  8
3
 62
     0
  2
_OPEN
 10
1592.7247455540919
 20
3432.154563382197
 30
0.0
 41
50.0
 42
50.0
 43
50.0
 50
180.0
  0
INSERT
  5
831E
  8
3
 62
     0
  2
_OPEN
 10
1982.7247455540919
 20
3432.154563382197
 30
0.0
 41
50.0
 42
50.0
 43
50.0
  0
TEXT
  8
3
  40
75
  5
8382
  62
0
  72
0
  71
0
 10
1661.30
 20
3361.90
 30
0.000000
  1
390
  0
POINT
  5
8320
  8
DEFPOINTS
 62
     0
 10
1592.7247455540919
 20
3273.4543222435109
 30
0.0
  0
POINT
  5
8321
  8
DEFPOINTS
 62
     0
 10
1982.7247455540919
 20
3287.9784297007659
 30
0.0
  0
POINT
  5
8322
  8
DEFPOINTS
 62
     0
 10
1982.7247455540919
 20
3432.154563382197
 30
0.0
  0
ENDBLK
  5
8155
  8
0
  0
BLOCK
  8
0
  2
*D7
 70
     1
 10
0.0
 20
0.0
 30
0.0
  3
*D7
  1

  0
LINE
  5
8323
  8
3
 62
     0
 10
2466.7247455540919
 20
2695.95432224351
 30
0.0
 11
2466.7247455540919
 21
3457.1545633821961
 31
0.0
  0
LINE
  5
8324
  8
3
 62
     0
 10
2032.7247455540919
 20
3432.154563382197
 30
0.0
 11
2416.7247455540928
 21
3432.154563382197
 31
0.0
  0
INSERT
  5
8325
  8
3
 62
     0
  2
_OPEN
 10
1982.7247455540919
 20
3432.154563382197
 30
0.0
 41
50.0
 42
50.0
 43
50.0
 50
180.0
  0
INSERT
  5
8326
  8
3
 62
     0
  2
_OPEN
 10
2466.7247455540919
 20
3432.154563382197
 30
0.0
 41
50.0
 42
50.0
 43
50.0
  0
TEXT
  8
3
  40
75
  5
8383
  62
0
  72
0
  71
0
 10
2074.72
 20
3361.90
 30
0.000000
  1
484
  0
POINT
  5
8328
  8
DEFPOINTS
 62
     0
 10
1982.7247455540919
 20
3287.9784297007659
 30
0.0
  0
POINT
  5
8329
  8
DEFPOINTS
 62
     0
 10
2466.7247455540919
 20
2683.45432224351
 30
0.0
  0
POINT
  5
832A
  8
DEFPOINTS
 62
     0
 10
2466.7247455540919
 20
3432.154563382197
 30
0.0
  0
ENDBLK
  5
8135
  8
0
  0
BLOCK
  8
0
  2
*D8
 70
     1
 10
0.0
 20
0.0
 30
0.0
  3
*D8
  1

  0
LINE
  5
832B
  8
3
 62
     0
 10
1582.5247455540939
 20
3241.45432224351
 30
0.0
 11
1288.9489190720269
 21
3241.45432224351
 31
0.0
  0
LINE
  5
832C
  8
3
 62
     0
 10
1544.488215757779
 20
2641.4543222435091
 30
0.0
 11
1288.9489190720269
 21
2641.4543222435091
 31
0.0
  0
LINE
  5
832D
  8
3
 62
     0
 10
1313.9489190720269
 20
3191.45432224351
 30
0.0
 11
1313.9489190720269
 21
2691.4543222435091
 31
0.0
  0
INSERT
  5
832E
  8
3
 62
     0
  2
_OPEN
 10
1313.9489190720269
 20
3241.45432224351
 30
0.0
 41
50.0
 42
50.0
 43
50.0
 50
90.0
  0
INSERT
  5
832F
  8
3
 62
     0
  2
_OPEN
 10
1313.9489190720269
 20
2641.4543222435091
 30
0.0
 41
50.0
 42
50.0
 43
50.0
 50
270.0
  0
TEXT
  8
3
  40
75
  5
8384
  62
0
  72
0
  71
0
 10
1101.45
 20
2837.67
 30
0.000000
  1
600
  0
POINT
  5
8331
  8
DEFPOINTS
 62
     0
 10
1595.0247455540939
 20
3241.45432224351
 30
0.0
  0
POINT
  5
8332
  8
DEFPOINTS
 62
     0
 10
1556.988215757779
 20
2641.4543222435091
 30
0.0
  0
POINT
  5
8333
  8
DEFPOINTS
 62
     0
 10
1313.9489190720269
 20
2641.4543222435091
 30
0.0
  0
ENDBLK
  5
8107
  8
0
  0
BLOCK
  8
0
  2
*D9
 70
     1
 10
0.0
 20
0.0
 30
0.0
  3
*D9
  1

  0
LINE
  5
8334
  8
3
 62
     0
 10
1620.2247455540919
 20
2071.4543222435091
 30
0.0
 11
1288.948919072026
 21
2071.4543222435091
 31
0.0
  0
LINE
  5
8335
  8
3
 62
     0
 10
1313.9489190720269
 20
2591.4543222435091
 30
0.0
 11
1313.9489190720269
 21
2121.4543222435091
 31
0.0
  0
INSERT
  5
8336
  8
3
 62
     0
  2
_OPEN
 10
1313.9489190720269
 20
2641.4543222435091
 30
0.0
 41
50.0
 42
50.0
 43
50.0
 50
90.0
  0
INSERT
  5
8337
  8
3
 62
     0
  2
_OPEN
 10
1313.9489190720269
 20
2071.4543222435091
 30
0.0
 41
50.0
 42
50.0
 43
50.0
 50
270.0
  0
TEXT
  8
3
  40
75
  5
8385
  62
0
  72
0
  71
0
 10
1101.45
 20
2223.70
 30
0.000000
  1
570
  0
POINT
  5
8339
  8
DEFPOINTS
 62
     0
 10
1556.988215757779
 20
2641.4543222435091
 30
0.0
  0
POINT
  5
833A
  8
DEFPOINTS
 62
     0
 10
1632.7247455540919
 20
2071.4543222435091
 30
0.0
  0
POINT
  5
833B
  8
DEFPOINTS
 62
     0
 10
1313.9489190720269
 20
2071.4543222435091
 30
0.0
  0
ENDBLK
  5
80FC
  8
0
  0
BLOCK
  8
0
  2
*D10
 70
     1
 10
0.0
 20
0.0
 30
0.0
  3
*D10
  1

  0
LINE
  5
833C
  8
3
 62
     0
 10
1582.5247455540939
 20
3241.45432224351
 30
0.0
 11
1413.2464330236039
 21
3241.45432224351
 31
0.0
  0
LINE
  5
833D
  8
3
 62
     0
 10
1582.5247455540939
 20
2661.45432224351
 30
0.0
 11
1413.2464330236039
 21
2661.45432224351
 31
0.0
  0
LINE
  5
833E
  8
3
 62
     0
 10
1438.246433023603
 20
3191.45432224351
 30
0.0
 11
1438.246433023603
 21
2711.4543222435091
 31
0.0
  0
INSERT
  5
833F
  8
3
 62
     0
  2
_OPEN
 10
1438.246433023603
 20
3241.45432224351
 30
0.0
 41
50.0
 42
50.0
 43
50.0
 50
90.0
  0
INSERT
  5
8340
  8
3
 62
     0
  2
_OPEN
 10
1438.246433023603
 20
2661.45432224351
 30
0.0
 41
50.0
 42
50.0
 43
50.0
 50
270.0
  0
TEXT
  8
3
  40
75
  5
8386
  62
0
  72
0
  71
0
 10
1225.75
 20
2839.00
 30
0.000000
  1
580
  0
POINT
  5
8342
  8
DEFPOINTS
 62
     0
 10
1595.0247455540939
 20
3241.45432224351
 30
0.0
  0
POINT
  5
8343
  8
DEFPOINTS
 62
     0
 10
1595.0247455540939
 20
2661.45432224351
 30
0.0
  0
POINT
  5
8344
  8
DEFPOINTS
 62
     0
 10
1438.246433023603
 20
2661.45432224351
 30
0.0
  0
ENDBLK
  5
80E7
  8
0
  0
BLOCK
  8
0
  2
*D11
 70
     1
 10
0.0
 20
0.0
 30
0.0
  3
*D11
  1

  0
LINE
  5
8348
  8
3
 62
     0
 10
3575.3876673387908
 20
2018.9543222435091
 30
0.0
 11
3575.3876673387908
 21
1853.517694105172
 31
0.0
  0
LINE
  5
8349
  8
3
 62
     0
 10
4230.3876673387913
 20
2018.95432224351
 30
0.0
 11
4230.3876673387913
 21
1853.517694105172
 31
0.0
  0
LINE
  5
834A
  8
3
 62
     0
 10
3625.3876673387908
 20
1878.517694105172
 30
0.0
 11
4180.3876673387904
 21
1878.517694105172
 31
0.0
  0
INSERT
  5
834B
  8
3
 62
     0
  2
_OPEN
 10
3575.3876673387908
 20
1878.517694105172
 30
0.0
 41
50.0
 42
50.0
 43
50.0
 50
180.0
  0
INSERT
  5
834C
  8
3
 62
     0
  2
_OPEN
 10
4230.3876673387913
 20
1878.517694105172
 30
0.0
 41
50.0
 42
50.0
 43
50.0
  0
TEXT
  8
3
  40
75
  5
8387
  62
0
  72
0
  71
0
 10
3752.89
 20
1808.27
 30
0.000000
  1
655
  0
POINT
  5
834E
  8
DEFPOINTS
 62
     0
 10
3575.3876673387908
 20
2031.4543222435091
 30
0.0
  0
POINT
  5
834F
  8
DEFPOINTS
 62
     0
 10
4230.3876673387913
 20
2031.45432224351
 30
0.0
  0
POINT
  5
8350
  8
DEFPOINTS
 62
     0
 10
4230.3876673387913
 20
1878.517694105172
 30
0.0
  0
ENDBLK
  5
81E1
  8
0
  0
BLOCK
  8
0
  2
*D12
 70
     1
 10
0.0
 20
0.0
 30
0.0
  3
*D12
  1

  0
LINE
  5
8351
  8
3
 62
     0
 10
4230.3876673387913
 20
2018.95432224351
 30
0.0
 11
4230.3876673387913
 21
1853.517694105172
 31
0.0
  0
LINE
  5
8352
  8
3
 62
     0
 10
4555.3876673387904
 20
2018.95432224351
 30
0.0
 11
4555.3876673387904
 21
1853.517694105172
 31
0.0
  0
LINE
  5
8353
  8
3
 62
     0
 10
4280.3876673387913
 20
1878.517694105172
 30
0.0
 11
4505.3876673387913
 21
1878.517694105172
 31
0.0
  0
INSERT
  5
8354
  8
3
 62
     0
  2
_OPEN
 10
4230.3876673387913
 20
1878.517694105172
 30
0.0
 41
50.0
 42
50.0
 43
50.0
 50
180.0
  0
INSERT
  5
8355
  8
3
 62
     0
  2
_OPEN
 10
4555.3876673387904
 20
1878.517694105172
 30
0.0
 41
50.0
 42
50.0
 43
50.0
  0
TEXT
  8
3
  40
75
  5
8388
  62
0
  72
0
  71
0
 10
4242.89
 20
1808.27
 30
0.000000
  1
325
  0
POINT
  5
8357
  8
DEFPOINTS
 62
     0
 10
4230.3876673387913
 20
2031.45432224351
 30
0.0
  0
POINT
  5
8358
  8
DEFPOINTS
 62
     0
 10
4555.3876673387904
 20
2031.45432224351
 30
0.0
  0
POINT
  5
8359
  8
DEFPOINTS
 62
     0
 10
4555.3876673387904
 20
1878.517694105172
 30
0.0
  0
ENDBLK
  5
81F0
  8
0
  0
BLOCK
  8
0
  2
*D13
 70
     1
 10
0.0
 20
0.0
 30
0.0
  3
*D13
  1

  0
LINE
  5
835A
  8
3
 62
     0
 10
1982.724745554093
 20
2058.9543222435091
 30
0.0
 11
1982.724745554093
 21
1853.517694105172
 31
0.0
  0
LINE
  5
835B
  8
3
 62
     0
 10
2886.7247455540928
 20
2018.9543222435091
 30
0.0
 11
2886.7247455540928
 21
1853.517694105172
 31
0.0
  0
LINE
  5
835C
  8
3
 62
     0
 10
2032.724745554093
 20
1878.517694105172
 30
0.0
 11
2836.7247455540928
 21
1878.517694105172
 31
0.0
  0
INSERT
  5
835D
  8
3
 62
     0
  2
_OPEN
 10
1982.724745554093
 20
1878.517694105172
 30
0.0
 41
50.0
 42
50.0
 43
50.0
 50
180.0
  0
INSERT
  5
835E
  8
3
 62
     0
  2
_OPEN
 10
2886.7247455540928
 20
1878.517694105172
 30
0.0
 41
50.0
 42
50.0
 43
50.0
  0
TEXT
  8
3
  40
75
  5
8389
  62
0
  72
0
  71
0
 10
2284.72
 20
1808.27
 30
0.000000
  1
904
  0
POINT
  5
8360
  8
DEFPOINTS
 62
     0
 10
1982.724745554093
 20
2071.4543222435091
 30
0.0
  0
POINT
  5
8361
  8
DEFPOINTS
 62
     0
 10
2886.7247455540928
 20
2031.4543222435091
 30
0.0
  0
POINT
  5
8362
  8
DEFPOINTS
 62
     0
 10
2886.7247455540928
 20
1878.517694105172
 30
0.0
  0
ENDBLK
  5
81FD
  8
0
  0
BLOCK
  8
0
  2
*D14
 70
     1
 10
0.0
 20
0.0
 30
0.0
  3
*D14
  1

  0
LINE
  5
8363
  8
3
 62
     0
 10
1628.724745554093
 20
2018.9543222435091
 30
0.0
 11
1628.724745554093
 21
1853.517694105172
 31
0.0
  0
LINE
  5
8364
  8
3
 62
     0
 10
1982.724745554093
 20
2058.9543222435091
 30
0.0
 11
1982.724745554093
 21
1853.517694105172
 31
0.0
  0
LINE
  5
8365
  8
3
 62
     0
 10
1678.724745554093
 20
1878.517694105172
 30
0.0
 11
1932.724745554093
 21
1878.517694105172
 31
0.0
  0
INSERT
  5
8366
  8
3
 62
     0
  2
_OPEN
 10
1628.724745554093
 20
1878.517694105172
 30
0.0
 41
50.0
 42
50.0
 43
50.0
 50
180.0
  0
INSERT
  5
8367
  8
3
 62
     0
  2
_OPEN
 10
1982.724745554093
 20
1878.517694105172
 30
0.0
 41
50.0
 42
50.0
 43
50.0
  0
TEXT
  8
3
  40
75
  5
838A
  62
0
  72
0
  71
0
 10
1655.72
 20
1808.27
 30
0.000000
  1
354
  0
POINT
  5
8369
  8
DEFPOINTS
 62
     0
 10
1628.724745554093
 20
2031.4543222435091
 30
0.0
  0
POINT
  5
836A
  8
DEFPOINTS
 62
     0
 10
1982.724745554093
 20
2071.4543222435091
 30
0.0
  0
POINT
  5
836B
  8
DEFPOINTS
 62
     0
 10
1982.724745554093
 20
1878.517694105172
 30
0.0
  0
ENDBLK
  5
820A
  8
0
  0
BLOCK
  8
0
  2
*D15
 70
     1
 10
0.0
 20
0.0
 30
0.0
  3
*D15
  1

  0
LINE
  5
836C
  8
3
 62
     0
 10
1631.724745554091
 20
5006.9052370605459
 30
0.0
 11
1631.724745554091
 21
5159.7191105978336
 31
0.0
  0
LINE
  5
836D
  8
3
 62
     0
 10
2889.724745554091
 20
5006.9052370605459
 30
0.0
 11
2889.724745554091
 21
5159.7191105978336
 31
0.0
  0
LINE
  5
836E
  8
3
 62
     0
 10
1681.724745554091
 20
5134.7191105978354
 30
0.0
 11
2839.724745554091
 21
5134.7191105978354
 31
0.0
  0
INSERT
  5
836F
  8
3
 62
     0
  2
_OPEN
 10
1631.724745554091
 20
5134.7191105978354
 30
0.0
 41
50.0
 42
50.0
 43
50.0
 50
180.0
  0
INSERT
  5
8370
  8
3
 62
     0
  2
_OPEN
 10
2889.724745554091
 20
5134.7191105978354
 30
0.0
 41
50.0
 42
50.0
 43
50.0
  0
TEXT
  8
3
  40
75
  5
838B
  62
0
  72
0
  71
0
 10
2110.72
 20
5064.47
 30
0.000000
  1
1258
  0
POINT
  5
8372
  8
DEFPOINTS
 62
     0
 10
1631.724745554091
 20
4994.4052370605459
 30
0.0
  0
POINT
  5
8373
  8
DEFPOINTS
 62
     0
 10
2889.724745554091
 20
4994.4052370605468
 30
0.0
  0
POINT
  5
8374
  8
DEFPOINTS
 62
     0
 10
2889.724745554091
 20
5134.7191105978354
 30
0.0
  0
ENDBLK
  5
8224
  8
0
  0
BLOCK
  8
0
  2
*D16
 70
     1
 10
0.0
 20
0.0
 30
0.0
  3
*D16
  1

  0
LINE
  5
8375
  8
3
 62
     0
 10
1619.224745554091
 20
4994.4052370605459
 30
0.0
 11
1441.7067661786459
 21
4994.4052370605459
 31
0.0
  0
LINE
  5
8376
  8
3
 62
     0
 10
1619.224745554091
 20
4014.4052370605468
 30
0.0
 11
1441.706766178645
 21
4014.4052370605468
 31
0.0
  0
LINE
  5
8377
  8
3
 62
     0
 10
1466.7067661786459
 20
4944.4052370605459
 30
0.0
 11
1466.7067661786459
 21
4064.4052370605468
 31
0.0
  0
INSERT
  5
8378
  8
3
 62
     0
  2
_OPEN
 10
1466.7067661786459
 20
4994.4052370605459
 30
0.0
 41
50.0
 42
50.0
 43
50.0
 50
90.0
  0
INSERT
  5
8379
  8
3
 62
     0
  2
_OPEN
 10
1466.7067661786459
 20
4014.4052370605468
 30
0.0
 41
50.0
 42
50.0
 43
50.0
 50
270.0
  0
TEXT
  8
3
  40
75
  5
838C
  62
0
  72
0
  71
0
 10
1254.21
 20
4371.66
 30
0.000000
  1
980
  0
POINT
  5
837B
  8
DEFPOINTS
 62
     0
 10
1631.724745554091
 20
4994.4052370605459
 30
0.0
  0
POINT
  5
837C
  8
DEFPOINTS
 62
     0
 10
1631.724745554091
 20
4014.4052370605468
 30
0.0
  0
POINT
  5
837D
  8
DEFPOINTS
 62
     0
 10
1466.7067661786459
 20
4014.4052370605468
 30
0.0
  0
ENDBLK
  5
8231
  8
0
  0
ENDSEC
  0
SECTION
  2
ENTITIES
  0
LINE
  5
7B1E
  8
1
 10
2247.7247455540919
 20
2557.9543222435091
 30
0.0
 11
2247.7247455540919
 21
2151.45432224351
 31
0.0
  0
LINE
  5
7B1F
  8
1
 10
1717.7247455540919
 20
2557.9543222435091
 30
0.0
 11
1717.724745554091
 21
2151.45432224351
 31
0.0
  0
LINE
  5
7B22
  8
1
 10
1755.4247455540919
 20
2577.3543222435101
 30
0.0
 11
1755.424745554091
 21
2151.45432224351
 31
0.0
  0
LINE
  5
7B23
  8
1
 10
2210.0247455540921
 20
2577.3543222435101
 30
0.0
 11
2210.0247455540921
 21
2151.45432224351
 31
0.0
  0
LINE
  5
7B26
  8
2
 10
1982.7247455540919
 20
3287.9784297007659
 30
0.0
 11
1982.724745554093
 21
2071.4543222435091
 31
0.0
  0
LINE
  5
7B27
  8
1
 10
2247.7247455540919
 20
2151.45432224351
 30
0.0
 11
2210.0247455540921
 21
2151.45432224351
 31
0.0
  0
LINE
  5
7B28
  8
1
 10
1755.424745554091
 20
2151.45432224351
 30
0.0
 11
1717.724745554091
 21
2151.45432224351
 31
0.0
  0
LINE
  5
7B29
  8
2
 10
2656.1033897126081
 20
2641.4543222435091
 30
0.0
 11
1556.988215757779
 21
2641.4543222435091
 31
0.0
  0
LINE
  5
7B43
  8
1
 10
1982.7247455540919
 20
2621.9543222435091
 30
0.0
 11
1604.724745554093
 21
2621.9543222435132
 31
0.0
  0
LINE
  5
7B44
  8
1
 10
2205.4247455540922
 20
2581.95432224351
 30
0.0
 11
1760.0247455540921
 21
2581.95432224351
 31
0.0
  0
LINE
  5
7B45
  8
1
 10
2360.7247455540919
 20
2621.9543222435091
 30
0.0
 11
1982.7247455540919
 21
2621.9543222435091
 31
0.0
  0
LINE
  5
7B46
  8
1
 10
2365.7247455540919
 20
2616.9543222435091
 30
0.0
 11
2360.7247455540919
 21
2621.9543222435091
 31
0.0
  0
LINE
  5
7B47
  8
1
 10
2365.7247455540919
 20
2581.95432224351
 30
0.0
 11
2365.7247455540919
 21
2616.9543222435091
 31
0.0
  0
ARC
  5
7B48
  8
1
 10
2205.4247455540922
 20
2577.3543222435101
 30
0.0
 40
4.5999999999999988
 50
0.0
 51
90.0
  0
LINE
  5
7B49
  8
1
 10
2227.7247455540919
 20
2577.9543222435091
 30
0.0
 11
2209.9854472544889
 21
2577.9543222435091
 31
0.0
  0
LINE
  5
7B4A
  8
1
 10
2247.7247455540919
 20
2557.9543222435091
 30
0.0
 11
2227.7247455540919
 21
2577.9543222435091
 31
0.0
  0
LINE
  5
7B4B
  8
1
 10
2210.0247455540921
 20
2571.9543222435091
 30
0.0
 11
2210.0247455540921
 21
2525.0210488871262
 31
0.0
  0
LINE
  5
7B4E
  8
1
 10
1737.7247455540919
 20
2577.9543222435091
 30
0.0
 11
1717.7247455540919
 21
2557.9543222435091
 31
0.0
  0
ARC
  5
7B4F
  8
1
 10
1760.0247455540921
 20
2577.3543222435101
 30
0.0
 40
4.5999999999999988
 50
90.0
 51
180.0
  0
LINE
  5
7B50
  8
1
 10
1755.464043853696
 20
2577.9543222435091
 30
0.0
 11
1737.7247455540919
 21
2577.9543222435091
 31
0.0
  0
LINE
  5
7B51
  8
1
 10
1599.724745554093
 20
2581.9543222435132
 30
0.0
 11
1599.724745554093
 21
2616.9543222435132
 31
0.0
  0
LINE
  5
7B52
  8
1
 10
1604.724745554093
 20
2621.9543222435132
 30
0.0
 11
1599.724745554093
 21
2616.9543222435132
 31
0.0
  0
LINE
  5
7B6A
  8
1
 10
4485.3876673387904
 20
2406.45432224351
 30
0.0
 11
4485.3876673387913
 21
2071.45432224351
 31
0.0
  0
LINE
  5
7B70
  8
1
 10
4476.0876673387911
 20
2415.7543222435102
 30
0.0
 11
4476.0876673387911
 21
2918.95432224351
 31
0.0
  0
LINE
  5
7B71
  8
2
 10
4230.3876673387904
 20
3381.081119185239
 30
0.0
 11
4230.3876673387913
 21
2031.45432224351
 31
0.0
  0
LINE
  5
7B72
  8
2
 10
3579.3683460792049
 20
2641.45432224351
 30
0.0
 11
4501.3514928763407
 21
2641.45432224351
 31
0.0
  0
LINE
  5
7B73
  8
1
 10
3750.3876673387908
 20
2616.45432224351
 30
0.0
 11
4015.0876673387688
 21
2616.45432224351
 31
0.0
  0
LINE
  5
7B74
  8
1
 10
3750.3876673387908
 20
2666.4543222435091
 30
0.0
 11
4016.2876673387868
 21
2666.4543222435091
 31
0.0
  0
LINE
  5
7B75
  8
1
 10
3750.3876673387899
 20
2616.45432224351
 30
0.0
 11
3750.3876673387899
 21
2666.4543222435091
 31
0.0
  0
LINE
  5
7B76
  8
1
 10
3675.3876673387908
 20
2659.45432224351
 30
0.0
 11
3675.3876673387908
 21
2623.45432224351
 31
0.0
  0
LINE
  5
7B77
  8
1
 10
3676.3876673387908
 20
2622.45432224351
 30
0.0
 11
3748.3876673387908
 21
2622.45432224351
 31
0.0
  0
LINE
  5
7B78
  8
1
 10
3675.3876673387908
 20
2623.45432224351
 30
0.0
 11
3676.3876673387908
 21
2622.45432224351
 31
0.0
  0
ARC
  5
7B79
  8
1
 10
3748.3876673387908
 20
2620.45432224351
 30
0.0
 40
2.0
 50
0.0
 51
90.0
  0
LINE
  5
7B7A
  8
1
 10
4015.0876673387711
 20
2581.9543222435109
 30
0.0
 11
3770.3876673387899
 21
2581.95432224351
 31
0.0
  0
LINE
  5
7B7B
  8
1
 10
3676.3876673387908
 20
2660.45432224351
 30
0.0
 11
3748.3876673387908
 21
2660.45432224351
 31
0.0
  0
LINE
  5
7B7C
  8
1
 10
3675.3876673387908
 20
2659.45432224351
 30
0.0
 11
3676.3876673387908
 21
2660.45432224351
 31
0.0
  0
ARC
  5
7B7D
  8
1
 10
3748.3876673387908
 20
2662.45432224351
 30
0.0
 40
2.0
 50
270.0
 51
0.0
  0
LINE
  5
7B7E
  8
1
 10
4475.3876673387904
 20
2416.45432224351
 30
0.0
 11
4485.3876673387904
 21
2406.45432224351
 31
0.0
  0
LINE
  5
7B7F
  8
1
 10
4475.3876673387904
 20
2416.45432224351
 30
0.0
 11
4445.3876673387904
 21
2416.45432224351
 31
0.0
  0
LINE
  5
7B84
  8
1
 10
4476.0876673387911
 20
2918.95432224351
 30
0.0
 11
4476.0876673387911
 21
2922.45432224351
 31
0.0
  0
LINE
  5
7B85
  8
1
 10
4453.0876673387902
 20
2924.45432224351
 30
0.0
 11
4474.0876673387902
 21
2924.45432224351
 31
0.0
  0
ARC
  5
7B86
  8
1
 10
4474.0876673387902
 20
2922.45432224351
 30
0.0
 40
2.0
 50
0.0
 51
90.000000000000028
  0
ARC
  5
7B87
  8
1
 10
4453.0876673387902
 20
2928.45432224351
 30
0.0
 40
4.0
 50
180.0
 51
270.0
  0
LINE
  5
7B88
  8
1
 10
4446.0876673387893
 20
2951.45432224351
 30
0.0
 11
4447.0876673387911
 21
2951.45432224351
 31
0.0
  0
ARC
  5
7B89
  8
1
 10
4447.0876673387911
 20
2949.45432224351
 30
0.0
 40
2.0
 50
0.0
 51
90.000000000000028
  0
LINE
  5
7B8A
  8
1
 10
4449.0876673387902
 20
2928.45432224351
 30
0.0
 11
4449.0876673387902
 21
2949.45432224351
 31
0.0
  0
LINE
  5
7B8C
  8
1
 10
2010.724745554093
 20
4364.405237060545
 30
0.0
 11
2293.724745554091
 21
4364.405237060545
 31
0.0
  0
LINE
  5
7B8D
  8
1
 10
2245.724745554091
 20
4213.4052370605468
 30
0.0
 11
2212.985447254488
 21
4213.4052370605468
 31
0.0
  0
LINE
  5
7B8F
  8
1
 10
1617.7247455540901
 20
4424.4052370605459
 30
0.0
 11
1677.724745554091
 21
4364.405237060545
 31
0.0
  0
LINE
  5
7B93
  8
1
 10
1677.724745554091
 20
4364.405237060545
 30
0.0
 11
1960.724745554093
 21
4364.405237060545
 31
0.0
  0
LINE
  5
7B94
  8
1
 10
1758.4247455540919
 20
4214.0052370605463
 30
0.0
 11
1758.4247455540919
 21
4364.4052370605468
 31
0.0
  0
LINE
  5
7B95
  8
1
 10
1720.724745554091
 20
4218.4052370605459
 30
0.0
 11
1720.724745554091
 21
4364.405237060545
 31
0.0
  0
ARC
  5
7B96
  8
1
 10
1763.0247455540909
 20
4214.0052370605463
 30
0.0
 40
4.5999999999999988
 50
180.0
 51
270.0
  0
LINE
  5
7B97
  8
1
 10
1725.7247455540901
 20
4213.4052370605468
 30
0.0
 11
1720.724745554091
 21
4218.4052370605459
 31
0.0
  0
LINE
  5
7B98
  8
1
 10
1758.464043853694
 20
4213.4052370605468
 30
0.0
 11
1725.7247455540901
 21
4213.4052370605468
 31
0.0
  0
LINE
  5
7B99
  8
1
 10
1960.7247455540919
 20
4209.4052370605459
 30
0.0
 11
1760.4247455540899
 21
4209.4052370605459
 31
0.0
  0
LINE
  5
7B9A
  8
1
 10
1960.7247455540919
 20
4207.1052370605457
 30
0.0
 11
1760.4247455540899
 21
4207.1052370605457
 31
0.0
  0
LINE
  5
7B9B
  8
1
 10
1760.4247455540899
 20
4207.1052370605457
 30
0.0
 11
1760.424745554091
 21
4209.4052370605459
 31
0.0
  0
LINE
  5
7B9C
  8
1
 10
2213.0247455540912
 20
4214.0052370605472
 30
0.0
 11
2213.0247455540912
 21
4364.4052370605468
 31
0.0
  0
LINE
  5
7B9D
  8
1
 10
1960.724745554091
 20
4189.4052370605468
 30
0.0
 11
1960.724745554091
 21
4456.9052370605468
 31
0.0
  0
LINE
  5
7B9E
  8
1
 10
2010.724745554091
 20
4189.4052370605468
 30
0.0
 11
2010.724745554091
 21
4426.9052370605468
 31
0.0
  0
LINE
  5
7B9F
  8
1
 10
1960.724745554091
 20
4189.4052370605468
 30
0.0
 11
2010.724745554091
 21
4189.4052370605468
 31
0.0
  0
LINE
  5
7BA0
  8
1
 10
2003.724745554091
 20
4114.4052370605468
 30
0.0
 11
1967.724745554091
 21
4114.4052370605468
 31
0.0
  0
LINE
  5
7BA1
  8
1
 10
1966.7247455540919
 20
4115.4052370605477
 30
0.0
 11
1966.7247455540919
 21
4187.4052370605477
 31
0.0
  0
LINE
  5
7BA2
  8
1
 10
1967.724745554091
 20
4114.4052370605468
 30
0.0
 11
1966.7247455540919
 21
4115.4052370605477
 31
0.0
  0
LINE
  5
7BA3
  8
1
 10
2004.7247455540919
 20
4115.4052370605477
 30
0.0
 11
2004.7247455540919
 21
4187.4052370605477
 31
0.0
  0
LINE
  5
7BA4
  8
1
 10
2003.724745554091
 20
4114.4052370605468
 30
0.0
 11
2004.7247455540919
 21
4115.4052370605477
 31
0.0
  0
LINE
  5
7BA5
  8
1
 10
2211.0247455540912
 20
4207.1052370605457
 30
0.0
 11
2010.724745554091
 21
4207.1052370605457
 31
0.0
  0
LINE
  5
7BA6
  8
1
 10
2211.0247455540912
 20
4209.4052370605468
 30
0.0
 11
2010.724745554091
 21
4209.4052370605459
 31
0.0
  0
LINE
  5
7BA7
  8
1
 10
2211.0247455540912
 20
4207.1052370605457
 30
0.0
 11
2211.0247455540921
 21
4209.4052370605468
 31
0.0
  0
ARC
  5
7BA8
  8
1
 10
2208.4247455540908
 20
4214.0052370605463
 30
0.0
 40
4.5999999999999988
 50
270.0
 51
0.0
  0
LINE
  5
7BA9
  8
1
 10
2250.724745554091
 20
4218.4052370605459
 30
0.0
 11
2250.724745554091
 21
4364.405237060545
 31
0.0
  0
LINE
  5
7BAA
  8
1
 10
2250.724745554091
 20
4218.4052370605459
 30
0.0
 11
2245.724745554091
 21
4213.4052370605468
 31
0.0
  0
LINE
  5
7BAB
  8
1
 10
2368.7247455540919
 20
4439.4052370605459
 30
0.0
 11
2293.724745554091
 21
4364.405237060545
 31
0.0
  0
LINE
  5
7BAE
  8
1
 10
1599.724745554093
 20
2581.9543222435132
 30
0.0
 11
2365.7247455540919
 21
2581.95432224351
 31
0.0
  0
LINE
  5
7BAF
  8
1
 10
2882.7247455540919
 20
2071.4543222435091
 30
0.0
 11
1628.724745554093
 21
2071.4543222435082
 31
0.0
  0
LINE
  5
7BB0
  8
1
 10
2882.7247455540919
 20
2151.4543222435091
 30
0.0
 11
1632.7247455540919
 21
2151.4543222435091
 31
0.0
  0
LINE
  5
7BB1
  8
1
 10
2882.7247455540919
 20
2151.4543222435091
 30
0.0
 11
2882.7247455540919
 21
2071.4543222435091
 31
0.0
  0
LINE
  5
7BB2
  8
1
 10
1632.7247455540919
 20
2151.4543222435091
 30
0.0
 11
1632.7247455540919
 21
2071.4543222435091
 31
0.0
  0
LINE
  5
7BB7
  8
1
 10
3575.3876673387908
 20
2071.45432224351
 30
0.0
 11
4555.3876673387904
 21
2071.45432224351
 31
0.0
  0
LINE
  5
7BB8
  8
1
 10
3770.3876673387899
 20
2151.45432224351
 30
0.0
 11
4485.3876673387904
 21
2151.45432224351
 31
0.0
  0
LINE
  5
7BB9
  8
1
 10
3770.3876673387899
 20
2581.95432224351
 30
0.0
 11
3770.3876673387899
 21
2375.2543222435079
 31
0.0
  0
CIRCLE
  5
7BC2
  8
1
 10
1982.7247455540919
 20
2641.45432224351
 30
0.0
 40
139.69999999999999
  0
LINE
  5
7BC3
  8
1
 10
3656.5546323896692
 20
2781.1543222435089
 30
0.0
 11
3656.554632389672
 21
2501.7543222435079
 31
0.0
  0
LINE
  5
7BC4
  8
1
 10
3696.5546323896692
 20
2781.1543222435089
 30
0.0
 11
3696.554632389672
 21
2501.7543222435079
 31
0.0
  0
LINE
  5
7BC5
  8
1
 10
3609.6143940401589
 20
2861.4543222435091
 30
0.0
 11
3609.6143940401612
 21
2163.4543222435141
 31
0.0
  0
CIRCLE
  5
7BC6
  8
1
 10
2732.7247455540919
 20
2274.4543222435082
 30
0.0
 40
57.149999999999991
  0
LINE
  5
7BC7
  8
2
 10
2732.724745554096
 20
2071.4543222435091
 30
0.0
 11
2732.7247455540919
 21
2382.9154222435081
 31
0.0
  0
LINE
  5
7BC8
  8
1
 10
2856.440640078908
 20
2151.4543222435082
 30
0.0
 11
2609.0088510292821
 21
2151.4543222435068
 31
0.0
  0
LINE
  5
7BC9
  8
1
 10
3656.554632389672
 20
2501.7543222435079
 30
0.0
 11
3656.554632389672
 21
2217.3043222435081
 31
0.0
  0
LINE
  5
7BCA
  8
1
 10
3696.554632389672
 20
2501.7543222435079
 30
0.0
 11
3696.554632389672
 21
2217.3043222435081
 31
0.0
  0
LINE
  5
7BCB
  8
1
 10
3656.5546323896729
 20
2217.3043222435081
 30
0.0
 11
3696.554632389672
 21
2217.3043222435081
 31
0.0
  0
LINE
  5
7BCC
  8
1
 10
3609.6143940401612
 20
2163.4543222435141
 30
0.0
 11
3731.6143940401598
 21
2163.4543222435141
 31
0.0
  0
LINE
  5
7BCD
  8
1
 10
3656.554632389672
 20
2501.7543222435079
 30
0.0
 11
3696.554632389672
 21
2501.7543222435079
 31
0.0
1001
ACAD
1000
ASC_BOUNDS
1002
{
1070
    19
1002
}
  0
LINE
  5
7BCE
  8
1
 10
3656.5546323896729
 20
2331.6043222435078
 30
0.0
 11
3696.554632389672
 21
2331.6043222435078
 31
0.0
  0
LINE
  5
7BCF
  8
1
 10
3731.6143940401598
 20
2861.4543222435091
 30
0.0
 11
3609.6143940401589
 21
2861.4543222435091
 31
0.0
  0
LINE
  5
7BD0
  8
1
 10
3609.6143940401589
 20
2861.4543222435082
 30
0.0
 11
3731.6143940401598
 21
2861.4543222435082
 31
0.0
  0
LINE
  5
7BD1
  8
1
 10
3656.5546323896692
 20
2781.1543222435089
 30
0.0
 11
3696.5546323896692
 21
2781.1543222435089
 31
0.0
1001
ACAD
1000
ASC_BOUNDS
1002
{
1070
    19
1002
}
  0
LINE
  5
7BD2
  8
1
 10
3731.6143940401598
 20
2841.4543222435091
 30
0.0
 11
3731.6143940401598
 21
2861.4543222435091
 31
0.0
  0
LINE
  5
7BD3
  8
1
 10
2042.3616386695701
 20
2767.7853595207098
 30
0.0
 11
2761.5505646553702
 21
2323.039733263136
 31
0.0
  0
LINE
  5
7BD4
  8
1
 10
1982.7247455540901
 20
2905.0371333995581
 30
0.0
 11
2832.7247455540942
 21
2354.2837293912871
 31
0.0
  0
LINE
  5
7BD5
  8
1
 10
1954.0236312284669
 20
2504.7344040294201
 30
0.0
 11
2709.2105980244119
 21
2222.3658651157289
 31
0.0
  0
LINE
  5
7BD6
  8
1
 10
1742.724745554091
 20
2765.9803554712871
 30
0.0
 11
1742.724745554096
 21
2151.4543222435091
 31
0.0
  0
LINE
  5
7BD7
  8
1
 10
1982.7247455540901
 20
2905.0371333995581
 30
0.0
 11
1742.724745554091
 21
2765.9803554712871
 31
0.0
  0
ARC
  5
7BD8
  8
1
 10
2732.7247455540919
 20
2274.4543222435082
 30
0.0
 40
100.8
 50
300.3932999999999
 51
0.0
  0
ARC
  5
7BD9
  8
1
 10
2732.7247455540919
 20
2274.4543222435082
 30
0.0
 40
100.8
 50
0.0
 51
239.69929999999999
  0
LINE
  5
7BDA
  8
1
 10
2797.7247455540928
 20
2194.4543222435082
 30
0.0
 11
2797.7247455540928
 21
2184.4543222435082
 31
0.0
  0
LINE
  5
7BDB
  8
1
 10
2807.7247455540928
 20
2194.4543222435082
 30
0.0
 11
2807.7247455540928
 21
2184.4543222435082
 31
0.0
  0
LINE
  5
7BDC
  8
1
 10
2802.7247455540928
 20
2180.0878222435081
 30
0.0
 11
2802.7247455540928
 21
2196.9912222435082
 31
0.0
  0
LINE
  5
7BDD
  8
1
 10
2820.7247455540928
 20
2184.4543222435082
 30
0.0
 11
2820.7247455540928
 21
2192.4543222435082
 31
0.0
  0
LINE
  5
7BDE
  8
1
 10
2667.7247455540919
 20
2194.4543222435082
 30
0.0
 11
2667.7247455540919
 21
2184.4543222435082
 31
0.0
  0
LINE
  5
7BDF
  8
1
 10
2657.7247455540928
 20
2194.4543222435082
 30
0.0
 11
2657.7247455540928
 21
2184.4543222435082
 31
0.0
  0
LINE
  5
7BE0
  8
1
 10
2662.7247455540919
 20
2180.0878222435081
 30
0.0
 11
2662.7247455540919
 21
2196.9912222435082
 31
0.0
  0
LINE
  5
7BE1
  8
1
 10
2644.7247455540928
 20
2184.4543222435082
 30
0.0
 11
2644.7247455540928
 21
2192.4543222435082
 31
0.0
  0
ARC
  5
7BE2
  8
1
 10
2732.7247455540919
 20
2274.4543222435082
 30
0.0
 40
100.8
 50
300.3932999999999
 51
0.0
  0
LINE
  5
7BE3
  8
1
 10
2687.8942455540928
 20
2188.4543222435068
 30
0.0
 11
2777.8486455540929
 21
2188.4543222435068
 31
0.0
  0
LINE
  5
7BE4
  8
1
 10
2681.8006455540922
 20
2187.4543222435082
 30
0.0
 11
2783.7557455540941
 21
2187.4543222435082
 31
0.0
  0
LINE
  5
7BE5
  8
1
 10
2681.8006455540922
 20
2187.4543222435082
 30
0.0
 11
2783.7557455540941
 21
2187.4543222435082
 31
0.0
  0
LINE
  5
7BE6
  8
1
 10
2644.7247455540928
 20
2184.4543222435082
 30
0.0
 11
2684.7247455540919
 21
2184.4543222435082
 31
0.0
  0
LINE
  5
7BE7
  8
1
 10
2684.7247455540919
 20
2187.4271222435082
 30
0.0
 11
2684.7247455540919
 21
2184.4543222435082
 31
0.0
  0
LINE
  5
7BE8
  8
1
 10
2820.7247455540928
 20
2184.4543222435082
 30
0.0
 11
2780.7247455540919
 21
2184.4543222435082
 31
0.0
  0
LINE
  5
7BE9
  8
1
 10
2780.7247455540919
 20
2187.3853222435082
 30
0.0
 11
2780.7247455540919
 21
2184.4543222435082
 31
0.0
  0
LINE
  5
7BEA
  8
2
 10
2628.2595455540941
 20
2274.4543222435082
 30
0.0
 11
2838.8275455540929
 21
2274.4543222435082
 31
0.0
  0
LINE
  5
7BEB
  8
1
 10
2671.4007455540941
 20
2194.4543222435082
 30
0.0
 11
2646.7247455540919
 21
2194.4543222435082
 31
0.0
  0
LINE
  5
7BEC
  8
1
 10
2650.578245554093
 20
2216.0370222435072
 30
0.0
 11
2644.7247455540928
 21
2192.4543222435082
 31
0.0
  0
ARC
  5
7BED
  8
1
 10
2646.7247455540919
 20
2192.4543222435082
 30
0.0
 40
2.0
 50
90.0
 51
180.0
  0
LINE
  5
7BEE
  8
1
 10
2794.0136455540942
 20
2194.4543222435082
 30
0.0
 11
2818.7247455540919
 21
2194.4543222435082
 31
0.0
  0
LINE
  5
7BEF
  8
1
 10
2814.8713455540928
 20
2216.0370222435072
 30
0.0
 11
2820.7247455540928
 21
2192.4543222435082
 31
0.0
  0
ARC
  5
7BF0
  8
1
 10
2818.7247455540919
 20
2192.4543222435082
 30
0.0
 40
2.0
 50
0.0
 51
90.0
  0
LINE
  5
7BF1
  8
1
 10
2856.4406400789062
 20
2151.4543222435091
 30
0.0
 11
2845.2247455540942
 21
2186.4543222435091
 31
0.0
  0
LINE
  5
7BF2
  8
1
 10
2761.1274974705811
 20
2186.4543222435082
 30
0.0
 11
2761.1274974705811
 21
2180.157650608598
 31
0.0
  0
LINE
  5
7BF3
  8
1
 10
2704.3219936376081
 20
2180.1576506085971
 30
0.0
 11
2704.3219936376081
 21
2186.4543222435082
 31
0.0
  0
LINE
  5
7BF4
  8
1
 10
2620.2247455540942
 20
2186.4543222435068
 30
0.0
 11
2609.0088510292821
 21
2151.4543222435068
 31
0.0
  0
LINE
  5
7BF5
  8
1
 10
2609.0088510292821
 20
2151.4543222435068
 30
0.0
 11
2704.3219936376081
 21
2151.4543222435082
 31
0.0
  0
LINE
  5
7BF6
  8
1
 10
2761.1274974705811
 20
2151.4543222435082
 30
0.0
 11
2856.4406400789062
 21
2151.4543222435091
 31
0.0
  0
LINE
  5
7BF7
  8
1
 10
2704.3219936376081
 20
2158.5949570198418
 30
0.0
 11
2761.1274974705811
 21
2158.5949570198418
 31
0.0
  0
LINE
  5
7BF8
  8
1
 10
2761.1274974705811
 20
2180.157650608598
 30
0.0
 11
2704.3219936376081
 21
2180.1576506085971
 31
0.0
  0
LINE
  5
7BF9
  8
1
 10
2704.3219936376081
 20
2151.4543222435082
 30
0.0
 11
2704.3219936376081
 21
2158.5949570198418
 31
0.0
  0
LINE
  5
7BFA
  8
1
 10
2761.1274974705811
 20
2158.5949570198418
 30
0.0
 11
2761.1274974705811
 21
2151.4543222435082
 31
0.0
  0
LINE
  5
7BFB
  8
1
 10
2704.3219936376081
 20
2186.4543222435082
 30
0.0
 11
2620.2247455540942
 21
2186.4543222435068
 31
0.0
  0
LINE
  5
7BFC
  8
1
 10
2845.2247455540942
 20
2186.4543222435091
 30
0.0
 11
2761.1274974705811
 21
2186.4543222435082
 31
0.0
  0
LINE
  5
7BFD
  8
1
 10
2832.7247455540942
 20
2354.2837293912871
 30
0.0
 11
2832.7247455540969
 21
2151.4543222435082
 31
0.0
  0
LINE
  5
7BFE
  8
2
 10
2732.7247455540919
 20
4441.7404611068132
 30
0.0
 11
2732.7247455540951
 21
4006.1129179800141
 31
0.0
  0
LINE
  5
7BFF
  8
1
 10
2744.7247455540942
 20
4160.8034611068133
 30
0.0
 11
2744.7247455540942
 21
4110.8034611068133
 31
0.0
  0
LINE
  5
7C00
  8
1
 10
2720.7247455540951
 20
4160.8034611068133
 30
0.0
 11
2720.7247455540951
 21
4110.8034611068133
 31
0.0
  0
LINE
  5
7C01
  8
1
 10
2744.7247455540942
 20
4110.8034611068133
 30
0.0
 11
2717.7247455540942
 21
4110.8034611068133
 31
0.0
  0
LINE
  5
7C02
  8
1
 10
2717.7247455540942
 20
4150.8034611068133
 30
0.0
 11
2717.7247455540942
 21
4110.8034611068133
 31
0.0
  0
LINE
  5
7C03
  8
1
 10
2720.7247455540951
 20
4150.8034611068133
 30
0.0
 11
2717.7247455540942
 21
4150.8034611068133
 31
0.0
  0
LINE
  5
7C04
  8
1
 10
2745.2247455540942
 20
4160.8034611068133
 30
0.0
 11
2720.2247455540942
 21
4160.8034611068133
 31
0.0
  0
LINE
  5
7C05
  8
1
 10
2853.524745554093
 20
4175.8034611068142
 30
0.0
 11
2611.9247455540931
 21
4175.8034611068124
 31
0.0
  0
LINE
  5
7C06
  8
1
 10
2696.2247455540942
 20
4165.8034611068124
 30
0.0
 11
2769.2247455540942
 21
4165.8034611068133
 31
0.0
  0
LINE
  5
7C07
  8
1
 10
2770.2247455540942
 20
4166.8034611068133
 30
0.0
 11
2770.2247455540942
 21
4174.8034611068133
 31
0.0
  0
ARC
  5
7C08
  8
1
 10
2771.2247455540951
 20
4174.8034611068133
 30
0.0
 40
1.0000999999999991
 50
90.0035000000005
 51
180.00000000000051
  0
ARC
  5
7C09
  8
1
 10
2769.2246455540931
 20
4166.8034611068133
 30
0.0
 40
1.0000999999999991
 50
270.00350000000037
 51
0.0000000000004834
  0
LINE
  5
7C0A
  8
1
 10
2745.2247455540942
 20
4165.8034611068133
 30
0.0
 11
2745.2247455540942
 21
4160.8034611068133
 31
0.0
  0
LINE
  5
7C0B
  8
1
 10
2695.2247455540942
 20
4166.8034611068124
 30
0.0
 11
2695.2247455540942
 21
4174.8034611068124
 31
0.0
  0
ARC
  5
7C0C
  8
1
 10
2694.2247455540951
 20
4174.8034611068124
 30
0.0
 40
1.0000999999999991
 50
0.0035000000004552
 51
90.000000000000483
  0
ARC
  5
7C0D
  8
1
 10
2696.2247455540942
 20
4166.8035611068126
 30
0.0
 40
1.0000999999999991
 50
180.00350000000051
 51
270.00000000000051
  0
LINE
  5
7C0E
  8
1
 10
2720.2247455540942
 20
4165.8034611068133
 30
0.0
 11
2720.2247455540942
 21
4160.8034611068133
 31
0.0
  0
LINE
  5
7C0F
  8
1
 10
2853.5247455540921
 20
4437.8034611068142
 30
0.0
 11
2611.9247455540922
 21
4437.8034611068124
 31
0.0
  0
LINE
  5
7C10
  8
1
 10
2611.9247455540931
 20
4175.8034611068124
 30
0.0
 11
2611.9247455540922
 21
4437.8034611068124
 31
0.0
  0
LINE
  5
7C11
  8
1
 10
2853.524745554093
 20
4175.8034611068133
 30
0.0
 11
2853.5247455540921
 21
4437.8034611068124
 31
0.0
  0
LINE
  5
7C12
  8
1
 10
3731.6143940401598
 20
2163.4543222435141
 30
0.0
 11
3731.6143940401598
 21
2183.4543222435141
 31
0.0
  0
LINE
  5
7C13
  8
2
 10
4082.9488376886729
 20
2274.4543222435082
 30
0.0
 11
3583.9387015948382
 21
2274.4543222435082
 31
0.0
  0
LINE
  5
7C14
  8
1
 10
1765.7247455540919
 20
4048.6319637619149
 30
0.0
 11
2843.7247455540892
 21
4048.6319637619208
 31
0.0
  0
LINE
  5
7C15
  8
1
 10
1846.0247455540921
 20
4135.5722021114261
 30
0.0
 11
2125.4247455540931
 21
4135.5722021114279
 31
0.0
  0
LINE
  5
7C16
  8
1
 10
1846.0247455540921
 20
4095.5722021114261
 30
0.0
 11
2125.4247455540931
 21
4095.5722021114289
 31
0.0
  0
LINE
  5
7C17
  8
1
 10
2843.7247455540892
 20
4170.6319637619208
 30
0.0
 11
2823.7247455540892
 21
4170.6319637619208
 31
0.0
  0
LINE
  5
7C18
  8
1
 10
2843.7247455540892
 20
4048.6319637619208
 30
0.0
 11
2843.7247455540892
 21
4170.6319637619208
 31
0.0
  0
LINE
  5
7C19
  8
1
 10
2125.4247455540931
 20
4095.5722021114289
 30
0.0
 11
2789.8747455540952
 21
4095.572202111432
 31
0.0
  0
LINE
  5
7C1A
  8
1
 10
2125.4247455540931
 20
4135.5722021114279
 30
0.0
 11
2789.8747455540952
 21
4135.5722021114316
 31
0.0
  0
LINE
  5
7C1B
  8
1
 10
2789.8747455540952
 20
4095.5722021114329
 30
0.0
 11
2789.8747455540952
 21
4135.5722021114316
 31
0.0
  0
LINE
  5
7C1C
  8
1
 10
2675.574745554095
 20
4095.5722021114329
 30
0.0
 11
2675.574745554095
 21
4135.5722021114316
 31
0.0
  0
LINE
  5
7C1D
  8
1
 10
2125.4247455540931
 20
4095.5722021114289
 30
0.0
 11
2125.4247455540931
 21
4135.5722021114279
 31
0.0
1001
ACAD
1000
ASC_BOUNDS
1002
{
1070
    19
1002
}
  0
LINE
  5
7C1E
  8
1
 10
1765.724745554093
 20
4048.6319637619149
 30
0.0
 11
1765.724745554093
 21
4170.6319637619163
 31
0.0
  0
LINE
  5
7C1F
  8
1
 10
1765.7247455540919
 20
4170.6319637619163
 30
0.0
 11
1765.7247455540919
 21
4048.6319637619149
 31
0.0
  0
LINE
  5
7C20
  8
1
 10
1846.0247455540921
 20
4095.5722021114261
 30
0.0
 11
1846.0247455540921
 21
4135.5722021114261
 31
0.0
1001
ACAD
1000
ASC_BOUNDS
1002
{
1070
    19
1002
}
  0
LINE
  5
7C21
  8
1
 10
1785.7247455540919
 20
4170.6319637619163
 30
0.0
 11
1765.7247455540919
 21
4170.6319637619163
 31
0.0
  0
LINE
  5
7C22
  8
1
 10
1635.724745554091
 20
4924.4052370605468
 30
0.0
 11
2885.724745554091
 21
4924.4052370605468
 31
0.0
  0
LINE
  5
7C23
  8
1
 10
1635.724745554091
 20
4209.4052370605459
 30
0.0
 11
1763.0247455540909
 21
4209.4052370605459
 31
0.0
  0
LINE
  5
7C24
  8
1
 10
1635.724745554091
 20
4924.4052370605477
 30
0.0
 11
1635.724745554091
 21
4881.9052370605459
 31
0.0
  0
LINE
  5
7C25
  8
1
 10
2885.724745554091
 20
4924.4052370605468
 30
0.0
 11
2885.724745554091
 21
4209.4052370605459
 31
0.0
  0
LINE
  5
7C26
  8
1
 10
1635.724745554091
 20
4884.4052370605468
 30
0.0
 11
2885.724745554091
 21
4884.4052370605468
 31
0.0
  0
LINE
  5
7C27
  8
1
 10
2845.724745554091
 20
4884.4052370605468
 30
0.0
 11
2845.724745554091
 21
4437.8034611068142
 31
0.0
  0
LINE
  5
7C28
  8
1
 10
1635.724745554091
 20
4249.4052370605459
 30
0.0
 11
1720.724745554091
 21
4249.4052370605459
 31
0.0
  0
LINE
  5
7C29
  8
1
 10
1675.7247455540919
 20
4884.4052370605468
 30
0.0
 11
1675.7247455540919
 21
4881.9052370605459
 31
0.0
  0
LINE
  5
7C2A
  8
1
 10
1675.724745554091
 20
4366.4052370605459
 30
0.0
 11
1675.724745554091
 21
4249.405237060545
 31
0.0
  0
LINE
  5
7C2B
  8
1
 10
1635.724745554091
 20
4406.405237060545
 30
0.0
 11
1635.724745554091
 21
4209.4052370605459
 31
0.0
  0
LINE
  5
7C2C
  8
1
 10
2853.524745554093
 20
4249.405237060545
 30
0.0
 11
2885.724745554091
 21
4249.4052370605459
 31
0.0
  0
LINE
  5
7C2D
  8
1
 10
2853.524745554093
 20
4209.4052370605459
 30
0.0
 11
2885.724745554091
 21
4209.4052370605459
 31
0.0
  0
LINE
  5
7C2E
  8
1
 10
2250.724745554091
 20
4249.405237060545
 30
0.0
 11
2611.9247455540931
 21
4249.405237060545
 31
0.0
  0
LINE
  5
7C2F
  8
1
 10
2208.4247455540908
 20
4209.4052370605459
 30
0.0
 11
2611.9247455540931
 21
4209.4052370605459
 31
0.0
  0
LINE
  5
7C38
  8
4
 10
4625.0
 20
1250.0
 30
0.0
 11
4625.0
 21
750.0
 31
0.0
  0
LINE
  5
7C39
  8
4
 10
2875.0
 20
1250.0
 30
0.0
 11
2875.0
 21
750.0
 31
0.0
  0
LINE
  5
7C3A
  8
4
 10
1625.0
 20
1250.0
 30
0.0
 11
1625.0
 21
750.0
 31
0.0
  0
LINE
  5
7C3D
  8
4
 10
1625.0
 20
750.0
 30
0.0
 11
4625.0
 21
750.0
 31
0.0
  0
LINE
  5
7C3E
  8
4
 10
1625.0
 20
1000.0
 30
0.0
 11
4625.0
 21
1000.0
 31
0.0
  0
TEXT
  5
7C3F
  8
4
 10
1721.2552021172539
 20
1078.857564666532
 30
0.0
 40
125.0
  1
機器名称
  0
TEXT
  5
7C40
  8
4
 10
1715.6452650619931
 20
804.11289183002725
 30
0.0
 40
125.0
  1
機器型番
  0
TEXT
  5
7C41
  8
4
 10
2944.1968637191621
 20
1056.429422393921
 30
0.0
 40
125.0
  1
ミツヤ厨房用ファン
  0
TEXT
  5
7C42
  8
4
 10
2966.6362389637011
 20
792.89896069985843
 30
0.0
 40
125.0
  1
MFK#3 1/2-1
  0
TEXT
  5
7C44
  8
4
 10
1917.0874697443651
 20
5958.5721033312893
 30
0.0
 40
135.0
  1
天吊ベット
  0
TEXT
  5
7C45
  8
4
 10
790.41898332361586
 20
6334.7024404982449
 30
0.0
 40
180.0
  1
ベルト駆動式片吸込片持多翼ファン
  0
LINE
  5
7C46
  8
4
 10
625.0
 20
6173.5218856620122
 30
0.0
 11
4625.0
 21
6173.5218856620122
 31
0.0
  0
LINE
  5
7C47
  8
4
 10
625.0
 20
6673.5218856620122
 30
0.0
 11
4625.0
 21
6673.5218856620122
 31
0.0
  0
LINE
  5
7C48
  8
4
 10
1625.0
 20
1250.0
 30
0.0
 11
4625.0
 21
1250.0
 31
0.0
  0
LINE
  5
7C49
  8
4
 10
625.0
 20
6673.5218856620122
 30
0.0
 11
625.0
 21
6173.5218856620122
 31
0.0
  0
TEXT
  5
7C4A
  8
4
 10
827.44038913760949
 20
5955.7986938658578
 30
0.0
 40
135.0
  1
左回転左横向
  0
TEXT
  5
7C4B
  8
4
 10
3672.4238981232238
 20
6765.1527037382721
 30
0.0
 40
140.0
  1
No.
  0
TEXT
  5
7C4C
  8
4
 10
3278.2401565000318
 20
5958.5721033312893
 30
0.0
 40
135.0
  1
縮尺：1/25
  0
LINE
  5
7C4D
  8
4
 10
4625.0
 20
6673.5218856620122
 30
0.0
 11
4625.0
 21
6173.5218856620122
 31
0.0
  0
LINE
  5
7C4E
  8
4
 10
5250.0
 20
7375.0
 30
0.0
 11
5250.0
 21
7375.0
 31
0.0
  0
LINE
  5
7C4F
  8
4
 10
3601.543555899661
 20
6703.1589578135026
 30
0.0
 11
3601.543555899661
 21
6966.6306538743811
 31
0.0
  0
LINE
  5
7C50
  8
4
 10
3601.543555899661
 20
6966.6306538743811
 30
0.0
 11
4625.0
 21
6966.6306538743811
 31
0.0
  0
LINE
  5
7C51
  8
4
 10
4625.0
 20
6966.6306538743811
 30
0.0
 11
4625.0
 21
6703.1589578135026
 31
0.0
  0
LINE
  5
7C52
  8
4
 10
4625.0
 20
6703.1589578135026
 30
0.0
 11
3601.543555899661
 21
6703.1589578135026
 31
0.0
  0
LINE
  5
7C53
  8
4
 10
0.0
 20
0.0
 30
0.0
 11
0.0
 21
7375.0
 31
0.0
  0
LINE
  5
7C54
  8
4
 10
0.0
 20
7375.0
 30
0.0
 11
5250.0
 21
7375.0
 31
0.0
  0
LINE
  5
7C55
  8
4
 10
5250.0
 20
7375.0
 30
0.0
 11
5250.0
 21
0.0
 31
0.0
  0
LINE
  5
7C56
  8
4
 10
5250.0
 20
0.0
 30
0.0
 11
0.0
 21
0.0
 31
0.0
  0
DIMENSION
  5
7DE8
  8
3
  2
*D2
 10
4230.3876673387904
 20
3611.1868137804968
 30
0.0
 11
4339.0162450013522
 21
3671.4293826442572
 31
0.0
 70
   128
 13
4445.6298262740702
 23
2951.45432224351
 33
0.0
 14
4230.3876673387904
 24
3510.9489323175781
 34
0.0
1001
ACAD
1000
DSTYLE
1002
{
1070
   288
1070
     1
1070
   172
1070
     1
1070
    40
1040
25.0
1070
   271
1070
     0
1070
   143
1040
0.039
1002
}
  0
DIMENSION
  5
7E38
  8
3
  2
*D3
 10
3609.6143940401589
 20
3611.1868137804968
 30
0.0
 11
3920.0010306894751
 21
3736.1868137804968
 31
0.0
 70
     0
  1
MAX\P630
 13
4230.3876673387904
 23
3510.9489323175781
 33
0.0
 14
3609.6143940401589
 24
2861.4543222435091
 34
0.0
1001
ACAD
1000
DSTYLE
1002
{
1070
   287
1070
     4
1070
   287
1070
     4
1070
    40
1040
25.0
1070
    75
1070
     1
1070
   143
1040
0.039
1070
   172
1070
     1
1070
   271
1070
     0
1070
   279
1070
     1
1070
   288
1070
     1
1002
}
  0
DIMENSION
  5
7E52
  8
3
  2
*D4
 10
4665.9058980112686
 20
2361.4543222435091
 30
0.0
 11
4665.9058980112668
 21
2650.9266581091561
 31
0.0
 70
   128
 13
4476.0876673387911
 23
2921.45432224351
 33
0.0
 14
4476.0876673387911
 24
2361.4543222435091
 34
0.0
 50
90.0
1001
ACAD
1000
DSTYLE
1002
{
1070
   287
1070
     3
1070
   287
1070
     3
1070
     3
1000
φ<>
1070
    40
1040
25.0
1070
   143
1040
0.039
1070
   172
1070
     1
1070
   271
1070
     0
1070
   279
1070
     0
1070
   288
1070
     1
1002
}
  0
ARC
  5
7F3E
  8
1
 10
2024.724745554093
 20
2683.45432224351
 30
0.0
 40
454.0
 50
299.41878919922351
 51
0.0
  0
ARC
  5
7F3F
  8
1
 10
1940.7247455540919
 20
2683.45432224351
 30
0.0
 40
538.0
 50
0.0
 51
84.438419114534184
  0
ARC
  5
7F40
  8
1
 10
2024.724745554093
 20
2683.45432224351
 30
0.0
 40
442.0
 50
300.29981837431927
 51
0.0
  0
ARC
  5
7F41
  8
1
 10
1940.7247455540919
 20
2683.45432224351
 30
0.0
 40
526.0
 50
0.0
 51
84.438419114534184
  0
LINE
  5
7F43
  8
1
 10
1595.0247455540939
 20
2869.45432224351
 30
0.0
 11
1595.024745554093
 21
2654.8543222435092
 31
0.0
  0
LINE
  5
7F44
  8
1
 10
1592.7247455540919
 20
2869.45432224351
 30
0.0
 11
1592.7247455540919
 21
2654.8543222435092
 31
0.0
  0
LINE
  5
7F45
  8
1
 10
1622.7247455540939
 20
2869.4543222435109
 30
0.0
 11
1622.7247455540919
 21
2661.45432224351
 31
0.0
  0
ARC
  5
7F50
  8
1
 10
2015.724745554093
 20
2608.45432224351
 30
0.0
 40
367.0
 50
224.824911338682
 51
264.8410955549366
  0
ARC
  5
7F51
  8
1
 10
2015.724745554093
 20
2608.45432224351
 30
0.0
 40
379.0
 50
226.62208573822551
 51
265.00486012101908
  0
LINE
  5
7F52
  8
1
 10
1622.7247455540919
 20
2657.1543222435089
 30
0.0
 11
1622.7247455540919
 21
2659.4543222435091
 31
0.0
  0
LINE
  5
7F53
  8
1
 10
1622.7247455540919
 20
2659.95432224351
 30
0.0
 11
1622.7247455540919
 21
2656.95432224351
 31
0.0
  0
LINE
  5
7F59
  8
1
 10
1648.7247455540919
 20
2656.95432224351
 30
0.0
 11
1648.7247455540919
 21
2621.9543222435132
 31
0.0
  0
LINE
  5
7F5A
  8
1
 10
1636.7247455540919
 20
2656.95432224351
 30
0.0
 11
1648.7247455540919
 21
2656.95432224351
 31
0.0
  0
LINE
  5
7F5B
  8
1
 10
1636.7247455540919
 20
2656.95432224351
 30
0.0
 11
1636.7247455540919
 21
2621.9543222435132
 31
0.0
  0
LINE
  5
7F5C
  8
1
 10
1595.0247455540939
 20
2629.4543222435091
 30
0.0
 11
1592.7247455540919
 21
2629.4543222435091
 31
0.0
  0
ARC
  5
7F5D
  8
1
 10
1597.3247455540929
 20
2654.8543222435092
 30
0.0
 40
2.2999999999999989
 50
90.0
 51
180.0
  0
LINE
  5
7F5E
  8
1
 10
1592.7247455540919
 20
2629.4543222435091
 30
0.0
 11
1592.7247455540919
 21
2654.8543222435092
 31
0.0
  0
LINE
  5
7F5F
  8
1
 10
1595.0247455540939
 20
2629.4543222435091
 30
0.0
 11
1595.0247455540939
 21
2654.8543222435092
 31
0.0
  0
LINE
  5
7F60
  8
1
 10
1622.7247455540919
 20
2657.1543222435089
 30
0.0
 11
1597.3247455540929
 21
2657.1543222435089
 31
0.0
  0
LINE
  5
7F61
  8
1
 10
1638.7247455540919
 20
2656.95432224351
 30
0.0
 11
1622.7247455540919
 21
2656.95432224351
 31
0.0
  0
LINE
  5
7F62
  8
1
 10
1622.7247455540919
 20
2661.7543222435102
 30
0.0
 11
1622.7247455540919
 21
2659.45432224351
 31
0.0
  0
LINE
  5
7F63
  8
1
 10
1712.7247455540919
 20
2911.45432224351
 30
0.0
 11
1932.7247455540919
 21
2911.45432224351
 31
0.0
  0
LINE
  5
7F64
  8
1
 10
1712.7247455540919
 20
3161.45432224351
 30
0.0
 11
1932.7247455540919
 21
3161.45432224351
 31
0.0
  0
LINE
  5
7F65
  8
1
 10
1712.7247455540919
 20
3146.45432224351
 30
0.0
 11
1932.7247455540919
 21
3146.45432224351
 31
0.0
  0
LINE
  5
7F66
  8
1
 10
1712.7247455540919
 20
3148.4461806722138
 30
0.0
 11
1932.7247455540919
 21
3148.4461806722138
 31
0.0
  0
LINE
  5
7F67
  8
1
 10
1622.7247455540919
 20
3242.907025694984
 30
0.0
 11
1991.7023185665139
 21
3206.9782348299009
 31
0.0
  0
LINE
  5
7F68
  8
1
 10
1623.8877320106501
 20
3254.8505370087419
 30
0.0
 11
1992.865305023071
 21
3218.9217461436601
 31
0.0
  0
LINE
  5
7F69
  8
1
 10
1932.7247455540919
 20
2911.45432224351
 30
0.0
 11
1932.7247455540919
 21
3161.45432224351
 31
0.0
  0
LINE
  5
7F6A
  8
1
 10
1712.7247455540919
 20
2911.45432224351
 30
0.0
 11
1712.7247455540919
 21
3161.45432224351
 31
0.0
  0
LINE
  5
7F6B
  8
1
 10
1622.7247455540939
 20
2869.45432224351
 30
0.0
 11
1622.7247455540919
 21
3241.1543222435098
 31
0.0
  0
LINE
  5
7F6C
  8
1
 10
1592.7247455540919
 20
2869.45432224351
 30
0.0
 11
1592.7247455540919
 21
3248.0543222435108
 31
0.0
  0
LINE
  5
7F6D
  8
1
 10
1595.0247455540939
 20
2869.45432224351
 30
0.0
 11
1595.0247455540939
 21
3248.0543222435108
 31
0.0
  0
LINE
  5
7F6E
  8
1
 10
1623.8877320106501
 20
3254.8505370087419
 30
0.0
 11
1622.7247455540919
 21
3242.907025694984
 31
0.0
  0
LINE
  5
7F6F
  8
1
 10
1622.7247455540919
 20
3241.1543222435098
 30
0.0
 11
1622.7247455540919
 21
3243.45432224351
 31
0.0
  0
LINE
  5
7F70
  8
1
 10
1595.0247455540939
 20
3273.4543222435109
 30
0.0
 11
1592.7247455540919
 21
3273.4543222435109
 31
0.0
  0
LINE
  5
7F71
  8
1
 10
1622.7247455540919
 20
3245.7543222435102
 30
0.0
 11
1622.7247455540919
 21
3243.4543222435109
 31
0.0
  0
ARC
  5
7F72
  8
1
 10
1597.3247455540929
 20
3248.0543222435108
 30
0.0
 40
2.2999999999999989
 50
180.0
 51
270.0
  0
LINE
  5
7F73
  8
1
 10
1622.7247455540919
 20
3245.7543222435102
 30
0.0
 11
1597.3247455540929
 21
3245.7543222435102
 31
0.0
  0
LINE
  5
7F74
  8
1
 10
1592.7247455540919
 20
3273.4543222435109
 30
0.0
 11
1592.7247455540919
 21
3248.0543222435108
 31
0.0
  0
LINE
  5
7F75
  8
1
 10
1595.0247455540939
 20
3273.4543222435109
 30
0.0
 11
1595.0247455540939
 21
3248.0543222435108
 31
0.0
  0
LINE
  5
7F76
  8
1
 10
1622.7247455540919
 20
3252.95432224351
 30
0.0
 11
1623.693900934557
 21
3252.8599517897828
 31
0.0
  0
LINE
  5
7F77
  8
1
 10
1622.7247455540919
 20
3242.9543222435109
 30
0.0
 11
1622.7247455540919
 21
3252.95432224351
 31
0.0
  0
LINE
  5
7F7B
  8
1
 10
4475.3876673387886
 20
3242.45432224351
 30
0.0
 11
4475.3876673387886
 21
2923.9741906588679
 31
0.0
  0
LINE
  5
7F7C
  8
1
 10
3985.3876673387881
 20
3242.45432224351
 30
0.0
 11
3985.3876673387881
 21
2666.4543222435091
 31
0.0
  0
LINE
  5
7F7E
  8
1
 10
4016.2876673387891
 20
3243.4543222435109
 30
0.0
 11
4016.2876673387882
 21
2641.45432224351
 31
0.0
  0
LINE
  5
7F7F
  8
1
 10
4444.4876673387889
 20
3243.4543222435109
 30
0.0
 11
4444.4876673387889
 21
2641.45432224351
 31
0.0
  0
LINE
  5
7F80
  8
1
 10
4442.8876673387877
 20
3243.4543222435109
 30
0.0
 11
4442.8876673387913
 21
2641.45432224351
 31
0.0
  0
LINE
  5
7F82
  8
1
 10
3985.3876673387899
 20
3243.45432224351
 30
0.0
 11
3985.3876673387899
 21
2666.4543222435091
 31
0.0
  0
LINE
  5
7F83
  8
1
 10
4475.3876673387886
 20
3243.45432224351
 30
0.0
 11
4475.3876673387886
 21
2923.9741906588679
 31
0.0
  0
LINE
  5
7F88
  8
1
 10
4442.8876673387904
 20
2241.45432224351
 30
0.0
 11
4017.8876673387899
 21
2241.45432224351
 31
0.0
  0
ARC
  5
7F8B
  8
1
 10
4017.0876673387911
 20
2231.45432224351
 30
0.0
 40
1.999999999999954
 50
246.42182152177051
 51
293.57817847818689
  0
LINE
  5
7FA2
  8
1
 10
4475.3876673387886
 20
2659.45432224351
 30
0.0
 11
4475.3876673387886
 21
2629.45432224351
 31
0.0
  0
LINE
  5
7FA3
  8
1
 10
4475.3876673387886
 20
2659.45432224351
 30
0.0
 11
4475.3876673387886
 21
2629.45432224351
 31
0.0
  0
LINE
  5
7FA5
  8
1
 10
4475.3876673387886
 20
3246.45432224351
 30
0.0
 11
3985.3876673387881
 21
3246.45432224351
 31
0.0
  0
LINE
  5
7FA6
  8
1
 10
4475.3876673387886
 20
3243.45432224351
 30
0.0
 11
3985.3876673387881
 21
3243.45432224351
 31
0.0
  0
LINE
  5
7FA7
  8
1
 10
3985.3876673387881
 20
3273.4543222435109
 30
0.0
 11
4475.3876673387886
 21
3273.4543222435109
 31
0.0
  0
LINE
  5
7FA8
  8
1
 10
3985.3876673387899
 20
3273.4543222435109
 30
0.0
 11
4475.3876673387886
 21
3273.4543222435109
 31
0.0
  0
LINE
  5
7FA9
  8
1
 10
3985.3876673387899
 20
3243.4543222435109
 30
0.0
 11
4475.3876673387886
 21
3243.4543222435109
 31
0.0
  0
LINE
  5
7FAA
  8
1
 10
3985.3876673387881
 20
3243.45432224351
 30
0.0
 11
3985.3876673387881
 21
3273.4543222435109
 31
0.0
  0
LINE
  5
7FAB
  8
1
 10
4011.3876673387899
 20
3243.45432224351
 30
0.0
 11
3985.3876673387899
 21
3243.45432224351
 31
0.0
  0
LINE
  5
7FAC
  8
1
 10
3985.3876673387899
 20
3243.4543222435109
 30
0.0
 11
3985.3876673387899
 21
3273.4543222435109
 31
0.0
  0
LINE
  5
7FAD
  8
1
 10
4475.3876673387886
 20
3273.4543222435109
 30
0.0
 11
4475.3876673387886
 21
3243.45432224351
 31
0.0
  0
LINE
  5
7FAE
  8
1
 10
4449.3876673387886
 20
3243.45432224351
 30
0.0
 11
4475.3876673387886
 21
3243.45432224351
 31
0.0
  0
LINE
  5
7FAF
  8
1
 10
4475.3876673387886
 20
3243.45432224351
 30
0.0
 11
4475.3876673387886
 21
3273.4543222435109
 31
0.0
  0
LINE
  5
7FB2
  8
1
 10
2469.7247455540919
 20
4458.1052370605457
 30
0.0
 11
1626.8877455540919
 21
4458.1052370605057
 31
0.0
  0
LINE
  5
7FB3
  8
1
 10
2469.7247455540919
 20
4880.705237060547
 30
0.0
 11
1626.8877455540919
 21
4880.705237060547
 31
0.0
  0
LINE
  5
7FB4
  8
2
 10
1551.307890674281
 20
4669.4052370605468
 30
0.0
 11
2726.5132935911311
 21
4669.4052370605468
 31
0.0
  0
LINE
  5
7FB6
  8
1
 10
1625.7247455540919
 20
4424.4052370605459
 30
0.0
 11
1595.724745554091
 21
4424.4052370605459
 31
0.0
  0
LINE
  5
7FB7
  8
1
 10
1625.7247455540919
 20
4914.405237060545
 30
0.0
 11
1595.724745554091
 21
4914.405237060545
 31
0.0
  0
LINE
  5
7FB8
  8
1
 10
1595.724745554091
 20
4424.4052370605459
 30
0.0
 11
1595.724745554091
 21
4914.405237060545
 31
0.0
  0
LINE
  5
7FB9
  8
1
 10
1598.0247455540921
 20
4914.405237060545
 30
0.0
 11
1598.0247455540921
 21
4424.4052370605459
 31
0.0
  0
LINE
  5
7FBA
  8
2
 10
1985.724745554091
 20
4940.5505979019636
 30
0.0
 11
1985.724745554091
 21
4009.400161454329
 31
0.0
  0
LINE
  5
7FBB
  8
1
 10
1625.7247455540919
 20
4914.405237060545
 30
0.0
 11
1625.7247455540919
 21
4424.4052370605459
 31
0.0
  0
LINE
  5
7FCE
  8
1
 10
1626.8877455540919
 20
4884.7052370604697
 30
0.0
 11
1626.8877455540919
 21
4880.7052370605479
 31
0.0
  0
LINE
  5
7FCF
  8
1
 10
1625.7247455540919
 20
4883.5052370605472
 30
0.0
 11
1626.887745554091
 21
4883.5052370605472
 31
0.0
  0
LINE
  5
7FD0
  8
1
 10
1625.7247455540919
 20
4881.9052370605459
 30
0.0
 11
1626.887745554091
 21
4881.9052370605459
 31
0.0
  0
LINE
  5
7FD1
  8
1
 10
2469.7247455540919
 20
4458.1052370605457
 30
0.0
 11
2469.7247455540919
 21
4880.705237060547
 31
0.0
  0
ARC
  5
7FD6
  8
1
 10
2470.524745554093
 20
4458.9052370605468
 30
0.0
 40
0.8
 50
180.0
 51
270.0
  0
ARC
  5
7FD7
  8
1
 10
2470.524745554093
 20
4879.9052370605468
 30
0.0
 40
0.8
 50
90.0
 51
180.0
  0
LINE
  5
7FD8
  8
1
 10
1622.7247455540919
 20
3241.45432224351
 30
0.0
 11
1595.0247455540939
 21
3241.45432224351
 31
0.0
  0
LINE
  5
7FD9
  8
1
 10
1622.7247455540919
 20
2661.45432224351
 30
0.0
 11
1595.0247455540939
 21
2661.45432224351
 31
0.0
  0
ARC
  5
7FDA
  8
1
 10
2024.724745554093
 20
2683.45432224351
 30
0.0
 40
442.0
 50
264.54737801218749
 51
294.78603226067941
  0
ARC
  5
7FDB
  8
1
 10
2024.724745554093
 20
2683.45432224351
 30
0.0
 40
454.0
 50
264.6919195972655
 51
294.08865973633431
  0
ARC
  5
7FDC
  8
1
 10
2015.724745554093
 20
2608.45432224351
 30
0.0
 40
379.0
 50
184.00944079227921
 51
218.16081128861231
  0
ARC
  5
7FDD
  8
1
 10
2015.724745554093
 20
2608.45432224351
 30
0.0
 40
367.0
 50
184.1407647508712
 51
215.70927030761291
  0
LINE
  5
7FDE
  8
1
 10
4017.8876673387899
 20
3243.4543222435109
 30
0.0
 11
4017.8876673387899
 21
2641.45432224351
 31
0.0
  0
LINE
  5
7FE0
  8
1
 10
4017.8876673387908
 20
2641.45432224351
 30
0.0
 11
4017.8876673387899
 21
2229.6212919655281
 31
0.0
  0
LINE
  5
7FE1
  8
1
 10
4442.8876673387904
 20
2641.45432224351
 30
0.0
 11
4442.8876673387904
 21
2229.6212919655281
 31
0.0
  0
LINE
  5
7FEF
  8
1
 10
4442.8876673387904
 20
2229.6212919655281
 30
0.0
 11
4444.4876673387898
 21
2229.6212919655281
 31
0.0
  0
LINE
  5
7FFB
  8
1
 10
1675.7247455540919
 20
4884.4052370605459
 30
0.0
 11
1675.7247455540919
 21
4880.705237060547
 31
0.0
  0
LINE
  5
8015
  8
1
 10
4444.487667338788
 20
2641.45432224351
 30
0.0
 11
4444.487667338788
 21
2151.4543222435091
 31
0.0
  0
LINE
  5
8016
  8
1
 10
4016.2876673387891
 20
2641.45432224351
 30
0.0
 11
4016.2876673387891
 21
2151.4543222435091
 31
0.0
  0
LINE
  5
8018
  8
1
 10
2368.7247455540919
 20
4439.4052370605459
 30
0.0
 11
2368.7247455540919
 21
4456.9052370605468
 31
0.0
  0
DIMENSION
  5
8026
  8
3
  2
*D5
 10
4442.8876673387877
 20
3399.0704282447682
 30
0.0
 11
4225.9737506649444
 21
3399.0704282447682
 31
0.0
 70
   128
 13
4017.8876673387899
 23
3243.4543222435109
 33
0.0
 14
4442.8876673387877
 24
3243.4543222435109
 34
0.0
1001
ACAD
1000
DSTYLE
1002
{
1070
   287
1070
     3
1070
   287
1070
     3
1070
    40
1040
25.0
1070
   143
1040
0.039
1070
   172
1070
     1
1070
   271
1070
     0
1070
   279
1070
     0
1070
   288
1070
     1
1002
}
  0
DIMENSION
  5
805D
  8
3
  2
*D6
 10
1982.7247455540919
 20
3432.154563382197
 30
0.0
 11
1811.296174125521
 21
3432.154563382197
 31
0.0
 70
   128
 13
1592.7247455540919
 23
3273.4543222435109
 33
0.0
 14
1982.7247455540919
 24
3287.9784297007659
 34
0.0
1001
ACAD
1000
DSTYLE
1002
{
1070
   287
1070
     3
1070
   287
1070
     3
1070
    40
1040
25.0
1070
   143
1040
0.039
1070
   172
1070
     1
1070
   271
1070
     0
1070
   279
1070
     0
1070
   288
1070
     1
1002
}
  0
DIMENSION
  5
8069
  8
3
  2
*D7
 10
2466.7247455540919
 20
3432.154563382197
 30
0.0
 11
2224.7247455540919
 21
3494.654563382197
 31
0.0
 70
     0
 13
1982.7247455540919
 23
3287.9784297007659
 33
0.0
 14
2466.7247455540919
 24
2683.45432224351
 34
0.0
1001
ACAD
1000
DSTYLE
1002
{
1070
   287
1070
     4
1070
   287
1070
     4
1070
    40
1040
25.0
1070
    75
1070
     1
1070
   143
1040
0.039
1070
   172
1070
     1
1070
   271
1070
     0
1070
   279
1070
     1
1070
   288
1070
     1
1002
}
  0
DIMENSION
  5
8076
  8
3
  2
*D8
 10
1313.9489190720269
 20
2641.4543222435091
 30
0.0
 11
1313.9489190720269
 21
2970.419900118211
 31
0.0
 70
   128
 13
1595.0247455540939
 23
3241.45432224351
 33
0.0
 14
1556.988215757779
 24
2641.4543222435091
 34
0.0
 50
270.0
1001
ACAD
1000
DSTYLE
1002
{
1070
   287
1070
     3
1070
   287
1070
     3
1070
    40
1040
25.0
1070
   143
1040
0.039
1070
   172
1070
     1
1070
   271
1070
     0
1070
   279
1070
     0
1070
   288
1070
     1
1002
}
  0
DIMENSION
  5
8082
  8
3
  2
*D9
 10
1313.9489190720269
 20
2071.4543222435091
 30
0.0
 11
1251.448919072026
 21
2356.45432224351
 31
0.0
 70
     0
 13
1556.988215757779
 23
2641.4543222435091
 33
0.0
 14
1632.7247455540919
 24
2071.4543222435091
 34
0.0
 50
270.0
1001
ACAD
1000
DSTYLE
1002
{
1070
   287
1070
     4
1070
   287
1070
     4
1070
    40
1040
25.0
1070
    75
1070
     1
1070
   143
1040
0.039
1070
   172
1070
     1
1070
   271
1070
     0
1070
   279
1070
     1
1070
   288
1070
     1
1002
}
  0
DIMENSION
  5
80BF
  8
3
  2
*D10
 10
1438.246433023603
 20
2661.45432224351
 30
0.0
 11
1438.246433023603
 21
2971.7468622872711
 31
0.0
 70
   128
 13
1595.0247455540939
 23
3241.45432224351
 33
0.0
 14
1595.0247455540939
 24
2661.45432224351
 34
0.0
 50
270.0
1001
ACAD
1000
DSTYLE
1002
{
1070
   287
1070
     3
1070
   287
1070
     3
1070
    40
1040
25.0
1070
   143
1040
0.039
1070
   172
1070
     1
1070
   271
1070
     0
1070
   279
1070
     0
1070
   288
1070
     1
1002
}
  0
LINE
  5
8156
  8
1
 10
4476.0876673387911
 20
2921.45432224351
 30
0.0
 11
4444.4876673387889
 21
2921.45432224351
 31
0.0
  0
LINE
  5
8157
  8
1
 10
4446.0876673387893
 20
2951.45432224351
 30
0.0
 11
4446.0876673387893
 21
2921.45432224351
 31
0.0
  0
LINE
  5
8161
  8
1
 10
3742.0582297002902
 20
2186.4543222435091
 30
0.0
 11
3742.0582297002902
 21
2375.2543222435079
 31
0.0
  0
LINE
  5
8162
  8
1
 10
4004.0582297002911
 20
2186.4543222435091
 30
0.0
 11
4004.0582297002902
 21
2375.2543222435079
 31
0.0
  0
LINE
  5
816D
  8
1
 10
3677.0582297002911
 20
2262.4543222435082
 30
0.0
 11
3677.0582297002911
 21
2289.4543222435082
 31
0.0
  0
LINE
  5
816E
  8
1
 10
3727.0582297002911
 20
2261.9543222435082
 30
0.0
 11
3727.0582297002911
 21
2286.9543222435082
 31
0.0
  0
LINE
  5
816F
  8
1
 10
3732.0582297002902
 20
2310.9543222435082
 30
0.0
 11
3732.0582297002911
 21
2237.9543222435082
 31
0.0
  0
LINE
  5
8170
  8
1
 10
3727.0582297002911
 20
2286.4543222435082
 30
0.0
 11
3677.0582297002911
 21
2286.4543222435082
 31
0.0
  0
LINE
  5
8171
  8
1
 10
3717.0582297002902
 20
2289.4543222435082
 30
0.0
 11
3677.0582297002911
 21
2289.4543222435082
 31
0.0
  0
LINE
  5
8173
  8
1
 10
3717.0582297002902
 20
2286.4543222435082
 30
0.0
 11
3717.0582297002902
 21
2289.4543222435082
 31
0.0
  0
LINE
  5
8174
  8
1
 10
3733.0582297002902
 20
2311.9543222435068
 30
0.0
 11
3741.0582297002902
 21
2311.9543222435068
 31
0.0
  0
ARC
  5
8175
  8
1
 10
3741.0582297002902
 20
2312.9543222435082
 30
0.0
 40
1.0000999999999991
 50
270.00350000000037
 51
0.0000000000004962
  0
ARC
  5
8176
  8
1
 10
3733.0583297002909
 20
2310.9543222435082
 30
0.0
 40
1.0000999999999991
 50
90.0035000000005
 51
180.00000000000051
  0
LINE
  5
8177
  8
1
 10
3732.0582297002911
 20
2286.9543222435082
 30
0.0
 11
3727.0582297002911
 21
2286.9543222435082
 31
0.0
  0
LINE
  5
8178
  8
1
 10
3727.0582297002911
 20
2262.4543222435082
 30
0.0
 11
3677.0582297002911
 21
2262.4543222435082
 31
0.0
  0
LINE
  5
817A
  8
1
 10
3733.0582297002911
 20
2236.9543222435082
 30
0.0
 11
3741.0582297002911
 21
2236.9543222435082
 31
0.0
  0
ARC
  5
817B
  8
1
 10
3741.0582297002911
 20
2235.9543222435082
 30
0.0
 40
1.0000999999999991
 50
0.0035000000005061
 51
90.000000000000483
  0
ARC
  5
817C
  8
1
 10
3733.0582297002911
 20
2237.9544222435088
 30
0.0
 40
1.0000999999999991
 50
180.0035000000004
 51
270.00000000000051
  0
LINE
  5
817D
  8
1
 10
3732.0582297002911
 20
2261.9543222435082
 30
0.0
 11
3727.0582297002911
 21
2261.9543222435082
 31
0.0
  0
LINE
  5
8181
  8
1
 10
3742.0582297002902
 20
2375.2543222435079
 30
0.0
 11
4004.0582297002902
 21
2375.2543222435079
 31
0.0
  0
LINE
  5
8184
  8
1
 10
3742.0582297002902
 20
2186.4543222435091
 30
0.0
 11
4004.0582297002911
 21
2186.4543222435091
 31
0.0
  0
LINE
  5
8185
  8
1
 10
3783.5477331287771
 20
2186.4543222435091
 30
0.0
 11
3783.5477331287761
 21
2151.45432224351
 31
0.0
  0
LINE
  5
8186
  8
1
 10
3987.241931657918
 20
2186.4543222435091
 30
0.0
 11
3987.2419316579171
 21
2151.45432224351
 31
0.0
  0
LINE
  5
8187
  8
1
 10
3770.387667338789
 20
2186.4543222435091
 30
0.0
 11
3770.387667338789
 21
2071.45432224351
 31
0.0
  0
LINE
  5
81CF
  8
1
 10
3575.3876673387908
 20
2031.45432224351
 30
0.0
 11
4555.3876673387904
 21
2031.45432224351
 31
0.0
  0
LINE
  5
81D0
  8
1
 10
3575.3876673387899
 20
2071.4543222435091
 30
0.0
 11
3575.3876673387908
 21
2031.4543222435091
 31
0.0
  0
LINE
  5
81D1
  8
1
 10
4555.3876673387904
 20
2071.4543222435091
 30
0.0
 11
4555.3876673387904
 21
2031.45432224351
 31
0.0
  0
LINE
  5
81D2
  8
1
 10
2886.7247455540928
 20
2071.4543222435091
 30
0.0
 11
2886.7247455540928
 21
2031.4543222435091
 31
0.0
  0
LINE
  5
81D3
  8
1
 10
1628.724745554093
 20
2071.4543222435091
 30
0.0
 11
1628.724745554093
 21
2031.4543222435091
 31
0.0
  0
LINE
  5
81D4
  8
1
 10
2806.7247455540928
 20
2071.4543222435091
 30
0.0
 11
2806.7247455540928
 21
2031.4543222435091
 31
0.0
  0
LINE
  5
81D5
  8
1
 10
1708.724745554093
 20
2071.4543222435091
 30
0.0
 11
1708.724745554093
 21
2031.4543222435091
 31
0.0
  0
DIMENSION
  5
81E2
  8
3
  2
*D11
 10
4230.3876673387913
 20
1878.517694105172
 30
0.0
 11
3902.8876673387908
 21
1941.017694105172
 31
0.0
 70
     0
 13
3575.3876673387908
 23
2031.4543222435091
 33
0.0
 14
4230.3876673387913
 24
2031.45432224351
 34
0.0
1001
ACAD
1000
DSTYLE
1002
{
1070
   287
1070
     3
1070
   287
1070
     3
1070
    40
1040
25.0
1070
   143
1040
0.039
1070
   172
1070
     1
1070
   271
1070
     0
1070
   279
1070
     0
1002
}
  0
DIMENSION
  5
81F1
  8
3
  2
*D12
 10
4555.3876673387904
 20
1878.517694105172
 30
0.0
 11
4392.8876673387913
 21
1941.017694105172
 31
0.0
 70
     0
 13
4230.3876673387913
 23
2031.45432224351
 33
0.0
 14
4555.3876673387904
 24
2031.45432224351
 34
0.0
1001
ACAD
1000
DSTYLE
1002
{
1070
   287
1070
     3
1070
   287
1070
     3
1070
    40
1040
25.0
1070
   143
1040
0.039
1070
   172
1070
     1
1070
   271
1070
     0
1070
   279
1070
     0
1002
}
  0
DIMENSION
  5
81FE
  8
3
  2
*D13
 10
2886.7247455540928
 20
1878.517694105172
 30
0.0
 11
2434.7247455540919
 21
1941.017694105172
 31
0.0
 70
     0
 13
1982.724745554093
 23
2071.4543222435091
 33
0.0
 14
2886.7247455540928
 24
2031.4543222435091
 34
0.0
1001
ACAD
1000
DSTYLE
1002
{
1070
   287
1070
     3
1070
   287
1070
     3
1070
    40
1040
25.0
1070
   143
1040
0.039
1070
   172
1070
     1
1070
   271
1070
     0
1070
   279
1070
     0
1002
}
  0
DIMENSION
  5
820B
  8
3
  2
*D14
 10
1982.724745554093
 20
1878.517694105172
 30
0.0
 11
1805.7247455540919
 21
1941.017694105172
 31
0.0
 70
     0
 13
1628.724745554093
 23
2031.4543222435091
 33
0.0
 14
1982.724745554093
 24
2071.4543222435091
 34
0.0
1001
ACAD
1000
DSTYLE
1002
{
1070
   287
1070
     3
1070
   287
1070
     3
1070
    40
1040
25.0
1070
   143
1040
0.039
1070
   172
1070
     1
1070
   271
1070
     0
1070
   279
1070
     0
1002
}
  0
LINE
  5
820C
  8
1
 10
1631.724745554091
 20
4994.4052370605459
 30
0.0
 11
1711.724745554091
 21
4994.4052370605441
 31
0.0
  0
LINE
  5
820E
  8
1
 10
1631.724745554091
 20
4014.4052370605468
 30
0.0
 11
1711.7247455540901
 21
4014.4052370605468
 31
0.0
  0
LINE
  5
820F
  8
1
 10
2889.7247455540919
 20
4994.4052370605468
 30
0.0
 11
2889.7247455540901
 21
4014.4052370605459
 31
0.0
  0
LINE
  5
8210
  8
1
 10
1631.724745554091
 20
4994.4052370605459
 30
0.0
 11
1631.724745554091
 21
4014.4052370605468
 31
0.0
  0
LINE
  5
8211
  8
1
 10
2809.7247455540919
 20
4994.4052370605468
 30
0.0
 11
2809.7247455540919
 21
4924.4052370605468
 31
0.0
  0
LINE
  5
8212
  8
1
 10
1711.724745554091
 20
4994.4052370605459
 30
0.0
 11
1711.724745554091
 21
4924.4052370605468
 31
0.0
  0
LINE
  5
8213
  8
1
 10
2809.724745554091
 20
4994.4052370605468
 30
0.0
 11
2889.724745554091
 21
4994.4052370605468
 31
0.0
  0
LINE
  5
8214
  8
1
 10
2809.7247455540892
 20
4014.4052370605459
 30
0.0
 11
2889.7247455540901
 21
4014.4052370605468
 31
0.0
  0
LINE
  5
8215
  8
1
 10
2809.7247455540901
 20
4175.8034611068133
 30
0.0
 11
2809.7247455540901
 21
4014.4052370605459
 31
0.0
  0
LINE
  5
8216
  8
1
 10
2809.7247455540919
 20
4884.4052370605468
 30
0.0
 11
2809.7247455540901
 21
4437.8034611068142
 31
0.0
  0
LINE
  5
8217
  8
1
 10
1711.724745554091
 20
4364.405237060545
 30
0.0
 11
1711.724745554091
 21
4249.4052370605459
 31
0.0
  0
LINE
  5
8218
  8
1
 10
1711.724745554091
 20
4209.4052370605459
 30
0.0
 11
1711.724745554091
 21
4014.4052370605468
 31
0.0
  0
DIMENSION
  5
8225
  8
3
  2
*D15
 10
2889.724745554091
 20
5134.7191105978354
 30
0.0
 11
2260.724745554091
 21
5197.2191105978354
 31
0.0
 70
     0
 13
1631.724745554091
 23
4994.4052370605459
 33
0.0
 14
2889.724745554091
 24
4994.4052370605468
 34
0.0
1001
ACAD
1000
DSTYLE
1002
{
1070
   287
1070
     3
1070
   287
1070
     3
1070
    40
1040
25.0
1070
   143
1040
0.039
1070
   172
1070
     1
1070
   271
1070
     0
1070
   279
1070
     0
1002
}
  0
DIMENSION
  5
8232
  8
3
  2
*D16
 10
1466.7067661786459
 20
4014.4052370605468
 30
0.0
 11
1404.206766178645
 21
4504.4052370605468
 31
0.0
 70
     0
 13
1631.724745554091
 23
4994.4052370605459
 33
0.0
 14
1631.724745554091
 24
4014.4052370605468
 34
0.0
 50
90.0
1001
ACAD
1000
DSTYLE
1002
{
1070
   287
1070
     3
1070
   287
1070
     3
1070
    40
1040
25.0
1070
   143
1040
0.039
1070
   172
1070
     1
1070
   271
1070
     0
1070
   279
1070
     0
1002
}
  0
ENDSEC
  0
EOF
