  0
SECTION
  2
HEADER
  9
$ACADVER
  1
AC1015
  9
$ACADMAINTVER
 70
    20
  9
$DWGCODEPAGE
  3
ANSI_932
  9
$INSBASE
 10
0.0
 20
0.0
 30
0.0
  9
$EXTMIN
 10
-0.1281640493871237
 20
-0.1800399741405272
 30
-0.0015258207003583
  9
$EXTMAX
 10
4200.128183607161
 20
5900.180067448153
 30
0.0000000349246037
  9
$LIMMIN
 10
0.0
 20
0.0
  9
$LIMMAX
 10
297.0
 20
210.0
  9
$ORTHOMODE
 70
     0
  9
$REGENMODE
 70
     1
  9
$FILLMODE
 70
     0
  9
$QTEXTMODE
 70
     0
  9
$MIRRTEXT
 70
     1
  9
$LTSCALE
 40
100.0
  9
$ATTMODE
 70
     1
  9
$TEXTSIZE
 40
180.0
  9
$TRACEWID
 40
0.05
  9
$TEXTSTYLE
  7
STANDARD
  9
$CLAYER
  8
3
  9
$CELTYPE
  6
BYLAYER
  9
$CECOLOR
 62
   256
  9
$CELTSCALE
 40
1.0
  9
$DISPSILH
 70
     0
  9
$DIMSCALE
 40
20.0
  9
$DIMASZ
 40
2.0
  9
$DIMEXO
 40
0.5
  9
$DIMDLI
 40
10.0
  9
$DIMRND
 40
0.0
  9
$DIMDLE
 40
0.0
  9
$DIMEXE
 40
1.0
  9
$DIMTP
 40
1.0
  9
$DIMTM
 40
1.0
  9
$DIMTXT
 40
3.0
  9
$DIMCEN
 40
0.0
  9
$DIMTSZ
 40
0.0
  9
$DIMTOL
 70
     0
  9
$DIMLIM
 70
     0
  9
$DIMTIH
 70
     0
  9
$DIMTOH
 70
     0
  9
$DIMSE1
 70
     0
  9
$DIMSE2
 70
     0
  9
$DIMTAD
 70
     1
  9
$DIMZIN
 70
     8
  9
$DIMBLK
  1

  9
$DIMASO
 70
     1
  9
$DIMSHO
 70
     1
  9
$DIMPOST
  1
(<>)
  9
$DIMAPOST
  1

  9
$DIMALT
 70
     0
  9
$DIMALTD
 70
     2
  9
$DIMALTF
 40
0.039
  9
$DIMLFAC
 40
1.0
  9
$DIMTOFL
 70
     1
  9
$DIMTVP
 40
0.0
  9
$DIMTIX
 70
     0
  9
$DIMSOXD
 70
     0
  9
$DIMSAH
 70
     1
  9
$DIMBLK1
  1
OPEN
  9
$DIMBLK2
  1
OPEN
  9
$DIMSTYLE
  2
IGA
  9
$DIMCLRD
 70
     0
  9
$DIMCLRE
 70
     0
  9
$DIMCLRT
 70
     0
  9
$DIMTFAC
 40
10.0
  9
$DIMGAP
 40
1.0
  9
$DIMJUST
 70
     0
  9
$DIMSD1
 70
     0
  9
$DIMSD2
 70
     0
  9
$DIMTOLJ
 70
     1
  9
$DIMTZIN
 70
     8
  9
$DIMALTZ
 70
     0
  9
$DIMALTTZ
 70
     0
  9
$DIMUPT
 70
     0
  9
$DIMDEC
 70
     0
  9
$DIMTDEC
 70
     0
  9
$DIMALTU
 70
     2
  9
$DIMALTTD
 70
     2
  9
$DIMTXSTY
  7
STANDARD
  9
$DIMAUNIT
 70
     0
  9
$DIMADEC
 70
     0
  9
$DIMALTRND
 40
0.0
  9
$DIMAZIN
 70
     0
  9
$DIMDSEP
 70
    46
  9
$DIMATFIT
 70
     3
  9
$DIMFRAC
 70
     0
  9
$DIMLDRBLK
  1
OPEN
  9
$DIMLUNIT
 70
     2
  9
$DIMLWD
 70
    -2
  9
$DIMLWE
 70
    -2
  9
$DIMTMOVE
 70
     2
  9
$LUNITS
 70
     2
  9
$LUPREC
 70
     3
  9
$SKETCHINC
 40
0.1
  9
$FILLETRAD
 40
50.0
  9
$AUNITS
 70
     0
  9
$AUPREC
 70
     0
  9
$MENU
  1
acad
  9
$ELEVATION
 40
0.0
  9
$PELEVATION
 40
0.0
  9
$THICKNESS
 40
0.0
  9
$LIMCHECK
 70
     0
  9
$CHAMFERA
 40
0.5
  9
$CHAMFERB
 40
0.5
  9
$CHAMFERC
 40
20.0
  9
$CHAMFERD
 40
0.0
  9
$SKPOLY
 70
     0
  9
$TDCREATE
 40
2452773.622829630
  9
$TDUCREATE
 40
2452773.247829630
  9
$TDUPDATE
 40
2458829.613253797
  9
$TDUUPDATE
 40
2458829.238253797
  9
$TDINDWG
 40
0.1646355208
  9
$TDUSRTIMER
 40
0.1646355208
  9
$USRTIMER
 70
     1
  9
$ANGBASE
 50
0.0
  9
$ANGDIR
 70
     0
  9
$PDMODE
 70
     0
  9
$PDSIZE
 40
0.0
  9
$PLINEWID
 40
0.0
  9
$SPLFRAME
 70
     0
  9
$SPLINETYPE
 70
     6
  9
$SPLINESEGS
 70
     8
  9
$HANDSEED
  5
857C
  9
$SURFTAB1
 70
     6
  9
$SURFTAB2
 70
     6
  9
$SURFTYPE
 70
     6
  9
$SURFU
 70
     6
  9
$SURFV
 70
     6
  9
$UCSBASE
  2

  9
$UCSNAME
  2

  9
$UCSORG
 10
0.0
 20
0.0
 30
0.0
  9
$UCSXDIR
 10
1.0
 20
0.0
 30
0.0
  9
$UCSYDIR
 10
0.0
 20
1.0
 30
0.0
  9
$UCSORTHOREF
  2

  9
$UCSORTHOVIEW
 70
     0
  9
$UCSORGTOP
 10
0.0
 20
0.0
 30
0.0
  9
$UCSORGBOTTOM
 10
0.0
 20
0.0
 30
0.0
  9
$UCSORGLEFT
 10
0.0
 20
0.0
 30
0.0
  9
$UCSORGRIGHT
 10
0.0
 20
0.0
 30
0.0
  9
$UCSORGFRONT
 10
0.0
 20
0.0
 30
0.0
  9
$UCSORGBACK
 10
0.0
 20
0.0
 30
0.0
  9
$PUCSBASE
  2

  9
$PUCSNAME
  2

  9
$PUCSORG
 10
0.0
 20
0.0
 30
0.0
  9
$PUCSXDIR
 10
1.0
 20
0.0
 30
0.0
  9
$PUCSYDIR
 10
0.0
 20
1.0
 30
0.0
  9
$PUCSORTHOREF
  2

  9
$PUCSORTHOVIEW
 70
     0
  9
$PUCSORGTOP
 10
0.0
 20
0.0
 30
0.0
  9
$PUCSORGBOTTOM
 10
0.0
 20
0.0
 30
0.0
  9
$PUCSORGLEFT
 10
0.0
 20
0.0
 30
0.0
  9
$PUCSORGRIGHT
 10
0.0
 20
0.0
 30
0.0
  9
$PUCSORGFRONT
 10
0.0
 20
0.0
 30
0.0
  9
$PUCSORGBACK
 10
0.0
 20
0.0
 30
0.0
  9
$USERI1
 70
     0
  9
$USERI2
 70
     0
  9
$USERI3
 70
     0
  9
$USERI4
 70
     0
  9
$USERI5
 70
     0
  9
$USERR1
 40
0.0
  9
$USERR2
 40
0.0
  9
$USERR3
 40
0.0
  9
$USERR4
 40
0.0
  9
$USERR5
 40
0.0
  9
$WORLDVIEW
 70
     1
  9
$SHADEDGE
 70
     3
  9
$SHADEDIF
 70
    70
  9
$TILEMODE
 70
     1
  9
$MAXACTVP
 70
    16
  9
$PINSBASE
 10
0.0
 20
0.0
 30
0.0
  9
$PLIMCHECK
 70
     0
  9
$PEXTMIN
 10
1.000000000000000E+20
 20
1.000000000000000E+20
 30
1.000000000000000E+20
  9
$PEXTMAX
 10
-1.000000000000000E+20
 20
-1.000000000000000E+20
 30
-1.000000000000000E+20
  9
$PLIMMIN
 10
0.0
 20
0.0
  9
$PLIMMAX
 10
12.0
 20
9.0
  9
$UNITMODE
 70
     0
  9
$VISRETAIN
 70
     0
  9
$PLINEGEN
 70
     0
  9
$PSLTSCALE
 70
     1
  9
$TREEDEPTH
 70
  3020
  9
$CMLSTYLE
  2
STANDARD
  9
$CMLJUST
 70
     0
  9
$CMLSCALE
 40
20.0
  9
$PROXYGRAPHICS
 70
     1
  9
$MEASUREMENT
 70
     1
  9
$CELWEIGHT
370
    -1
  9
$ENDCAPS
280
     0
  9
$JOINSTYLE
280
     0
  9
$LWDISPLAY
290
     0
  9
$INSUNITS
 70
     0
  9
$HYPERLINKBASE
  1

  9
$STYLESHEET
  1
monochrome.ctb
  9
$XEDIT
290
     1
  9
$CEPSNTYPE
380
     0
  9
$PSTYLEMODE
290
     1
  9
$FINGERPRINTGUID
  2
{1CACE3AE-9E30-485B-A2C0-58F030302A3E}
  9
$VERSIONGUID
  2
{66DDADDB-57EA-4AE2-B3C2-D6A43354A4AB}
  9
$EXTNAMES
290
     1
  9
$PSVPSCALE
 40
0.0
  9
$OLESTARTUP
290
     0
  0
ENDSEC
  0
SECTION
  2
CLASSES
  0
CLASS
  1
ACDBDICTIONARYWDFLT
  2
AcDbDictionaryWithDefault
  3
ObjectDBX Classes
 90
        0
280
     0
281
     0
  0
CLASS
  1
ACDBPLACEHOLDER
  2
AcDbPlaceHolder
  3
ObjectDBX Classes
 90
        0
280
     0
281
     0
  0
CLASS
  1
LAYOUT
  2
AcDbLayout
  3
ObjectDBX Classes
 90
        0
280
     0
281
     0
  0
CLASS
  1
DICTIONARYVAR
  2
AcDbDictionaryVar
  3
ObjectDBX Classes
 90
        0
280
     0
281
     0
  0
CLASS
  1
MATERIAL
  2
AcDbMaterial
  3
ObjectDBX Classes
 90
     1153
280
     0
281
     0
  0
CLASS
  1
VISUALSTYLE
  2
AcDbVisualStyle
  3
ObjectDBX Classes
 90
     4095
280
     0
281
     0
  0
CLASS
  1
TABLESTYLE
  2
AcDbTableStyle
  3
ObjectDBX Classes
 90
     4095
280
     0
281
     0
  0
CLASS
  1
SCALE
  2
AcDbScale
  3
ObjectDBX Classes
 90
     1153
280
     0
281
     0
  0
CLASS
  1
MLEADERSTYLE
  2
AcDbMLeaderStyle
  3
ACDB_MLEADERSTYLE_CLASS
 90
     4095
280
     0
281
     0
  0
CLASS
  1
ACDBSECTIONVIEWSTYLE
  2
AcDbSectionViewStyle
  3
ObjectDBX Classes
 90
     1025
280
     0
281
     0
  0
CLASS
  1
ACDBDETAILVIEWSTYLE
  2
AcDbDetailViewStyle
  3
ObjectDBX Classes
 90
     1025
280
     0
281
     0
  0
CLASS
  1
SORTENTSTABLE
  2
AcDbSortentsTable
  3
ObjectDBX Classes
 90
        0
280
     0
281
     0
  0
CLASS
  1
CELLSTYLEMAP
  2
AcDbCellStyleMap
  3
ObjectDBX Classes
 90
     1152
280
     0
281
     0
  0
ENDSEC
  0
SECTION
  2
TABLES
  0
TABLE
  2
VPORT
  5
8
330
0
100
AcDbSymbolTable
 70
     1
  0
VPORT
  5
7FF2
330
8
100
AcDbSymbolTableRecord
100
AcDbViewportTableRecord
  2
*Active
 70
     0
 10
0.0
 20
0.0
 11
1.0
 21
1.0
 12
2100.000009778887
 22
2950.000013737006
 13
0.0
 23
0.0
 14
10.0
 24
10.0
 15
10.0
 25
10.0
 16
0.0
 26
0.0
 36
1.0
 17
0.0
 27
0.0
 37
0.0
 40
5950.141838331203
 41
1.915441176470588
 42
50.0
 43
0.0
 44
0.0
 50
0.0
 51
0.0
 71
     0
 72
   100
 73
     1
 74
     0
 75
     0
 76
     0
 77
     0
 78
     0
281
     0
 65
     1
110
0.0
120
0.0
130
0.0
111
1.0
121
0.0
131
0.0
112
0.0
122
1.0
132
0.0
 79
     0
146
0.0
1001
ACAD_NAV_VCDISPLAY
1070
     3
  0
ENDTAB
  0
TABLE
  2
LTYPE
  5
5
330
0
100
AcDbSymbolTable
 70
     3
  0
LTYPE
  5
13
330
5
100
AcDbSymbolTableRecord
100
AcDbLinetypeTableRecord
  2
BYBLOCK
 70
     0
  3

 72
    65
 73
     0
 40
0.0
  0
LTYPE
  5
14
330
5
100
AcDbSymbolTableRecord
100
AcDbLinetypeTableRecord
  2
BYLAYER
 70
     0
  3

 72
    65
 73
     0
 40
0.0
  0
LTYPE
  5
15
330
5
100
AcDbSymbolTableRecord
100
AcDbLinetypeTableRecord
  2
CONTINUOUS
 70
     0
  3
Solid line
 72
    65
 73
     0
 40
0.0
  0
LTYPE
  5
1F
330
5
100
AcDbSymbolTableRecord
100
AcDbLinetypeTableRecord
  2
CENTER
 70
     0
  3
____ _ ____ _ ____ _ ____ _ ____ _ ____ _ ____ 
 72
    65
 73
     4
 40
2.0
 49
1.25
 74
     0
 49
-0.25
 74
     0
 49
0.25
 74
     0
 49
-0.25
 74
     0
  0
ENDTAB
  0
TABLE
  2
LAYER
  5
2
102
{ACAD_XDICTIONARY
360
8135
102
}
330
0
100
AcDbSymbolTable
 70
     6
  0
LAYER
  5
F
102
{ACAD_XDICTIONARY
360
8044
102
}
330
2
100
AcDbSymbolTableRecord
100
AcDbLayerTableRecord
  2
0
 70
     0
 62
     7
  6
CONTINUOUS
370
    -3
390
7F25
  0
LAYER
  5
31
102
{ACAD_XDICTIONARY
360
8046
102
}
330
2
100
AcDbSymbolTableRecord
100
AcDbLayerTableRecord
  2
3
 70
     0
 62
     2
  6
CONTINUOUS
370
    -3
390
7F25
  0
LAYER
  5
76D0
102
{ACAD_XDICTIONARY
360
8048
102
}
330
2
100
AcDbSymbolTableRecord
100
AcDbLayerTableRecord
  2
2
 70
     0
 62
     3
  6
CENTER
370
    -3
390
7F25
  0
LAYER
  5
76D1
102
{ACAD_XDICTIONARY
360
804A
102
}
330
2
100
AcDbSymbolTableRecord
100
AcDbLayerTableRecord
  2
1
 70
     0
 62
     4
  6
CONTINUOUS
370
    -3
390
7F25
  0
LAYER
  5
76D2
102
{ACAD_XDICTIONARY
360
804C
102
}
330
2
100
AcDbSymbolTableRecord
100
AcDbLayerTableRecord
  2
4
 70
     0
 62
     7
  6
CONTINUOUS
370
    -3
390
7F25
  0
LAYER
  5
7A08
330
2
100
AcDbSymbolTableRecord
100
AcDbLayerTableRecord
  2
DEFPOINTS
 70
     0
 62
     7
  6
CONTINUOUS
290
     0
370
    -3
390
7F25
  0
ENDTAB
  0
TABLE
  2
STYLE
  5
3
330
0
100
AcDbSymbolTable
 70
     2
  0
STYLE
  5
10
330
3
100
AcDbSymbolTableRecord
100
AcDbTextStyleTableRecord
  2
STANDARD
 70
     0
 40
0.0
 41
1.0
 50
0.0
 71
     0
 42
180.0
  3
simplex.shx
  4
extfont.shx
  0
ENDTAB
  0
TABLE
  2
VIEW
  5
6
330
0
100
AcDbSymbolTable
 70
     1
  0
ENDTAB
  0
TABLE
  2
UCS
  5
7
330
0
100
AcDbSymbolTable
 70
     0
  0
ENDTAB
  0
TABLE
  2
APPID
  5
9
330
0
100
AcDbSymbolTable
 70
     6
  0
APPID
  5
11
330
9
100
AcDbSymbolTableRecord
100
AcDbRegAppTableRecord
  2
ACAD
 70
     0
  0
APPID
  5
804E
330
9
100
AcDbSymbolTableRecord
100
AcDbRegAppTableRecord
  2
ACAD_PSEXT
 70
     0
  0
APPID
  5
8059
330
9
100
AcDbSymbolTableRecord
100
AcDbRegAppTableRecord
  2
ACAD_NAV_VCDISPLAY
 70
     0
  0
APPID
  5
84F3
330
9
100
AcDbSymbolTableRecord
100
AcDbRegAppTableRecord
  2
AcadAnnoMonitorAlertIconDisabled
 70
     0
  0
APPID
  5
84F4
330
9
100
AcDbSymbolTableRecord
100
AcDbRegAppTableRecord
  2
ACAD_EXEMPT_FROM_CAD_STANDARDS
 70
     0
  0
APPID
  5
8575
330
9
100
AcDbSymbolTableRecord
100
AcDbRegAppTableRecord
  2
ACAD_MLEADERVER
 70
     0
  0
ENDTAB
  0
TABLE
  2
DIMSTYLE
  5
A
330
0
100
AcDbSymbolTable
 70
     2
100
AcDbDimStyleTable
 71
     1
340
1D
  0
DIMSTYLE
105
1D
102
{ACAD_REACTORS
330
7C80
330
7C8C
330
7C99
330
7CA7
330
7CC8
330
7CD5
330
7CEC
330
7D0C
330
7DA4
330
7DB3
330
7DCC
330
7DE4
330
7E6E
330
7E7A
330
7EA3
330
7F0C
330
7F19
330
84AA
330
84AB
102
}
330
A
100
AcDbSymbolTableRecord
100
AcDbDimStyleTableRecord
  2
IGA
 70
     0
 40
2.0
 41
2.0
 42
0.5
 43
10.0
 44
1.0
 47
1.0
 48
1.0
 73
     0
 74
     0
 77
     1
 78
     8
140
3.0
141
0.0
143
0.03937
146
10.0
147
1.0
173
     1
271
     1
272
     0
279
     2
284
     8
340
10
341
79FC
343
79FC
344
79FC
  0
ENDTAB
  0
TABLE
  2
BLOCK_RECORD
  5
1
330
0
100
AcDbSymbolTable
 70
    55
  0
BLOCK_RECORD
  5
19
102
{ACAD_XDICTIONARY
360
7F53
102
}
330
1
100
AcDbSymbolTableRecord
100
AcDbBlockTableRecord
  2
*MODEL_SPACE
340
7F28
  0
BLOCK_RECORD
  5
16
102
{ACAD_XDICTIONARY
360
7F51
102
}
330
1
100
AcDbSymbolTableRecord
100
AcDbBlockTableRecord
  2
*PAPER_SPACE
340
7F29
  0
BLOCK_RECORD
  5
79FC
330
1
100
AcDbSymbolTableRecord
100
AcDbBlockTableRecord
  2
_OPEN
340
0
102
{BLKREFS
331
83E7
331
83E8
331
83F0
331
83F1
331
83F9
331
83FA
331
8402
331
8403
331
840B
331
840C
331
8413
331
8414
331
841C
331
841D
331
8424
331
8425
331
842C
331
842D
331
8435
331
8436
331
843E
331
843F
331
8447
331
8448
331
8450
331
8451
331
8459
331
845A
331
8462
331
8463
331
84E4
331
84E5
331
84ED
331
84EE
331
8500
331
8501
331
7CB6
331
7CB7
331
7F07
331
7F12
331
7F13
331
7F5C
331
7F5D
331
7F64
331
7F65
331
7F6D
331
7F6E
331
7F76
331
7F77
331
7F7F
331
7F80
331
7F88
331
7F89
331
7F94
331
7F9C
331
7F9D
331
7FA5
331
7FA6
331
7FB6
331
7FB7
331
7FBF
331
7FC0
331
7FC8
331
7FC9
331
7FD0
331
7FD1
331
7FD8
331
7FD9
331
7FE1
331
7FE2
331
8089
331
808A
331
8095
331
8096
331
80A1
331
80A2
331
80AD
331
80AE
331
80B9
331
80BA
331
80C4
331
80C5
331
80D0
331
80D1
331
80DB
331
80DC
331
80E6
331
80E7
331
80F2
331
80F3
331
80FE
331
80FF
331
810A
331
810B
331
8116
331
8117
331
8122
331
8123
331
812E
331
812F
102
}
  0
BLOCK_RECORD
  5
7C74
330
1
100
AcDbSymbolTableRecord
100
AcDbBlockTableRecord
  2
*D1
340
0
  0
BLOCK_RECORD
  5
7C81
330
1
100
AcDbSymbolTableRecord
100
AcDbBlockTableRecord
  2
*D2
340
0
  0
BLOCK_RECORD
  5
7C8D
330
1
100
AcDbSymbolTableRecord
100
AcDbBlockTableRecord
  2
*D3
340
0
  0
BLOCK_RECORD
  5
7C9A
330
1
100
AcDbSymbolTableRecord
100
AcDbBlockTableRecord
  2
*D4
340
0
  0
BLOCK_RECORD
  5
7CBC
330
1
100
AcDbSymbolTableRecord
100
AcDbBlockTableRecord
  2
*D5
340
0
  0
BLOCK_RECORD
  5
7CC9
330
1
100
AcDbSymbolTableRecord
100
AcDbBlockTableRecord
  2
*D6
340
0
  0
BLOCK_RECORD
  5
7CE1
330
1
100
AcDbSymbolTableRecord
100
AcDbBlockTableRecord
  2
*D7
340
0
  0
BLOCK_RECORD
  5
7CFD
330
1
100
AcDbSymbolTableRecord
100
AcDbBlockTableRecord
  2
*D8
340
0
  0
BLOCK_RECORD
  5
7D46
330
1
100
AcDbSymbolTableRecord
100
AcDbBlockTableRecord
  2
_DOT
340
0
102
{BLKREFS
331
7F06
331
7F93
102
}
  0
BLOCK_RECORD
  5
7D98
330
1
100
AcDbSymbolTableRecord
100
AcDbBlockTableRecord
  2
*D10
340
0
  0
BLOCK_RECORD
  5
7DA5
330
1
100
AcDbSymbolTableRecord
100
AcDbBlockTableRecord
  2
*D11
340
0
  0
BLOCK_RECORD
  5
7DC1
330
1
100
AcDbSymbolTableRecord
100
AcDbBlockTableRecord
  2
*D12
340
0
  0
BLOCK_RECORD
  5
7DD8
330
1
100
AcDbSymbolTableRecord
100
AcDbBlockTableRecord
  2
*D13
340
0
  0
BLOCK_RECORD
  5
7DF0
330
1
100
AcDbSymbolTableRecord
100
AcDbBlockTableRecord
  2
*D14
340
0
  0
BLOCK_RECORD
  5
7DFD
330
1
100
AcDbSymbolTableRecord
100
AcDbBlockTableRecord
  2
*D15
340
0
  0
BLOCK_RECORD
  5
7E63
330
1
100
AcDbSymbolTableRecord
100
AcDbBlockTableRecord
  2
*D16
340
0
  0
BLOCK_RECORD
  5
7E6F
330
1
100
AcDbSymbolTableRecord
100
AcDbBlockTableRecord
  2
*D17
340
0
  0
BLOCK_RECORD
  5
7E97
330
1
100
AcDbSymbolTableRecord
100
AcDbBlockTableRecord
  2
*D18
340
0
  0
BLOCK_RECORD
  5
7EFE
330
1
100
AcDbSymbolTableRecord
100
AcDbBlockTableRecord
  2
*D19
340
0
  0
BLOCK_RECORD
  5
7F0D
330
1
100
AcDbSymbolTableRecord
100
AcDbBlockTableRecord
  2
*D20
340
0
  0
BLOCK_RECORD
  5
8084
330
1
100
AcDbSymbolTableRecord
100
AcDbBlockTableRecord
  2
*D22
340
0
  0
BLOCK_RECORD
  5
8090
330
1
100
AcDbSymbolTableRecord
100
AcDbBlockTableRecord
  2
*D23
340
0
  0
BLOCK_RECORD
  5
809C
330
1
100
AcDbSymbolTableRecord
100
AcDbBlockTableRecord
  2
*D24
340
0
  0
BLOCK_RECORD
  5
80A8
330
1
100
AcDbSymbolTableRecord
100
AcDbBlockTableRecord
  2
*D25
340
0
  0
BLOCK_RECORD
  5
80B4
330
1
100
AcDbSymbolTableRecord
100
AcDbBlockTableRecord
  2
*D26
340
0
  0
BLOCK_RECORD
  5
80C0
330
1
100
AcDbSymbolTableRecord
100
AcDbBlockTableRecord
  2
*D27
340
0
  0
BLOCK_RECORD
  5
80CB
330
1
100
AcDbSymbolTableRecord
100
AcDbBlockTableRecord
  2
*D28
340
0
  0
BLOCK_RECORD
  5
80D7
330
1
100
AcDbSymbolTableRecord
100
AcDbBlockTableRecord
  2
*D29
340
0
  0
BLOCK_RECORD
  5
80E2
330
1
100
AcDbSymbolTableRecord
100
AcDbBlockTableRecord
  2
*D30
340
0
  0
BLOCK_RECORD
  5
80ED
330
1
100
AcDbSymbolTableRecord
100
AcDbBlockTableRecord
  2
*D31
340
0
  0
BLOCK_RECORD
  5
80F9
330
1
100
AcDbSymbolTableRecord
100
AcDbBlockTableRecord
  2
*D32
340
0
  0
BLOCK_RECORD
  5
8105
330
1
100
AcDbSymbolTableRecord
100
AcDbBlockTableRecord
  2
*D33
340
0
  0
BLOCK_RECORD
  5
8111
330
1
100
AcDbSymbolTableRecord
100
AcDbBlockTableRecord
  2
*D34
340
0
  0
BLOCK_RECORD
  5
811D
330
1
100
AcDbSymbolTableRecord
100
AcDbBlockTableRecord
  2
*D35
340
0
  0
BLOCK_RECORD
  5
8129
330
1
100
AcDbSymbolTableRecord
100
AcDbBlockTableRecord
  2
*D36
340
0
  0
BLOCK_RECORD
  5
8333
330
1
100
AcDbSymbolTableRecord
100
AcDbBlockTableRecord
  2
*D38
340
0
  0
BLOCK_RECORD
  5
833F
330
1
100
AcDbSymbolTableRecord
100
AcDbBlockTableRecord
  2
*D39
340
0
  0
BLOCK_RECORD
  5
834B
330
1
100
AcDbSymbolTableRecord
100
AcDbBlockTableRecord
  2
*D40
340
0
  0
BLOCK_RECORD
  5
8357
330
1
100
AcDbSymbolTableRecord
100
AcDbBlockTableRecord
  2
*D41
340
0
  0
BLOCK_RECORD
  5
8363
330
1
100
AcDbSymbolTableRecord
100
AcDbBlockTableRecord
  2
*D42
340
0
  0
BLOCK_RECORD
  5
836F
330
1
100
AcDbSymbolTableRecord
100
AcDbBlockTableRecord
  2
*D43
340
0
  0
BLOCK_RECORD
  5
837A
330
1
100
AcDbSymbolTableRecord
100
AcDbBlockTableRecord
  2
*D44
340
0
  0
BLOCK_RECORD
  5
8386
330
1
100
AcDbSymbolTableRecord
100
AcDbBlockTableRecord
  2
*D45
340
0
  0
BLOCK_RECORD
  5
8391
330
1
100
AcDbSymbolTableRecord
100
AcDbBlockTableRecord
  2
*D46
340
0
  0
BLOCK_RECORD
  5
839C
330
1
100
AcDbSymbolTableRecord
100
AcDbBlockTableRecord
  2
*D47
340
0
  0
BLOCK_RECORD
  5
83A8
330
1
100
AcDbSymbolTableRecord
100
AcDbBlockTableRecord
  2
*D48
340
0
  0
BLOCK_RECORD
  5
83B4
330
1
100
AcDbSymbolTableRecord
100
AcDbBlockTableRecord
  2
*D49
340
0
  0
BLOCK_RECORD
  5
83C0
330
1
100
AcDbSymbolTableRecord
100
AcDbBlockTableRecord
  2
*D50
340
0
  0
BLOCK_RECORD
  5
83CC
330
1
100
AcDbSymbolTableRecord
100
AcDbBlockTableRecord
  2
*D51
340
0
  0
BLOCK_RECORD
  5
83D8
330
1
100
AcDbSymbolTableRecord
100
AcDbBlockTableRecord
  2
*D52
340
0
  0
BLOCK_RECORD
  5
84B7
330
1
100
AcDbSymbolTableRecord
100
AcDbBlockTableRecord
  2
*D53
340
0
  0
BLOCK_RECORD
  5
84C3
330
1
100
AcDbSymbolTableRecord
100
AcDbBlockTableRecord
  2
*D54
340
0
  0
ENDTAB
  0
ENDSEC
  0
SECTION
  2
BLOCKS
  0
BLOCK
  5
1A
330
19
100
AcDbEntity
  8
0
100
AcDbBlockBegin
  2
*MODEL_SPACE
 70
     0
 10
0.0
 20
0.0
 30
0.0
  3
*MODEL_SPACE
  1

  0
ENDBLK
  5
1B
330
19
100
AcDbEntity
  8
0
100
AcDbBlockEnd
  0
BLOCK
  5
17
330
16
100
AcDbEntity
 67
     1
  8
0
100
AcDbBlockBegin
  2
*PAPER_SPACE
 70
     0
 10
0.0
 20
0.0
 30
0.0
  3
*PAPER_SPACE
  1

  0
ENDBLK
  5
18
330
16
100
AcDbEntity
 67
     1
  8
0
100
AcDbBlockEnd
  0
BLOCK
  5
7A00
330
79FC
100
AcDbEntity
  8
0
100
AcDbBlockBegin
  2
_OPEN
 70
     0
 10
0.0
 20
0.0
 30
0.0
  3
_OPEN
  1

  0
LINE
  5
79FD
330
79FC
100
AcDbEntity
  8
0
  6
ByBlock
 62
     0
100
AcDbLine
 10
-1.0
 20
0.1666666666666666
 30
0.0
 11
0.0
 21
0.0
 31
0.0
  0
LINE
  5
79FE
330
79FC
100
AcDbEntity
  8
0
  6
ByBlock
 62
     0
100
AcDbLine
 10
0.0
 20
0.0
 30
0.0
 11
-1.0
 21
-0.1666666666666666
 31
0.0
  0
LINE
  5
79FF
330
79FC
100
AcDbEntity
  8
0
  6
ByBlock
 62
     0
100
AcDbLine
 10
0.0
 20
0.0
 30
0.0
 11
-1.0
 21
0.0
 31
0.0
  0
ENDBLK
  5
7A01
330
79FC
100
AcDbEntity
  8
0
100
AcDbBlockEnd
  0
BLOCK
  5
7C75
330
7C74
100
AcDbEntity
  8
0
100
AcDbBlockBegin
  2
*D1
 70
     1
 10
0.0
 20
0.0
 30
0.0
  3
*D1
  1

  0
LINE
  5
7F59
330
7C74
100
AcDbEntity
  8
3
 62
     0
100
AcDbLine
 10
845.160685861445
 20
1493.599298936079
 30
0.0
 11
845.160685861445
 21
1326.648523111493
 31
0.0
  0
LINE
  5
7F5A
330
7C74
100
AcDbEntity
  8
3
 62
     0
100
AcDbLine
 10
1155.160685861447
 20
1451.793437407712
 30
0.0
 11
1155.160685861447
 21
1326.648523111493
 31
0.0
  0
LINE
  5
7F5B
330
7C74
100
AcDbEntity
  8
3
 62
     0
100
AcDbLine
 10
885.160685861445
 20
1346.648523111493
 30
0.0
 11
1115.160685861447
 21
1346.648523111493
 31
0.0
  0
INSERT
  5
7F5C
330
7C74
100
AcDbEntity
  8
3
 62
     0
100
AcDbBlockReference
  2
_OPEN
 10
845.160685861445
 20
1346.648523111493
 30
0.0
 41
40.0
 42
40.0
 43
40.0
 50
180.0
  0
INSERT
  5
7F5D
330
7C74
100
AcDbEntity
  8
3
 62
     0
100
AcDbBlockReference
  2
_OPEN
 10
1155.160685861447
 20
1346.648523111493
 30
0.0
 41
40.0
 42
40.0
 43
40.0
  0
MTEXT
  5
7F5E
330
7C74
100
AcDbEntity
  8
3
 62
     0
100
AcDbMText
 10
1023.732114432875
 20
1396.648523111493
 30
0.0
 40
60.0
 41
0.0
 71
     5
 72
     5
  1
\A1;310
 73
     1
 44
1.0
1001
ACAD
1000
MTEXTBEGIN
1070
    73
1070
     1
1070
    44
1040
1.0
1070
    74
1070
     0
1000
MTEXTEND
  0
POINT
  5
7F5F
330
7C74
100
AcDbEntity
  8
DEFPOINTS
 62
     0
100
AcDbPoint
 10
845.160685861445
 20
1503.599298936079
 30
0.0
  0
POINT
  5
7F60
330
7C74
100
AcDbEntity
  8
DEFPOINTS
 62
     0
100
AcDbPoint
 10
1155.160685861447
 20
1461.793437407712
 30
0.0
  0
POINT
  5
7F61
330
7C74
100
AcDbEntity
  8
DEFPOINTS
 62
     0
100
AcDbPoint
 10
1155.160685861447
 20
1346.648523111493
 30
0.0
  0
ENDBLK
  5
7C7F
330
7C74
100
AcDbEntity
  8
0
100
AcDbBlockEnd
  0
BLOCK
  5
7C82
330
7C81
100
AcDbEntity
  8
0
100
AcDbBlockBegin
  2
*D2
 70
     1
 10
0.0
 20
0.0
 30
0.0
  3
*D2
  1

  0
LINE
  5
7F62
330
7C81
100
AcDbEntity
  8
3
 62
     0
100
AcDbLine
 10
1965.160685861445
 20
1493.599298936088
 30
0.0
 11
1965.160685861445
 21
1326.648523111493
 31
0.0
  0
LINE
  5
7F63
330
7C81
100
AcDbEntity
  8
3
 62
     0
100
AcDbLine
 10
1195.160685861447
 20
1346.648523111493
 30
0.0
 11
1925.160685861445
 21
1346.648523111493
 31
0.0
  0
INSERT
  5
7F64
330
7C81
100
AcDbEntity
  8
3
 62
     0
100
AcDbBlockReference
  2
_OPEN
 10
1155.160685861447
 20
1346.648523111493
 30
0.0
 41
40.0
 42
40.0
 43
40.0
 50
180.0
  0
INSERT
  5
7F65
330
7C81
100
AcDbEntity
  8
3
 62
     0
100
AcDbBlockReference
  2
_OPEN
 10
1965.160685861445
 20
1346.648523111493
 30
0.0
 41
40.0
 42
40.0
 43
40.0
  0
MTEXT
  5
7F66
330
7C81
100
AcDbEntity
  8
3
 62
     0
100
AcDbMText
 10
1560.160685861446
 20
1396.648523111493
 30
0.0
 40
60.0
 41
0.0
 71
     5
 72
     5
  1
\A1;810
 73
     1
 44
1.0
1001
ACAD
1000
MTEXTBEGIN
1070
    73
1070
     1
1070
    44
1040
1.0
1070
    74
1070
     0
1000
MTEXTEND
  0
POINT
  5
7F67
330
7C81
100
AcDbEntity
  8
DEFPOINTS
 62
     0
100
AcDbPoint
 10
1155.160685861447
 20
1461.793437407712
 30
0.0
  0
POINT
  5
7F68
330
7C81
100
AcDbEntity
  8
DEFPOINTS
 62
     0
100
AcDbPoint
 10
1965.160685861445
 20
1503.599298936088
 30
0.0
  0
POINT
  5
7F69
330
7C81
100
AcDbEntity
  8
DEFPOINTS
 62
     0
100
AcDbPoint
 10
1965.160685861445
 20
1346.648523111493
 30
0.0
  0
ENDBLK
  5
7C8B
330
7C81
100
AcDbEntity
  8
0
100
AcDbBlockEnd
  0
BLOCK
  5
7C8E
330
7C8D
100
AcDbEntity
  8
0
100
AcDbBlockBegin
  2
*D3
 70
     1
 10
0.0
 20
0.0
 30
0.0
  3
*D3
  1

  0
LINE
  5
7F6A
330
7C8D
100
AcDbEntity
  8
3
 62
     0
100
AcDbLine
 10
2756.830537805765
 20
1483.599298936091
 30
0.0
 11
2756.830537805765
 21
1321.062355076014
 31
0.0
  0
LINE
  5
7F6B
330
7C8D
100
AcDbEntity
  8
3
 62
     0
100
AcDbLine
 10
3151.830537805764
 20
1459.386506158963
 30
0.0
 11
3151.830537805764
 21
1321.062355076014
 31
0.0
  0
LINE
  5
7F6C
330
7C8D
100
AcDbEntity
  8
3
 62
     0
100
AcDbLine
 10
2796.830537805765
 20
1341.062355076014
 30
0.0
 11
3111.830537805764
 21
1341.062355076014
 31
0.0
  0
INSERT
  5
7F6D
330
7C8D
100
AcDbEntity
  8
3
 62
     0
100
AcDbBlockReference
  2
_OPEN
 10
2756.830537805765
 20
1341.062355076014
 30
0.0
 41
40.0
 42
40.0
 43
40.0
 50
180.0
  0
INSERT
  5
7F6E
330
7C8D
100
AcDbEntity
  8
3
 62
     0
100
AcDbBlockReference
  2
_OPEN
 10
3151.830537805764
 20
1341.062355076014
 30
0.0
 41
40.0
 42
40.0
 43
40.0
  0
MTEXT
  5
7F6F
330
7C8D
100
AcDbEntity
  8
3
 62
     0
100
AcDbMText
 10
2973.548299360646
 20
1391.062355076013
 30
0.0
 40
60.0
 41
0.0
 71
     5
 72
     5
  1
\A1;395
 73
     1
 44
1.0
1001
ACAD
1000
MTEXTBEGIN
1070
    73
1070
     1
1070
    44
1040
1.0
1070
    74
1070
     0
1000
MTEXTEND
  0
POINT
  5
7F70
330
7C8D
100
AcDbEntity
  8
DEFPOINTS
 62
     0
100
AcDbPoint
 10
2756.830537805765
 20
1493.599298936091
 30
0.0
  0
POINT
  5
7F71
330
7C8D
100
AcDbEntity
  8
DEFPOINTS
 62
     0
100
AcDbPoint
 10
3151.830537805764
 20
1469.386506158963
 30
0.0
  0
POINT
  5
7F72
330
7C8D
100
AcDbEntity
  8
DEFPOINTS
 62
     0
100
AcDbPoint
 10
3151.830537805764
 20
1341.062355076014
 30
0.0
  0
ENDBLK
  5
7C98
330
7C8D
100
AcDbEntity
  8
0
100
AcDbBlockEnd
  0
BLOCK
  5
7CB2
330
7C9A
100
AcDbEntity
  8
0
100
AcDbBlockBegin
  2
*D4
 70
     1
 10
0.0
 20
0.0
 30
0.0
  3
*D4
  1

  0
LINE
  5
7CB3
330
7C9A
100
AcDbEntity
  8
0
  6
ByBlock
 62
     0
100
AcDbLine
 10
3381.830537805766
 20
1556.599298936091
 30
0.0
 11
3381.830537805766
 21
1394.062355076014
 31
0.0
  0
LINE
  5
7CB4
330
7C9A
100
AcDbEntity
  8
0
  6
ByBlock
 62
     0
100
AcDbLine
 10
3191.830537805764
 20
1414.062355076014
 30
0.0
 11
3341.830537805766
 21
1414.062355076014
 31
0.0
  0
MTEXT
  5
7CB5
330
7C9A
100
AcDbEntity
  8
0
  6
ByBlock
 62
     0
100
AcDbMText
 10
3266.830537805765
 20
1469.923994219783
 30
0.0
 40
60.0
 41
0.0
 71
     5
 72
     5
  1
\A1;230
 73
     1
 44
1.0
1001
ACAD
1000
MTEXTBEGIN
1070
    73
1070
     1
1070
    44
1040
1.0
1070
    74
1070
     0
1000
MTEXTEND
  0
INSERT
  5
7CB6
330
7C9A
100
AcDbEntity
  8
0
  6
ByBlock
 62
     0
100
AcDbBlockReference
  2
_OPEN
 10
3151.830537805764
 20
1414.062355076014
 30
0.0
 41
40.0
 42
40.0
 43
40.0
 50
180.0
  0
INSERT
  5
7CB7
330
7C9A
100
AcDbEntity
  8
0
  6
ByBlock
 62
     0
100
AcDbBlockReference
  2
_OPEN
 10
3381.830537805766
 20
1414.062355076014
 30
0.0
 41
40.0
 42
40.0
 43
40.0
  0
POINT
  5
7CB8
330
7C9A
100
AcDbEntity
  8
DEFPOINTS
  6
ByBlock
 62
     0
100
AcDbPoint
 10
3151.830537805764
 20
1542.386506158963
 30
0.0
  0
POINT
  5
7CB9
330
7C9A
100
AcDbEntity
  8
DEFPOINTS
  6
ByBlock
 62
     0
100
AcDbPoint
 10
3381.830537805766
 20
1566.599298936091
 30
0.0
  0
POINT
  5
7CBA
330
7C9A
100
AcDbEntity
  8
DEFPOINTS
  6
ByBlock
 62
     0
100
AcDbPoint
 10
3381.830537805766
 20
1414.062355076014
 30
0.0
  0
ENDBLK
  5
7CBB
330
7C9A
100
AcDbEntity
  8
0
100
AcDbBlockEnd
  0
BLOCK
  5
7E38
330
7CBC
100
AcDbEntity
  8
0
100
AcDbBlockBegin
  2
*D5
 70
     1
 10
0.0
 20
0.0
 30
0.0
  3
*D5
  1

  0
LINE
  5
7F73
330
7CBC
100
AcDbEntity
  8
3
 62
     0
100
AcDbLine
 10
1693.160685861438
 20
2553.599298936085
 30
0.0
 11
1693.160685861438
 21
2741.164317456654
 31
0.0
  0
LINE
  5
7F74
330
7CBC
100
AcDbEntity
  8
3
 62
     0
100
AcDbLine
 10
1155.160685861438
 20
2610.91349883602
 30
0.0
 11
1155.160685861438
 21
2741.164317456654
 31
0.0
  0
LINE
  5
7F75
330
7CBC
100
AcDbEntity
  8
3
 62
     0
100
AcDbLine
 10
1653.160685861439
 20
2721.164317456654
 30
0.0
 11
1195.160685861438
 21
2721.164317456654
 31
0.0
  0
INSERT
  5
7F76
330
7CBC
100
AcDbEntity
  8
3
 62
     0
100
AcDbBlockReference
  2
_OPEN
 10
1693.160685861438
 20
2721.164317456654
 30
0.0
 41
40.0
 42
40.0
 43
40.0
  0
INSERT
  5
7F77
330
7CBC
100
AcDbEntity
  8
3
 62
     0
100
AcDbBlockReference
  2
_OPEN
 10
1155.160685861438
 20
2721.164317456654
 30
0.0
 41
40.0
 42
40.0
 43
40.0
 50
180.0
  0
MTEXT
  5
7F78
330
7CBC
100
AcDbEntity
  8
3
 62
     0
100
AcDbMText
 10
1407.891888065759
 20
2771.164317456654
 30
0.0
 40
60.0
 41
0.0
 71
     5
 72
     5
  1
\A1;538
 73
     1
 44
1.0
1001
ACAD
1000
MTEXTBEGIN
1070
    73
1070
     1
1070
    44
1040
1.0
1070
    74
1070
     0
1000
MTEXTEND
  0
POINT
  5
7F79
330
7CBC
100
AcDbEntity
  8
DEFPOINTS
 62
     0
100
AcDbPoint
 10
1693.160685861438
 20
2543.599298936085
 30
0.0
  0
POINT
  5
7F7A
330
7CBC
100
AcDbEntity
  8
DEFPOINTS
 62
     0
100
AcDbPoint
 10
1155.160685861438
 20
2600.913498836019
 30
0.0
  0
POINT
  5
7F7B
330
7CBC
100
AcDbEntity
  8
DEFPOINTS
 62
     0
100
AcDbPoint
 10
1155.160685861438
 20
2721.164317456654
 30
0.0
  0
ENDBLK
  5
7E42
330
7CBC
100
AcDbEntity
  8
0
100
AcDbBlockEnd
  0
BLOCK
  5
7E2D
330
7CC9
100
AcDbEntity
  8
0
100
AcDbBlockBegin
  2
*D6
 70
     1
 10
0.0
 20
0.0
 30
0.0
  3
*D6
  1

  0
LINE
  5
7F7C
330
7CC9
100
AcDbEntity
  8
3
 62
     0
100
AcDbLine
 10
1693.160685861438
 20
2553.599298936085
 30
0.0
 11
1693.160685861438
 21
2622.797735104884
 31
0.0
  0
LINE
  5
7F7D
330
7CC9
100
AcDbEntity
  8
3
 62
     0
100
AcDbLine
 10
1181.160685861438
 20
2553.599298936081
 30
0.0
 11
1181.160685861438
 21
2622.797735104884
 31
0.0
  0
LINE
  5
7F7E
330
7CC9
100
AcDbEntity
  8
3
 62
     0
100
AcDbLine
 10
1653.160685861439
 20
2602.797735104884
 30
0.0
 11
1221.160685861438
 21
2602.797735104884
 31
0.0
  0
INSERT
  5
7F7F
330
7CC9
100
AcDbEntity
  8
3
 62
     0
100
AcDbBlockReference
  2
_OPEN
 10
1693.160685861438
 20
2602.797735104884
 30
0.0
 41
40.0
 42
40.0
 43
40.0
  0
INSERT
  5
7F80
330
7CC9
100
AcDbEntity
  8
3
 62
     0
100
AcDbBlockReference
  2
_OPEN
 10
1181.160685861438
 20
2602.797735104884
 30
0.0
 41
40.0
 42
40.0
 43
40.0
 50
180.0
  0
MTEXT
  5
7F81
330
7CC9
100
AcDbEntity
  8
3
 62
     0
100
AcDbMText
 10
1433.546492282475
 20
2652.797735104884
 30
0.0
 40
60.0
 41
0.0
 71
     5
 72
     5
  1
\A1;512
 73
     1
 44
1.0
1001
ACAD
1000
MTEXTBEGIN
1070
    73
1070
     1
1070
    44
1040
1.0
1070
    74
1070
     0
1000
MTEXTEND
  0
POINT
  5
7F82
330
7CC9
100
AcDbEntity
  8
DEFPOINTS
 62
     0
100
AcDbPoint
 10
1693.160685861438
 20
2543.599298936085
 30
0.0
  0
POINT
  5
7F83
330
7CC9
100
AcDbEntity
  8
DEFPOINTS
 62
     0
100
AcDbPoint
 10
1181.160685861438
 20
2543.599298936082
 30
0.0
  0
POINT
  5
7F84
330
7CC9
100
AcDbEntity
  8
DEFPOINTS
 62
     0
100
AcDbPoint
 10
1181.160685861438
 20
2602.797735104884
 30
0.0
  0
ENDBLK
  5
7E37
330
7CC9
100
AcDbEntity
  8
0
100
AcDbBlockEnd
  0
BLOCK
  5
7E58
330
7CE1
100
AcDbEntity
  8
0
100
AcDbBlockBegin
  2
*D7
 70
     1
 10
0.0
 20
0.0
 30
0.0
  3
*D7
  1

  0
LINE
  5
7F85
330
7CE1
100
AcDbEntity
  8
3
 62
     0
100
AcDbLine
 10
727.8464859615032
 20
2183.599298936078
 30
0.0
 11
597.5956673408692
 21
2183.599298936078
 31
0.0
  0
LINE
  5
7F86
330
7CE1
100
AcDbEntity
  8
3
 62
     0
100
AcDbLine
 10
835.1606858614442
 20
1663.599298936079
 30
0.0
 11
597.5956673408691
 21
1663.599298936079
 31
0.0
  0
LINE
  5
7F87
330
7CE1
100
AcDbEntity
  8
3
 62
     0
100
AcDbLine
 10
617.5956673408692
 20
2143.599298936078
 30
0.0
 11
617.5956673408691
 21
1703.599298936079
 31
0.0
  0
INSERT
  5
7F88
330
7CE1
100
AcDbEntity
  8
3
 62
     0
100
AcDbBlockReference
  2
_OPEN
 10
617.5956673408692
 20
2183.599298936078
 30
0.0
 41
40.0
 42
40.0
 43
40.0
 50
90.0
  0
INSERT
  5
7F89
330
7CE1
100
AcDbEntity
  8
3
 62
     0
100
AcDbBlockReference
  2
_OPEN
 10
617.5956673408691
 20
1663.599298936079
 30
0.0
 41
40.0
 42
40.0
 43
40.0
 50
270.0
  0
MTEXT
  5
7F8A
330
7CE1
100
AcDbEntity
  8
3
 62
     0
100
AcDbMText
 10
567.5956673408689
 20
1923.599298936078
 30
0.0
 40
60.0
 41
0.0
 71
     5
 72
     5
  1
\A1;520
 11
0.0000000000000001
 21
1.0
 31
0.0
 73
     1
 44
1.0
1001
ACAD
1000
MTEXTBEGIN
1070
    73
1070
     1
1070
    44
1040
1.0
1070
    74
1070
     0
1000
MTEXTEND
  0
POINT
  5
7F8B
330
7CE1
100
AcDbEntity
  8
DEFPOINTS
 62
     0
100
AcDbPoint
 10
737.8464859615032
 20
2183.599298936078
 30
0.0
  0
POINT
  5
7F8C
330
7CE1
100
AcDbEntity
  8
DEFPOINTS
 62
     0
100
AcDbPoint
 10
845.1606858614441
 20
1663.599298936079
 30
0.0
  0
POINT
  5
7F8D
330
7CE1
100
AcDbEntity
  8
DEFPOINTS
 62
     0
100
AcDbPoint
 10
617.5956673408691
 20
1663.599298936079
 30
0.0
  0
ENDBLK
  5
7E62
330
7CE1
100
AcDbEntity
  8
0
100
AcDbBlockEnd
  0
BLOCK
  5
7D5A
330
7CFD
100
AcDbEntity
  8
0
100
AcDbBlockBegin
  2
*D8
 70
     1
 10
0.0
 20
0.0
 30
0.0
  3
*D8
  1

  0
LINE
  5
7F8E
330
7CFD
100
AcDbEntity
  8
3
 62
     0
100
AcDbLine
 10
835.1606858614442
 20
1568.599298936079
 30
0.0
 11
597.5956673408691
 21
1568.599298936079
 31
0.0
  0
LINE
  5
7F8F
330
7CFD
100
AcDbEntity
  8
3
 62
     0
100
AcDbLine
 10
835.160685861445
 20
1503.599298936079
 30
0.0
 11
597.5956673408691
 21
1503.599298936079
 31
0.0
  0
LINE
  5
7F90
330
7CFD
100
AcDbEntity
  8
3
 62
     0
100
AcDbLine
 10
617.5956673408691
 20
1608.599298936079
 30
0.0
 11
617.5956673408691
 21
1648.599298936079
 31
0.0
  0
LINE
  5
7F91
330
7CFD
100
AcDbEntity
  8
3
 62
     0
100
AcDbLine
 10
617.5956673408691
 20
1463.599298936079
 30
0.0
 11
617.5956673408691
 21
1286.456441793221
 31
0.0
  0
LINE
  5
7F92
330
7CFD
100
AcDbEntity
  8
3
 62
     0
100
AcDbLine
 10
617.5956673408691
 20
1568.599298936079
 30
0.0
 11
617.5956673408691
 21
1503.599298936079
 31
0.0
  0
INSERT
  5
7F93
330
7CFD
100
AcDbEntity
  8
3
 62
     0
100
AcDbBlockReference
  2
_DOT
 10
617.5956673408691
 20
1568.599298936079
 30
0.0
 41
40.0
 42
40.0
 43
40.0
 50
270.0
  0
INSERT
  5
7F94
330
7CFD
100
AcDbEntity
  8
3
 62
     0
100
AcDbBlockReference
  2
_OPEN
 10
617.5956673408691
 20
1503.599298936079
 30
0.0
 41
40.0
 42
40.0
 43
40.0
 50
90.0
  0
MTEXT
  5
7F95
330
7CFD
100
AcDbEntity
  8
3
 62
     0
100
AcDbMText
 10
567.5956673408689
 20
1355.02787036465
 30
0.0
 40
60.0
 41
0.0
 71
     5
 72
     5
  1
\A1;65
 11
0.0000000000000001
 21
1.0
 31
0.0
 73
     1
 44
1.0
1001
ACAD
1000
MTEXTBEGIN
1070
    73
1070
     1
1070
    44
1040
1.0
1070
    74
1070
     0
1000
MTEXTEND
  0
POINT
  5
7F96
330
7CFD
100
AcDbEntity
  8
DEFPOINTS
 62
     0
100
AcDbPoint
 10
845.1606858614441
 20
1568.599298936079
 30
0.0
  0
POINT
  5
7F97
330
7CFD
100
AcDbEntity
  8
DEFPOINTS
 62
     0
100
AcDbPoint
 10
845.160685861445
 20
1503.599298936079
 30
0.0
  0
POINT
  5
7F98
330
7CFD
100
AcDbEntity
  8
DEFPOINTS
 62
     0
100
AcDbPoint
 10
617.5956673408691
 20
1503.599298936079
 30
0.0
  0
ENDBLK
  5
7D66
330
7CFD
100
AcDbEntity
  8
0
100
AcDbBlockEnd
  0
BLOCK
  5
7D47
330
7D46
100
AcDbEntity
  8
0
100
AcDbBlockBegin
  2
_DOT
 70
     0
 10
0.0
 20
0.0
 30
0.0
  3
_DOT
  1

  0
LINE
  5
7EC4
330
7D46
100
AcDbEntity
  8
0
  6
ByBlock
 62
     0
100
AcDbLine
 10
0.0
 20
0.0
 30
0.0
 11
-1.0
 21
-0.0000000000000284
 31
0.0
  0
LWPOLYLINE
  5
7EC5
330
7D46
100
AcDbEntity
  8
0
  6
ByBlock
 62
     0
100
AcDbPolyline
 90
        2
 70
     1
 43
0.1666666666666666
 10
-0.0833333333333286
 20
-0.0000000000000284
 42
1.0
 10
0.0833333333333286
 20
-0.0000000000000284
 42
1.0
  0
ENDBLK
  5
7D4D
330
7D46
100
AcDbEntity
  8
0
100
AcDbBlockEnd
  0
BLOCK
  5
7D99
330
7D98
100
AcDbEntity
  8
0
100
AcDbBlockBegin
  2
*D10
 70
     1
 10
0.0
 20
0.0
 30
0.0
  3
*D10
  1

  0
LINE
  5
7F99
330
7D98
100
AcDbEntity
  8
3
 62
     0
100
AcDbLine
 10
2964.330537805764
 20
2520.845516482221
 30
0.0
 11
2964.330537805764
 21
2664.53908781836
 31
0.0
  0
LINE
  5
7F9A
330
7D98
100
AcDbEntity
  8
3
 62
     0
100
AcDbLine
 10
3339.330537805765
 20
2520.845516482221
 30
0.0
 11
3339.330537805765
 21
2664.53908781836
 31
0.0
  0
LINE
  5
7F9B
330
7D98
100
AcDbEntity
  8
3
 62
     0
100
AcDbLine
 10
3004.330537805764
 20
2644.53908781836
 30
0.0
 11
3299.330537805765
 21
2644.53908781836
 31
0.0
  0
INSERT
  5
7F9C
330
7D98
100
AcDbEntity
  8
3
 62
     0
100
AcDbBlockReference
  2
_OPEN
 10
2964.330537805764
 20
2644.53908781836
 30
0.0
 41
40.0
 42
40.0
 43
40.0
 50
180.0
  0
INSERT
  5
7F9D
330
7D98
100
AcDbEntity
  8
3
 62
     0
100
AcDbBlockReference
  2
_OPEN
 10
3339.330537805765
 20
2644.53908781836
 30
0.0
 41
40.0
 42
40.0
 43
40.0
  0
MTEXT
  5
7F9E
330
7D98
100
AcDbEntity
  8
3
 62
     0
100
AcDbMText
 10
3152.435655190933
 20
2694.539087818359
 30
0.0
 40
60.0
 41
0.0
 71
     5
 72
     5
  1
\A1;375
 73
     1
 44
1.0
1001
ACAD
1000
MTEXTBEGIN
1070
    73
1070
     1
1070
    44
1040
1.0
1070
    74
1070
     0
1000
MTEXTEND
  0
POINT
  5
7F9F
330
7D98
100
AcDbEntity
  8
DEFPOINTS
 62
     0
100
AcDbPoint
 10
2964.330537805764
 20
2510.845516482221
 30
0.0
  0
POINT
  5
7FA0
330
7D98
100
AcDbEntity
  8
DEFPOINTS
 62
     0
100
AcDbPoint
 10
3339.330537805765
 20
2510.845516482221
 30
0.0
  0
POINT
  5
7FA1
330
7D98
100
AcDbEntity
  8
DEFPOINTS
 62
     0
100
AcDbPoint
 10
3339.330537805765
 20
2644.53908781836
 30
0.0
  0
ENDBLK
  5
7DA3
330
7D98
100
AcDbEntity
  8
0
100
AcDbBlockEnd
  0
BLOCK
  5
7EAF
330
7DA5
100
AcDbEntity
  8
0
100
AcDbBlockBegin
  2
*D11
 70
     1
 10
0.0
 20
0.0
 30
0.0
  3
*D11
  1

  0
LINE
  5
7FA2
330
7DA5
100
AcDbEntity
  8
3
 62
     0
100
AcDbLine
 10
3151.830537805766
 20
2723.745452400541
 30
0.0
 11
3151.830537805766
 21
2782.114798567218
 31
0.0
  0
LINE
  5
7FA3
330
7DA5
100
AcDbEntity
  8
3
 62
     0
100
AcDbLine
 10
3343.630537805765
 20
2473.599298936083
 30
0.0
 11
3343.630537805765
 21
2782.114798567218
 31
0.0
  0
LINE
  5
7FA4
330
7DA5
100
AcDbEntity
  8
3
 62
     0
100
AcDbLine
 10
3191.830537805766
 20
2762.114798567218
 30
0.0
 11
3303.630537805766
 21
2762.114798567218
 31
0.0
  0
INSERT
  5
7FA5
330
7DA5
100
AcDbEntity
  8
3
 62
     0
100
AcDbBlockReference
  2
_OPEN
 10
3151.830537805766
 20
2762.114798567218
 30
0.0
 41
40.0
 42
40.0
 43
40.0
 50
180.0
  0
INSERT
  5
7FA6
330
7DA5
100
AcDbEntity
  8
3
 62
     0
100
AcDbBlockReference
  2
_OPEN
 10
3343.630537805765
 20
2762.114798567218
 30
0.0
 41
40.0
 42
40.0
 43
40.0
  0
MTEXT
  5
7FA7
330
7DA5
100
AcDbEntity
  8
3
 62
     0
100
AcDbMText
 10
3247.730537805766
 20
2812.114798567219
 30
0.0
 40
60.0
 41
0.0
 71
     5
 72
     5
  1
\A1;192
 73
     1
 44
1.0
1001
ACAD
1000
MTEXTBEGIN
1070
    73
1070
     1
1070
    44
1040
1.0
1070
    74
1070
     0
1000
MTEXTEND
  0
POINT
  5
7FA8
330
7DA5
100
AcDbEntity
  8
DEFPOINTS
 62
     0
100
AcDbPoint
 10
3151.830537805766
 20
2713.74545240054
 30
0.0
  0
POINT
  5
7FA9
330
7DA5
100
AcDbEntity
  8
DEFPOINTS
 62
     0
100
AcDbPoint
 10
3343.630537805765
 20
2463.599298936083
 30
0.0
  0
POINT
  5
7FAA
330
7DA5
100
AcDbEntity
  8
DEFPOINTS
 62
     0
100
AcDbPoint
 10
3343.630537805765
 20
2762.114798567218
 30
0.0
  0
ENDBLK
  5
7EBB
330
7DA5
100
AcDbEntity
  8
0
100
AcDbBlockEnd
  0
BLOCK
  5
7EA5
330
7DC1
100
AcDbEntity
  8
0
100
AcDbBlockBegin
  2
*D12
 70
     1
 10
0.0
 20
0.0
 30
0.0
  3
*D12
  1

  0
LINE
  5
84FE
330
7DC1
100
AcDbEntity
  8
3
 62
     0
370
    -2
100
AcDbLine
 10
2618.590299456254
 20
2413.599298936083
 30
0.0
 11
2618.590299456254
 21
2782.114798567218
 31
0.0
  0
LINE
  5
84FF
330
7DC1
100
AcDbEntity
  8
3
 62
     0
370
    -2
100
AcDbLine
 10
3111.830537805766
 20
2762.114798567218
 30
0.0
 11
2658.590299456254
 21
2762.114798567218
 31
0.0
  0
INSERT
  5
8500
330
7DC1
100
AcDbEntity
  8
3
 62
     0
370
    -2
100
AcDbBlockReference
  2
_OPEN
 10
3151.830537805766
 20
2762.114798567218
 30
0.0
 41
40.0
 42
40.0
 43
40.0
  0
INSERT
  5
8501
330
7DC1
100
AcDbEntity
  8
3
 62
     0
370
    -2
100
AcDbBlockReference
  2
_OPEN
 10
2618.590299456254
 20
2762.114798567218
 30
0.0
 41
40.0
 42
40.0
 43
40.0
 50
180.0
  0
MTEXT
  5
8502
330
7DC1
100
AcDbEntity
  8
3
 62
     0
100
AcDbMText
 10
2885.21041863101
 20
2827.829084281504
 30
0.0
 40
60.0
 41
0.0
 71
     5
 72
     1
  1
\A1;(560)
 73
     1
 44
1.0
1001
ACAD
1000
MTEXTBEGIN
1070
    73
1070
     1
1070
    44
1040
1.0
1070
    74
1070
     0
1000
MTEXTEND
  0
POINT
  5
8503
330
7DC1
100
AcDbEntity
  8
DEFPOINTS
 62
     0
100
AcDbPoint
 10
3151.830537805766
 20
2713.74545240054
 30
0.0
  0
POINT
  5
8504
330
7DC1
100
AcDbEntity
  8
DEFPOINTS
 62
     0
100
AcDbPoint
 10
2618.590299456254
 20
2403.599298936082
 30
0.0
  0
POINT
  5
8505
330
7DC1
100
AcDbEntity
  8
DEFPOINTS
 62
     0
100
AcDbPoint
 10
2618.590299456254
 20
2762.114798567218
 30
0.0
  0
ENDBLK
  5
7EAE
330
7DC1
100
AcDbEntity
  8
0
100
AcDbBlockEnd
  0
BLOCK
  5
7DE5
330
7DD8
100
AcDbEntity
  8
0
100
AcDbBlockBegin
  2
*D13
 70
     1
 10
0.0
 20
0.0
 30
0.0
  3
*D13
  1

  0
LINE
  5
7FB3
330
7DD8
100
AcDbEntity
  8
3
 62
     0
100
AcDbLine
 10
3381.830537805765
 20
2433.599298936083
 30
0.0
 11
3563.286756674447
 21
2433.599298936083
 31
0.0
  0
LINE
  5
7FB4
330
7DD8
100
AcDbEntity
  8
3
 62
     0
100
AcDbLine
 10
3381.830537805765
 20
1933.599298936083
 30
0.0
 11
3563.286756674447
 21
1933.599298936083
 31
0.0
  0
LINE
  5
7FB5
330
7DD8
100
AcDbEntity
  8
3
 62
     0
100
AcDbLine
 10
3543.286756674447
 20
2393.599298936083
 30
0.0
 11
3543.286756674447
 21
1973.599298936083
 31
0.0
  0
INSERT
  5
7FB6
330
7DD8
100
AcDbEntity
  8
3
 62
     0
100
AcDbBlockReference
  2
_OPEN
 10
3543.286756674447
 20
2433.599298936083
 30
0.0
 41
40.0
 42
40.0
 43
40.0
 50
90.0
  0
INSERT
  5
7FB7
330
7DD8
100
AcDbEntity
  8
3
 62
     0
100
AcDbBlockReference
  2
_OPEN
 10
3543.286756674447
 20
1933.599298936083
 30
0.0
 41
40.0
 42
40.0
 43
40.0
 50
270.0
  0
MTEXT
  5
7FB8
330
7DD8
100
AcDbEntity
  8
3
 62
     0
100
AcDbMText
 10
3493.286756674446
 20
2183.339885117799
 30
0.0
 40
60.0
 41
0.0
 71
     5
 72
     5
  1
\A1;\U+03C6500
 11
0.0000000000000001
 21
1.0
 31
0.0
 73
     1
 44
1.0
1001
ACAD
1000
MTEXTBEGIN
1070
    73
1070
     1
1070
    44
1040
1.0
1070
    74
1070
     0
1000
MTEXTEND
  0
POINT
  5
7FB9
330
7DD8
100
AcDbEntity
  8
DEFPOINTS
 62
     0
100
AcDbPoint
 10
3371.830537805765
 20
2433.599298936083
 30
0.0
  0
POINT
  5
7FBA
330
7DD8
100
AcDbEntity
  8
DEFPOINTS
 62
     0
100
AcDbPoint
 10
3371.830537805765
 20
1933.599298936083
 30
0.0
  0
POINT
  5
7FBB
330
7DD8
100
AcDbEntity
  8
DEFPOINTS
 62
     0
100
AcDbPoint
 10
3543.286756674447
 20
1933.599298936083
 30
0.0
  0
ENDBLK
  5
7DEF
330
7DD8
100
AcDbEntity
  8
0
100
AcDbBlockEnd
  0
BLOCK
  5
7ED9
330
7DF0
100
AcDbEntity
  8
0
100
AcDbBlockBegin
  2
*D14
 70
     1
 10
0.0
 20
0.0
 30
0.0
  3
*D14
  1

  0
LINE
  5
7FBC
330
7DF0
100
AcDbEntity
  8
3
 62
     0
100
AcDbLine
 10
845.1606858614322
 20
4003.713410176738
 30
0.0
 11
845.1606858614322
 21
4217.081280799661
 31
0.0
  0
LINE
  5
7FBD
330
7DF0
100
AcDbEntity
  8
3
 62
     0
100
AcDbLine
 10
1965.160685861432
 20
4003.713410176748
 30
0.0
 11
1965.160685861432
 21
4217.081280799661
 31
0.0
  0
LINE
  5
7FBE
330
7DF0
100
AcDbEntity
  8
3
 62
     0
100
AcDbLine
 10
885.1606858614323
 20
4197.08128079966
 30
0.0
 11
1925.160685861432
 21
4197.08128079966
 31
0.0
  0
INSERT
  5
7FBF
330
7DF0
100
AcDbEntity
  8
3
 62
     0
100
AcDbBlockReference
  2
_OPEN
 10
845.1606858614322
 20
4197.08128079966
 30
0.0
 41
40.0
 42
40.0
 43
40.0
 50
180.0
  0
INSERT
  5
7FC0
330
7DF0
100
AcDbEntity
  8
3
 62
     0
100
AcDbBlockReference
  2
_OPEN
 10
1965.160685861432
 20
4197.08128079966
 30
0.0
 41
40.0
 42
40.0
 43
40.0
  0
MTEXT
  5
7FC1
330
7DF0
100
AcDbEntity
  8
3
 62
     0
100
AcDbMText
 10
1352.381722866699
 20
4247.081280799661
 30
0.0
 40
60.0
 41
0.0
 71
     5
 72
     5
  1
\A1;1120
 73
     1
 44
1.0
1001
ACAD
1000
MTEXTBEGIN
1070
    73
1070
     1
1070
    44
1040
1.0
1070
    74
1070
     0
1000
MTEXTEND
  0
POINT
  5
7FC2
330
7DF0
100
AcDbEntity
  8
DEFPOINTS
 62
     0
100
AcDbPoint
 10
845.1606858614322
 20
3993.713410176738
 30
0.0
  0
POINT
  5
7FC3
330
7DF0
100
AcDbEntity
  8
DEFPOINTS
 62
     0
100
AcDbPoint
 10
1965.160685861432
 20
3993.713410176749
 30
0.0
  0
POINT
  5
7FC4
330
7DF0
100
AcDbEntity
  8
DEFPOINTS
 62
     0
100
AcDbPoint
 10
1965.160685861432
 20
4197.08128079966
 30
0.0
  0
ENDBLK
  5
7EE3
330
7DF0
100
AcDbEntity
  8
0
100
AcDbBlockEnd
  0
BLOCK
  5
7EEF
330
7DFD
100
AcDbEntity
  8
0
100
AcDbBlockBegin
  2
*D15
 70
     1
 10
0.0
 20
0.0
 30
0.0
  3
*D15
  1

  0
LINE
  5
7FC5
330
7DFD
100
AcDbEntity
  8
3
 62
     0
100
AcDbLine
 10
1975.160685861432
 20
3993.713410176749
 30
0.0
 11
2171.784558400349
 21
3993.713410176749
 31
0.0
  0
LINE
  5
7FC6
330
7DFD
100
AcDbEntity
  8
3
 62
     0
100
AcDbLine
 10
1975.160685861437
 20
3368.713410176748
 30
0.0
 11
2171.784558400349
 21
3368.713410176748
 31
0.0
  0
LINE
  5
7FC7
330
7DFD
100
AcDbEntity
  8
3
 62
     0
100
AcDbLine
 10
2151.784558400349
 20
3953.713410176749
 30
0.0
 11
2151.784558400349
 21
3408.713410176748
 31
0.0
  0
INSERT
  5
7FC8
330
7DFD
100
AcDbEntity
  8
3
 62
     0
100
AcDbBlockReference
  2
_OPEN
 10
2151.784558400349
 20
3993.713410176749
 30
0.0
 41
40.0
 42
40.0
 43
40.0
 50
90.0
  0
INSERT
  5
7FC9
330
7DFD
100
AcDbEntity
  8
3
 62
     0
100
AcDbBlockReference
  2
_OPEN
 10
2151.784558400349
 20
3368.713410176748
 30
0.0
 41
40.0
 42
40.0
 43
40.0
 50
270.0
  0
MTEXT
  5
7FCA
330
7DFD
100
AcDbEntity
  8
3
 62
     0
100
AcDbMText
 10
2101.784558400348
 20
3688.740278048199
 30
0.0
 40
60.0
 41
0.0
 71
     5
 72
     5
  1
\A1;625
 11
0.0000000000000001
 21
1.0
 31
0.0
 73
     1
 44
1.0
1001
ACAD
1000
MTEXTBEGIN
1070
    73
1070
     1
1070
    44
1040
1.0
1070
    74
1070
     0
1000
MTEXTEND
  0
POINT
  5
7FCB
330
7DFD
100
AcDbEntity
  8
DEFPOINTS
 62
     0
100
AcDbPoint
 10
1965.160685861432
 20
3993.713410176749
 30
0.0
  0
POINT
  5
7FCC
330
7DFD
100
AcDbEntity
  8
DEFPOINTS
 62
     0
100
AcDbPoint
 10
1965.160685861437
 20
3368.713410176748
 30
0.0
  0
POINT
  5
7FCD
330
7DFD
100
AcDbEntity
  8
DEFPOINTS
 62
     0
100
AcDbPoint
 10
2151.784558400349
 20
3368.713410176748
 30
0.0
  0
ENDBLK
  5
7EF9
330
7DFD
100
AcDbEntity
  8
0
100
AcDbBlockEnd
  0
BLOCK
  5
7E64
330
7E63
100
AcDbEntity
  8
0
100
AcDbBlockBegin
  2
*D16
 70
     1
 10
0.0
 20
0.0
 30
0.0
  3
*D16
  1

  0
LINE
  5
7FCE
330
7E63
100
AcDbEntity
  8
3
 62
     0
100
AcDbLine
 10
1139.560685861438
 20
2543.599298936082
 30
0.0
 11
597.5956673408691
 21
2543.599298936082
 31
0.0
  0
LINE
  5
7FCF
330
7E63
100
AcDbEntity
  8
3
 62
     0
100
AcDbLine
 10
617.5956673408689
 20
2223.599298936077
 30
0.0
 11
617.5956673408691
 21
2503.599298936082
 31
0.0
  0
INSERT
  5
7FD0
330
7E63
100
AcDbEntity
  8
3
 62
     0
100
AcDbBlockReference
  2
_OPEN
 10
617.5956673408689
 20
2183.599298936078
 30
0.0
 41
40.0
 42
40.0
 43
40.0
 50
270.0
  0
INSERT
  5
7FD1
330
7E63
100
AcDbEntity
  8
3
 62
     0
100
AcDbBlockReference
  2
_OPEN
 10
617.5956673408691
 20
2543.599298936082
 30
0.0
 41
40.0
 42
40.0
 43
40.0
 50
90.0
  0
MTEXT
  5
7FD2
330
7E63
100
AcDbEntity
  8
3
 62
     0
100
AcDbMText
 10
567.5956673408686
 20
2363.59929893608
 30
0.0
 40
60.0
 41
0.0
 71
     5
 72
     5
  1
\A1;360
 11
0.0000000000000001
 21
1.0
 31
0.0
 73
     1
 44
1.0
1001
ACAD
1000
MTEXTBEGIN
1070
    73
1070
     1
1070
    44
1040
1.0
1070
    74
1070
     0
1000
MTEXTEND
  0
POINT
  5
7FD3
330
7E63
100
AcDbEntity
  8
DEFPOINTS
 62
     0
100
AcDbPoint
 10
737.8464859615032
 20
2183.599298936078
 30
0.0
  0
POINT
  5
7FD4
330
7E63
100
AcDbEntity
  8
DEFPOINTS
 62
     0
100
AcDbPoint
 10
1149.560685861438
 20
2543.599298936082
 30
0.0
  0
POINT
  5
7FD5
330
7E63
100
AcDbEntity
  8
DEFPOINTS
 62
     0
100
AcDbPoint
 10
617.5956673408691
 20
2543.599298936082
 30
0.0
  0
ENDBLK
  5
7E6D
330
7E63
100
AcDbEntity
  8
0
100
AcDbBlockEnd
  0
BLOCK
  5
7E70
330
7E6F
100
AcDbEntity
  8
0
100
AcDbBlockBegin
  2
*D17
 70
     1
 10
0.0
 20
0.0
 30
0.0
  3
*D17
  1

  0
LINE
  5
7FD6
330
7E6F
100
AcDbEntity
  8
3
 62
     0
100
AcDbLine
 10
792.7126950535812
 20
2156.599298936081
 30
0.0
 11
792.7126950535812
 21
2741.164317456654
 31
0.0
  0
LINE
  5
7FD7
330
7E6F
100
AcDbEntity
  8
3
 62
     0
100
AcDbLine
 10
1115.160685861438
 20
2721.164317456654
 30
0.0
 11
832.7126950535811
 21
2721.164317456654
 31
0.0
  0
INSERT
  5
7FD8
330
7E6F
100
AcDbEntity
  8
3
 62
     0
100
AcDbBlockReference
  2
_OPEN
 10
1155.160685861438
 20
2721.164317456654
 30
0.0
 41
40.0
 42
40.0
 43
40.0
  0
INSERT
  5
7FD9
330
7E6F
100
AcDbEntity
  8
3
 62
     0
100
AcDbBlockReference
  2
_OPEN
 10
792.7126950535812
 20
2721.164317456654
 30
0.0
 41
40.0
 42
40.0
 43
40.0
 50
180.0
  0
MTEXT
  5
7FDA
330
7E6F
100
AcDbEntity
  8
3
 62
     0
100
AcDbMText
 10
973.9366904575094
 20
2771.164317456654
 30
0.0
 40
60.0
 41
0.0
 71
     5
 72
     5
  1
\A1;362
 73
     1
 44
1.0
1001
ACAD
1000
MTEXTBEGIN
1070
    73
1070
     1
1070
    44
1040
1.0
1070
    74
1070
     0
1000
MTEXTEND
  0
POINT
  5
7FDB
330
7E6F
100
AcDbEntity
  8
DEFPOINTS
 62
     0
100
AcDbPoint
 10
1155.160685861438
 20
2600.913498836019
 30
0.0
  0
POINT
  5
7FDC
330
7E6F
100
AcDbEntity
  8
DEFPOINTS
 62
     0
100
AcDbPoint
 10
792.7126950535812
 20
2146.599298936081
 30
0.0
  0
POINT
  5
7FDD
330
7E6F
100
AcDbEntity
  8
DEFPOINTS
 62
     0
100
AcDbPoint
 10
792.7126950535812
 20
2721.164317456654
 30
0.0
  0
ENDBLK
  5
7E79
330
7E6F
100
AcDbEntity
  8
0
100
AcDbBlockEnd
  0
BLOCK
  5
7E98
330
7E97
100
AcDbEntity
  8
0
100
AcDbBlockBegin
  2
*D18
 70
     1
 10
0.0
 20
0.0
 30
0.0
  3
*D18
  1

  0
LINE
  5
7FDE
330
7E97
100
AcDbEntity
  8
3
 62
     0
100
AcDbLine
 10
792.7126950535812
 20
2156.599298936081
 30
0.0
 11
792.7126950535812
 21
2909.871433251416
 31
0.0
  0
LINE
  5
7FDF
330
7E97
100
AcDbEntity
  8
3
 62
     0
100
AcDbLine
 10
1965.160685861443
 20
1738.599298936088
 30
0.0
 11
1965.160685861443
 21
2909.871433251416
 31
0.0
  0
LINE
  5
7FE0
330
7E97
100
AcDbEntity
  8
3
 62
     0
100
AcDbLine
 10
832.7126950535811
 20
2889.871433251416
 30
0.0
 11
1925.160685861443
 21
2889.871433251416
 31
0.0
  0
INSERT
  5
7FE1
330
7E97
100
AcDbEntity
  8
3
 62
     0
100
AcDbBlockReference
  2
_OPEN
 10
792.7126950535812
 20
2889.871433251416
 30
0.0
 41
40.0
 42
40.0
 43
40.0
 50
180.0
  0
INSERT
  5
7FE2
330
7E97
100
AcDbEntity
  8
3
 62
     0
100
AcDbBlockReference
  2
_OPEN
 10
1965.160685861443
 20
2889.871433251416
 30
0.0
 41
40.0
 42
40.0
 43
40.0
  0
MTEXT
  5
7FE3
330
7E97
100
AcDbEntity
  8
3
 62
     0
100
AcDbMText
 10
1373.453367267913
 20
2939.871433251416
 30
0.0
 40
60.0
 41
0.0
 71
     5
 72
     5
  1
\A1;1172
 73
     1
 44
1.0
1001
ACAD
1000
MTEXTBEGIN
1070
    73
1070
     1
1070
    44
1040
1.0
1070
    74
1070
     0
1000
MTEXTEND
  0
POINT
  5
7FE4
330
7E97
100
AcDbEntity
  8
DEFPOINTS
 62
     0
100
AcDbPoint
 10
792.7126950535812
 20
2146.599298936081
 30
0.0
  0
POINT
  5
7FE5
330
7E97
100
AcDbEntity
  8
DEFPOINTS
 62
     0
100
AcDbPoint
 10
1965.160685861443
 20
1728.599298936088
 30
0.0
  0
POINT
  5
7FE6
330
7E97
100
AcDbEntity
  8
DEFPOINTS
 62
     0
100
AcDbPoint
 10
1965.160685861443
 20
2889.871433251416
 30
0.0
  0
ENDBLK
  5
7EA2
330
7E97
100
AcDbEntity
  8
0
100
AcDbBlockEnd
  0
BLOCK
  5
7EFF
330
7EFE
100
AcDbEntity
  8
0
100
AcDbBlockBegin
  2
*D19
 70
     1
 10
0.0
 20
0.0
 30
0.0
  3
*D19
  1

  0
LINE
  5
7F00
330
7EFE
100
AcDbEntity
  8
0
  6
ByBlock
 62
     0
100
AcDbLine
 10
835.1606858614442
 20
1568.599298936079
 30
0.0
 11
596.7769800710629
 21
1568.599298936079
 31
0.0
  0
LINE
  5
7F01
330
7EFE
100
AcDbEntity
  8
0
  6
ByBlock
 62
     0
100
AcDbLine
 10
835.1606858614442
 20
1663.599298936079
 30
0.0
 11
596.7769800710629
 21
1663.599298936079
 31
0.0
  0
LINE
  5
7F02
330
7EFE
100
AcDbEntity
  8
0
  6
ByBlock
 62
     0
100
AcDbLine
 10
616.776980071063
 20
1528.599298936079
 30
0.0
 11
616.776980071063
 21
1488.599298936079
 31
0.0
  0
LINE
  5
7F03
330
7EFE
100
AcDbEntity
  8
0
  6
ByBlock
 62
     0
100
AcDbLine
 10
616.776980071063
 20
1703.599298936079
 30
0.0
 11
616.776980071063
 21
1743.599298936079
 31
0.0
  0
MTEXT
  5
7F04
330
7EFE
100
AcDbEntity
  8
0
  6
ByBlock
 62
     0
100
AcDbMText
 10
521.0626943567773
 20
1616.099298936079
 30
0.0
 40
60.0
 41
0.0
 71
     5
 72
     5
  1
\A1;(95)
 11
0.0
 21
1.0
 31
0.0
 73
     1
 44
1.0
1001
ACAD
1000
MTEXTBEGIN
1070
    73
1070
     1
1070
    44
1040
1.0
1070
    74
1070
     0
1000
MTEXTEND
  0
LINE
  5
7F05
330
7EFE
100
AcDbEntity
  8
0
  6
ByBlock
 62
     0
100
AcDbLine
 10
616.776980071063
 20
1568.599298936079
 30
0.0
 11
616.776980071063
 21
1663.599298936079
 31
0.0
  0
INSERT
  5
7F06
330
7EFE
100
AcDbEntity
  8
0
  6
ByBlock
 62
     0
100
AcDbBlockReference
  2
_DOT
 10
616.776980071063
 20
1568.599298936079
 30
0.0
 41
40.0
 42
40.0
 43
40.0
 50
90.0
  0
INSERT
  5
7F07
330
7EFE
100
AcDbEntity
  8
0
  6
ByBlock
 62
     0
100
AcDbBlockReference
  2
_OPEN
 10
616.776980071063
 20
1663.599298936079
 30
0.0
 41
40.0
 42
40.0
 43
40.0
 50
270.0
  0
POINT
  5
7F08
330
7EFE
100
AcDbEntity
  8
DEFPOINTS
  6
ByBlock
 62
     0
100
AcDbPoint
 10
845.1606858614441
 20
1568.599298936079
 30
0.0
  0
POINT
  5
7F09
330
7EFE
100
AcDbEntity
  8
DEFPOINTS
  6
ByBlock
 62
     0
100
AcDbPoint
 10
845.1606858614441
 20
1663.599298936079
 30
0.0
  0
POINT
  5
7F0A
330
7EFE
100
AcDbEntity
  8
DEFPOINTS
  6
ByBlock
 62
     0
100
AcDbPoint
 10
616.776980071063
 20
1663.599298936079
 30
0.0
  0
ENDBLK
  5
7F0B
330
7EFE
100
AcDbEntity
  8
0
100
AcDbBlockEnd
  0
BLOCK
  5
7F0E
330
7F0D
100
AcDbEntity
  8
0
100
AcDbBlockBegin
  2
*D20
 70
     1
 10
0.0
 20
0.0
 30
0.0
  3
*D20
  1

  0
LINE
  5
7F0F
330
7F0D
100
AcDbEntity
  8
0
  6
ByBlock
 62
     0
100
AcDbLine
 10
1139.560685861438
 20
2543.599298936082
 30
0.0
 11
392.5563949899224
 21
2543.599298936082
 31
0.0
  0
LINE
  5
7F10
330
7F0D
100
AcDbEntity
  8
0
  6
ByBlock
 62
     0
100
AcDbLine
 10
835.160685861445
 20
1503.599298936079
 30
0.0
 11
392.5563949899224
 21
1503.599298936079
 31
0.0
  0
LINE
  5
7F11
330
7F0D
100
AcDbEntity
  8
0
  6
ByBlock
 62
     0
100
AcDbLine
 10
412.5563949899223
 20
2503.599298936081
 30
0.0
 11
412.5563949899223
 21
1543.599298936079
 31
0.0
  0
INSERT
  5
7F12
330
7F0D
100
AcDbEntity
  8
0
  6
ByBlock
 62
     0
100
AcDbBlockReference
  2
_OPEN
 10
412.5563949899223
 20
2543.599298936082
 30
0.0
 41
40.0
 42
40.0
 43
40.0
 50
90.0
  0
INSERT
  5
7F13
330
7F0D
100
AcDbEntity
  8
0
  6
ByBlock
 62
     0
100
AcDbBlockReference
  2
_OPEN
 10
412.5563949899223
 20
1503.599298936079
 30
0.0
 41
40.0
 42
40.0
 43
40.0
 50
270.0
  0
MTEXT
  5
7F14
330
7F0D
100
AcDbEntity
  8
0
  6
ByBlock
 62
     0
100
AcDbMText
 10
346.8421092756367
 20
2023.59929893608
 30
0.0
 40
60.0
 41
0.0
 71
     5
 72
     5
  1
\A1;(1040)
 11
0.0
 21
1.0
 31
0.0
 73
     1
 44
1.0
1001
ACAD
1000
MTEXTBEGIN
1070
    73
1070
     1
1070
    44
1040
1.0
1070
    74
1070
     0
1000
MTEXTEND
  0
POINT
  5
7F15
330
7F0D
100
AcDbEntity
  8
DEFPOINTS
  6
ByBlock
 62
     0
100
AcDbPoint
 10
1149.560685861438
 20
2543.599298936082
 30
0.0
  0
POINT
  5
7F16
330
7F0D
100
AcDbEntity
  8
DEFPOINTS
  6
ByBlock
 62
     0
100
AcDbPoint
 10
845.160685861445
 20
1503.599298936079
 30
0.0
  0
POINT
  5
7F17
330
7F0D
100
AcDbEntity
  8
DEFPOINTS
  6
ByBlock
 62
     0
100
AcDbPoint
 10
412.5563949899223
 20
1503.599298936079
 30
0.0
  0
ENDBLK
  5
7F18
330
7F0D
100
AcDbEntity
  8
0
100
AcDbBlockEnd
  0
BLOCK
  5
8085
330
8084
100
AcDbEntity
  8
0
100
AcDbBlockBegin
  2
*D22
 70
     1
 10
0.0
 20
0.0
 30
0.0
  3
*D22
  1

  0
LINE
  5
8086
330
8084
100
AcDbEntity
  8
3
 62
     0
100
AcDbLine
 10
745.8090247007576
 20
2553.599298936085
 30
0.0
 11
745.8090247007576
 21
2741.164317456654
 31
0.0
  0
LINE
  5
8087
330
8084
100
AcDbEntity
  8
3
 62
     0
100
AcDbLine
 10
1283.809024700758
 20
2610.91349883602
 30
0.0
 11
1283.809024700758
 21
2741.164317456654
 31
0.0
  0
LINE
  5
8088
330
8084
100
AcDbEntity
  8
3
 62
     0
100
AcDbLine
 10
785.8090247007575
 20
2721.164317456654
 30
0.0
 11
1243.809024700758
 21
2721.164317456654
 31
0.0
  0
INSERT
  5
8089
330
8084
100
AcDbEntity
  8
3
 62
     0
100
AcDbBlockReference
  2
_OPEN
 10
745.8090247007576
 20
2721.164317456654
 30
0.0
 41
40.0
 42
40.0
 43
40.0
 50
180.0
  0
INSERT
  5
808A
330
8084
100
AcDbEntity
  8
3
 62
     0
100
AcDbBlockReference
  2
_OPEN
 10
1283.809024700758
 20
2721.164317456654
 30
0.0
 41
40.0
 42
40.0
 43
40.0
  0
MTEXT
  5
808B
330
8084
100
AcDbEntity
  8
3
 62
     0
100
AcDbMText
 10
1031.077822496437
 20
2771.164317456654
 30
0.0
 40
60.0
 41
0.0
 71
     5
 72
     5
  1
\A1;538
 73
     1
 44
1.0
1001
ACAD
1000
MTEXTBEGIN
1070
    73
1070
     1
1070
    44
1040
1.0
1070
    74
1070
     0
1000
MTEXTEND
  0
POINT
  5
808C
330
8084
100
AcDbEntity
  8
DEFPOINTS
 62
     0
100
AcDbPoint
 10
745.8090247007576
 20
2543.599298936085
 30
0.0
  0
POINT
  5
808D
330
8084
100
AcDbEntity
  8
DEFPOINTS
 62
     0
100
AcDbPoint
 10
1283.809024700758
 20
2600.913498836019
 30
0.0
  0
POINT
  5
808E
330
8084
100
AcDbEntity
  8
DEFPOINTS
 62
     0
100
AcDbPoint
 10
1283.809024700758
 20
2721.164317456654
 30
0.0
  0
ENDBLK
  5
808F
330
8084
100
AcDbEntity
  8
0
100
AcDbBlockEnd
  0
BLOCK
  5
8091
330
8090
100
AcDbEntity
  8
0
100
AcDbBlockBegin
  2
*D23
 70
     1
 10
0.0
 20
0.0
 30
0.0
  3
*D23
  1

  0
LINE
  5
8092
330
8090
100
AcDbEntity
  8
3
 62
     0
100
AcDbLine
 10
745.8090247007576
 20
2553.599298936085
 30
0.0
 11
745.8090247007576
 21
2622.797735104884
 31
0.0
  0
LINE
  5
8093
330
8090
100
AcDbEntity
  8
3
 62
     0
100
AcDbLine
 10
1257.809024700758
 20
2553.599298936081
 30
0.0
 11
1257.809024700758
 21
2622.797735104884
 31
0.0
  0
LINE
  5
8094
330
8090
100
AcDbEntity
  8
3
 62
     0
100
AcDbLine
 10
785.8090247007575
 20
2602.797735104884
 30
0.0
 11
1217.809024700758
 21
2602.797735104884
 31
0.0
  0
INSERT
  5
8095
330
8090
100
AcDbEntity
  8
3
 62
     0
100
AcDbBlockReference
  2
_OPEN
 10
745.8090247007576
 20
2602.797735104884
 30
0.0
 41
40.0
 42
40.0
 43
40.0
 50
180.0
  0
INSERT
  5
8096
330
8090
100
AcDbEntity
  8
3
 62
     0
100
AcDbBlockReference
  2
_OPEN
 10
1257.809024700758
 20
2602.797735104884
 30
0.0
 41
40.0
 42
40.0
 43
40.0
  0
MTEXT
  5
8097
330
8090
100
AcDbEntity
  8
3
 62
     0
100
AcDbMText
 10
1005.423218279721
 20
2652.797735104884
 30
0.0
 40
60.0
 41
0.0
 71
     5
 72
     5
  1
\A1;512
 73
     1
 44
1.0
1001
ACAD
1000
MTEXTBEGIN
1070
    73
1070
     1
1070
    44
1040
1.0
1070
    74
1070
     0
1000
MTEXTEND
  0
POINT
  5
8098
330
8090
100
AcDbEntity
  8
DEFPOINTS
 62
     0
100
AcDbPoint
 10
745.8090247007576
 20
2543.599298936085
 30
0.0
  0
POINT
  5
8099
330
8090
100
AcDbEntity
  8
DEFPOINTS
 62
     0
100
AcDbPoint
 10
1257.809024700758
 20
2543.599298936082
 30
0.0
  0
POINT
  5
809A
330
8090
100
AcDbEntity
  8
DEFPOINTS
 62
     0
100
AcDbPoint
 10
1257.809024700758
 20
2602.797735104884
 30
0.0
  0
ENDBLK
  5
809B
330
8090
100
AcDbEntity
  8
0
100
AcDbBlockEnd
  0
BLOCK
  5
809D
330
809C
100
AcDbEntity
  8
0
100
AcDbBlockBegin
  2
*D24
 70
     1
 10
0.0
 20
0.0
 30
0.0
  3
*D24
  1

  0
LINE
  5
809E
330
809C
100
AcDbEntity
  8
3
 62
     0
100
AcDbLine
 10
1711.123224600693
 20
2183.599298936078
 30
0.0
 11
1841.374043221327
 21
2183.599298936078
 31
0.0
  0
LINE
  5
809F
330
809C
100
AcDbEntity
  8
3
 62
     0
100
AcDbLine
 10
1603.809024700752
 20
1663.599298936079
 30
0.0
 11
1841.374043221327
 21
1663.599298936079
 31
0.0
  0
LINE
  5
80A0
330
809C
100
AcDbEntity
  8
3
 62
     0
100
AcDbLine
 10
1821.374043221327
 20
2143.599298936078
 30
0.0
 11
1821.374043221327
 21
1703.599298936079
 31
0.0
  0
INSERT
  5
80A1
330
809C
100
AcDbEntity
  8
3
 62
     0
100
AcDbBlockReference
  2
_OPEN
 10
1821.374043221327
 20
2183.599298936078
 30
0.0
 41
40.0
 42
40.0
 43
40.0
 50
90.0
  0
INSERT
  5
80A2
330
809C
100
AcDbEntity
  8
3
 62
     0
100
AcDbBlockReference
  2
_OPEN
 10
1821.374043221327
 20
1663.599298936079
 30
0.0
 41
40.0
 42
40.0
 43
40.0
 50
270.0
  0
MTEXT
  5
80A3
330
809C
100
AcDbEntity
  8
3
 62
     0
100
AcDbMText
 10
1771.374043221327
 20
1923.599298936079
 30
0.0
 40
60.0
 41
0.0
 71
     5
 72
     5
  1
\A1;520
 11
0.0000000000000001
 21
1.0
 31
0.0
 73
     1
 44
1.0
1001
ACAD
1000
MTEXTBEGIN
1070
    73
1070
     1
1070
    44
1040
1.0
1070
    74
1070
     0
1000
MTEXTEND
  0
POINT
  5
80A4
330
809C
100
AcDbEntity
  8
DEFPOINTS
 62
     0
100
AcDbPoint
 10
1701.123224600693
 20
2183.599298936078
 30
0.0
  0
POINT
  5
80A5
330
809C
100
AcDbEntity
  8
DEFPOINTS
 62
     0
100
AcDbPoint
 10
1593.809024700752
 20
1663.599298936079
 30
0.0
  0
POINT
  5
80A6
330
809C
100
AcDbEntity
  8
DEFPOINTS
 62
     0
100
AcDbPoint
 10
1821.374043221327
 20
1663.599298936079
 30
0.0
  0
ENDBLK
  5
80A7
330
809C
100
AcDbEntity
  8
0
100
AcDbBlockEnd
  0
BLOCK
  5
80A9
330
80A8
100
AcDbEntity
  8
0
100
AcDbBlockBegin
  2
*D25
 70
     1
 10
0.0
 20
0.0
 30
0.0
  3
*D25
  1

  0
LINE
  5
80AA
330
80A8
100
AcDbEntity
  8
3
 62
     0
100
AcDbLine
 10
2964.330537805764
 20
2520.845516482221
 30
0.0
 11
2964.330537805764
 21
2664.53908781836
 31
0.0
  0
LINE
  5
80AB
330
80A8
100
AcDbEntity
  8
3
 62
     0
100
AcDbLine
 10
3339.330537805765
 20
2520.845516482221
 30
0.0
 11
3339.330537805765
 21
2664.53908781836
 31
0.0
  0
LINE
  5
80AC
330
80A8
100
AcDbEntity
  8
3
 62
     0
100
AcDbLine
 10
3004.330537805764
 20
2644.53908781836
 30
0.0
 11
3299.330537805765
 21
2644.53908781836
 31
0.0
  0
INSERT
  5
80AD
330
80A8
100
AcDbEntity
  8
3
 62
     0
100
AcDbBlockReference
  2
_OPEN
 10
2964.330537805764
 20
2644.53908781836
 30
0.0
 41
40.0
 42
40.0
 43
40.0
 50
180.0
  0
INSERT
  5
80AE
330
80A8
100
AcDbEntity
  8
3
 62
     0
100
AcDbBlockReference
  2
_OPEN
 10
3339.330537805765
 20
2644.53908781836
 30
0.0
 41
40.0
 42
40.0
 43
40.0
  0
MTEXT
  5
80AF
330
80A8
100
AcDbEntity
  8
3
 62
     0
100
AcDbMText
 10
3152.435655190933
 20
2694.539087818359
 30
0.0
 40
60.0
 41
0.0
 71
     5
 72
     5
  1
\A1;375
 73
     1
 44
1.0
1001
ACAD
1000
MTEXTBEGIN
1070
    73
1070
     1
1070
    44
1040
1.0
1070
    74
1070
     0
1000
MTEXTEND
  0
POINT
  5
80B0
330
80A8
100
AcDbEntity
  8
DEFPOINTS
 62
     0
100
AcDbPoint
 10
2964.330537805764
 20
2510.845516482221
 30
0.0
  0
POINT
  5
80B1
330
80A8
100
AcDbEntity
  8
DEFPOINTS
 62
     0
100
AcDbPoint
 10
3339.330537805765
 20
2510.845516482221
 30
0.0
  0
POINT
  5
80B2
330
80A8
100
AcDbEntity
  8
DEFPOINTS
 62
     0
100
AcDbPoint
 10
3339.330537805765
 20
2644.53908781836
 30
0.0
  0
ENDBLK
  5
80B3
330
80A8
100
AcDbEntity
  8
0
100
AcDbBlockEnd
  0
BLOCK
  5
80B5
330
80B4
100
AcDbEntity
  8
0
100
AcDbBlockBegin
  2
*D26
 70
     1
 10
0.0
 20
0.0
 30
0.0
  3
*D26
  1

  0
LINE
  5
80B6
330
80B4
100
AcDbEntity
  8
3
 62
     0
100
AcDbLine
 10
3151.830537805766
 20
2723.745452400541
 30
0.0
 11
3151.830537805766
 21
2782.114798567218
 31
0.0
  0
LINE
  5
80B7
330
80B4
100
AcDbEntity
  8
3
 62
     0
100
AcDbLine
 10
3343.630537805765
 20
2473.599298936083
 30
0.0
 11
3343.630537805765
 21
2782.114798567218
 31
0.0
  0
LINE
  5
80B8
330
80B4
100
AcDbEntity
  8
3
 62
     0
100
AcDbLine
 10
3191.830537805766
 20
2762.114798567218
 30
0.0
 11
3303.630537805766
 21
2762.114798567218
 31
0.0
  0
INSERT
  5
80B9
330
80B4
100
AcDbEntity
  8
3
 62
     0
100
AcDbBlockReference
  2
_OPEN
 10
3151.830537805766
 20
2762.114798567218
 30
0.0
 41
40.0
 42
40.0
 43
40.0
 50
180.0
  0
INSERT
  5
80BA
330
80B4
100
AcDbEntity
  8
3
 62
     0
100
AcDbBlockReference
  2
_OPEN
 10
3343.630537805765
 20
2762.114798567218
 30
0.0
 41
40.0
 42
40.0
 43
40.0
  0
MTEXT
  5
80BB
330
80B4
100
AcDbEntity
  8
3
 62
     0
100
AcDbMText
 10
3247.730537805766
 20
2812.114798567219
 30
0.0
 40
60.0
 41
0.0
 71
     5
 72
     5
  1
\A1;192
 73
     1
 44
1.0
1001
ACAD
1000
MTEXTBEGIN
1070
    73
1070
     1
1070
    44
1040
1.0
1070
    74
1070
     0
1000
MTEXTEND
  0
POINT
  5
80BC
330
80B4
100
AcDbEntity
  8
DEFPOINTS
 62
     0
100
AcDbPoint
 10
3151.830537805766
 20
2713.74545240054
 30
0.0
  0
POINT
  5
80BD
330
80B4
100
AcDbEntity
  8
DEFPOINTS
 62
     0
100
AcDbPoint
 10
3343.630537805765
 20
2463.599298936083
 30
0.0
  0
POINT
  5
80BE
330
80B4
100
AcDbEntity
  8
DEFPOINTS
 62
     0
100
AcDbPoint
 10
3343.630537805765
 20
2762.114798567218
 30
0.0
  0
ENDBLK
  5
80BF
330
80B4
100
AcDbEntity
  8
0
100
AcDbBlockEnd
  0
BLOCK
  5
80C1
330
80C0
100
AcDbEntity
  8
0
100
AcDbBlockBegin
  2
*D27
 70
     1
 10
0.0
 20
0.0
 30
0.0
  3
*D27
  1

  0
LINE
  5
80C2
330
80C0
100
AcDbEntity
  8
3
 62
     0
370
    -2
100
AcDbLine
 10
2618.590299456254
 20
2413.599298936083
 30
0.0
 11
2618.590299456254
 21
2782.114798567218
 31
0.0
  0
LINE
  5
80C3
330
80C0
100
AcDbEntity
  8
3
 62
     0
370
    -2
100
AcDbLine
 10
3111.830537805766
 20
2762.114798567218
 30
0.0
 11
2658.590299456254
 21
2762.114798567218
 31
0.0
  0
INSERT
  5
80C4
330
80C0
100
AcDbEntity
  8
3
 62
     0
370
    -2
100
AcDbBlockReference
  2
_OPEN
 10
3151.830537805766
 20
2762.114798567218
 30
0.0
 41
40.0
 42
40.0
 43
40.0
  0
INSERT
  5
80C5
330
80C0
100
AcDbEntity
  8
3
 62
     0
370
    -2
100
AcDbBlockReference
  2
_OPEN
 10
2618.590299456254
 20
2762.114798567218
 30
0.0
 41
40.0
 42
40.0
 43
40.0
 50
180.0
  0
MTEXT
  5
80C6
330
80C0
100
AcDbEntity
  8
3
 62
     0
100
AcDbMText
 10
2885.21041863101
 20
2827.829084281504
 30
0.0
 40
60.0
 41
0.0
 71
     5
 72
     1
  1
\A1;(560)
 73
     1
 44
1.0
1001
ACAD
1000
MTEXTBEGIN
1070
    73
1070
     1
1070
    44
1040
1.0
1070
    74
1070
     0
1000
MTEXTEND
  0
POINT
  5
80C7
330
80C0
100
AcDbEntity
  8
DEFPOINTS
 62
     0
100
AcDbPoint
 10
3151.830537805766
 20
2713.74545240054
 30
0.0
  0
POINT
  5
80C8
330
80C0
100
AcDbEntity
  8
DEFPOINTS
 62
     0
100
AcDbPoint
 10
2618.590299456254
 20
2403.599298936082
 30
0.0
  0
POINT
  5
80C9
330
80C0
100
AcDbEntity
  8
DEFPOINTS
 62
     0
100
AcDbPoint
 10
2618.590299456254
 20
2762.114798567218
 30
0.0
  0
ENDBLK
  5
80CA
330
80C0
100
AcDbEntity
  8
0
100
AcDbBlockEnd
  0
BLOCK
  5
80CC
330
80CB
100
AcDbEntity
  8
0
100
AcDbBlockBegin
  2
*D28
 70
     1
 10
0.0
 20
0.0
 30
0.0
  3
*D28
  1

  0
LINE
  5
80CD
330
80CB
100
AcDbEntity
  8
3
 62
     0
100
AcDbLine
 10
3381.830537805765
 20
2433.599298936083
 30
0.0
 11
3563.286756674447
 21
2433.599298936083
 31
0.0
  0
LINE
  5
80CE
330
80CB
100
AcDbEntity
  8
3
 62
     0
100
AcDbLine
 10
3381.830537805765
 20
1933.599298936083
 30
0.0
 11
3563.286756674447
 21
1933.599298936083
 31
0.0
  0
LINE
  5
80CF
330
80CB
100
AcDbEntity
  8
3
 62
     0
100
AcDbLine
 10
3543.286756674447
 20
2393.599298936083
 30
0.0
 11
3543.286756674447
 21
1973.599298936083
 31
0.0
  0
INSERT
  5
80D0
330
80CB
100
AcDbEntity
  8
3
 62
     0
100
AcDbBlockReference
  2
_OPEN
 10
3543.286756674447
 20
2433.599298936083
 30
0.0
 41
40.0
 42
40.0
 43
40.0
 50
90.0
  0
INSERT
  5
80D1
330
80CB
100
AcDbEntity
  8
3
 62
     0
100
AcDbBlockReference
  2
_OPEN
 10
3543.286756674447
 20
1933.599298936083
 30
0.0
 41
40.0
 42
40.0
 43
40.0
 50
270.0
  0
MTEXT
  5
80D2
330
80CB
100
AcDbEntity
  8
3
 62
     0
100
AcDbMText
 10
3493.286756674446
 20
2183.339885117799
 30
0.0
 40
60.0
 41
0.0
 71
     5
 72
     5
  1
\A1;\U+03C6500
 11
0.0000000000000001
 21
1.0
 31
0.0
 73
     1
 44
1.0
1001
ACAD
1000
MTEXTBEGIN
1070
    73
1070
     1
1070
    44
1040
1.0
1070
    74
1070
     0
1000
MTEXTEND
  0
POINT
  5
80D3
330
80CB
100
AcDbEntity
  8
DEFPOINTS
 62
     0
100
AcDbPoint
 10
3371.830537805765
 20
2433.599298936083
 30
0.0
  0
POINT
  5
80D4
330
80CB
100
AcDbEntity
  8
DEFPOINTS
 62
     0
100
AcDbPoint
 10
3371.830537805765
 20
1933.599298936083
 30
0.0
  0
POINT
  5
80D5
330
80CB
100
AcDbEntity
  8
DEFPOINTS
 62
     0
100
AcDbPoint
 10
3543.286756674447
 20
1933.599298936083
 30
0.0
  0
ENDBLK
  5
80D6
330
80CB
100
AcDbEntity
  8
0
100
AcDbBlockEnd
  0
BLOCK
  5
80D8
330
80D7
100
AcDbEntity
  8
0
100
AcDbBlockBegin
  2
*D29
 70
     1
 10
0.0
 20
0.0
 30
0.0
  3
*D29
  1

  0
LINE
  5
80D9
330
80D7
100
AcDbEntity
  8
3
 62
     0
100
AcDbLine
 10
1299.409024700758
 20
2543.599298936082
 30
0.0
 11
1841.374043221327
 21
2543.599298936082
 31
0.0
  0
LINE
  5
80DA
330
80D7
100
AcDbEntity
  8
3
 62
     0
100
AcDbLine
 10
1821.374043221327
 20
2223.599298936077
 30
0.0
 11
1821.374043221327
 21
2503.599298936081
 31
0.0
  0
INSERT
  5
80DB
330
80D7
100
AcDbEntity
  8
3
 62
     0
100
AcDbBlockReference
  2
_OPEN
 10
1821.374043221327
 20
2183.599298936078
 30
0.0
 41
40.0
 42
40.0
 43
40.0
 50
270.0
  0
INSERT
  5
80DC
330
80D7
100
AcDbEntity
  8
3
 62
     0
100
AcDbBlockReference
  2
_OPEN
 10
1821.374043221327
 20
2543.599298936082
 30
0.0
 41
40.0
 42
40.0
 43
40.0
 50
90.0
  0
MTEXT
  5
80DD
330
80D7
100
AcDbEntity
  8
3
 62
     0
100
AcDbMText
 10
1771.374043221327
 20
2363.59929893608
 30
0.0
 40
60.0
 41
0.0
 71
     5
 72
     5
  1
\A1;360
 11
0.0000000000000001
 21
1.0
 31
0.0
 73
     1
 44
1.0
1001
ACAD
1000
MTEXTBEGIN
1070
    73
1070
     1
1070
    44
1040
1.0
1070
    74
1070
     0
1000
MTEXTEND
  0
POINT
  5
80DE
330
80D7
100
AcDbEntity
  8
DEFPOINTS
 62
     0
100
AcDbPoint
 10
1701.123224600693
 20
2183.599298936078
 30
0.0
  0
POINT
  5
80DF
330
80D7
100
AcDbEntity
  8
DEFPOINTS
 62
     0
100
AcDbPoint
 10
1289.409024700758
 20
2543.599298936082
 30
0.0
  0
POINT
  5
80E0
330
80D7
100
AcDbEntity
  8
DEFPOINTS
 62
     0
100
AcDbPoint
 10
1821.374043221327
 20
2543.599298936082
 30
0.0
  0
ENDBLK
  5
80E1
330
80D7
100
AcDbEntity
  8
0
100
AcDbBlockEnd
  0
BLOCK
  5
80E3
330
80E2
100
AcDbEntity
  8
0
100
AcDbBlockBegin
  2
*D30
 70
     1
 10
0.0
 20
0.0
 30
0.0
  3
*D30
  1

  0
LINE
  5
80E4
330
80E2
100
AcDbEntity
  8
3
 62
     0
100
AcDbLine
 10
1646.257015508615
 20
2156.599298936081
 30
0.0
 11
1646.257015508615
 21
2741.164317456654
 31
0.0
  0
LINE
  5
80E5
330
80E2
100
AcDbEntity
  8
3
 62
     0
100
AcDbLine
 10
1323.809024700758
 20
2721.164317456654
 30
0.0
 11
1606.257015508615
 21
2721.164317456654
 31
0.0
  0
INSERT
  5
80E6
330
80E2
100
AcDbEntity
  8
3
 62
     0
100
AcDbBlockReference
  2
_OPEN
 10
1283.809024700758
 20
2721.164317456654
 30
0.0
 41
40.0
 42
40.0
 43
40.0
 50
180.0
  0
INSERT
  5
80E7
330
80E2
100
AcDbEntity
  8
3
 62
     0
100
AcDbBlockReference
  2
_OPEN
 10
1646.257015508615
 20
2721.164317456654
 30
0.0
 41
40.0
 42
40.0
 43
40.0
  0
MTEXT
  5
80E8
330
80E2
100
AcDbEntity
  8
3
 62
     0
100
AcDbMText
 10
1465.033020104687
 20
2771.164317456654
 30
0.0
 40
60.0
 41
0.0
 71
     5
 72
     5
  1
\A1;362
 73
     1
 44
1.0
1001
ACAD
1000
MTEXTBEGIN
1070
    73
1070
     1
1070
    44
1040
1.0
1070
    74
1070
     0
1000
MTEXTEND
  0
POINT
  5
80E9
330
80E2
100
AcDbEntity
  8
DEFPOINTS
 62
     0
100
AcDbPoint
 10
1283.809024700758
 20
2600.913498836019
 30
0.0
  0
POINT
  5
80EA
330
80E2
100
AcDbEntity
  8
DEFPOINTS
 62
     0
100
AcDbPoint
 10
1646.257015508615
 20
2146.599298936081
 30
0.0
  0
POINT
  5
80EB
330
80E2
100
AcDbEntity
  8
DEFPOINTS
 62
     0
100
AcDbPoint
 10
1646.257015508615
 20
2721.164317456654
 30
0.0
  0
ENDBLK
  5
80EC
330
80E2
100
AcDbEntity
  8
0
100
AcDbBlockEnd
  0
BLOCK
  5
80EE
330
80ED
100
AcDbEntity
  8
0
100
AcDbBlockBegin
  2
*D31
 70
     1
 10
0.0
 20
0.0
 30
0.0
  3
*D31
  1

  0
LINE
  5
80EF
330
80ED
100
AcDbEntity
  8
3
 62
     0
100
AcDbLine
 10
473.8090247007521
 20
1653.599298936088
 30
0.0
 11
473.8090247007521
 21
1495.57947601245
 31
0.0
  0
LINE
  5
80F0
330
80ED
100
AcDbEntity
  8
3
 62
     0
100
AcDbLine
 10
1283.80902470075
 20
1653.599298936081
 30
0.0
 11
1283.80902470075
 21
1495.57947601245
 31
0.0
  0
LINE
  5
80F1
330
80ED
100
AcDbEntity
  8
3
 62
     0
100
AcDbLine
 10
513.8090247007522
 20
1515.57947601245
 30
0.0
 11
1243.80902470075
 21
1515.57947601245
 31
0.0
  0
INSERT
  5
80F2
330
80ED
100
AcDbEntity
  8
3
 62
     0
100
AcDbBlockReference
  2
_OPEN
 10
473.8090247007521
 20
1515.57947601245
 30
0.0
 41
40.0
 42
40.0
 43
40.0
 50
180.0
  0
INSERT
  5
80F3
330
80ED
100
AcDbEntity
  8
3
 62
     0
100
AcDbBlockReference
  2
_OPEN
 10
1283.80902470075
 20
1515.57947601245
 30
0.0
 41
40.0
 42
40.0
 43
40.0
  0
MTEXT
  5
80F4
330
80ED
100
AcDbEntity
  8
3
 62
     0
100
AcDbMText
 10
878.8090247007511
 20
1565.57947601245
 30
0.0
 40
60.0
 41
0.0
 71
     5
 72
     5
  1
\A1;810
 73
     1
 44
1.0
1001
ACAD
1000
MTEXTBEGIN
1070
    73
1070
     1
1070
    44
1040
1.0
1070
    74
1070
     0
1000
MTEXTEND
  0
POINT
  5
80F5
330
80ED
100
AcDbEntity
  8
DEFPOINTS
 62
     0
100
AcDbPoint
 10
473.8090247007521
 20
1663.599298936088
 30
0.0
  0
POINT
  5
80F6
330
80ED
100
AcDbEntity
  8
DEFPOINTS
 62
     0
100
AcDbPoint
 10
1283.80902470075
 20
1663.599298936081
 30
0.0
  0
POINT
  5
80F7
330
80ED
100
AcDbEntity
  8
DEFPOINTS
 62
     0
100
AcDbPoint
 10
1283.80902470075
 20
1515.57947601245
 30
0.0
  0
ENDBLK
  5
80F8
330
80ED
100
AcDbEntity
  8
0
100
AcDbBlockEnd
  0
BLOCK
  5
80FA
330
80F9
100
AcDbEntity
  8
0
100
AcDbBlockBegin
  2
*D32
 70
     1
 10
0.0
 20
0.0
 30
0.0
  3
*D32
  1

  0
LINE
  5
80FB
330
80F9
100
AcDbEntity
  8
3
 62
     0
100
AcDbLine
 10
1283.80902470075
 20
1653.599298936081
 30
0.0
 11
1283.80902470075
 21
1495.57947601245
 31
0.0
  0
LINE
  5
80FC
330
80F9
100
AcDbEntity
  8
3
 62
     0
100
AcDbLine
 10
1593.809024700752
 20
1653.599298936079
 30
0.0
 11
1593.809024700752
 21
1495.57947601245
 31
0.0
  0
LINE
  5
80FD
330
80F9
100
AcDbEntity
  8
3
 62
     0
100
AcDbLine
 10
1323.80902470075
 20
1515.57947601245
 30
0.0
 11
1553.809024700752
 21
1515.57947601245
 31
0.0
  0
INSERT
  5
80FE
330
80F9
100
AcDbEntity
  8
3
 62
     0
100
AcDbBlockReference
  2
_OPEN
 10
1283.80902470075
 20
1515.57947601245
 30
0.0
 41
40.0
 42
40.0
 43
40.0
 50
180.0
  0
INSERT
  5
80FF
330
80F9
100
AcDbEntity
  8
3
 62
     0
100
AcDbBlockReference
  2
_OPEN
 10
1593.809024700752
 20
1515.57947601245
 30
0.0
 41
40.0
 42
40.0
 43
40.0
  0
MTEXT
  5
8100
330
80F9
100
AcDbEntity
  8
3
 62
     0
100
AcDbMText
 10
1438.809024700751
 20
1565.57947601245
 30
0.0
 40
60.0
 41
0.0
 71
     5
 72
     5
  1
\A1;310
 73
     1
 44
1.0
1001
ACAD
1000
MTEXTBEGIN
1070
    73
1070
     1
1070
    44
1040
1.0
1070
    74
1070
     0
1000
MTEXTEND
  0
POINT
  5
8101
330
80F9
100
AcDbEntity
  8
DEFPOINTS
 62
     0
100
AcDbPoint
 10
1283.80902470075
 20
1663.599298936081
 30
0.0
  0
POINT
  5
8102
330
80F9
100
AcDbEntity
  8
DEFPOINTS
 62
     0
100
AcDbPoint
 10
1593.809024700752
 20
1663.599298936079
 30
0.0
  0
POINT
  5
8103
330
80F9
100
AcDbEntity
  8
DEFPOINTS
 62
     0
100
AcDbPoint
 10
1593.809024700752
 20
1515.57947601245
 30
0.0
  0
ENDBLK
  5
8104
330
80F9
100
AcDbEntity
  8
0
100
AcDbBlockEnd
  0
BLOCK
  5
8106
330
8105
100
AcDbEntity
  8
0
100
AcDbBlockBegin
  2
*D33
 70
     1
 10
0.0
 20
0.0
 30
0.0
  3
*D33
  1

  0
LINE
  5
8107
330
8105
100
AcDbEntity
  8
3
 62
     0
100
AcDbLine
 10
2756.830537805764
 20
1653.599298936091
 30
0.0
 11
2756.830537805764
 21
1495.57947601245
 31
0.0
  0
LINE
  5
8108
330
8105
100
AcDbEntity
  8
3
 62
     0
100
AcDbLine
 10
3151.830537805765
 20
1653.599298936092
 30
0.0
 11
3151.830537805765
 21
1495.57947601245
 31
0.0
  0
LINE
  5
8109
330
8105
100
AcDbEntity
  8
3
 62
     0
100
AcDbLine
 10
2796.830537805764
 20
1515.57947601245
 30
0.0
 11
3111.830537805765
 21
1515.57947601245
 31
0.0
  0
INSERT
  5
810A
330
8105
100
AcDbEntity
  8
3
 62
     0
100
AcDbBlockReference
  2
_OPEN
 10
2756.830537805764
 20
1515.57947601245
 30
0.0
 41
40.0
 42
40.0
 43
40.0
 50
180.0
  0
INSERT
  5
810B
330
8105
100
AcDbEntity
  8
3
 62
     0
100
AcDbBlockReference
  2
_OPEN
 10
3151.830537805765
 20
1515.57947601245
 30
0.0
 41
40.0
 42
40.0
 43
40.0
  0
MTEXT
  5
810C
330
8105
100
AcDbEntity
  8
3
 62
     0
100
AcDbMText
 10
2954.330537805764
 20
1565.57947601245
 30
0.0
 40
60.0
 41
0.0
 71
     5
 72
     5
  1
\A1;395
 73
     1
 44
1.0
1001
ACAD
1000
MTEXTBEGIN
1070
    73
1070
     1
1070
    44
1040
1.0
1070
    74
1070
     0
1000
MTEXTEND
  0
POINT
  5
810D
330
8105
100
AcDbEntity
  8
DEFPOINTS
 62
     0
100
AcDbPoint
 10
2756.830537805764
 20
1663.599298936091
 30
0.0
  0
POINT
  5
810E
330
8105
100
AcDbEntity
  8
DEFPOINTS
 62
     0
100
AcDbPoint
 10
3151.830537805765
 20
1663.599298936092
 30
0.0
  0
POINT
  5
810F
330
8105
100
AcDbEntity
  8
DEFPOINTS
 62
     0
100
AcDbPoint
 10
3151.830537805765
 20
1515.57947601245
 30
0.0
  0
ENDBLK
  5
8110
330
8105
100
AcDbEntity
  8
0
100
AcDbBlockEnd
  0
BLOCK
  5
8112
330
8111
100
AcDbEntity
  8
0
100
AcDbBlockBegin
  2
*D34
 70
     1
 10
0.0
 20
0.0
 30
0.0
  3
*D34
  1

  0
LINE
  5
8113
330
8111
100
AcDbEntity
  8
3
 62
     0
100
AcDbLine
 10
3151.830537805765
 20
1653.599298936092
 30
0.0
 11
3151.830537805765
 21
1495.57947601245
 31
0.0
  0
LINE
  5
8114
330
8111
100
AcDbEntity
  8
3
 62
     0
100
AcDbLine
 10
3381.830537805765
 20
1653.599298936092
 30
0.0
 11
3381.830537805765
 21
1495.57947601245
 31
0.0
  0
LINE
  5
8115
330
8111
100
AcDbEntity
  8
3
 62
     0
100
AcDbLine
 10
3191.830537805765
 20
1515.57947601245
 30
0.0
 11
3341.830537805765
 21
1515.57947601245
 31
0.0
  0
INSERT
  5
8116
330
8111
100
AcDbEntity
  8
3
 62
     0
100
AcDbBlockReference
  2
_OPEN
 10
3151.830537805765
 20
1515.57947601245
 30
0.0
 41
40.0
 42
40.0
 43
40.0
 50
180.0
  0
INSERT
  5
8117
330
8111
100
AcDbEntity
  8
3
 62
     0
100
AcDbBlockReference
  2
_OPEN
 10
3381.830537805765
 20
1515.57947601245
 30
0.0
 41
40.0
 42
40.0
 43
40.0
  0
MTEXT
  5
8118
330
8111
100
AcDbEntity
  8
3
 62
     0
100
AcDbMText
 10
3266.830537805765
 20
1565.57947601245
 30
0.0
 40
60.0
 41
0.0
 71
     5
 72
     5
  1
\A1;230
 73
     1
 44
1.0
1001
ACAD
1000
MTEXTBEGIN
1070
    73
1070
     1
1070
    44
1040
1.0
1070
    74
1070
     0
1000
MTEXTEND
  0
POINT
  5
8119
330
8111
100
AcDbEntity
  8
DEFPOINTS
 62
     0
100
AcDbPoint
 10
3151.830537805765
 20
1663.599298936092
 30
0.0
  0
POINT
  5
811A
330
8111
100
AcDbEntity
  8
DEFPOINTS
 62
     0
100
AcDbPoint
 10
3381.830537805765
 20
1663.599298936092
 30
0.0
  0
POINT
  5
811B
330
8111
100
AcDbEntity
  8
DEFPOINTS
 62
     0
100
AcDbPoint
 10
3381.830537805765
 20
1515.57947601245
 30
0.0
  0
ENDBLK
  5
811C
330
8111
100
AcDbEntity
  8
0
100
AcDbBlockEnd
  0
BLOCK
  5
811E
330
811D
100
AcDbEntity
  8
0
100
AcDbBlockBegin
  2
*D35
 70
     1
 10
0.0
 20
0.0
 30
0.0
  3
*D35
  1

  0
LINE
  5
811F
330
811D
100
AcDbEntity
  8
3
 62
     0
370
    -2
100
AcDbLine
 10
1593.809024700764
 20
4003.713410176738
 30
0.0
 11
1593.809024700764
 21
4217.081280799661
 31
0.0
  0
LINE
  5
8120
330
811D
100
AcDbEntity
  8
3
 62
     0
370
    -2
100
AcDbLine
 10
473.8090247007639
 20
4003.713410176748
 30
0.0
 11
473.8090247007639
 21
4217.081280799661
 31
0.0
  0
LINE
  5
8121
330
811D
100
AcDbEntity
  8
3
 62
     0
370
    -2
100
AcDbLine
 10
1553.809024700764
 20
4197.08128079966
 30
0.0
 11
513.809024700764
 21
4197.08128079966
 31
0.0
  0
INSERT
  5
8122
330
811D
100
AcDbEntity
  8
3
 62
     0
370
    -2
100
AcDbBlockReference
  2
_OPEN
 10
1593.809024700764
 20
4197.08128079966
 30
0.0
 41
40.0
 42
40.0
 43
40.0
  0
INSERT
  5
8123
330
811D
100
AcDbEntity
  8
3
 62
     0
370
    -2
100
AcDbBlockReference
  2
_OPEN
 10
473.8090247007639
 20
4197.08128079966
 30
0.0
 41
40.0
 42
40.0
 43
40.0
 50
180.0
  0
MTEXT
  5
8124
330
811D
100
AcDbEntity
  8
3
 62
     0
100
AcDbMText
 10
1086.587987695497
 20
4247.081280799661
 30
0.0
 40
60.0
 41
0.0
 71
     5
 72
     1
  1
\A1;1120
 73
     1
 44
1.0
1001
ACAD
1000
MTEXTBEGIN
1070
    73
1070
     1
1070
    44
1040
1.0
1070
    74
1070
     0
1000
MTEXTEND
  0
POINT
  5
8125
330
811D
100
AcDbEntity
  8
DEFPOINTS
 62
     0
100
AcDbPoint
 10
1593.809024700764
 20
3993.713410176738
 30
0.0
  0
POINT
  5
8126
330
811D
100
AcDbEntity
  8
DEFPOINTS
 62
     0
100
AcDbPoint
 10
473.8090247007639
 20
3993.713410176749
 30
0.0
  0
POINT
  5
8127
330
811D
100
AcDbEntity
  8
DEFPOINTS
 62
     0
100
AcDbPoint
 10
473.8090247007639
 20
4197.08128079966
 30
0.0
  0
ENDBLK
  5
8128
330
811D
100
AcDbEntity
  8
0
100
AcDbBlockEnd
  0
BLOCK
  5
812A
330
8129
100
AcDbEntity
  8
0
100
AcDbBlockBegin
  2
*D36
 70
     1
 10
0.0
 20
0.0
 30
0.0
  3
*D36
  1

  0
LINE
  5
812B
330
8129
100
AcDbEntity
  8
3
 62
     0
370
    -2
100
AcDbLine
 10
463.809024700764
 20
3993.713410176749
 30
0.0
 11
267.1851521618489
 21
3993.713410176749
 31
0.0
  0
LINE
  5
812C
330
8129
100
AcDbEntity
  8
3
 62
     0
370
    -2
100
AcDbLine
 10
463.8090247007594
 20
3368.713410176748
 30
0.0
 11
267.1851521618488
 21
3368.713410176748
 31
0.0
  0
LINE
  5
812D
330
8129
100
AcDbEntity
  8
3
 62
     0
370
    -2
100
AcDbLine
 10
287.1851521618489
 20
3953.713410176749
 30
0.0
 11
287.1851521618487
 21
3408.713410176748
 31
0.0
  0
INSERT
  5
812E
330
8129
100
AcDbEntity
  8
3
 62
     0
370
    -2
100
AcDbBlockReference
  2
_OPEN
 10
287.1851521618489
 20
3993.713410176749
 30
0.0
 41
40.0
 42
40.0
 43
40.0
 50
90.0
  0
INSERT
  5
812F
330
8129
100
AcDbEntity
  8
3
 62
     0
370
    -2
100
AcDbBlockReference
  2
_OPEN
 10
287.1851521618487
 20
3368.713410176748
 30
0.0
 41
40.0
 42
40.0
 43
40.0
 50
270.0
  0
MTEXT
  5
8130
330
8129
100
AcDbEntity
  8
3
 62
     0
100
AcDbMText
 10
237.1851521618483
 20
3688.740278048199
 30
0.0
 40
60.0
 41
0.0
 71
     5
 72
     1
  1
\A1;625
 11
0.0000000000000001
 21
1.0
 31
0.0
 73
     1
 44
1.0
1001
ACAD
1000
MTEXTBEGIN
1070
    73
1070
     1
1070
    44
1040
1.0
1070
    74
1070
     0
1000
MTEXTEND
  0
POINT
  5
8131
330
8129
100
AcDbEntity
  8
DEFPOINTS
 62
     0
100
AcDbPoint
 10
473.8090247007639
 20
3993.713410176749
 30
0.0
  0
POINT
  5
8132
330
8129
100
AcDbEntity
  8
DEFPOINTS
 62
     0
100
AcDbPoint
 10
473.8090247007594
 20
3368.713410176748
 30
0.0
  0
POINT
  5
8133
330
8129
100
AcDbEntity
  8
DEFPOINTS
 62
     0
100
AcDbPoint
 10
287.1851521618487
 20
3368.713410176748
 30
0.0
  0
ENDBLK
  5
8134
330
8129
100
AcDbEntity
  8
0
100
AcDbBlockEnd
  0
BLOCK
  5
8334
330
8333
100
AcDbEntity
  8
0
100
AcDbBlockBegin
  2
*D38
 70
     1
 10
0.0
 20
0.0
 30
0.0
  3
*D38
  1

  0
LINE
  5
83E4
330
8333
100
AcDbEntity
  8
3
 62
     0
370
    -2
100
AcDbLine
 10
4971.823484456757
 20
2599.280239870864
 30
0.0
 11
4971.823484456757
 21
2786.845258391432
 31
0.0
  0
LINE
  5
83E5
330
8333
100
AcDbEntity
  8
3
 62
     0
370
    -2
100
AcDbLine
 10
5509.823484456758
 20
2656.594439770798
 30
0.0
 11
5509.823484456758
 21
2786.845258391432
 31
0.0
  0
LINE
  5
83E6
330
8333
100
AcDbEntity
  8
3
 62
     0
370
    -2
100
AcDbLine
 10
5011.823484456757
 20
2766.845258391433
 30
0.0
 11
5469.823484456758
 21
2766.845258391433
 31
0.0
  0
INSERT
  5
83E7
330
8333
100
AcDbEntity
  8
3
 62
     0
370
    -2
100
AcDbBlockReference
  2
_OPEN
 10
4971.823484456757
 20
2766.845258391433
 30
0.0
 41
40.0
 42
40.0
 43
40.0
 50
180.0
  0
INSERT
  5
83E8
330
8333
100
AcDbEntity
  8
3
 62
     0
370
    -2
100
AcDbBlockReference
  2
_OPEN
 10
5509.823484456758
 20
2766.845258391433
 30
0.0
 41
40.0
 42
40.0
 43
40.0
  0
MTEXT
  5
83E9
330
8333
100
AcDbEntity
  8
3
 62
     0
100
AcDbMText
 10
5257.092282252436
 20
2816.845258391433
 30
0.0
 40
60.0
 41
0.0
 71
     5
 72
     1
  1
\A1;538
 73
     1
 44
1.0
1001
ACAD
1000
MTEXTBEGIN
1070
    73
1070
     1
1070
    44
1040
1.0
1070
    74
1070
     0
1000
MTEXTEND
  0
POINT
  5
83EA
330
8333
100
AcDbEntity
  8
DEFPOINTS
 62
     0
100
AcDbPoint
 10
4971.823484456757
 20
2589.280239870864
 30
0.0
  0
POINT
  5
83EB
330
8333
100
AcDbEntity
  8
DEFPOINTS
 62
     0
100
AcDbPoint
 10
5509.823484456758
 20
2646.594439770798
 30
0.0
  0
POINT
  5
83EC
330
8333
100
AcDbEntity
  8
DEFPOINTS
 62
     0
100
AcDbPoint
 10
5509.823484456758
 20
2766.845258391433
 30
0.0
  0
ENDBLK
  5
8335
330
8333
100
AcDbEntity
  8
0
100
AcDbBlockEnd
  0
BLOCK
  5
8340
330
833F
100
AcDbEntity
  8
0
100
AcDbBlockBegin
  2
*D39
 70
     1
 10
0.0
 20
0.0
 30
0.0
  3
*D39
  1

  0
LINE
  5
83ED
330
833F
100
AcDbEntity
  8
3
 62
     0
370
    -2
100
AcDbLine
 10
4971.823484456757
 20
2599.280239870864
 30
0.0
 11
4971.823484456757
 21
2668.478676039663
 31
0.0
  0
LINE
  5
83EE
330
833F
100
AcDbEntity
  8
3
 62
     0
370
    -2
100
AcDbLine
 10
5483.823484456757
 20
2599.28023987086
 30
0.0
 11
5483.823484456757
 21
2668.478676039663
 31
0.0
  0
LINE
  5
83EF
330
833F
100
AcDbEntity
  8
3
 62
     0
370
    -2
100
AcDbLine
 10
5011.823484456757
 20
2648.478676039663
 30
0.0
 11
5443.823484456757
 21
2648.478676039663
 31
0.0
  0
INSERT
  5
83F0
330
833F
100
AcDbEntity
  8
3
 62
     0
370
    -2
100
AcDbBlockReference
  2
_OPEN
 10
4971.823484456757
 20
2648.478676039663
 30
0.0
 41
40.0
 42
40.0
 43
40.0
 50
180.0
  0
INSERT
  5
83F1
330
833F
100
AcDbEntity
  8
3
 62
     0
370
    -2
100
AcDbBlockReference
  2
_OPEN
 10
5483.823484456757
 20
2648.478676039663
 30
0.0
 41
40.0
 42
40.0
 43
40.0
  0
MTEXT
  5
83F2
330
833F
100
AcDbEntity
  8
3
 62
     0
100
AcDbMText
 10
5231.437678035721
 20
2698.478676039663
 30
0.0
 40
60.0
 41
0.0
 71
     5
 72
     1
  1
\A1;512
 73
     1
 44
1.0
1001
ACAD
1000
MTEXTBEGIN
1070
    73
1070
     1
1070
    44
1040
1.0
1070
    74
1070
     0
1000
MTEXTEND
  0
POINT
  5
83F3
330
833F
100
AcDbEntity
  8
DEFPOINTS
 62
     0
100
AcDbPoint
 10
4971.823484456757
 20
2589.280239870864
 30
0.0
  0
POINT
  5
83F4
330
833F
100
AcDbEntity
  8
DEFPOINTS
 62
     0
100
AcDbPoint
 10
5483.823484456757
 20
2589.28023987086
 30
0.0
  0
POINT
  5
83F5
330
833F
100
AcDbEntity
  8
DEFPOINTS
 62
     0
100
AcDbPoint
 10
5483.823484456757
 20
2648.478676039663
 30
0.0
  0
ENDBLK
  5
8341
330
833F
100
AcDbEntity
  8
0
100
AcDbBlockEnd
  0
BLOCK
  5
834C
330
834B
100
AcDbEntity
  8
0
100
AcDbBlockBegin
  2
*D40
 70
     1
 10
0.0
 20
0.0
 30
0.0
  3
*D40
  1

  0
LINE
  5
83F6
330
834B
100
AcDbEntity
  8
3
 62
     0
370
    -2
100
AcDbLine
 10
5937.137684356692
 20
2229.280239870856
 30
0.0
 11
6067.388502977327
 21
2229.280239870856
 31
0.0
  0
LINE
  5
83F7
330
834B
100
AcDbEntity
  8
3
 62
     0
370
    -2
100
AcDbLine
 10
5829.823484456752
 20
1709.280239870858
 30
0.0
 11
6067.388502977326
 21
1709.280239870858
 31
0.0
  0
LINE
  5
83F8
330
834B
100
AcDbEntity
  8
3
 62
     0
370
    -2
100
AcDbLine
 10
6047.388502977327
 20
2189.280239870857
 30
0.0
 11
6047.388502977327
 21
1749.280239870858
 31
0.0
  0
INSERT
  5
83F9
330
834B
100
AcDbEntity
  8
3
 62
     0
370
    -2
100
AcDbBlockReference
  2
_OPEN
 10
6047.388502977327
 20
2229.280239870856
 30
0.0
 41
40.0
 42
40.0
 43
40.0
 50
90.0
  0
INSERT
  5
83FA
330
834B
100
AcDbEntity
  8
3
 62
     0
370
    -2
100
AcDbBlockReference
  2
_OPEN
 10
6047.388502977327
 20
1709.280239870858
 30
0.0
 41
40.0
 42
40.0
 43
40.0
 50
270.0
  0
MTEXT
  5
83FB
330
834B
100
AcDbEntity
  8
3
 62
     0
100
AcDbMText
 10
5997.388502977326
 20
1969.280239870858
 30
0.0
 40
60.0
 41
0.0
 71
     5
 72
     1
  1
\A1;520
 11
0.0000000000000001
 21
1.0
 31
0.0
 73
     1
 44
1.0
1001
ACAD
1000
MTEXTBEGIN
1070
    73
1070
     1
1070
    44
1040
1.0
1070
    74
1070
     0
1000
MTEXTEND
  0
POINT
  5
83FC
330
834B
100
AcDbEntity
  8
DEFPOINTS
 62
     0
100
AcDbPoint
 10
5927.137684356693
 20
2229.280239870856
 30
0.0
  0
POINT
  5
83FD
330
834B
100
AcDbEntity
  8
DEFPOINTS
 62
     0
100
AcDbPoint
 10
5819.823484456751
 20
1709.280239870858
 30
0.0
  0
POINT
  5
83FE
330
834B
100
AcDbEntity
  8
DEFPOINTS
 62
     0
100
AcDbPoint
 10
6047.388502977327
 20
1709.280239870858
 30
0.0
  0
ENDBLK
  5
834D
330
834B
100
AcDbEntity
  8
0
100
AcDbBlockEnd
  0
BLOCK
  5
8358
330
8357
100
AcDbEntity
  8
0
100
AcDbBlockBegin
  2
*D41
 70
     1
 10
0.0
 20
0.0
 30
0.0
  3
*D41
  1

  0
LINE
  5
83FF
330
8357
100
AcDbEntity
  8
3
 62
     0
370
    -2
100
AcDbLine
 10
7190.344997561763
 20
2566.526457417
 30
0.0
 11
7190.344997561763
 21
2710.220028753138
 31
0.0
  0
LINE
  5
8400
330
8357
100
AcDbEntity
  8
3
 62
     0
370
    -2
100
AcDbLine
 10
7565.344997561765
 20
2566.526457417
 30
0.0
 11
7565.344997561765
 21
2710.220028753138
 31
0.0
  0
LINE
  5
8401
330
8357
100
AcDbEntity
  8
3
 62
     0
370
    -2
100
AcDbLine
 10
7230.344997561764
 20
2690.220028753139
 30
0.0
 11
7525.344997561764
 21
2690.220028753139
 31
0.0
  0
INSERT
  5
8402
330
8357
100
AcDbEntity
  8
3
 62
     0
370
    -2
100
AcDbBlockReference
  2
_OPEN
 10
7190.344997561763
 20
2690.220028753139
 30
0.0
 41
40.0
 42
40.0
 43
40.0
 50
180.0
  0
INSERT
  5
8403
330
8357
100
AcDbEntity
  8
3
 62
     0
370
    -2
100
AcDbBlockReference
  2
_OPEN
 10
7565.344997561765
 20
2690.220028753139
 30
0.0
 41
40.0
 42
40.0
 43
40.0
  0
MTEXT
  5
8404
330
8357
100
AcDbEntity
  8
3
 62
     0
100
AcDbMText
 10
7378.450114946932
 20
2740.220028753138
 30
0.0
 40
60.0
 41
0.0
 71
     5
 72
     1
  1
\A1;375
 73
     1
 44
1.0
1001
ACAD
1000
MTEXTBEGIN
1070
    73
1070
     1
1070
    44
1040
1.0
1070
    74
1070
     0
1000
MTEXTEND
  0
POINT
  5
8405
330
8357
100
AcDbEntity
  8
DEFPOINTS
 62
     0
100
AcDbPoint
 10
7190.344997561763
 20
2556.526457417
 30
0.0
  0
POINT
  5
8406
330
8357
100
AcDbEntity
  8
DEFPOINTS
 62
     0
100
AcDbPoint
 10
7565.344997561765
 20
2556.526457417
 30
0.0
  0
POINT
  5
8407
330
8357
100
AcDbEntity
  8
DEFPOINTS
 62
     0
100
AcDbPoint
 10
7565.344997561765
 20
2690.220028753139
 30
0.0
  0
ENDBLK
  5
8359
330
8357
100
AcDbEntity
  8
0
100
AcDbBlockEnd
  0
BLOCK
  5
8364
330
8363
100
AcDbEntity
  8
0
100
AcDbBlockBegin
  2
*D42
 70
     1
 10
0.0
 20
0.0
 30
0.0
  3
*D42
  1

  0
LINE
  5
8408
330
8363
100
AcDbEntity
  8
3
 62
     0
370
    -2
100
AcDbLine
 10
7377.844997561765
 20
2769.426393335319
 30
0.0
 11
7377.844997561765
 21
2827.795739501997
 31
0.0
  0
LINE
  5
8409
330
8363
100
AcDbEntity
  8
3
 62
     0
370
    -2
100
AcDbLine
 10
7569.644997561765
 20
2519.280239870862
 30
0.0
 11
7569.644997561765
 21
2827.795739501997
 31
0.0
  0
LINE
  5
840A
330
8363
100
AcDbEntity
  8
3
 62
     0
370
    -2
100
AcDbLine
 10
7417.844997561765
 20
2807.795739501997
 30
0.0
 11
7529.644997561764
 21
2807.795739501997
 31
0.0
  0
INSERT
  5
840B
330
8363
100
AcDbEntity
  8
3
 62
     0
370
    -2
100
AcDbBlockReference
  2
_OPEN
 10
7377.844997561765
 20
2807.795739501997
 30
0.0
 41
40.0
 42
40.0
 43
40.0
 50
180.0
  0
INSERT
  5
840C
330
8363
100
AcDbEntity
  8
3
 62
     0
370
    -2
100
AcDbBlockReference
  2
_OPEN
 10
7569.644997561765
 20
2807.795739501997
 30
0.0
 41
40.0
 42
40.0
 43
40.0
  0
MTEXT
  5
840D
330
8363
100
AcDbEntity
  8
3
 62
     0
100
AcDbMText
 10
7473.744997561765
 20
2857.795739501997
 30
0.0
 40
60.0
 41
0.0
 71
     5
 72
     1
  1
\A1;192
 73
     1
 44
1.0
1001
ACAD
1000
MTEXTBEGIN
1070
    73
1070
     1
1070
    44
1040
1.0
1070
    74
1070
     0
1000
MTEXTEND
  0
POINT
  5
840E
330
8363
100
AcDbEntity
  8
DEFPOINTS
 62
     0
100
AcDbPoint
 10
7377.844997561765
 20
2759.426393335319
 30
0.0
  0
POINT
  5
840F
330
8363
100
AcDbEntity
  8
DEFPOINTS
 62
     0
100
AcDbPoint
 10
7569.644997561765
 20
2509.280239870863
 30
0.0
  0
POINT
  5
8410
330
8363
100
AcDbEntity
  8
DEFPOINTS
 62
     0
100
AcDbPoint
 10
7569.644997561765
 20
2807.795739501997
 30
0.0
  0
ENDBLK
  5
8365
330
8363
100
AcDbEntity
  8
0
100
AcDbBlockEnd
  0
BLOCK
  5
8370
330
836F
100
AcDbEntity
  8
0
100
AcDbBlockBegin
  2
*D43
 70
     1
 10
0.0
 20
0.0
 30
0.0
  3
*D43
  1

  0
LINE
  5
8411
330
836F
100
AcDbEntity
  8
3
 62
     0
370
    -2
100
AcDbLine
 10
6844.604759212254
 20
2459.280239870861
 30
0.0
 11
6844.604759212254
 21
2827.795739501997
 31
0.0
  0
LINE
  5
8412
330
836F
100
AcDbEntity
  8
3
 62
     0
370
    -2
100
AcDbLine
 10
7337.844997561766
 20
2807.795739501997
 30
0.0
 11
6884.604759212253
 21
2807.795739501997
 31
0.0
  0
INSERT
  5
8413
330
836F
100
AcDbEntity
  8
3
 62
     0
370
    -2
100
AcDbBlockReference
  2
_OPEN
 10
7377.844997561765
 20
2807.795739501997
 30
0.0
 41
40.0
 42
40.0
 43
40.0
  0
INSERT
  5
8414
330
836F
100
AcDbEntity
  8
3
 62
     0
370
    -2
100
AcDbBlockReference
  2
_OPEN
 10
6844.604759212254
 20
2807.795739501997
 30
0.0
 41
40.0
 42
40.0
 43
40.0
 50
180.0
  0
MTEXT
  5
8415
330
836F
100
AcDbEntity
  8
3
 62
     0
100
AcDbMText
 10
7111.224878387009
 20
2873.510025216283
 30
0.0
 40
60.0
 41
0.0
 71
     5
 72
     1
  1
\A1;(560)
 73
     1
 44
1.0
1001
ACAD
1000
MTEXTBEGIN
1070
    73
1070
     1
1070
    44
1040
1.0
1070
    74
1070
     0
1000
MTEXTEND
  0
POINT
  5
8416
330
836F
100
AcDbEntity
  8
DEFPOINTS
 62
     0
100
AcDbPoint
 10
7377.844997561765
 20
2759.426393335319
 30
0.0
  0
POINT
  5
8417
330
836F
100
AcDbEntity
  8
DEFPOINTS
 62
     0
100
AcDbPoint
 10
6844.604759212254
 20
2449.280239870861
 30
0.0
  0
POINT
  5
8418
330
836F
100
AcDbEntity
  8
DEFPOINTS
 62
     0
100
AcDbPoint
 10
6844.604759212254
 20
2807.795739501997
 30
0.0
  0
ENDBLK
  5
8371
330
836F
100
AcDbEntity
  8
0
100
AcDbBlockEnd
  0
BLOCK
  5
837B
330
837A
100
AcDbEntity
  8
0
100
AcDbBlockBegin
  2
*D44
 70
     1
 10
0.0
 20
0.0
 30
0.0
  3
*D44
  1

  0
LINE
  5
8419
330
837A
100
AcDbEntity
  8
3
 62
     0
370
    -2
100
AcDbLine
 10
7607.844997561764
 20
2479.280239870862
 30
0.0
 11
7789.301216430446
 21
2479.280239870862
 31
0.0
  0
LINE
  5
841A
330
837A
100
AcDbEntity
  8
3
 62
     0
370
    -2
100
AcDbLine
 10
7607.844997561764
 20
1979.280239870862
 30
0.0
 11
7789.301216430445
 21
1979.280239870861
 31
0.0
  0
LINE
  5
841B
330
837A
100
AcDbEntity
  8
3
 62
     0
370
    -2
100
AcDbLine
 10
7769.301216430446
 20
2439.280239870862
 30
0.0
 11
7769.301216430446
 21
2019.280239870862
 31
0.0
  0
INSERT
  5
841C
330
837A
100
AcDbEntity
  8
3
 62
     0
370
    -2
100
AcDbBlockReference
  2
_OPEN
 10
7769.301216430446
 20
2479.280239870862
 30
0.0
 41
40.0
 42
40.0
 43
40.0
 50
90.0
  0
INSERT
  5
841D
330
837A
100
AcDbEntity
  8
3
 62
     0
370
    -2
100
AcDbBlockReference
  2
_OPEN
 10
7769.301216430446
 20
1979.280239870861
 30
0.0
 41
40.0
 42
40.0
 43
40.0
 50
270.0
  0
MTEXT
  5
841E
330
837A
100
AcDbEntity
  8
3
 62
     0
100
AcDbMText
 10
7719.301216430446
 20
2229.020826052578
 30
0.0
 40
60.0
 41
0.0
 71
     5
 72
     1
  1
\A1;\U+03C6500
 11
0.0000000000000001
 21
1.0
 31
0.0
 73
     1
 44
1.0
1001
ACAD
1000
MTEXTBEGIN
1070
    73
1070
     1
1070
    44
1040
1.0
1070
    74
1070
     0
1000
MTEXTEND
  0
POINT
  5
841F
330
837A
100
AcDbEntity
  8
DEFPOINTS
 62
     0
100
AcDbPoint
 10
7597.844997561764
 20
2479.280239870862
 30
0.0
  0
POINT
  5
8420
330
837A
100
AcDbEntity
  8
DEFPOINTS
 62
     0
100
AcDbPoint
 10
7597.844997561764
 20
1979.280239870862
 30
0.0
  0
POINT
  5
8421
330
837A
100
AcDbEntity
  8
DEFPOINTS
 62
     0
100
AcDbPoint
 10
7769.301216430446
 20
1979.280239870861
 30
0.0
  0
ENDBLK
  5
837C
330
837A
100
AcDbEntity
  8
0
100
AcDbBlockEnd
  0
BLOCK
  5
8387
330
8386
100
AcDbEntity
  8
0
100
AcDbBlockBegin
  2
*D45
 70
     1
 10
0.0
 20
0.0
 30
0.0
  3
*D45
  1

  0
LINE
  5
8422
330
8386
100
AcDbEntity
  8
3
 62
     0
370
    -2
100
AcDbLine
 10
5525.423484456758
 20
2589.28023987086
 30
0.0
 11
6067.388502977326
 21
2589.28023987086
 31
0.0
  0
LINE
  5
8423
330
8386
100
AcDbEntity
  8
3
 62
     0
370
    -2
100
AcDbLine
 10
6047.388502977327
 20
2269.280239870857
 30
0.0
 11
6047.388502977327
 21
2549.28023987086
 31
0.0
  0
INSERT
  5
8424
330
8386
100
AcDbEntity
  8
3
 62
     0
370
    -2
100
AcDbBlockReference
  2
_OPEN
 10
6047.388502977327
 20
2229.280239870856
 30
0.0
 41
40.0
 42
40.0
 43
40.0
 50
270.0
  0
INSERT
  5
8425
330
8386
100
AcDbEntity
  8
3
 62
     0
370
    -2
100
AcDbBlockReference
  2
_OPEN
 10
6047.388502977327
 20
2589.28023987086
 30
0.0
 41
40.0
 42
40.0
 43
40.0
 50
90.0
  0
MTEXT
  5
8426
330
8386
100
AcDbEntity
  8
3
 62
     0
100
AcDbMText
 10
5997.388502977326
 20
2409.280239870859
 30
0.0
 40
60.0
 41
0.0
 71
     5
 72
     1
  1
\A1;360
 11
0.0000000000000001
 21
1.0
 31
0.0
 73
     1
 44
1.0
1001
ACAD
1000
MTEXTBEGIN
1070
    73
1070
     1
1070
    44
1040
1.0
1070
    74
1070
     0
1000
MTEXTEND
  0
POINT
  5
8427
330
8386
100
AcDbEntity
  8
DEFPOINTS
 62
     0
100
AcDbPoint
 10
5927.137684356693
 20
2229.280239870856
 30
0.0
  0
POINT
  5
8428
330
8386
100
AcDbEntity
  8
DEFPOINTS
 62
     0
100
AcDbPoint
 10
5515.423484456757
 20
2589.28023987086
 30
0.0
  0
POINT
  5
8429
330
8386
100
AcDbEntity
  8
DEFPOINTS
 62
     0
100
AcDbPoint
 10
6047.388502977327
 20
2589.28023987086
 30
0.0
  0
ENDBLK
  5
8388
330
8386
100
AcDbEntity
  8
0
100
AcDbBlockEnd
  0
BLOCK
  5
8392
330
8391
100
AcDbEntity
  8
0
100
AcDbBlockBegin
  2
*D46
 70
     1
 10
0.0
 20
0.0
 30
0.0
  3
*D46
  1

  0
LINE
  5
842A
330
8391
100
AcDbEntity
  8
3
 62
     0
370
    -2
100
AcDbLine
 10
5872.271475264614
 20
2202.28023987086
 30
0.0
 11
5872.271475264614
 21
2786.845258391432
 31
0.0
  0
LINE
  5
842B
330
8391
100
AcDbEntity
  8
3
 62
     0
370
    -2
100
AcDbLine
 10
5549.823484456758
 20
2766.845258391433
 30
0.0
 11
5832.271475264614
 21
2766.845258391433
 31
0.0
  0
INSERT
  5
842C
330
8391
100
AcDbEntity
  8
3
 62
     0
370
    -2
100
AcDbBlockReference
  2
_OPEN
 10
5509.823484456758
 20
2766.845258391433
 30
0.0
 41
40.0
 42
40.0
 43
40.0
 50
180.0
  0
INSERT
  5
842D
330
8391
100
AcDbEntity
  8
3
 62
     0
370
    -2
100
AcDbBlockReference
  2
_OPEN
 10
5872.271475264614
 20
2766.845258391433
 30
0.0
 41
40.0
 42
40.0
 43
40.0
  0
MTEXT
  5
842E
330
8391
100
AcDbEntity
  8
3
 62
     0
100
AcDbMText
 10
5691.047479860686
 20
2816.845258391433
 30
0.0
 40
60.0
 41
0.0
 71
     5
 72
     1
  1
\A1;362
 73
     1
 44
1.0
1001
ACAD
1000
MTEXTBEGIN
1070
    73
1070
     1
1070
    44
1040
1.0
1070
    74
1070
     0
1000
MTEXTEND
  0
POINT
  5
842F
330
8391
100
AcDbEntity
  8
DEFPOINTS
 62
     0
100
AcDbPoint
 10
5509.823484456758
 20
2646.594439770798
 30
0.0
  0
POINT
  5
8430
330
8391
100
AcDbEntity
  8
DEFPOINTS
 62
     0
100
AcDbPoint
 10
5872.271475264614
 20
2192.28023987086
 30
0.0
  0
POINT
  5
8431
330
8391
100
AcDbEntity
  8
DEFPOINTS
 62
     0
100
AcDbPoint
 10
5872.271475264614
 20
2766.845258391433
 30
0.0
  0
ENDBLK
  5
8393
330
8391
100
AcDbEntity
  8
0
100
AcDbBlockEnd
  0
BLOCK
  5
839D
330
839C
100
AcDbEntity
  8
0
100
AcDbBlockBegin
  2
*D47
 70
     1
 10
0.0
 20
0.0
 30
0.0
  3
*D47
  1

  0
LINE
  5
8432
330
839C
100
AcDbEntity
  8
3
 62
     0
370
    -2
100
AcDbLine
 10
4699.823484456751
 20
1699.280239870867
 30
0.0
 11
4699.823484456751
 21
1541.260416947229
 31
0.0
  0
LINE
  5
8433
330
839C
100
AcDbEntity
  8
3
 62
     0
370
    -2
100
AcDbLine
 10
5509.82348445675
 20
1699.28023987086
 30
0.0
 11
5509.82348445675
 21
1541.260416947229
 31
0.0
  0
LINE
  5
8434
330
839C
100
AcDbEntity
  8
3
 62
     0
370
    -2
100
AcDbLine
 10
4739.823484456752
 20
1561.260416947229
 30
0.0
 11
5469.82348445675
 21
1561.260416947229
 31
0.0
  0
INSERT
  5
8435
330
839C
100
AcDbEntity
  8
3
 62
     0
370
    -2
100
AcDbBlockReference
  2
_OPEN
 10
4699.823484456751
 20
1561.260416947229
 30
0.0
 41
40.0
 42
40.0
 43
40.0
 50
180.0
  0
INSERT
  5
8436
330
839C
100
AcDbEntity
  8
3
 62
     0
370
    -2
100
AcDbBlockReference
  2
_OPEN
 10
5509.82348445675
 20
1561.260416947229
 30
0.0
 41
40.0
 42
40.0
 43
40.0
  0
MTEXT
  5
8437
330
839C
100
AcDbEntity
  8
3
 62
     0
100
AcDbMText
 10
5104.82348445675
 20
1611.260416947229
 30
0.0
 40
60.0
 41
0.0
 71
     5
 72
     1
  1
\A1;810
 73
     1
 44
1.0
1001
ACAD
1000
MTEXTBEGIN
1070
    73
1070
     1
1070
    44
1040
1.0
1070
    74
1070
     0
1000
MTEXTEND
  0
POINT
  5
8438
330
839C
100
AcDbEntity
  8
DEFPOINTS
 62
     0
100
AcDbPoint
 10
4699.823484456751
 20
1709.280239870867
 30
0.0
  0
POINT
  5
8439
330
839C
100
AcDbEntity
  8
DEFPOINTS
 62
     0
100
AcDbPoint
 10
5509.82348445675
 20
1709.28023987086
 30
0.0
  0
POINT
  5
843A
330
839C
100
AcDbEntity
  8
DEFPOINTS
 62
     0
100
AcDbPoint
 10
5509.82348445675
 20
1561.260416947229
 30
0.0
  0
ENDBLK
  5
839E
330
839C
100
AcDbEntity
  8
0
100
AcDbBlockEnd
  0
BLOCK
  5
83A9
330
83A8
100
AcDbEntity
  8
0
100
AcDbBlockBegin
  2
*D48
 70
     1
 10
0.0
 20
0.0
 30
0.0
  3
*D48
  1

  0
LINE
  5
843B
330
83A8
100
AcDbEntity
  8
3
 62
     0
370
    -2
100
AcDbLine
 10
5509.82348445675
 20
1699.28023987086
 30
0.0
 11
5509.82348445675
 21
1541.260416947229
 31
0.0
  0
LINE
  5
843C
330
83A8
100
AcDbEntity
  8
3
 62
     0
370
    -2
100
AcDbLine
 10
5819.823484456751
 20
1699.280239870858
 30
0.0
 11
5819.823484456751
 21
1541.260416947229
 31
0.0
  0
LINE
  5
843D
330
83A8
100
AcDbEntity
  8
3
 62
     0
370
    -2
100
AcDbLine
 10
5549.82348445675
 20
1561.260416947229
 30
0.0
 11
5779.823484456752
 21
1561.260416947229
 31
0.0
  0
INSERT
  5
843E
330
83A8
100
AcDbEntity
  8
3
 62
     0
370
    -2
100
AcDbBlockReference
  2
_OPEN
 10
5509.82348445675
 20
1561.260416947229
 30
0.0
 41
40.0
 42
40.0
 43
40.0
 50
180.0
  0
INSERT
  5
843F
330
83A8
100
AcDbEntity
  8
3
 62
     0
370
    -2
100
AcDbBlockReference
  2
_OPEN
 10
5819.823484456751
 20
1561.260416947229
 30
0.0
 41
40.0
 42
40.0
 43
40.0
  0
MTEXT
  5
8440
330
83A8
100
AcDbEntity
  8
3
 62
     0
100
AcDbMText
 10
5664.82348445675
 20
1611.260416947229
 30
0.0
 40
60.0
 41
0.0
 71
     5
 72
     1
  1
\A1;310
 73
     1
 44
1.0
1001
ACAD
1000
MTEXTBEGIN
1070
    73
1070
     1
1070
    44
1040
1.0
1070
    74
1070
     0
1000
MTEXTEND
  0
POINT
  5
8441
330
83A8
100
AcDbEntity
  8
DEFPOINTS
 62
     0
100
AcDbPoint
 10
5509.82348445675
 20
1709.28023987086
 30
0.0
  0
POINT
  5
8442
330
83A8
100
AcDbEntity
  8
DEFPOINTS
 62
     0
100
AcDbPoint
 10
5819.823484456751
 20
1709.280239870858
 30
0.0
  0
POINT
  5
8443
330
83A8
100
AcDbEntity
  8
DEFPOINTS
 62
     0
100
AcDbPoint
 10
5819.823484456751
 20
1561.260416947229
 30
0.0
  0
ENDBLK
  5
83AA
330
83A8
100
AcDbEntity
  8
0
100
AcDbBlockEnd
  0
BLOCK
  5
83B5
330
83B4
100
AcDbEntity
  8
0
100
AcDbBlockBegin
  2
*D49
 70
     1
 10
0.0
 20
0.0
 30
0.0
  3
*D49
  1

  0
LINE
  5
8444
330
83B4
100
AcDbEntity
  8
3
 62
     0
370
    -2
100
AcDbLine
 10
6982.844997561763
 20
1699.28023987087
 30
0.0
 11
6982.844997561763
 21
1541.260416947229
 31
0.0
  0
LINE
  5
8445
330
83B4
100
AcDbEntity
  8
3
 62
     0
370
    -2
100
AcDbLine
 10
7377.844997561765
 20
1699.280239870871
 30
0.0
 11
7377.844997561765
 21
1541.260416947229
 31
0.0
  0
LINE
  5
8446
330
83B4
100
AcDbEntity
  8
3
 62
     0
370
    -2
100
AcDbLine
 10
7022.844997561763
 20
1561.260416947229
 30
0.0
 11
7337.844997561764
 21
1561.260416947229
 31
0.0
  0
INSERT
  5
8447
330
83B4
100
AcDbEntity
  8
3
 62
     0
370
    -2
100
AcDbBlockReference
  2
_OPEN
 10
6982.844997561763
 20
1561.260416947229
 30
0.0
 41
40.0
 42
40.0
 43
40.0
 50
180.0
  0
INSERT
  5
8448
330
83B4
100
AcDbEntity
  8
3
 62
     0
370
    -2
100
AcDbBlockReference
  2
_OPEN
 10
7377.844997561765
 20
1561.260416947229
 30
0.0
 41
40.0
 42
40.0
 43
40.0
  0
MTEXT
  5
8449
330
83B4
100
AcDbEntity
  8
3
 62
     0
100
AcDbMText
 10
7180.344997561764
 20
1611.260416947229
 30
0.0
 40
60.0
 41
0.0
 71
     5
 72
     1
  1
\A1;395
 73
     1
 44
1.0
1001
ACAD
1000
MTEXTBEGIN
1070
    73
1070
     1
1070
    44
1040
1.0
1070
    74
1070
     0
1000
MTEXTEND
  0
POINT
  5
844A
330
83B4
100
AcDbEntity
  8
DEFPOINTS
 62
     0
100
AcDbPoint
 10
6982.844997561763
 20
1709.28023987087
 30
0.0
  0
POINT
  5
844B
330
83B4
100
AcDbEntity
  8
DEFPOINTS
 62
     0
100
AcDbPoint
 10
7377.844997561765
 20
1709.280239870871
 30
0.0
  0
POINT
  5
844C
330
83B4
100
AcDbEntity
  8
DEFPOINTS
 62
     0
100
AcDbPoint
 10
7377.844997561765
 20
1561.260416947229
 30
0.0
  0
ENDBLK
  5
83B6
330
83B4
100
AcDbEntity
  8
0
100
AcDbBlockEnd
  0
BLOCK
  5
83C1
330
83C0
100
AcDbEntity
  8
0
100
AcDbBlockBegin
  2
*D50
 70
     1
 10
0.0
 20
0.0
 30
0.0
  3
*D50
  1

  0
LINE
  5
844D
330
83C0
100
AcDbEntity
  8
3
 62
     0
370
    -2
100
AcDbLine
 10
7377.844997561765
 20
1699.280239870871
 30
0.0
 11
7377.844997561765
 21
1541.260416947229
 31
0.0
  0
LINE
  5
844E
330
83C0
100
AcDbEntity
  8
3
 62
     0
370
    -2
100
AcDbLine
 10
7607.844997561764
 20
1699.280239870871
 30
0.0
 11
7607.844997561764
 21
1541.260416947229
 31
0.0
  0
LINE
  5
844F
330
83C0
100
AcDbEntity
  8
3
 62
     0
370
    -2
100
AcDbLine
 10
7417.844997561764
 20
1561.260416947229
 30
0.0
 11
7567.844997561763
 21
1561.260416947229
 31
0.0
  0
INSERT
  5
8450
330
83C0
100
AcDbEntity
  8
3
 62
     0
370
    -2
100
AcDbBlockReference
  2
_OPEN
 10
7377.844997561765
 20
1561.260416947229
 30
0.0
 41
40.0
 42
40.0
 43
40.0
 50
180.0
  0
INSERT
  5
8451
330
83C0
100
AcDbEntity
  8
3
 62
     0
370
    -2
100
AcDbBlockReference
  2
_OPEN
 10
7607.844997561764
 20
1561.260416947229
 30
0.0
 41
40.0
 42
40.0
 43
40.0
  0
MTEXT
  5
8452
330
83C0
100
AcDbEntity
  8
3
 62
     0
100
AcDbMText
 10
7492.844997561764
 20
1611.260416947229
 30
0.0
 40
60.0
 41
0.0
 71
     5
 72
     1
  1
\A1;230
 73
     1
 44
1.0
1001
ACAD
1000
MTEXTBEGIN
1070
    73
1070
     1
1070
    44
1040
1.0
1070
    74
1070
     0
1000
MTEXTEND
  0
POINT
  5
8453
330
83C0
100
AcDbEntity
  8
DEFPOINTS
 62
     0
100
AcDbPoint
 10
7377.844997561765
 20
1709.280239870871
 30
0.0
  0
POINT
  5
8454
330
83C0
100
AcDbEntity
  8
DEFPOINTS
 62
     0
100
AcDbPoint
 10
7607.844997561764
 20
1709.280239870871
 30
0.0
  0
POINT
  5
8455
330
83C0
100
AcDbEntity
  8
DEFPOINTS
 62
     0
100
AcDbPoint
 10
7607.844997561764
 20
1561.260416947229
 30
0.0
  0
ENDBLK
  5
83C2
330
83C0
100
AcDbEntity
  8
0
100
AcDbBlockEnd
  0
BLOCK
  5
83CD
330
83CC
100
AcDbEntity
  8
0
100
AcDbBlockBegin
  2
*D51
 70
     1
 10
0.0
 20
0.0
 30
0.0
  3
*D51
  1

  0
LINE
  5
8456
330
83CC
100
AcDbEntity
  8
3
 62
     0
370
    -2
100
AcDbLine
 10
5819.823484456764
 20
4049.394351111517
 30
0.0
 11
5819.823484456764
 21
4262.76222173444
 31
0.0
  0
LINE
  5
8457
330
83CC
100
AcDbEntity
  8
3
 62
     0
370
    -2
100
AcDbLine
 10
4699.823484456763
 20
4049.394351111527
 30
0.0
 11
4699.823484456763
 21
4262.76222173444
 31
0.0
  0
LINE
  5
8458
330
83CC
100
AcDbEntity
  8
3
 62
     0
370
    -2
100
AcDbLine
 10
5779.823484456763
 20
4242.76222173444
 30
0.0
 11
4739.823484456763
 21
4242.76222173444
 31
0.0
  0
INSERT
  5
8459
330
83CC
100
AcDbEntity
  8
3
 62
     0
370
    -2
100
AcDbBlockReference
  2
_OPEN
 10
5819.823484456764
 20
4242.76222173444
 30
0.0
 41
40.0
 42
40.0
 43
40.0
  0
INSERT
  5
845A
330
83CC
100
AcDbEntity
  8
3
 62
     0
370
    -2
100
AcDbBlockReference
  2
_OPEN
 10
4699.823484456763
 20
4242.76222173444
 30
0.0
 41
40.0
 42
40.0
 43
40.0
 50
180.0
  0
MTEXT
  5
845B
330
83CC
100
AcDbEntity
  8
3
 62
     0
100
AcDbMText
 10
5312.602447451496
 20
4292.76222173444
 30
0.0
 40
60.0
 41
0.0
 71
     5
 72
     1
  1
\A1;1120
 73
     1
 44
1.0
1001
ACAD
1000
MTEXTBEGIN
1070
    73
1070
     1
1070
    44
1040
1.0
1070
    74
1070
     0
1000
MTEXTEND
  0
POINT
  5
845C
330
83CC
100
AcDbEntity
  8
DEFPOINTS
 62
     0
100
AcDbPoint
 10
5819.823484456764
 20
4039.394351111517
 30
0.0
  0
POINT
  5
845D
330
83CC
100
AcDbEntity
  8
DEFPOINTS
 62
     0
100
AcDbPoint
 10
4699.823484456763
 20
4039.394351111528
 30
0.0
  0
POINT
  5
845E
330
83CC
100
AcDbEntity
  8
DEFPOINTS
 62
     0
100
AcDbPoint
 10
4699.823484456763
 20
4242.76222173444
 30
0.0
  0
ENDBLK
  5
83CE
330
83CC
100
AcDbEntity
  8
0
100
AcDbBlockEnd
  0
BLOCK
  5
83D9
330
83D8
100
AcDbEntity
  8
0
100
AcDbBlockBegin
  2
*D52
 70
     1
 10
0.0
 20
0.0
 30
0.0
  3
*D52
  1

  0
LINE
  5
845F
330
83D8
100
AcDbEntity
  8
3
 62
     0
370
    -2
100
AcDbLine
 10
4689.823484456763
 20
4039.394351111528
 30
0.0
 11
4493.199611917848
 21
4039.394351111528
 31
0.0
  0
LINE
  5
8460
330
83D8
100
AcDbEntity
  8
3
 62
     0
370
    -2
100
AcDbLine
 10
4689.823484456758
 20
3414.394351111527
 30
0.0
 11
4493.199611917848
 21
3414.394351111527
 31
0.0
  0
LINE
  5
8461
330
83D8
100
AcDbEntity
  8
3
 62
     0
370
    -2
100
AcDbLine
 10
4513.199611917849
 20
3999.394351111528
 30
0.0
 11
4513.199611917849
 21
3454.394351111527
 31
0.0
  0
INSERT
  5
8462
330
83D8
100
AcDbEntity
  8
3
 62
     0
370
    -2
100
AcDbBlockReference
  2
_OPEN
 10
4513.199611917849
 20
4039.394351111528
 30
0.0
 41
40.0
 42
40.0
 43
40.0
 50
90.0
  0
INSERT
  5
8463
330
83D8
100
AcDbEntity
  8
3
 62
     0
370
    -2
100
AcDbBlockReference
  2
_OPEN
 10
4513.199611917849
 20
3414.394351111527
 30
0.0
 41
40.0
 42
40.0
 43
40.0
 50
270.0
  0
MTEXT
  5
8464
330
83D8
100
AcDbEntity
  8
3
 62
     0
100
AcDbMText
 10
4463.199611917847
 20
3734.421218982978
 30
0.0
 40
60.0
 41
0.0
 71
     5
 72
     1
  1
\A1;625
 11
0.0000000000000001
 21
1.0
 31
0.0
 73
     1
 44
1.0
1001
ACAD
1000
MTEXTBEGIN
1070
    73
1070
     1
1070
    44
1040
1.0
1070
    74
1070
     0
1000
MTEXTEND
  0
POINT
  5
8465
330
83D8
100
AcDbEntity
  8
DEFPOINTS
 62
     0
100
AcDbPoint
 10
4699.823484456763
 20
4039.394351111528
 30
0.0
  0
POINT
  5
8466
330
83D8
100
AcDbEntity
  8
DEFPOINTS
 62
     0
100
AcDbPoint
 10
4699.823484456759
 20
3414.394351111527
 30
0.0
  0
POINT
  5
8467
330
83D8
100
AcDbEntity
  8
DEFPOINTS
 62
     0
100
AcDbPoint
 10
4513.199611917849
 20
3414.394351111527
 30
0.0
  0
ENDBLK
  5
83DA
330
83D8
100
AcDbEntity
  8
0
100
AcDbBlockEnd
  0
BLOCK
  5
84B8
330
84B7
100
AcDbEntity
  8
0
100
AcDbBlockBegin
  2
*D53
 70
     1
 10
0.0
 20
0.0
 30
0.0
  3
*D53
  1

  0
LINE
  5
84E1
330
84B7
100
AcDbEntity
  8
3
 62
     0
370
    -2
100
AcDbLine
 10
845.1606858614322
 20
4003.713410176738
 30
0.0
 11
845.1606858614322
 21
4217.081280799661
 31
0.0
  0
LINE
  5
84E2
330
84B7
100
AcDbEntity
  8
3
 62
     0
370
    -2
100
AcDbLine
 10
1965.160685861432
 20
4003.713410176748
 30
0.0
 11
1965.160685861432
 21
4217.081280799661
 31
0.0
  0
LINE
  5
84E3
330
84B7
100
AcDbEntity
  8
3
 62
     0
370
    -2
100
AcDbLine
 10
885.1606858614323
 20
4197.08128079966
 30
0.0
 11
1925.160685861432
 21
4197.08128079966
 31
0.0
  0
INSERT
  5
84E4
330
84B7
100
AcDbEntity
  8
3
 62
     0
370
    -2
100
AcDbBlockReference
  2
_OPEN
 10
845.1606858614322
 20
4197.08128079966
 30
0.0
 41
40.0
 42
40.0
 43
40.0
 50
180.0
  0
INSERT
  5
84E5
330
84B7
100
AcDbEntity
  8
3
 62
     0
370
    -2
100
AcDbBlockReference
  2
_OPEN
 10
1965.160685861432
 20
4197.08128079966
 30
0.0
 41
40.0
 42
40.0
 43
40.0
  0
MTEXT
  5
84E6
330
84B7
100
AcDbEntity
  8
3
 62
     0
100
AcDbMText
 10
1352.381722866699
 20
4247.081280799661
 30
0.0
 40
60.0
 41
0.0
 71
     5
 72
     1
  1
\A1;1120
 73
     1
 44
1.0
1001
ACAD
1000
MTEXTBEGIN
1070
    73
1070
     1
1070
    44
1040
1.0
1070
    74
1070
     0
1000
MTEXTEND
  0
POINT
  5
84E7
330
84B7
100
AcDbEntity
  8
DEFPOINTS
 62
     0
100
AcDbPoint
 10
845.1606858614322
 20
3993.713410176738
 30
0.0
  0
POINT
  5
84E8
330
84B7
100
AcDbEntity
  8
DEFPOINTS
 62
     0
100
AcDbPoint
 10
1965.160685861432
 20
3993.713410176749
 30
0.0
  0
POINT
  5
84E9
330
84B7
100
AcDbEntity
  8
DEFPOINTS
 62
     0
100
AcDbPoint
 10
1965.160685861432
 20
4197.08128079966
 30
0.0
  0
ENDBLK
  5
84B9
330
84B7
100
AcDbEntity
  8
0
100
AcDbBlockEnd
  0
BLOCK
  5
84C4
330
84C3
100
AcDbEntity
  8
0
100
AcDbBlockBegin
  2
*D54
 70
     1
 10
0.0
 20
0.0
 30
0.0
  3
*D54
  1

  0
LINE
  5
84EA
330
84C3
100
AcDbEntity
  8
3
 62
     0
370
    -2
100
AcDbLine
 10
1975.160685861432
 20
3993.713410176749
 30
0.0
 11
2171.784558400349
 21
3993.713410176749
 31
0.0
  0
LINE
  5
84EB
330
84C3
100
AcDbEntity
  8
3
 62
     0
370
    -2
100
AcDbLine
 10
1975.160685861437
 20
3368.713410176748
 30
0.0
 11
2171.784558400349
 21
3368.713410176748
 31
0.0
  0
LINE
  5
84EC
330
84C3
100
AcDbEntity
  8
3
 62
     0
370
    -2
100
AcDbLine
 10
2151.784558400349
 20
3953.713410176749
 30
0.0
 11
2151.784558400349
 21
3408.713410176748
 31
0.0
  0
INSERT
  5
84ED
330
84C3
100
AcDbEntity
  8
3
 62
     0
370
    -2
100
AcDbBlockReference
  2
_OPEN
 10
2151.784558400349
 20
3993.713410176749
 30
0.0
 41
40.0
 42
40.0
 43
40.0
 50
90.0
  0
INSERT
  5
84EE
330
84C3
100
AcDbEntity
  8
3
 62
     0
370
    -2
100
AcDbBlockReference
  2
_OPEN
 10
2151.784558400349
 20
3368.713410176748
 30
0.0
 41
40.0
 42
40.0
 43
40.0
 50
270.0
  0
MTEXT
  5
84EF
330
84C3
100
AcDbEntity
  8
3
 62
     0
100
AcDbMText
 10
2101.784558400348
 20
3688.740278048199
 30
0.0
 40
60.0
 41
0.0
 71
     5
 72
     1
  1
\A1;625
 11
0.0000000000000001
 21
1.0
 31
0.0
 73
     1
 44
1.0
1001
ACAD
1000
MTEXTBEGIN
1070
    73
1070
     1
1070
    44
1040
1.0
1070
    74
1070
     0
1000
MTEXTEND
  0
POINT
  5
84F0
330
84C3
100
AcDbEntity
  8
DEFPOINTS
 62
     0
100
AcDbPoint
 10
1965.160685861432
 20
3993.713410176749
 30
0.0
  0
POINT
  5
84F1
330
84C3
100
AcDbEntity
  8
DEFPOINTS
 62
     0
100
AcDbPoint
 10
1965.160685861437
 20
3368.713410176748
 30
0.0
  0
POINT
  5
84F2
330
84C3
100
AcDbEntity
  8
DEFPOINTS
 62
     0
100
AcDbPoint
 10
2151.784558400349
 20
3368.713410176748
 30
0.0
  0
ENDBLK
  5
84C5
330
84C3
100
AcDbEntity
  8
0
100
AcDbBlockEnd
  0
ENDSEC
  0
SECTION
  2
ENTITIES
  0
LINE
  5
7B33
330
19
100
AcDbEntity
  8
1
100
AcDbLine
 10
2757.330537805765
 20
2123.599298936083
 30
0.0
 11
2962.330537805766
 21
2123.599298936083
 31
0.0
  0
LINE
  5
7B34
330
19
100
AcDbEntity
  8
1
100
AcDbLine
 10
2756.830537805765
 20
1738.599298936091
 30
0.0
 11
3381.830537805765
 21
1738.599298936092
 31
0.0
  0
LINE
  5
7B35
330
19
100
AcDbEntity
  8
1
100
AcDbLine
 10
2756.830537805764
 20
1663.599298936091
 30
0.0
 11
3381.830537805765
 21
1663.599298936092
 31
0.0
  0
LINE
  5
7B36
330
19
100
AcDbEntity
  8
1
100
AcDbLine
 10
2757.330537805765
 20
2120.399298936082
 30
0.0
 11
2962.330537805766
 21
2120.399298936085
 31
0.0
  0
LINE
  5
7B37
330
19
100
AcDbEntity
  8
2
100
AcDbLine
 10
2536.499626049663
 20
2183.599298936083
 30
0.0
 11
3395.706797645881
 21
2183.599298936083
 31
0.0
1001
ACAD
1000
ASC_BOUNDS
1002
{
1070
    19
1002
}
  0
LINE
  5
7B38
330
19
100
AcDbEntity
  8
1
100
AcDbLine
 10
2791.830537805765
 20
1663.599298936091
 30
0.0
 11
3381.830537805765
 21
1663.599298936092
 31
0.0
  0
CIRCLE
  5
7B39
330
19
100
AcDbEntity
  8
1
100
AcDbCircle
 10
1155.160685861441
 20
2183.599298936081
 30
0.0
 40
139.7
  0
ARC
  5
7B3A
330
19
100
AcDbEntity
  8
1
100
AcDbCircle
 10
1124.160685861442
 20
2152.599298936081
 30
0.0
 40
331.1837981443563
100
AcDbArc
 50
93.54882950407729
 51
174.9575489308296
  0
LINE
  5
7B3B
330
19
100
AcDbEntity
  8
1
100
AcDbLine
 10
1693.160685861438
 20
2543.599298936085
 30
0.0
 11
1664.160685861441
 21
2183.599298936085
 31
0.0
  0
LINE
  5
7B3C
330
19
100
AcDbEntity
  8
1
100
AcDbLine
 10
2665.530537805764
 20
2323.299298936083
 30
0.0
 11
2665.530537805766
 21
2043.899298936082
 31
0.0
  0
LINE
  5
7B3D
330
19
100
AcDbEntity
  8
1
100
AcDbLine
 10
2705.530537805764
 20
2323.299298936083
 30
0.0
 11
2705.530537805766
 21
2043.899298936082
 31
0.0
  0
LINE
  5
7B3E
330
19
100
AcDbEntity
  8
1
100
AcDbLine
 10
2618.590299456254
 20
2403.599298936083
 30
0.0
 11
2618.590299456255
 21
1738.59929893609
 31
0.0
  0
LINE
  5
7B3F
330
19
100
AcDbEntity
  8
2
100
AcDbLine
 10
737.8464859615032
 20
2183.599298936078
 30
0.0
 11
1687.795484133789
 21
2183.599298936085
 31
0.0
  0
ARC
  5
7B40
330
19
100
AcDbEntity
  8
1
100
AcDbCircle
 10
1192.16068586144
 20
2220.599298936081
 30
0.0
 40
473.4479908078608
100
AcDbArc
 50
270.0000000000005
 51
355.5177596295755
  0
LINE
  5
7B41
330
19
100
AcDbEntity
  8
1
100
AcDbLine
 10
845.1606858614432
 20
1728.599298936079
 30
0.0
 11
1965.160685861443
 21
1728.599298936088
 31
0.0
  0
LINE
  5
7B42
330
19
100
AcDbEntity
  8
1
100
AcDbLine
 10
845.1606858614441
 20
1663.599298936079
 30
0.0
 11
1965.160685861444
 21
1663.599298936088
 31
0.0
  0
CIRCLE
  5
7B43
330
19
100
AcDbEntity
  8
1
100
AcDbCircle
 10
1805.160685861442
 20
1851.599298936086
 30
0.0
 40
57.14999999999999
  0
LINE
  5
7B44
330
19
100
AcDbEntity
  8
1
100
AcDbLine
 10
1805.160685861443
 20
1782.615198936086
 30
0.0
 11
1805.160685861441
 21
1960.060398936087
 31
0.0
  0
LINE
  5
7B45
330
19
100
AcDbEntity
  8
1
100
AcDbLine
 10
1928.876580386257
 20
1728.599298936087
 30
0.0
 11
1681.444791336631
 21
1728.599298936085
 31
0.0
  0
LINE
  5
7B46
330
19
100
AcDbEntity
  8
1
100
AcDbLine
 10
1965.160685861444
 20
1663.599298936088
 30
0.0
 11
1965.160685861443
 21
1728.599298936088
 31
0.0
  0
ARC
  5
7B47
330
19
100
AcDbEntity
  8
1
100
AcDbCircle
 10
1192.160685861442
 20
2146.599298936081
 30
0.0
 40
399.4479908078606
100
AcDbArc
 50
174.9575489308296
 51
270.0000000000005
  0
LINE
  5
7B48
330
19
100
AcDbEntity
  8
2
100
AcDbLine
 10
1155.160685861439
 20
2570.697355126677
 30
0.0
 11
1155.160685861447
 21
1503.599298936081
 31
0.0
  0
LINE
  5
7B49
330
19
100
AcDbEntity
  8
1
100
AcDbLine
 10
845.1606858614441
 20
1663.599298936079
 30
0.0
 11
845.1606858614432
 21
1728.599298936079
 31
0.0
  0
LINE
  5
7B4A
330
19
100
AcDbEntity
  8
1
100
AcDbLine
 10
2665.530537805766
 20
2043.899298936082
 30
0.0
 11
2665.530537805766
 21
1792.449298936085
 31
0.0
  0
LINE
  5
7B4B
330
19
100
AcDbEntity
  8
1
100
AcDbLine
 10
2705.530537805766
 20
2043.899298936082
 30
0.0
 11
2705.530537805766
 21
1792.449298936085
 31
0.0
  0
LINE
  5
7B4C
330
19
100
AcDbEntity
  8
1
100
AcDbLine
 10
2757.330537805765
 20
2123.599298936083
 30
0.0
 11
2757.330537805766
 21
1935.599298936091
 31
0.0
  0
LINE
  5
7B4D
330
19
100
AcDbEntity
  8
1
100
AcDbLine
 10
2760.530537805765
 20
2120.399298936082
 30
0.0
 11
2760.530537805765
 21
1935.599298936091
 31
0.0
  0
LINE
  5
7B4E
330
19
100
AcDbEntity
  8
1
100
AcDbLine
 10
2665.530537805767
 20
1792.449298936085
 30
0.0
 11
2705.530537805766
 21
1792.449298936085
 31
0.0
  0
LINE
  5
7B4F
330
19
100
AcDbEntity
  8
1
100
AcDbLine
 10
2618.590299456255
 20
1738.59929893609
 30
0.0
 11
2740.590299456255
 21
1738.59929893609
 31
0.0
  0
LINE
  5
7B50
330
19
100
AcDbEntity
  8
1
100
AcDbLine
 10
2740.590299456255
 20
1758.599298936091
 30
0.0
 11
2740.590299456255
 21
1738.59929893609
 31
0.0
  0
LINE
  5
7B51
330
19
100
AcDbEntity
  8
1
100
AcDbLine
 10
2665.530537805766
 20
2043.899298936082
 30
0.0
 11
2705.530537805766
 21
2043.899298936082
 31
0.0
1001
ACAD
1000
ASC_BOUNDS
1002
{
1070
    19
1002
}
  0
LINE
  5
7B52
330
19
100
AcDbEntity
  8
1
100
AcDbLine
 10
2665.530537805767
 20
1906.749298936085
 30
0.0
 11
2705.530537805767
 21
1906.749298936085
 31
0.0
  0
LINE
  5
7B53
330
19
100
AcDbEntity
  8
1
100
AcDbLine
 10
2705.530537805765
 20
2202.599298936083
 30
0.0
 11
2735.530537805765
 21
2202.599298936082
 31
0.0
1001
ACAD
1000
ASC_BOUNDS
1002
{
1070
    19
1002
}
  0
LINE
  5
7B54
330
19
100
AcDbEntity
  8
1
100
AcDbLine
 10
2705.530537805766
 20
2164.599298936083
 30
0.0
 11
2735.530537805765
 21
2164.599298936083
 31
0.0
1001
ACAD
1000
ASC_BOUNDS
1002
{
1070
    19
1002
}
  0
LINE
  5
7B55
330
19
100
AcDbEntity
  8
1
100
AcDbLine
 10
2735.530537805765
 20
2206.099298936083
 30
0.0
 11
2735.530537805766
 21
2161.099298936083
 31
0.0
  0
LINE
  5
7B5A
330
19
100
AcDbEntity
  8
1
100
AcDbLine
 10
1724.76586882474
 20
2540.599298936086
 30
0.0
 11
1149.560685861438
 21
2540.599298936081
 31
0.0
  0
LINE
  5
7B5B
330
19
100
AcDbEntity
  8
1
100
AcDbLine
 10
1693.160685861438
 20
2543.599298936085
 30
0.0
 11
1181.160685861438
 21
2543.599298936082
 31
0.0
  0
LINE
  5
7B5C
330
19
100
AcDbEntity
  8
1
100
AcDbLine
 10
1171.160685861438
 20
2543.599298936082
 30
0.0
 11
1703.193079382083
 21
2543.599298936085
 31
0.0
  0
LINE
  5
7B5D
330
19
100
AcDbEntity
  8
1
100
AcDbLine
 10
1724.765868824742
 20
2513.599298936086
 30
0.0
 11
1149.560685861438
 21
2513.599298936081
 31
0.0
  0
LINE
  5
7B5E
330
19
100
AcDbEntity
  8
1
100
AcDbLine
 10
1149.560685861438
 20
2543.599298936082
 30
0.0
 11
1724.765868824742
 21
2543.599298936086
 31
0.0
  0
POINT
  5
7B61
330
19
100
AcDbEntity
  8
1
100
AcDbPoint
 10
1694.765868824742
 20
2543.599298936085
 30
0.0
  0
POINT
  5
7B62
330
19
100
AcDbEntity
  8
1
100
AcDbPoint
 10
1693.160685861438
 20
2543.599298936085
 30
0.0
  0
POINT
  5
7B63
330
19
100
AcDbEntity
  8
1
100
AcDbPoint
 10
1693.160685861438
 20
2543.599298936085
 30
0.0
  0
POINT
  5
7B64
330
19
100
AcDbEntity
  8
1
100
AcDbPoint
 10
1693.160685861438
 20
2543.599298936085
 30
0.0
  0
LINE
  5
7B65
330
19
100
AcDbEntity
  8
1
100
AcDbLine
 10
1724.765868824742
 20
2543.599298936086
 30
0.0
 11
1724.765868824742
 21
2513.599298936086
 31
0.0
  0
ARC
  5
7B69
330
19
100
AcDbEntity
  8
1
100
AcDbCircle
 10
1124.160685861442
 20
2214.599298936079
 30
0.0
 40
269.1837981443569
100
AcDbArc
 50
77.77500151106656
 51
86.9121800634964
  0
LINE
  5
7B6A
330
19
100
AcDbEntity
  8
1
100
AcDbLine
 10
1181.160685861439
 20
2477.67897732919
 30
0.0
 11
1181.160685861438
 21
2543.599298936082
 31
0.0
  0
POINT
  5
7B6B
330
19
100
AcDbEntity
  8
1
100
AcDbPoint
 10
1181.160685861438
 20
2543.599298936082
 30
0.0
  0
LINE
  5
7B6C
330
19
100
AcDbEntity
  8
1
100
AcDbLine
 10
1149.560685861438
 20
2513.599298936081
 30
0.0
 11
1149.560685861438
 21
2543.599298936082
 31
0.0
  0
LINE
  5
7B6D
330
19
100
AcDbEntity
  8
1
100
AcDbLine
 10
2740.590299456254
 20
2403.599298936083
 30
0.0
 11
2618.590299456254
 21
2403.599298936083
 31
0.0
  0
LINE
  5
7B6E
330
19
100
AcDbEntity
  8
1
100
AcDbLine
 10
2618.590299456254
 20
2403.599298936082
 30
0.0
 11
2740.590299456254
 21
2403.599298936082
 31
0.0
  0
LINE
  5
7B6F
330
19
100
AcDbEntity
  8
1
100
AcDbLine
 10
2665.530537805764
 20
2323.299298936083
 30
0.0
 11
2705.530537805764
 21
2323.299298936083
 31
0.0
1001
ACAD
1000
ASC_BOUNDS
1002
{
1070
    19
1002
}
  0
LINE
  5
7B70
330
19
100
AcDbEntity
  8
1
100
AcDbLine
 10
2740.590299456254
 20
2383.599298936083
 30
0.0
 11
2740.590299456254
 21
2403.599298936083
 31
0.0
  0
LINE
  5
7B71
330
19
100
AcDbEntity
  8
1
100
AcDbLine
 10
2964.330537805764
 20
2513.145516482221
 30
0.0
 11
2964.330537805766
 21
2183.599298936083
 31
0.0
  0
LINE
  5
7B72
330
19
100
AcDbEntity
  8
1
100
AcDbLine
 10
3339.330537805765
 20
2513.145516482221
 30
0.0
 11
3339.330537805766
 21
2183.599298936083
 31
0.0
  0
LINE
  5
7B73
330
19
100
AcDbEntity
  8
1
100
AcDbLine
 10
3343.630537805765
 20
2177.599298936083
 30
0.0
 11
3343.630537805765
 21
2433.599298936084
 31
0.0
  0
LINE
  5
7B74
330
19
100
AcDbEntity
  8
1
100
AcDbLine
 10
3373.630537805766
 20
1968.299298936083
 30
0.0
 11
3373.630537805766
 21
2433.599298936084
 31
0.0
  0
LINE
  5
7B76
330
19
100
AcDbEntity
  8
1
100
AcDbLine
 10
2964.330537805766
 20
2183.599298936083
 30
0.0
 11
2964.330537805766
 21
1948.323396153796
 31
0.0
  0
LINE
  5
7B77
330
19
100
AcDbEntity
  8
1
100
AcDbLine
 10
2860.830537805766
 20
2206.099298936083
 30
0.0
 11
2962.330537805766
 21
2206.099298936083
 31
0.0
1001
ACAD
1000
ASC_BOUNDS
1002
{
1070
    19
1002
}
  0
LINE
  5
7B78
330
19
100
AcDbEntity
  8
1
100
AcDbLine
 10
2735.530537805766
 20
2161.099298936083
 30
0.0
 11
2962.330537805766
 21
2161.099298936083
 31
0.0
1001
ACAD
1000
ASC_BOUNDS
1002
{
1070
    19
1002
}
  0
LINE
  5
7B79
330
19
100
AcDbEntity
  8
1
100
AcDbLine
 10
2864.958955167663
 20
2161.099298936083
 30
0.0
 11
2900.823645586267
 21
2161.099298936083
 31
0.0
1001
ACAD
1000
ASC_BOUNDS
1002
{
1070
    19
1002
}
  0
LINE
  5
7B7A
330
19
100
AcDbEntity
  8
1
100
AcDbLine
 10
2735.530537805765
 20
2206.099298936083
 30
0.0
 11
2900.823645586267
 21
2206.099298936083
 31
0.0
1001
ACAD
1000
ASC_BOUNDS
1002
{
1070
    19
1002
}
  0
LINE
  5
7B7B
330
19
100
AcDbEntity
  8
1
100
AcDbLine
 10
3343.630537805765
 20
1933.599298936083
 30
0.0
 11
3343.630537805765
 21
2177.599298936083
 31
0.0
  0
LINE
  5
7B7C
330
19
100
AcDbEntity
  8
1
100
AcDbLine
 10
3339.330537805766
 20
2183.599298936083
 30
0.0
 11
3339.330537805765
 21
1738.599298936092
 31
0.0
  0
LINE
  5
7B7D
330
19
100
AcDbEntity
  8
1
100
AcDbLine
 10
3381.830537805765
 20
1738.599298936092
 30
0.0
 11
3381.830537805765
 21
1663.599298936092
 31
0.0
  0
LINE
  5
7B7E
330
19
100
AcDbEntity
  8
1
100
AcDbLine
 10
3343.630537805765
 20
1903.599298936083
 30
0.0
 11
3339.330537805765
 21
1903.599298936083
 31
0.0
  0
LINE
  5
7B7F
330
19
100
AcDbEntity
  8
1
100
AcDbLine
 10
3343.630537805765
 20
1903.599298936083
 30
0.0
 11
3343.630537805765
 21
1933.599298936083
 31
0.0
  0
LINE
  5
7B80
330
19
100
AcDbEntity
  8
1
100
AcDbLine
 10
3343.630537805765
 20
2463.599298936083
 30
0.0
 11
3343.630537805765
 21
2433.599298936084
 31
0.0
  0
LINE
  5
7B81
330
19
100
AcDbEntity
  8
1
100
AcDbLine
 10
3343.630537805765
 20
2433.599298936084
 30
0.0
 11
3373.630537805766
 21
2433.599298936084
 31
0.0
  0
LINE
  5
7B82
330
19
100
AcDbEntity
  8
1
100
AcDbLine
 10
3343.630537805765
 20
2463.599298936083
 30
0.0
 11
3339.330537805765
 21
2463.599298936083
 31
0.0
  0
POINT
  5
7B83
330
19
100
AcDbEntity
  8
1
100
AcDbPoint
 10
3343.630537805765
 20
2458.599298936084
 30
0.0
  0
LINE
  5
7B84
330
19
100
AcDbEntity
  8
1
100
AcDbLine
 10
3013.180595120522
 20
1821.151308128229
 30
0.0
 11
3339.330537805764
 21
1821.15130812823
 31
0.0
  0
LINE
  5
7B85
330
19
100
AcDbEntity
  8
1
100
AcDbLine
 10
1805.160685861443
 20
1749.099298936086
 30
0.0
 11
1805.160685861441
 21
1926.659770243487
 31
0.0
  0
LINE
  5
7B86
330
19
100
AcDbEntity
  8
1
100
AcDbLine
 10
1214.797578976919
 20
2309.930336213281
 30
0.0
 11
1833.986504962719
 21
1900.184709955715
 31
0.0
  0
LINE
  5
7B87
330
19
100
AcDbEntity
  8
1
100
AcDbLine
 10
1155.160685861439
 20
2447.18211009213
 30
0.0
 11
1905.160685861443
 21
1931.428706083865
 31
0.0
  0
LINE
  5
7B88
330
19
100
AcDbEntity
  8
1
100
AcDbLine
 10
1126.459571535815
 20
2046.879380721992
 30
0.0
 11
1781.646538331761
 21
1799.510841808308
 31
0.0
  0
LINE
  5
7B89
330
19
100
AcDbEntity
  8
1
100
AcDbLine
 10
2931.830537805766
 20
2510.845516482221
 30
0.0
 11
3371.830537805767
 21
2510.845516482221
 31
0.0
1001
ACAD
1000
ASC_BOUNDS
1002
{
1070
    19
1002
}
  0
LINE
  5
7B8A
330
19
100
AcDbEntity
  8
1
100
AcDbLine
 10
2931.830537805766
 20
2542.845516482221
 30
0.0
 11
3371.830537805766
 21
2542.845516482221
 31
0.0
1001
ACAD
1000
ASC_BOUNDS
1002
{
1070
    19
1002
}
  0
LINE
  5
7B8B
330
19
100
AcDbEntity
  8
1
100
AcDbLine
 10
2931.830537805766
 20
2542.845516482221
 30
0.0
 11
2931.830537805766
 21
2510.845516482221
 31
0.0
  0
LINE
  5
7B8C
330
19
100
AcDbEntity
  8
1
100
AcDbLine
 10
3371.830537805766
 20
2542.845516482221
 30
0.0
 11
3371.830537805766
 21
2510.84551648222
 31
0.0
  0
LINE
  5
7B8D
330
19
100
AcDbEntity
  8
2
100
AcDbLine
 10
3151.830537805766
 20
2627.096673032211
 30
0.0
 11
3151.830537805764
 21
1493.599298936091
 31
0.0
  0
LINE
  5
7B8E
330
19
100
AcDbEntity
  8
1
100
AcDbLine
 10
845.160685861445
 20
1503.599298936079
 30
0.0
 11
1965.160685861445
 21
1503.599298936088
 31
0.0
  0
LINE
  5
7B8F
330
19
100
AcDbEntity
  8
1
100
AcDbLine
 10
845.1606858614441
 20
1568.599298936079
 30
0.0
 11
1965.160685861444
 21
1568.599298936088
 31
0.0
  0
LINE
  5
7B90
330
19
100
AcDbEntity
  8
1
100
AcDbLine
 10
845.160685861445
 20
1503.599298936079
 30
0.0
 11
845.1606858614441
 21
1568.599298936079
 31
0.0
  0
LINE
  5
7B91
330
19
100
AcDbEntity
  8
1
100
AcDbLine
 10
1965.160685861445
 20
1503.599298936088
 30
0.0
 11
1965.160685861444
 21
1568.599298936088
 31
0.0
  0
LINE
  5
7B92
330
19
100
AcDbEntity
  8
1
100
AcDbLine
 10
1387.160685861442
 20
2132.099298936083
 30
0.0
 11
1387.160685861445
 21
1728.599298936083
 31
0.0
  0
LINE
  5
7B93
330
19
100
AcDbEntity
  8
1
100
AcDbLine
 10
923.1606858614423
 20
2132.099298936079
 30
0.0
 11
923.1606858614449
 21
1728.599298936079
 31
0.0
  0
LINE
  5
7B94
330
19
100
AcDbEntity
  8
1
100
AcDbLine
 10
835.1606858614422
 20
2132.099298936078
 30
0.0
 11
1475.160685861442
 21
2132.099298936084
 31
0.0
  0
LINE
  5
7B95
330
19
100
AcDbEntity
  8
1
100
AcDbLine
 10
1475.160685861441
 20
2167.099298936083
 30
0.0
 11
1475.160685861442
 21
2132.099298936084
 31
0.0
  0
LINE
  5
7B96
330
19
100
AcDbEntity
  8
1
100
AcDbLine
 10
835.1606858614413
 20
2167.099298936078
 30
0.0
 11
835.1606858614422
 21
2132.099298936078
 31
0.0
  0
LINE
  5
7B97
330
19
100
AcDbEntity
  8
1
100
AcDbLine
 10
835.1606858614422
 20
2167.099298936078
 30
0.0
 11
1475.160685861441
 21
2167.099298936083
 31
0.0
  0
LINE
  5
7B98
330
19
100
AcDbEntity
  8
1
100
AcDbLine
 10
963.1606858614423
 20
2132.09929893608
 30
0.0
 11
963.160685861445
 21
1728.59929893608
 31
0.0
  0
LINE
  5
7B99
330
19
100
AcDbEntity
  8
1
100
AcDbLine
 10
1347.160685861442
 20
2132.099298936083
 30
0.0
 11
1347.160685861445
 21
1728.599298936083
 31
0.0
  0
LINE
  5
7B9A
330
19
100
AcDbEntity
  8
1
100
AcDbLine
 10
915.1606858614405
 20
2308.125332163859
 30
0.0
 11
915.1606858614449
 21
1728.599298936079
 31
0.0
  0
LINE
  5
7B9B
330
19
100
AcDbEntity
  8
1
100
AcDbLine
 10
1155.160685861439
 20
2447.18211009213
 30
0.0
 11
915.1606858614405
 21
2308.125332163859
 31
0.0
  0
LINE
  5
7B9C
330
19
100
AcDbEntity
  8
1
100
AcDbLine
 10
3381.330537805766
 20
1960.599298936083
 30
0.0
 11
3381.330537805764
 21
1738.599298936092
 31
0.0
  0
LINE
  5
7B9D
330
19
100
AcDbEntity
  8
1
100
AcDbLine
 10
3339.330537805765
 20
1968.599298936083
 30
0.0
 11
3373.330537805766
 21
1968.599298936083
 31
0.0
  0
LINE
  5
7B9E
330
19
100
AcDbEntity
  8
1
100
AcDbLine
 10
3373.330537805766
 20
1968.599298936083
 30
0.0
 11
3381.330537805766
 21
1960.599298936083
 31
0.0
  0
LINE
  5
7B9F
330
19
100
AcDbEntity
  8
1
100
AcDbLine
 10
2756.830537805765
 20
1738.599298936091
 30
0.0
 11
2756.830537805764
 21
1663.599298936091
 31
0.0
  0
LINE
  5
7BA0
330
19
100
AcDbEntity
  8
1
100
AcDbLine
 10
2756.830537805765
 20
1493.599298936091
 30
0.0
 11
3381.830537805766
 21
1493.599298936091
 31
0.0
  0
LINE
  5
7BA1
330
19
100
AcDbEntity
  8
1
100
AcDbLine
 10
2756.830537805765
 20
1568.599298936091
 30
0.0
 11
2756.830537805765
 21
1493.59929893609
 31
0.0
  0
LINE
  5
7BA2
330
19
100
AcDbEntity
  8
1
100
AcDbLine
 10
2756.830537805765
 20
1568.599298936091
 30
0.0
 11
3381.830537805766
 21
1568.599298936091
 31
0.0
  0
LINE
  5
7BA3
330
19
100
AcDbEntity
  8
1
100
AcDbLine
 10
3381.830537805766
 20
1568.599298936091
 30
0.0
 11
3381.830537805766
 21
1493.599298936091
 31
0.0
  0
ARC
  5
7BA4
330
19
100
AcDbEntity
  8
1
100
AcDbCircle
 10
1805.160685861442
 20
1851.599298936086
 30
0.0
 40
100.8
100
AcDbArc
 50
300.3933
 51
0.0
  0
ARC
  5
7BA5
330
19
100
AcDbEntity
  8
1
100
AcDbCircle
 10
1805.160685861442
 20
1851.599298936086
 30
0.0
 40
100.8
100
AcDbArc
 50
0.0
 51
239.6993
  0
LINE
  5
7BA6
330
19
100
AcDbEntity
  8
1
100
AcDbLine
 10
1870.160685861442
 20
1771.599298936086
 30
0.0
 11
1870.160685861442
 21
1761.599298936086
 31
0.0
  0
LINE
  5
7BA7
330
19
100
AcDbEntity
  8
1
100
AcDbLine
 10
1880.160685861442
 20
1771.599298936086
 30
0.0
 11
1880.160685861442
 21
1761.599298936086
 31
0.0
  0
LINE
  5
7BA8
330
19
100
AcDbEntity
  8
1
100
AcDbLine
 10
1875.160685861442
 20
1757.232798936086
 30
0.0
 11
1875.160685861442
 21
1774.136198936087
 31
0.0
  0
LINE
  5
7BA9
330
19
100
AcDbEntity
  8
1
100
AcDbLine
 10
1893.160685861442
 20
1761.599298936086
 30
0.0
 11
1893.160685861442
 21
1769.599298936087
 31
0.0
  0
LINE
  5
7BAA
330
19
100
AcDbEntity
  8
1
100
AcDbLine
 10
1740.160685861442
 20
1771.599298936086
 30
0.0
 11
1740.160685861442
 21
1761.599298936086
 31
0.0
  0
LINE
  5
7BAB
330
19
100
AcDbEntity
  8
1
100
AcDbLine
 10
1730.160685861442
 20
1771.599298936086
 30
0.0
 11
1730.160685861442
 21
1761.599298936086
 31
0.0
  0
LINE
  5
7BAC
330
19
100
AcDbEntity
  8
1
100
AcDbLine
 10
1735.160685861442
 20
1757.232798936086
 30
0.0
 11
1735.160685861442
 21
1774.136198936087
 31
0.0
  0
LINE
  5
7BAD
330
19
100
AcDbEntity
  8
2
100
AcDbLine
 10
1805.160685861442
 20
1755.615198936087
 30
0.0
 11
1805.160685861442
 21
1960.060398936087
 31
0.0
  0
LINE
  5
7BAE
330
19
100
AcDbEntity
  8
1
100
AcDbLine
 10
1717.160685861442
 20
1761.599298936086
 30
0.0
 11
1717.160685861442
 21
1769.599298936087
 31
0.0
  0
ARC
  5
7BAF
330
19
100
AcDbEntity
  8
1
100
AcDbCircle
 10
1805.160685861442
 20
1851.599298936086
 30
0.0
 40
100.8
100
AcDbArc
 50
300.3933
 51
0.0
  0
LINE
  5
7BB0
330
19
100
AcDbEntity
  8
1
100
AcDbLine
 10
1760.330185861442
 20
1765.599298936086
 30
0.0
 11
1850.284585861442
 21
1765.599298936086
 31
0.0
  0
LINE
  5
7BB1
330
19
100
AcDbEntity
  8
1
100
AcDbLine
 10
1754.236585861442
 20
1764.599298936087
 30
0.0
 11
1856.191685861442
 21
1764.599298936087
 31
0.0
  0
LINE
  5
7BB2
330
19
100
AcDbEntity
  8
1
100
AcDbLine
 10
1754.236585861442
 20
1764.599298936087
 30
0.0
 11
1856.191685861442
 21
1764.599298936087
 31
0.0
  0
LINE
  5
7BB3
330
19
100
AcDbEntity
  8
1
100
AcDbLine
 10
1717.160685861442
 20
1761.599298936086
 30
0.0
 11
1757.160685861442
 21
1761.599298936086
 31
0.0
  0
LINE
  5
7BB4
330
19
100
AcDbEntity
  8
1
100
AcDbLine
 10
1757.160685861442
 20
1764.572098936087
 30
0.0
 11
1757.160685861442
 21
1761.599298936086
 31
0.0
  0
LINE
  5
7BB5
330
19
100
AcDbEntity
  8
1
100
AcDbLine
 10
1893.160685861442
 20
1761.599298936086
 30
0.0
 11
1853.160685861442
 21
1761.599298936086
 31
0.0
  0
LINE
  5
7BB6
330
19
100
AcDbEntity
  8
1
100
AcDbLine
 10
1853.160685861442
 20
1764.530298936087
 30
0.0
 11
1853.160685861442
 21
1761.599298936086
 31
0.0
  0
LINE
  5
7BB7
330
19
100
AcDbEntity
  8
2
100
AcDbLine
 10
1700.695485861443
 20
1851.599298936086
 30
0.0
 11
1911.263485861442
 21
1851.599298936086
 31
0.0
  0
LINE
  5
7BB8
330
19
100
AcDbEntity
  8
1
100
AcDbLine
 10
1743.836685861442
 20
1771.599298936086
 30
0.0
 11
1719.160685861442
 21
1771.599298936086
 31
0.0
  0
LINE
  5
7BB9
330
19
100
AcDbEntity
  8
1
100
AcDbLine
 10
1723.014185861442
 20
1793.181998936086
 30
0.0
 11
1717.160685861442
 21
1769.599298936087
 31
0.0
  0
ARC
  5
7BBA
330
19
100
AcDbEntity
  8
1
100
AcDbCircle
 10
1719.160685861442
 20
1769.599298936087
 30
0.0
 40
2.0
100
AcDbArc
 50
90.0
 51
180.0
  0
LINE
  5
7BBB
330
19
100
AcDbEntity
  8
1
100
AcDbLine
 10
1866.449585861442
 20
1771.599298936086
 30
0.0
 11
1891.160685861442
 21
1771.599298936086
 31
0.0
  0
LINE
  5
7BBC
330
19
100
AcDbEntity
  8
1
100
AcDbLine
 10
1887.307285861442
 20
1793.181998936086
 30
0.0
 11
1893.160685861442
 21
1769.599298936087
 31
0.0
  0
ARC
  5
7BBD
330
19
100
AcDbEntity
  8
1
100
AcDbCircle
 10
1891.160685861442
 20
1769.599298936087
 30
0.0
 40
2.0
100
AcDbArc
 50
0.0
 51
90.0
  0
LINE
  5
7BBE
330
19
100
AcDbEntity
  8
1
100
AcDbLine
 10
1928.876580386256
 20
1728.599298936088
 30
0.0
 11
1917.660685861443
 21
1763.599298936088
 31
0.0
  0
LINE
  5
7BBF
330
19
100
AcDbEntity
  8
1
100
AcDbLine
 10
1833.56343777793
 20
1763.599298936087
 30
0.0
 11
1833.56343777793
 21
1757.302627301176
 31
0.0
  0
LINE
  5
7BC0
330
19
100
AcDbEntity
  8
1
100
AcDbLine
 10
1776.757933944957
 20
1757.302627301176
 30
0.0
 11
1776.757933944957
 21
1763.599298936086
 31
0.0
  0
LINE
  5
7BC1
330
19
100
AcDbEntity
  8
1
100
AcDbLine
 10
1692.660685861443
 20
1763.599298936085
 30
0.0
 11
1681.444791336631
 21
1728.599298936085
 31
0.0
  0
LINE
  5
7BC2
330
19
100
AcDbEntity
  8
1
100
AcDbLine
 10
1681.444791336631
 20
1728.599298936085
 30
0.0
 11
1776.757933944957
 21
1728.599298936086
 31
0.0
  0
LINE
  5
7BC3
330
19
100
AcDbEntity
  8
1
100
AcDbLine
 10
1833.56343777793
 20
1728.599298936087
 30
0.0
 11
1928.876580386256
 21
1728.599298936088
 31
0.0
  0
LINE
  5
7BC4
330
19
100
AcDbEntity
  8
1
100
AcDbLine
 10
1776.757933944957
 20
1735.739933712421
 30
0.0
 11
1833.56343777793
 21
1735.739933712421
 31
0.0
  0
LINE
  5
7BC5
330
19
100
AcDbEntity
  8
1
100
AcDbLine
 10
1833.56343777793
 20
1757.302627301176
 30
0.0
 11
1776.757933944957
 21
1757.302627301176
 31
0.0
  0
LINE
  5
7BC6
330
19
100
AcDbEntity
  8
1
100
AcDbLine
 10
1776.757933944957
 20
1728.599298936086
 30
0.0
 11
1776.757933944957
 21
1735.739933712421
 31
0.0
  0
LINE
  5
7BC7
330
19
100
AcDbEntity
  8
1
100
AcDbLine
 10
1833.56343777793
 20
1735.739933712421
 30
0.0
 11
1833.56343777793
 21
1728.599298936087
 31
0.0
  0
LINE
  5
7BC8
330
19
100
AcDbEntity
  8
1
100
AcDbLine
 10
1776.757933944957
 20
1763.599298936086
 30
0.0
 11
1692.660685861443
 21
1763.599298936085
 31
0.0
  0
LINE
  5
7BC9
330
19
100
AcDbEntity
  8
1
100
AcDbLine
 10
1917.660685861443
 20
1763.599298936088
 30
0.0
 11
1833.56343777793
 21
1763.599298936087
 31
0.0
  0
LINE
  5
7BCA
330
19
100
AcDbEntity
  8
1
100
AcDbLine
 10
1905.160685861443
 20
1931.428706083865
 30
0.0
 11
1905.160685861446
 21
1728.599298936087
 31
0.0
  0
LINE
  5
7BCB
330
19
100
AcDbEntity
  8
2
100
AcDbLine
 10
2539.200177614516
 20
1851.59929893609
 30
0.0
 11
3095.19897708003
 21
1851.59929893609
 31
0.0
  0
LINE
  5
7BCC
330
19
100
AcDbEntity
  8
1
100
AcDbLine
 10
2854.680595120522
 20
1951.599398936092
 30
0.0
 11
2793.840895120522
 21
1951.599398936092
 31
0.0
  0
LINE
  5
7BCD
330
19
100
AcDbEntity
  8
1
100
AcDbLine
 10
2781.680595120523
 20
1771.599298936091
 30
0.0
 11
2832.180595120524
 21
1771.599298936092
 31
0.0
  0
LINE
  5
7BCE
330
19
100
AcDbEntity
  8
1
100
AcDbLine
 10
2774.680595120524
 20
1761.599298936091
 30
0.0
 11
2854.680595120523
 21
1761.599298936092
 31
0.0
  0
LINE
  5
7BD0
330
19
100
AcDbEntity
  8
1
100
AcDbLine
 10
2782.180595120524
 20
1771.599298936091
 30
0.0
 11
2782.180595120522
 21
1936.599298936091
 31
0.0
  0
LINE
  5
7BD1
330
19
100
AcDbEntity
  8
1
100
AcDbLine
 10
2741.180595120523
 20
1888.099298936091
 30
0.0
 11
2741.180595120523
 21
1815.099298936091
 31
0.0
  0
LINE
  5
7BD2
330
19
100
AcDbEntity
  8
1
100
AcDbLine
 10
2751.180595120523
 20
1769.599398936091
 30
0.0
 11
2751.180595120521
 21
1933.599298936091
 31
0.0
  0
LINE
  5
7BD3
330
19
100
AcDbEntity
  8
1
100
AcDbLine
 10
2736.180595120523
 20
1863.59929893609
 30
0.0
 11
2686.180595120522
 21
1863.59929893609
 31
0.0
  0
LINE
  5
7BD4
330
19
100
AcDbEntity
  8
1
100
AcDbLine
 10
2736.180595120523
 20
1839.59929893609
 30
0.0
 11
2686.180595120522
 21
1839.59929893609
 31
0.0
  0
LINE
  5
7BD5
330
19
100
AcDbEntity
  8
1
100
AcDbLine
 10
2726.180595120523
 20
1866.599298936091
 30
0.0
 11
2686.180595120522
 21
1866.59929893609
 31
0.0
  0
LINE
  5
7BD6
330
19
100
AcDbEntity
  8
1
100
AcDbLine
 10
2686.180595120522
 20
1839.59929893609
 30
0.0
 11
2686.180595120522
 21
1866.59929893609
 31
0.0
  0
LINE
  5
7BD7
330
19
100
AcDbEntity
  8
1
100
AcDbLine
 10
2726.180595120523
 20
1863.59929893609
 30
0.0
 11
2726.180595120523
 21
1866.599298936091
 31
0.0
  0
LINE
  5
7BD8
330
19
100
AcDbEntity
  8
1
100
AcDbLine
 10
2779.680595120523
 20
1767.599298936091
 30
0.0
 11
2753.180595120523
 21
1767.599298936091
 31
0.0
  0
ARC
  5
7BD9
330
19
100
AcDbEntity
  8
1
100
AcDbCircle
 10
2753.180795120524
 20
1769.599398936091
 30
0.0
 40
2.0001
100
AcDbArc
 50
180.0035000000004
 51
269.9965000000005
  0
ARC
  5
7BDA
330
19
100
AcDbEntity
  8
1
100
AcDbCircle
 10
2781.680595120523
 20
1769.599298936091
 30
0.0
 40
2.0
100
AcDbArc
 50
90.00000000000049
 51
180.0000000000005
  0
LINE
  5
7BDB
330
19
100
AcDbEntity
  8
1
100
AcDbLine
 10
2779.680595120523
 20
1761.599298936091
 30
0.0
 11
2779.680595120523
 21
1769.599298936091
 31
0.0
  0
LINE
  5
7BDC
330
19
100
AcDbEntity
  8
1
100
AcDbLine
 10
2792.180595120524
 20
1755.615298936091
 30
0.0
 11
2792.180595120524
 21
1773.768098936091
 31
0.0
  0
LINE
  5
7BDD
330
19
100
AcDbEntity
  8
1
100
AcDbLine
 10
2787.180595120523
 20
1771.599298936091
 30
0.0
 11
2787.180595120523
 21
1761.599298936091
 31
0.0
  0
LINE
  5
7BDE
330
19
100
AcDbEntity
  8
1
100
AcDbLine
 10
2741.180595120523
 20
1864.099298936091
 30
0.0
 11
2736.180595120523
 21
1864.099298936091
 31
0.0
  0
LINE
  5
7BDF
330
19
100
AcDbEntity
  8
1
100
AcDbLine
 10
2741.180595120523
 20
1839.099298936091
 30
0.0
 11
2736.180595120523
 21
1839.099298936091
 31
0.0
  0
ARC
  5
7BE0
330
19
100
AcDbEntity
  8
1
100
AcDbCircle
 10
2742.180595120523
 20
1815.099398936091
 30
0.0
 40
1.000099999999999
100
AcDbArc
 50
180.0035000000004
 51
270.0000000000005
  0
ARC
  5
7BE1
330
19
100
AcDbEntity
  8
1
100
AcDbCircle
 10
2750.180595120523
 20
1813.099298936091
 30
0.0
 40
1.000099999999999
100
AcDbArc
 50
0.0035000000004913
 51
90.00000000000049
  0
LINE
  5
7BE2
330
19
100
AcDbEntity
  8
1
100
AcDbLine
 10
2742.180595120523
 20
1814.099298936091
 30
0.0
 11
2750.180595120523
 21
1814.099298936091
 31
0.0
  0
LINE
  5
7BE3
330
19
100
AcDbEntity
  8
1
100
AcDbLine
 10
2736.180595120523
 20
1839.099298936091
 30
0.0
 11
2736.180595120523
 21
1864.099298936091
 31
0.0
  0
LINE
  5
7BE4
330
19
100
AcDbEntity
  8
1
100
AcDbLine
 10
2777.180595120522
 20
1935.599298936091
 30
0.0
 11
2753.180595120522
 21
1935.599298936091
 31
0.0
  0
ARC
  5
7BE5
330
19
100
AcDbEntity
  8
1
100
AcDbCircle
 10
2753.180795120522
 20
1933.599198936091
 30
0.0
 40
2.0001
100
AcDbArc
 50
90.0035000000005
 51
179.9965000000005
  0
ARC
  5
7BE6
330
19
100
AcDbEntity
  8
1
100
AcDbCircle
 10
2742.180695120523
 20
1888.099298936091
 30
0.0
 40
1.000099999999999
100
AcDbArc
 50
90.0035000000005
 51
180.0000000000005
  0
ARC
  5
7BE7
330
19
100
AcDbEntity
  8
1
100
AcDbCircle
 10
2750.180595120522
 20
1890.099298936091
 30
0.0
 40
1.000099999999999
100
AcDbArc
 50
270.0035000000004
 51
0.0000000000004941
  0
LINE
  5
7BE8
330
19
100
AcDbEntity
  8
1
100
AcDbLine
 10
2742.180595120523
 20
1889.099298936091
 30
0.0
 11
2750.180595120522
 21
1889.099298936091
 31
0.0
  0
LINE
  5
7BE9
330
19
100
AcDbEntity
  8
1
100
AcDbLine
 10
2782.180595120522
 20
1936.599298936091
 30
0.0
 11
2777.180595120522
 21
1936.599298936091
 31
0.0
  0
LINE
  5
7BEA
330
19
100
AcDbEntity
  8
1
100
AcDbLine
 10
2793.840895120522
 20
1951.599398936092
 30
0.0
 11
2785.180595120522
 21
1936.599298936091
 31
0.0
  0
LINE
  5
7BEB
330
19
100
AcDbEntity
  8
1
100
AcDbLine
 10
2785.180595120522
 20
1936.599298936091
 30
0.0
 11
2782.180595120522
 21
1936.599298936091
 31
0.0
  0
LINE
  5
7BEC
330
19
100
AcDbEntity
  8
1
100
AcDbLine
 10
2927.680595120524
 20
1771.599298936092
 30
0.0
 11
2877.180595120524
 21
1771.599298936092
 31
0.0
  0
LINE
  5
7BED
330
19
100
AcDbEntity
  8
1
100
AcDbLine
 10
2934.680595120524
 20
1761.599298936092
 30
0.0
 11
2774.680595120524
 21
1761.599298936091
 31
0.0
  0
LINE
  5
7BEE
330
19
100
AcDbEntity
  8
1
100
AcDbLine
 10
2854.680595120522
 20
1951.599398936092
 30
0.0
 11
2915.520395120522
 21
1951.599398936093
 31
0.0
  0
LINE
  5
7BF0
330
19
100
AcDbEntity
  8
1
100
AcDbLine
 10
2797.180595120523
 20
1771.599298936092
 30
0.0
 11
2797.180595120523
 21
1761.599298936091
 31
0.0
  0
LINE
  5
7BF1
330
19
100
AcDbEntity
  8
1
100
AcDbLine
 10
2848.321095120523
 20
1779.392498936092
 30
0.0
 11
2849.164895120523
 21
1788.342998936092
 31
0.0
  0
ARC
  5
7BF2
330
19
100
AcDbEntity
  8
1
100
AcDbCircle
 10
2840.356395120523
 20
1780.143398936091
 30
0.0
 40
8.0
100
AcDbArc
 50
273.6915000000005
 51
354.6140000000006
  0
ARC
  5
7BF3
330
19
100
AcDbEntity
  8
1
100
AcDbCircle
 10
2844.186995120523
 20
1788.812398936092
 30
0.0
 40
5.0
100
AcDbArc
 50
354.6136000000005
 51
90.00000000000049
  0
LINE
  5
7BF4
330
19
100
AcDbEntity
  8
1
100
AcDbLine
 10
2832.180595120524
 20
1771.599298936092
 30
0.0
 11
2840.871495120523
 21
1772.159998936092
 31
0.0
  0
LINE
  5
7BF5
330
19
100
AcDbEntity
  8
1
100
AcDbLine
 10
2861.040195120523
 20
1779.392498936092
 30
0.0
 11
2860.196295120524
 21
1788.342998936092
 31
0.0
  0
LINE
  5
7BF6
330
19
100
AcDbEntity
  8
1
100
AcDbLine
 10
2877.180595120524
 20
1771.599298936092
 30
0.0
 11
2868.489795120523
 21
1772.159998936092
 31
0.0
  0
ARC
  5
7BF7
330
19
100
AcDbEntity
  8
1
100
AcDbCircle
 10
2869.004795120524
 20
1780.143398936092
 30
0.0
 40
8.0
100
AcDbArc
 50
185.3860000000005
 51
266.3085000000005
  0
ARC
  5
7BF8
330
19
100
AcDbEntity
  8
1
100
AcDbCircle
 10
2865.174195120523
 20
1788.812398936092
 30
0.0
 40
5.0
100
AcDbArc
 50
90.00000000000049
 51
185.3864000000004
  0
LINE
  5
7BF9
330
19
100
AcDbEntity
  8
1
100
AcDbLine
 10
2923.180595120522
 20
1952.399398936092
 30
0.0
 11
2923.180595120523
 21
1804.599298936092
 31
0.0
  0
LINE
  5
7BFA
330
19
100
AcDbEntity
  8
1
100
AcDbLine
 10
3013.180595120524
 20
1767.579498936093
 30
0.0
 11
3013.180595120522
 21
1935.810898936093
 31
0.0
  0
LINE
  5
7BFB
330
19
100
AcDbEntity
  8
1
100
AcDbLine
 10
2963.180595120523
 20
1764.599298936093
 30
0.0
 11
2963.180595120522
 21
1951.399398936093
 31
0.0
  0
LINE
  5
7BFC
330
19
100
AcDbEntity
  8
1
100
AcDbLine
 10
2963.180595120523
 20
1765.599298936093
 30
0.0
 11
3012.200595120523
 21
1766.579698936093
 31
0.0
  0
LINE
  5
7BFD
330
19
100
AcDbEntity
  8
1
100
AcDbLine
 10
2927.180595120523
 20
1801.710398936092
 30
0.0
 11
2927.180595120523
 21
1771.599298936092
 31
0.0
  0
LINE
  5
7BFE
330
19
100
AcDbEntity
  8
1
100
AcDbLine
 10
2923.180595120523
 20
1804.599298936092
 30
0.0
 11
2939.108095120523
 21
1793.096098936092
 31
0.0
  0
ARC
  5
7BFF
330
19
100
AcDbEntity
  8
1
100
AcDbCircle
 10
2936.180495120524
 20
1789.042698936092
 30
0.0
 40
5.000099999999999
100
AcDbArc
 50
0.0000000000004941
 51
54.16090000000048
  0
LINE
  5
7C00
330
19
100
AcDbEntity
  8
1
100
AcDbLine
 10
2932.180595120524
 20
1767.599298936092
 30
0.0
 11
2941.180595120524
 21
1768.884098936092
 31
0.0
  0
ARC
  5
7C01
330
19
100
AcDbEntity
  8
1
100
AcDbCircle
 10
2927.680595120524
 20
1769.599298936092
 30
0.0
 40
2.0
100
AcDbArc
 50
0.0000000000004941
 51
90.00000000000049
  0
LINE
  5
7C02
330
19
100
AcDbEntity
  8
1
100
AcDbLine
 10
2929.680595120523
 20
1767.599298936092
 30
0.0
 11
2932.180595120524
 21
1767.599298936092
 31
0.0
  0
LINE
  5
7C03
330
19
100
AcDbEntity
  8
1
100
AcDbLine
 10
2929.680595120523
 20
1761.599298936092
 30
0.0
 11
2929.680595120523
 21
1769.599298936092
 31
0.0
  0
LINE
  5
7C04
330
19
100
AcDbEntity
  8
1
100
AcDbLine
 10
2917.180595120523
 20
1755.615298936092
 30
0.0
 11
2917.180595120523
 21
1773.768098936092
 31
0.0
  0
LINE
  5
7C05
330
19
100
AcDbEntity
  8
1
100
AcDbLine
 10
2922.180595120524
 20
1771.599298936092
 30
0.0
 11
2922.180595120524
 21
1761.599298936092
 31
0.0
  0
LINE
  5
7C06
330
19
100
AcDbEntity
  8
1
100
AcDbLine
 10
2912.180595120523
 20
1771.599298936092
 30
0.0
 11
2912.180595120523
 21
1761.599298936092
 31
0.0
  0
LINE
  5
7C07
330
19
100
AcDbEntity
  8
1
100
AcDbLine
 10
2932.180595120523
 20
1798.134198936093
 30
0.0
 11
2932.180595120524
 21
1767.599298936092
 31
0.0
  0
LINE
  5
7C08
330
19
100
AcDbEntity
  8
1
100
AcDbLine
 10
2941.180595120524
 20
1764.599298936093
 30
0.0
 11
2963.180595120523
 21
1764.599298936093
 31
0.0
  0
LINE
  5
7C09
330
19
100
AcDbEntity
  8
1
100
AcDbLine
 10
2941.180595120524
 20
1764.599298936093
 30
0.0
 11
2941.180595120524
 21
1789.042698936092
 31
0.0
  0
ARC
  5
7C0A
330
19
100
AcDbEntity
  8
1
100
AcDbCircle
 10
3012.180595120523
 20
1767.579598936093
 30
0.0
 40
1.000099999999999
100
AcDbArc
 50
271.1505000000006
 51
359.9965000000005
  0
LINE
  5
7C0B
330
19
100
AcDbEntity
  8
1
100
AcDbLine
 10
3012.413995120522
 20
1936.783298936093
 30
0.0
 11
2963.947195120521
 21
1948.415398936093
 31
0.0
  0
LINE
  5
7C0C
330
19
100
AcDbEntity
  8
1
100
AcDbLine
 10
2923.180595120522
 20
1952.399398936092
 30
0.0
 11
2962.180595120522
 21
1952.399398936093
 31
0.0
  0
LINE
  5
7C0D
330
19
100
AcDbEntity
  8
1
100
AcDbLine
 10
2923.249695120522
 20
1938.211798936093
 30
0.0
 11
2915.520395120522
 21
1951.599398936093
 31
0.0
  0
ARC
  5
7C0E
330
19
100
AcDbEntity
  8
1
100
AcDbCircle
 10
2964.180695120522
 20
1949.387398936092
 30
0.0
 40
1.0
100
AcDbArc
 50
180.0000000000005
 51
256.4998000000004
  0
ARC
  5
7C0F
330
19
100
AcDbEntity
  8
1
100
AcDbCircle
 10
2962.180595120522
 20
1951.399398936093
 30
0.0
 40
1.000099999999999
100
AcDbArc
 50
0.0035000000004913
 51
90.00000000000049
  0
ARC
  5
7C10
330
19
100
AcDbEntity
  8
1
100
AcDbCircle
 10
3012.180595120522
 20
1935.810898936093
 30
0.0
 40
1.0
100
AcDbArc
 50
0.0000000000004941
 51
76.49980000000049
  0
LINE
  5
7C11
330
19
100
AcDbEntity
  8
1
100
AcDbLine
 10
2774.680595120524
 20
1761.599298936091
 30
0.0
 11
2774.680595120524
 21
1738.599298936091
 31
0.0
  0
LINE
  5
7C12
330
19
100
AcDbEntity
  8
1
100
AcDbLine
 10
2934.680595120524
 20
1761.599298936092
 30
0.0
 11
2934.680595120524
 21
1738.599298936091
 31
0.0
  0
LINE
  5
7C13
330
19
100
AcDbEntity
  8
2
100
AcDbLine
 10
746.1104215222512
 20
3763.713410176741
 30
0.0
 11
1620.325601441394
 21
3763.71341017674
 31
0.0
  0
LINE
  5
7C1C
330
19
100
AcDbEntity
  8
2
100
AcDbLine
 10
1155.160685861433
 20
3237.930374257149
 30
0.0
 11
1155.160685861433
 21
4007.589670016855
 31
0.0
1001
ACAD
1000
ASC_BOUNDS
1002
{
1070
    19
1002
}
  0
LINE
  5
7C55
330
19
100
AcDbEntity
  8
4
100
AcDbLine
 10
3700.0
 20
1000.0
 30
0.0
 11
3700.0
 21
600.0
 31
0.0
  0
LINE
  5
7C56
330
19
100
AcDbEntity
  8
4
100
AcDbLine
 10
2300.0
 20
1000.0
 30
0.0
 11
2300.0
 21
600.0
 31
0.0
  0
LINE
  5
7C57
330
19
100
AcDbEntity
  8
4
100
AcDbLine
 10
1300.0
 20
1000.0
 30
0.0
 11
1300.0
 21
600.0
 31
0.0
  0
LINE
  5
7C5A
330
19
100
AcDbEntity
  8
4
100
AcDbLine
 10
1300.0
 20
600.0
 30
0.0
 11
3700.0
 21
600.0
 31
0.0
  0
LINE
  5
7C5B
330
19
100
AcDbEntity
  8
4
100
AcDbLine
 10
1300.0
 20
800.0
 30
0.0
 11
3700.0
 21
800.0
 31
0.0
  0
TEXT
  5
7C5C
330
19
100
AcDbEntity
  8
4
100
AcDbText
 10
1377.004161693803
 20
863.0860517332257
 30
0.0
 40
100.0
  1
機器名称
100
AcDbText
  0
TEXT
  5
7C5D
330
19
100
AcDbEntity
  8
4
100
AcDbText
 10
1372.516212049595
 20
643.2903134640219
 30
0.0
 40
100.0
  1
機器型番
100
AcDbText
  0
TEXT
  5
7C5E
330
19
100
AcDbEntity
  8
4
100
AcDbText
 10
2355.35749097533
 20
845.1435379151371
 30
0.0
 40
100.0
  1
ミツヤ厨房用ファン
100
AcDbText
  0
TEXT
  5
7C5F
330
19
100
AcDbEntity
  8
4
100
AcDbText
 10
2373.308991170961
 20
634.3191685598867
 30
0.0
 40
100.0
  1
MFK#3-1
100
AcDbText
  0
TEXT
  5
7C61
330
19
100
AcDbEntity
  8
4
100
AcDbText
 10
1632.99454860769
 20
4766.857682665031
 30
0.0
 40
108.0
  1
床置防振ベット
100
AcDbText
  0
TEXT
  5
7C62
330
19
100
AcDbEntity
  8
4
100
AcDbText
 10
632.3351866588928
 20
5067.761952398596
 30
0.0
 40
144.0
  1
ベルト駆動式片吸込片持多翼ファン
100
AcDbText
  0
LINE
  5
7C63
330
19
100
AcDbEntity
  8
4
100
AcDbLine
 10
500.0
 20
4938.817508529609
 30
0.0
 11
3700.0
 21
4938.817508529609
 31
0.0
  0
LINE
  5
7C64
330
19
100
AcDbEntity
  8
4
100
AcDbLine
 10
500.0
 20
5338.81750852961
 30
0.0
 11
3700.0
 21
5338.81750852961
 31
0.0
  0
LINE
  5
7C65
330
19
100
AcDbEntity
  8
4
100
AcDbLine
 10
1300.0
 20
1000.0
 30
0.0
 11
3700.0
 21
1000.0
 31
0.0
  0
LINE
  5
7C66
330
19
100
AcDbEntity
  8
4
100
AcDbLine
 10
500.0
 20
5338.81750852961
 30
0.0
 11
500.0
 21
4938.817508529609
 31
0.0
  0
TEXT
  5
7C67
330
19
100
AcDbEntity
  8
4
100
AcDbText
 10
761.276884122286
 20
4764.638955092687
 30
0.0
 40
108.0
  1
左回転上向
100
AcDbText
  0
TEXT
  5
7C68
330
19
100
AcDbEntity
  8
4
100
AcDbText
 10
2937.93911849858
 20
5412.122162990618
 30
0.0
 40
112.0
  1
No.
100
AcDbText
  0
TEXT
  5
7C69
330
19
100
AcDbEntity
  8
4
100
AcDbText
 10
2622.592125200026
 20
4766.857682665031
 30
0.0
 40
108.0
  1
縮尺：1/20
100
AcDbText
  0
LINE
  5
7C6A
330
19
100
AcDbEntity
  8
4
100
AcDbLine
 10
3700.0
 20
5338.81750852961
 30
0.0
 11
3700.0
 21
4938.817508529609
 31
0.0
  0
LINE
  5
7C6B
330
19
100
AcDbEntity
  8
4
100
AcDbLine
 10
4200.0
 20
5900.0
 30
0.0
 11
4200.0
 21
5900.0
 31
0.0
  0
LINE
  5
7C6C
330
19
100
AcDbEntity
  8
4
100
AcDbLine
 10
2881.234844719729
 20
5362.527166250802
 30
0.0
 11
2881.234844719729
 21
5573.304523099505
 31
0.0
  0
LINE
  5
7C6D
330
19
100
AcDbEntity
  8
4
100
AcDbLine
 10
2881.234844719729
 20
5573.304523099505
 30
0.0
 11
3700.0
 21
5573.304523099505
 31
0.0
  0
LINE
  5
7C6E
330
19
100
AcDbEntity
  8
4
100
AcDbLine
 10
3700.0
 20
5573.304523099505
 30
0.0
 11
3700.0
 21
5362.527166250802
 31
0.0
  0
LINE
  5
7C6F
330
19
100
AcDbEntity
  8
4
100
AcDbLine
 10
3700.0
 20
5362.527166250802
 30
0.0
 11
2881.234844719729
 21
5362.527166250802
 31
0.0
  0
LINE
  5
7C70
330
19
100
AcDbEntity
  8
4
100
AcDbLine
 10
0.0
 20
0.0
 30
0.0
 11
0.0
 21
5900.0
 31
0.0
  0
LINE
  5
7C71
330
19
100
AcDbEntity
  8
4
100
AcDbLine
 10
0.0
 20
5900.0
 30
0.0
 11
4200.0
 21
5900.0
 31
0.0
  0
LINE
  5
7C72
330
19
100
AcDbEntity
  8
4
100
AcDbLine
 10
4200.0
 20
5900.0
 30
0.0
 11
4200.0
 21
0.0
 31
0.0
  0
LINE
  5
7C73
330
19
100
AcDbEntity
  8
4
100
AcDbLine
 10
4200.0
 20
0.0
 30
0.0
 11
0.0
 21
0.0
 31
0.0
  0
DIMENSION
  5
7C80
330
19
100
AcDbEntity
  8
3
100
AcDbDimension
  2
*D1
 10
1155.160685861447
 20
1346.648523111493
 30
0.0
 11
1023.732114432875
 21
1346.648523111493
 31
0.0
 70
   160
 71
     5
 42
-1.0
  3
IGA
100
AcDbAlignedDimension
 13
845.160685861445
 23
1503.599298936079
 33
0.0
 14
1155.160685861447
 24
1461.793437407712
 34
0.0
100
AcDbRotatedDimension
1001
ACAD
1000
DSTYLE
1002
{
1070
   287
1070
     3
1070
    40
1040
20.0
1070
   143
1040
0.039
1070
   172
1070
     1
1070
   271
1070
     0
1070
   279
1070
     0
1070
   288
1070
     1
1002
}
  0
DIMENSION
  5
7C8C
330
19
100
AcDbEntity
  8
3
100
AcDbDimension
  2
*D2
 10
1965.160685861445
 20
1346.648523111493
 30
0.0
 11
1560.160685861446
 21
1396.648523111493
 31
0.0
 70
    32
 71
     5
 42
-1.0
  3
IGA
100
AcDbAlignedDimension
 13
1155.160685861447
 23
1461.793437407712
 33
0.0
 14
1965.160685861445
 24
1503.599298936088
 34
0.0
100
AcDbRotatedDimension
1001
ACAD
1000
DSTYLE
1002
{
1070
   287
1070
     4
1070
    40
1040
20.0
1070
    75
1070
     1
1070
   143
1040
0.039
1070
   172
1070
     1
1070
   271
1070
     0
1070
   279
1070
     1
1070
   288
1070
     1
1002
}
  0
DIMENSION
  5
7C99
330
19
100
AcDbEntity
  8
3
100
AcDbDimension
  2
*D3
 10
3151.830537805764
 20
1341.062355076014
 30
0.0
 11
2973.548299360646
 21
1341.062355076014
 31
0.0
 70
   160
 71
     5
 42
-1.0
  3
IGA
100
AcDbAlignedDimension
 13
2756.830537805765
 23
1493.599298936091
 33
0.0
 14
3151.830537805764
 24
1469.386506158963
 34
0.0
100
AcDbRotatedDimension
1001
ACAD
1000
DSTYLE
1002
{
1070
   287
1070
     3
1070
    40
1040
20.0
1070
   143
1040
0.039
1070
   172
1070
     1
1070
   271
1070
     0
1070
   279
1070
     0
1070
   288
1070
     1
1002
}
  0
DIMENSION
  5
7CA7
330
19
100
AcDbEntity
  8
3
100
AcDbDimension
  2
*D4
 10
3381.830537805766
 20
1341.062355076014
 30
0.0
 11
3266.830537805765
 21
1396.923994219784
 31
0.0
 12
0.0
 22
-73.0
 32
0.0
 70
   160
 71
     5
 42
-1.0
  3
IGA
100
AcDbAlignedDimension
 13
3151.830537805764
 23
1469.386506158963
 33
0.0
 14
3381.830537805766
 24
1493.599298936091
 34
0.0
100
AcDbRotatedDimension
1001
ACAD
1000
DSTYLE
1002
{
1070
   288
1070
     1
1070
   172
1070
     1
1070
    75
1070
     1
1070
    40
1040
20.0
1070
   271
1070
     0
1070
   143
1040
0.039
1002
}
  0
DIMENSION
  5
7CC8
330
19
100
AcDbEntity
  8
3
100
AcDbDimension
  2
*D5
 10
1155.160685861438
 20
2721.164317456654
 30
0.0
 11
1407.891888065759
 21
2721.164317456654
 31
0.0
 70
   160
 71
     5
 42
-1.0
  3
IGA
100
AcDbAlignedDimension
 13
1693.160685861438
 23
2543.599298936085
 33
0.0
 14
1155.160685861438
 24
2600.913498836019
 34
0.0
100
AcDbRotatedDimension
1001
ACAD
1000
DSTYLE
1002
{
1070
   287
1070
     3
1070
    40
1040
20.0
1070
   143
1040
0.039
1070
   172
1070
     1
1070
   271
1070
     0
1070
   279
1070
     0
1070
   288
1070
     1
1002
}
  0
DIMENSION
  5
7CD5
330
19
100
AcDbEntity
  8
3
100
AcDbDimension
  2
*D6
 10
1181.160685861438
 20
2602.797735104884
 30
0.0
 11
1433.546492282475
 21
2602.797735104884
 31
0.0
 70
   160
 71
     5
 42
-1.0
  3
IGA
100
AcDbAlignedDimension
 13
1693.160685861438
 23
2543.599298936085
 33
0.0
 14
1181.160685861438
 24
2543.599298936082
 34
0.0
100
AcDbRotatedDimension
1001
ACAD
1000
DSTYLE
1002
{
1070
   287
1070
     3
1070
    40
1040
20.0
1070
   143
1040
0.039
1070
   172
1070
     1
1070
   271
1070
     0
1070
   279
1070
     0
1070
   288
1070
     1
1002
}
  0
DIMENSION
  5
7CEC
330
19
100
AcDbEntity
  8
3
100
AcDbDimension
  2
*D7
 10
617.5956673408691
 20
1663.599298936079
 30
0.0
 11
567.5956673408689
 21
1923.599298936078
 31
0.0
 70
    32
 71
     5
 42
-1.0
  3
IGA
100
AcDbAlignedDimension
 13
737.8464859615032
 23
2183.599298936078
 33
0.0
 14
845.1606858614441
 24
1663.599298936079
 34
0.0
 50
90.0
100
AcDbRotatedDimension
1001
ACAD
1000
DSTYLE
1002
{
1070
   287
1070
     3
1070
    40
1040
20.0
1070
   143
1040
0.039
1070
   172
1070
     1
1070
   271
1070
     0
1070
   279
1070
     0
1070
   288
1070
     1
1002
}
  0
DIMENSION
  5
7D0C
330
19
100
AcDbEntity
  8
3
100
AcDbDimension
  2
*D8
 10
617.5956673408691
 20
1503.599298936079
 30
0.0
 11
567.5956673408689
 21
1355.02787036465
 31
0.0
 70
    32
 71
     5
 42
-1.0
  3
IGA
100
AcDbAlignedDimension
 13
845.1606858614441
 23
1568.599298936079
 33
0.0
 14
845.160685861445
 24
1503.599298936079
 34
0.0
 50
90.0
100
AcDbRotatedDimension
1001
ACAD
1000
DSTYLE
1002
{
1070
   287
1070
     3
1070
    40
1040
20.0
1070
   143
1040
0.039
1070
   172
1070
     1
1070
   271
1070
     0
1070
   279
1070
     0
1070
   288
1070
     1
1070
     6
1000
DOT
1002
}
  0
DIMENSION
  5
7DA4
330
19
100
AcDbEntity
  8
3
100
AcDbDimension
  2
*D10
 10
3339.330537805765
 20
2644.53908781836
 30
0.0
 11
3152.435655190933
 21
2644.53908781836
 31
0.0
 70
   160
 71
     5
 42
-1.0
  3
IGA
100
AcDbAlignedDimension
 13
2964.330537805764
 23
2510.845516482221
 33
0.0
 14
3339.330537805765
 24
2510.845516482221
 34
0.0
100
AcDbRotatedDimension
1001
ACAD
1000
DSTYLE
1002
{
1070
   287
1070
     3
1070
    40
1040
20.0
1070
   143
1040
0.039
1070
   172
1070
     1
1070
   271
1070
     0
1070
   279
1070
     0
1070
   288
1070
     1
1002
}
  0
DIMENSION
  5
7DB3
330
19
100
AcDbEntity
  8
3
100
AcDbDimension
  2
*D11
 10
3343.630537805765
 20
2762.114798567218
 30
0.0
 11
3247.730537805766
 21
2762.114798567218
 31
0.0
 70
   160
 71
     5
 42
-1.0
  3
IGA
100
AcDbAlignedDimension
 13
3151.830537805766
 23
2713.74545240054
 33
0.0
 14
3343.630537805765
 24
2463.599298936083
 34
0.0
100
AcDbRotatedDimension
1001
ACAD
1000
DSTYLE
1002
{
1070
   287
1070
     3
1070
    40
1040
20.0
1070
   143
1040
0.039
1070
   172
1070
     1
1070
   271
1070
     0
1070
   279
1070
     0
1070
   288
1070
     1
1002
}
  0
DIMENSION
  5
7DCC
330
19
100
AcDbEntity
  8
3
100
AcDbDimension
  2
*D12
 10
2618.590299456254
 20
2762.114798567218
 30
0.0
 11
2885.21041863101
 21
2827.829084281504
 31
0.0
 70
    32
  1
(560)
 71
     5
 42
533.2402383495118
  3
IGA
100
AcDbAlignedDimension
 13
3151.830537805766
 23
2713.74545240054
 33
0.0
 14
2618.590299456254
 24
2403.599298936082
 34
0.0
100
AcDbRotatedDimension
1001
ACAD
1000
DSTYLE
1002
{
1070
   287
1070
     4
1070
    40
1040
20.0
1070
    75
1070
     1
1070
   143
1040
0.039
1070
   172
1070
     1
1070
   271
1070
     0
1070
   279
1070
     1
1070
   288
1070
     1
1002
}
  0
DIMENSION
  5
7DE4
330
19
100
AcDbEntity
  8
3
100
AcDbDimension
  2
*D13
 10
3543.286756674447
 20
1933.599298936083
 30
0.0
 11
3543.286756674446
 21
2183.339885117799
 31
0.0
 70
   160
 71
     5
 42
-1.0
  3
IGA
100
AcDbAlignedDimension
 13
3371.830537805765
 23
2433.599298936083
 33
0.0
 14
3371.830537805765
 24
1933.599298936083
 34
0.0
 50
90.0
100
AcDbRotatedDimension
1001
ACAD
1000
DSTYLE
1002
{
1070
   287
1070
     3
1070
     3
1000
\U+03C6<>
1070
    40
1040
20.0
1070
   143
1040
0.039
1070
   172
1070
     1
1070
   271
1070
     0
1070
   279
1070
     0
1070
   288
1070
     1
1002
}
  0
DIMENSION
  5
7E6E
330
19
100
AcDbEntity
  8
3
100
AcDbDimension
  2
*D16
 10
617.5956673408691
 20
2543.599298936082
 30
0.0
 11
567.5956673408686
 21
2363.59929893608
 31
0.0
 70
    32
 71
     5
 42
-1.0
  3
IGA
100
AcDbAlignedDimension
 13
737.8464859615032
 23
2183.599298936078
 33
0.0
 14
1149.560685861438
 24
2543.599298936082
 34
0.0
 50
90.0
100
AcDbRotatedDimension
1001
ACAD
1000
DSTYLE
1002
{
1070
   287
1070
     4
1070
    40
1040
20.0
1070
    75
1070
     1
1070
   143
1040
0.039
1070
   172
1070
     1
1070
   271
1070
     0
1070
   279
1070
     1
1070
   288
1070
     1
1002
}
  0
DIMENSION
  5
7E7A
330
19
100
AcDbEntity
  8
3
100
AcDbDimension
  2
*D17
 10
792.7126950535812
 20
2721.164317456654
 30
0.0
 11
973.9366904575094
 21
2771.164317456654
 31
0.0
 70
    32
 71
     5
 42
-1.0
  3
IGA
100
AcDbAlignedDimension
 13
1155.160685861438
 23
2600.913498836019
 33
0.0
 14
792.7126950535812
 24
2146.599298936081
 34
0.0
100
AcDbRotatedDimension
1001
ACAD
1000
DSTYLE
1002
{
1070
   287
1070
     4
1070
    40
1040
20.0
1070
    75
1070
     1
1070
   143
1040
0.039
1070
   172
1070
     1
1070
   271
1070
     0
1070
   279
1070
     1
1070
   288
1070
     1
1002
}
  0
LINE
  5
7E7B
330
19
100
AcDbEntity
  8
1
100
AcDbLine
 10
1636.040471953634
 20
2223.242033224775
 30
0.0
 11
1396.040471953634
 21
2223.242033224775
 31
0.0
  0
LINE
  5
7E7C
330
19
100
AcDbEntity
  8
1
100
AcDbLine
 10
1396.040471953634
 20
2223.242033224775
 30
0.0
 11
1396.040471953634
 21
2423.242033224775
 31
0.0
  0
LINE
  5
7E7D
330
19
100
AcDbEntity
  8
1
100
AcDbLine
 10
1396.040471953634
 20
2423.242033224775
 30
0.0
 11
1636.040471953634
 21
2423.242033224775
 31
0.0
  0
LINE
  5
7E7E
330
19
100
AcDbEntity
  8
1
100
AcDbLine
 10
1636.040471953634
 20
2423.242033224775
 30
0.0
 11
1636.040471953634
 21
2223.242033224775
 31
0.0
  0
DIMENSION
  5
7EA3
330
19
100
AcDbEntity
  8
3
100
AcDbDimension
  2
*D18
 10
1965.160685861443
 20
2889.871433251416
 30
0.0
 11
1373.453367267913
 21
2889.871433251416
 31
0.0
 70
   160
 71
     5
 42
-1.0
  3
IGA
100
AcDbAlignedDimension
 13
792.7126950535812
 23
2146.599298936081
 33
0.0
 14
1965.160685861443
 24
1728.599298936088
 34
0.0
100
AcDbRotatedDimension
1001
ACAD
1000
DSTYLE
1002
{
1070
   287
1070
     3
1070
    40
1040
20.0
1070
   143
1040
0.039
1070
   172
1070
     1
1070
   271
1070
     0
1070
   279
1070
     0
1070
   288
1070
     1
1002
}
  0
DIMENSION
  5
7F0C
330
19
100
AcDbEntity
  8
3
100
AcDbDimension
  2
*D19
 10
616.776980071063
 20
1663.599298936079
 30
0.0
 11
521.0626943567773
 21
1616.099298936079
 31
0.0
 70
    32
 71
     5
 42
-1.0
  3
IGA
100
AcDbAlignedDimension
 13
845.1606858614441
 23
1568.599298936079
 33
0.0
 14
845.1606858614441
 24
1663.599298936079
 34
0.0
 50
90.0
100
AcDbRotatedDimension
1001
ACAD
1000
DSTYLE
1002
{
1070
   172
1070
     1
1070
    40
1040
20.0
1070
     3
1000
(<>)
1070
   271
1070
     0
1070
     6
1000
_DOT
1070
   143
1040
0.039
1002
}
  0
DIMENSION
  5
7F19
330
19
100
AcDbEntity
  8
3
100
AcDbDimension
  2
*D20
 10
412.5563949899223
 20
1503.599298936079
 30
0.0
 11
346.8421092756367
 21
2023.59929893608
 31
0.0
 70
    32
 71
     5
 42
-1.0
  3
IGA
100
AcDbAlignedDimension
 13
1149.560685861438
 23
2543.599298936082
 33
0.0
 14
845.160685861445
 24
1503.599298936079
 34
0.0
 50
90.0
100
AcDbRotatedDimension
1001
ACAD
1000
DSTYLE
1002
{
1070
   172
1070
     1
1070
    40
1040
20.0
1070
     3
1000
(<>)
1070
   271
1070
     0
1070
   143
1040
0.039
1002
}
  0
LINE
  5
846A
330
19
100
AcDbEntity
  8
1
100
AcDbLine
 10
1965.160685861432
 20
3993.713410176749
 30
0.0
 11
845.1606858614322
 21
3993.713410176738
 31
0.0
  0
LINE
  5
846B
330
19
100
AcDbEntity
  8
1
100
AcDbLine
 10
1965.160685861432
 20
3953.713410176749
 30
0.0
 11
1724.765868824742
 21
3953.713410176746
 31
0.0
  0
LINE
  5
846C
330
19
100
AcDbEntity
  8
1
100
AcDbLine
 10
1148.765868824741
 20
3953.713410176741
 30
0.0
 11
845.1606858614322
 21
3953.713410176739
 31
0.0
  0
LINE
  5
846D
330
19
100
AcDbEntity
  8
1
100
AcDbLine
 10
1965.160685861437
 20
3368.713410176748
 30
0.0
 11
1925.960685861436
 21
3368.713410176748
 31
0.0
  0
LINE
  5
846E
330
19
100
AcDbEntity
  8
1
100
AcDbLine
 10
1965.160685861437
 20
3408.713410176748
 30
0.0
 11
1925.960685861436
 21
3408.713410176748
 31
0.0
  0
LINE
  5
846F
330
19
100
AcDbEntity
  8
1
100
AcDbLine
 10
1925.160685861432
 20
3953.713410176749
 30
0.0
 11
1925.160685861435
 21
3625.063467491501
 31
0.0
  0
LINE
  5
8470
330
19
100
AcDbEntity
  8
1
100
AcDbLine
 10
1965.160685861432
 20
3953.713410176749
 30
0.0
 11
1965.160685861437
 21
3408.713410176748
 31
0.0
  0
LINE
  5
8471
330
19
100
AcDbEntity
  8
1
100
AcDbLine
 10
1965.160685861437
 20
3368.713410176748
 30
0.0
 11
1965.160685861437
 21
3408.713410176748
 31
0.0
  0
LINE
  5
8472
330
19
100
AcDbEntity
  8
1
100
AcDbLine
 10
1965.160685861432
 20
3953.713410176749
 30
0.0
 11
1965.160685861432
 21
3993.713410176749
 31
0.0
  0
LINE
  5
8473
330
19
100
AcDbEntity
  8
1
100
AcDbLine
 10
845.1606858614368
 20
3368.713410176738
 30
0.0
 11
845.1606858614368
 21
3408.713410176738
 31
0.0
  0
LINE
  5
8474
330
19
100
AcDbEntity
  8
1
100
AcDbLine
 10
793.1606858614332
 20
3951.21341017674
 30
0.0
 11
1148.76586882474
 21
3951.213410176741
 31
0.0
  0
LINE
  5
8475
330
19
100
AcDbEntity
  8
1
100
AcDbLine
 10
1015.460685861433
 20
3317.413410176739
 30
0.0
 11
1294.860685861434
 21
3317.413410176741
 31
0.0
  0
LINE
  5
8476
330
19
100
AcDbEntity
  8
1
100
AcDbLine
 10
1015.460685861433
 20
3277.413410176739
 30
0.0
 11
1294.860685861434
 21
3277.413410176742
 31
0.0
  0
LINE
  5
8477
330
19
100
AcDbEntity
  8
1
100
AcDbLine
 10
935.1606858614331
 20
3230.47317182723
 30
0.0
 11
1918.160685861437
 21
3230.473171827233
 31
0.0
  0
LINE
  5
8478
330
19
100
AcDbEntity
  8
1
100
AcDbLine
 10
793.1606858614332
 20
3576.213410176739
 30
0.0
 11
1148.765868824743
 21
3576.21341017674
 31
0.0
  0
LINE
  5
8479
330
19
100
AcDbEntity
  8
2
100
AcDbLine
 10
1805.160685861436
 20
3629.000467491501
 30
0.0
 11
1805.160685861437
 21
3293.028867491501
 31
0.0
  0
LINE
  5
847A
330
19
100
AcDbEntity
  8
1
100
AcDbLine
 10
1817.160685861438
 20
3348.063467491501
 30
0.0
 11
1817.160685861438
 21
3298.063467491501
 31
0.0
  0
LINE
  5
847B
330
19
100
AcDbEntity
  8
1
100
AcDbLine
 10
1793.160685861437
 20
3348.063467491501
 30
0.0
 11
1793.160685861437
 21
3298.063467491501
 31
0.0
  0
LINE
  5
847C
330
19
100
AcDbEntity
  8
1
100
AcDbLine
 10
1805.160685861437
 20
3251.378145476686
 30
0.0
 11
1805.160685861437
 21
3361.651049985493
 31
0.0
  0
LINE
  5
847D
330
19
100
AcDbEntity
  8
1
100
AcDbLine
 10
1136.160685861433
 20
3317.41341017674
 30
0.0
 11
1136.160685861434
 21
3347.41341017674
 31
0.0
1001
ACAD
1000
ASC_BOUNDS
1002
{
1070
    19
1002
}
  0
LINE
  5
847E
330
19
100
AcDbEntity
  8
1
100
AcDbLine
 10
1174.160685861433
 20
3317.413410176741
 30
0.0
 11
1174.160685861433
 21
3347.41341017674
 31
0.0
1001
ACAD
1000
ASC_BOUNDS
1002
{
1070
    19
1002
}
  0
LINE
  5
847F
330
19
100
AcDbEntity
  8
1
100
AcDbLine
 10
1918.160685861437
 20
3230.473171827234
 30
0.0
 11
1918.160685861437
 21
3352.473171827234
 31
0.0
  0
LINE
  5
8480
330
19
100
AcDbEntity
  8
1
100
AcDbLine
 10
1817.160685861438
 20
3298.063467491501
 30
0.0
 11
1790.160685861438
 21
3298.063467491501
 31
0.0
  0
LINE
  5
8481
330
19
100
AcDbEntity
  8
1
100
AcDbLine
 10
1294.860685861434
 20
3277.413410176742
 30
0.0
 11
1864.310685861443
 21
3277.413410176744
 31
0.0
  0
LINE
  5
8482
330
19
100
AcDbEntity
  8
1
100
AcDbLine
 10
1294.860685861434
 20
3317.413410176741
 30
0.0
 11
1864.310685861443
 21
3317.413410176743
 31
0.0
  0
LINE
  5
8483
330
19
100
AcDbEntity
  8
1
100
AcDbLine
 10
1864.310685861443
 20
3277.413410176745
 30
0.0
 11
1864.310685861443
 21
3317.413410176744
 31
0.0
  0
LINE
  5
8484
330
19
100
AcDbEntity
  8
1
100
AcDbLine
 10
1750.010685861443
 20
3277.413410176745
 30
0.0
 11
1750.010685861443
 21
3317.413410176745
 31
0.0
  0
LINE
  5
8485
330
19
100
AcDbEntity
  8
1
100
AcDbLine
 10
1790.160685861438
 20
3338.063467491501
 30
0.0
 11
1790.160685861438
 21
3298.063467491501
 31
0.0
  0
LINE
  5
8486
330
19
100
AcDbEntity
  8
1
100
AcDbLine
 10
1793.160685861437
 20
3338.063467491501
 30
0.0
 11
1790.160685861438
 21
3338.063467491501
 31
0.0
  0
LINE
  5
8487
330
19
100
AcDbEntity
  8
1
100
AcDbLine
 10
1294.860685861434
 20
3277.413410176742
 30
0.0
 11
1294.860685861434
 21
3317.413410176741
 31
0.0
1001
ACAD
1000
ASC_BOUNDS
1002
{
1070
    19
1002
}
  0
LINE
  5
8488
330
19
100
AcDbEntity
  8
1
100
AcDbLine
 10
1817.660685861438
 20
3348.063467491501
 30
0.0
 11
1792.660685861438
 21
3348.063467491501
 31
0.0
  0
LINE
  5
8489
330
19
100
AcDbEntity
  8
1
100
AcDbLine
 10
1925.960685861436
 20
3363.063467491502
 30
0.0
 11
1684.360685861437
 21
3363.0634674915
 31
0.0
  0
LINE
  5
848A
330
19
100
AcDbEntity
  8
1
100
AcDbLine
 10
1768.660685861438
 20
3353.063467491501
 30
0.0
 11
1841.660685861438
 21
3353.063467491501
 31
0.0
  0
LINE
  5
848B
330
19
100
AcDbEntity
  8
1
100
AcDbLine
 10
1898.160685861437
 20
3352.473171827234
 30
0.0
 11
1918.160685861437
 21
3352.473171827234
 31
0.0
  0
LINE
  5
848C
330
19
100
AcDbEntity
  8
1
100
AcDbLine
 10
1842.660685861438
 20
3354.063467491501
 30
0.0
 11
1842.660685861438
 21
3362.063467491501
 31
0.0
  0
ARC
  5
848D
330
19
100
AcDbEntity
  8
1
100
AcDbCircle
 10
1843.660685861438
 20
3362.063467491501
 30
0.0
 40
1.000099999999999
100
AcDbArc
 50
90.00350000004177
 51
180.0
  0
ARC
  5
848E
330
19
100
AcDbEntity
  8
1
100
AcDbCircle
 10
1841.660585861436
 20
3354.063467491501
 30
0.0
 40
1.000099999999999
100
AcDbArc
 50
270.0035000000418
 51
0.0
  0
LINE
  5
848F
330
19
100
AcDbEntity
  8
1
100
AcDbLine
 10
1817.660685861438
 20
3353.063467491501
 30
0.0
 11
1817.660685861438
 21
3348.063467491501
 31
0.0
  0
LINE
  5
8490
330
19
100
AcDbEntity
  8
1
100
AcDbLine
 10
1132.660685861433
 20
3347.41341017674
 30
0.0
 11
1132.660685861433
 21
3512.706517957243
 31
0.0
1001
ACAD
1000
ASC_BOUNDS
1002
{
1070
    19
1002
}
  0
LINE
  5
8491
330
19
100
AcDbEntity
  8
1
100
AcDbLine
 10
1177.660685861433
 20
3347.41341017674
 30
0.0
 11
1177.660685861433
 21
3543.713410176739
 31
0.0
1001
ACAD
1000
ASC_BOUNDS
1002
{
1070
    19
1002
}
  0
LINE
  5
8492
330
19
100
AcDbEntity
  8
1
100
AcDbLine
 10
1767.660685861438
 20
3354.063467491501
 30
0.0
 11
1767.660685861438
 21
3362.063467491501
 31
0.0
  0
ARC
  5
8493
330
19
100
AcDbEntity
  8
1
100
AcDbCircle
 10
1766.660685861438
 20
3362.063467491501
 30
0.0
 40
1.000099999999999
100
AcDbArc
 50
0.003500000002683
 51
90.0
  0
ARC
  5
8494
330
19
100
AcDbEntity
  8
1
100
AcDbCircle
 10
1768.660685861438
 20
3354.063567491501
 30
0.0
 40
1.000099999999999
100
AcDbArc
 50
180.0035000000026
 51
270.0
  0
LINE
  5
8495
330
19
100
AcDbEntity
  8
1
100
AcDbLine
 10
1792.660685861438
 20
3353.063467491501
 30
0.0
 11
1792.660685861438
 21
3348.063467491501
 31
0.0
  0
LINE
  5
8496
330
19
100
AcDbEntity
  8
1
100
AcDbLine
 10
1132.660685861433
 20
3347.41341017674
 30
0.0
 11
1177.660685861433
 21
3347.41341017674
 31
0.0
  0
LINE
  5
8497
330
19
100
AcDbEntity
  8
1
100
AcDbLine
 10
1132.660685861433
 20
3472.713410176741
 30
0.0
 11
1132.660685861433
 21
3574.213410176741
 31
0.0
1001
ACAD
1000
ASC_BOUNDS
1002
{
1070
    19
1002
}
  0
LINE
  5
8498
330
19
100
AcDbEntity
  8
1
100
AcDbLine
 10
1177.660685861433
 20
3476.841827538638
 30
0.0
 11
1177.660685861433
 21
3512.706517957243
 31
0.0
1001
ACAD
1000
ASC_BOUNDS
1002
{
1070
    19
1002
}
  0
LINE
  5
8499
330
19
100
AcDbEntity
  8
1
100
AcDbLine
 10
1925.960685861435
 20
3625.063467491503
 30
0.0
 11
1724.765868824742
 21
3625.0634674915
 31
0.0
  0
ARC
  5
849A
330
19
100
AcDbEntity
  8
1
100
AcDbCircle
 10
1889.180385861435
 20
3624.063467491502
 30
0.0
 40
1.000099999999999
100
AcDbArc
 50
1.150500000007121
 51
89.99650000006246
  0
LINE
  5
849B
330
19
100
AcDbEntity
  8
1
100
AcDbLine
 10
1600.160685861424
 20
3993.713410176741
 30
0.0
 11
1675.160685861424
 21
3993.713410176741
 31
0.0
  0
LINE
  5
849C
330
19
100
AcDbEntity
  8
1
100
AcDbLine
 10
935.1606858614331
 20
3352.47317182723
 30
0.0
 11
935.1606858614331
 21
3230.47317182723
 31
0.0
  0
LINE
  5
849D
330
19
100
AcDbEntity
  8
1
100
AcDbLine
 10
935.160685861434
 20
3230.47317182723
 30
0.0
 11
935.160685861434
 21
3352.47317182723
 31
0.0
  0
LINE
  5
849E
330
19
100
AcDbEntity
  8
1
100
AcDbLine
 10
1015.460685861433
 20
3277.413410176739
 30
0.0
 11
1015.460685861433
 21
3317.413410176739
 31
0.0
1001
ACAD
1000
ASC_BOUNDS
1002
{
1070
    19
1002
}
  0
LINE
  5
849F
330
19
100
AcDbEntity
  8
1
100
AcDbLine
 10
955.1606858614333
 20
3352.47317182723
 30
0.0
 11
935.1606858614331
 21
3352.47317182723
 31
0.0
  0
LINE
  5
84A0
330
19
100
AcDbEntity
  8
1
100
AcDbLine
 10
885.1606858614331
 20
3951.21341017674
 30
0.0
 11
885.1606858614331
 21
3953.713410176739
 31
0.0
  0
LINE
  5
84A1
330
19
100
AcDbEntity
  8
1
100
AcDbLine
 10
845.1606858614322
 20
3951.21341017674
 30
0.0
 11
845.1606858614322
 21
3993.713410176738
 31
0.0
  0
LINE
  5
84A2
330
19
100
AcDbEntity
  8
1
100
AcDbLine
 10
1684.360685861437
 20
3363.0634674915
 30
0.0
 11
1684.360685861436
 21
3543.713410176739
 31
0.0
  0
LINE
  5
84A3
330
19
100
AcDbEntity
  8
1
100
AcDbLine
 10
1925.960685861436
 20
3363.063467491501
 30
0.0
 11
1925.960685861435
 21
3625.063467491501
 31
0.0
  0
LINE
  5
84A4
330
19
100
AcDbEntity
  8
1
100
AcDbLine
 10
1684.360685861437
 20
3408.713410176746
 30
0.0
 11
1177.660685861433
 21
3408.713410176742
 31
0.0
  0
LINE
  5
84A5
330
19
100
AcDbEntity
  8
1
100
AcDbLine
 10
1684.360685861437
 20
3368.713410176745
 30
0.0
 11
1177.660685861433
 21
3368.713410176741
 31
0.0
  0
LINE
  5
84A6
330
19
100
AcDbEntity
  8
1
100
AcDbLine
 10
1475.160685861436
 20
3408.713410176744
 30
0.0
 11
1475.160685861435
 21
3543.713410176739
 31
0.0
  0
LINE
  5
84A7
330
19
100
AcDbEntity
  8
1
100
AcDbLine
 10
835.160685861434
 20
3408.713410176742
 30
0.0
 11
835.1606858614331
 21
3576.213410176741
 31
0.0
  0
LINE
  5
84A8
330
19
100
AcDbEntity
  8
1
100
AcDbLine
 10
1132.660685861433
 20
3408.713410176741
 30
0.0
 11
835.160685861434
 21
3408.713410176739
 31
0.0
  0
LINE
  5
84A9
330
19
100
AcDbEntity
  8
1
100
AcDbLine
 10
1132.660685861433
 20
3368.713410176741
 30
0.0
 11
845.1606858614368
 21
3368.713410176738
 31
0.0
  0
DIMENSION
  5
84AA
330
19
100
AcDbEntity
  8
3
100
AcDbDimension
  2
*D53
 10
1965.160685861432
 20
4197.08128079966
 30
0.0
 11
1352.381722866699
 21
4197.08128079966
 31
0.0
 70
   160
 71
     5
 42
1120.0
  3
IGA
100
AcDbAlignedDimension
 13
845.1606858614322
 23
3993.713410176738
 33
0.0
 14
1965.160685861432
 24
3993.713410176749
 34
0.0
 50
180.0
100
AcDbRotatedDimension
1001
ACAD
1000
DSTYLE
1002
{
1070
   287
1070
     3
1070
    40
1040
20.0
1070
   143
1040
0.039
1070
   172
1070
     1
1070
   271
1070
     0
1070
   279
1070
     0
1070
   288
1070
     1
1002
}
  0
DIMENSION
  5
84AB
330
19
100
AcDbEntity
  8
3
100
AcDbDimension
  2
*D54
 10
2151.784558400349
 20
3368.713410176748
 30
0.0
 11
2151.784558400348
 21
3688.740278048199
 31
0.0
 70
   160
 71
     5
 42
625.0000000000008
  3
IGA
100
AcDbAlignedDimension
 13
1965.160685861432
 23
3993.713410176749
 33
0.0
 14
1965.160685861437
 24
3368.713410176748
 34
0.0
 50
270.0
100
AcDbRotatedDimension
1001
ACAD
1000
DSTYLE
1002
{
1070
   287
1070
     3
1070
    40
1040
20.0
1070
   143
1040
0.039
1070
   172
1070
     1
1070
   271
1070
     0
1070
   279
1070
     0
1070
   288
1070
     1
1002
}
  0
LINE
  5
84AC
330
19
100
AcDbEntity
  8
1
100
AcDbLine
 10
793.1606858614332
 20
3576.213410176739
 30
0.0
 11
793.1606858614332
 21
3951.21341017674
 31
0.0
1001
ACAD
1000
ASC_BOUNDS
1002
{
1070
    19
1002
}
  0
LINE
  5
84AD
330
19
100
AcDbEntity
  8
1
100
AcDbLine
 10
1724.765868824742
 20
3983.713410176739
 30
0.0
 11
1724.765868824742
 21
3543.713410176739
 31
0.0
  0
LINE
  5
84AE
330
19
100
AcDbEntity
  8
1
100
AcDbLine
 10
1148.765868824742
 20
3543.713410176739
 30
0.0
 11
1724.765868824742
 21
3543.713410176739
 31
0.0
  0
LINE
  5
84AF
330
19
100
AcDbEntity
  8
1
100
AcDbLine
 10
1148.765868824742
 20
3983.713410176739
 30
0.0
 11
1724.765868824742
 21
3983.713410176739
 31
0.0
  0
LINE
  5
84B0
330
19
100
AcDbEntity
  8
1
100
AcDbLine
 10
1148.765868824742
 20
3543.713410176739
 30
0.0
 11
1148.76586882474
 21
3983.713410176739
 31
0.0
  0
LINE
  5
84B1
330
19
100
AcDbEntity
  8
1
100
AcDbLine
 10
1694.765868824742
 20
3573.713410176739
 30
0.0
 11
1694.765868824742
 21
3953.713410176739
 31
0.0
  0
LINE
  5
84B2
330
19
100
AcDbEntity
  8
1
100
AcDbLine
 10
1178.765868824742
 20
3573.713410176739
 30
0.0
 11
1178.76586882474
 21
3953.713410176739
 31
0.0
  0
LINE
  5
84B3
330
19
100
AcDbEntity
  8
1
100
AcDbLine
 10
1178.765868824742
 20
3573.713410176739
 30
0.0
 11
1694.765868824742
 21
3573.713410176739
 31
0.0
  0
LINE
  5
84B4
330
19
100
AcDbEntity
  8
1
100
AcDbLine
 10
1178.765868824742
 20
3953.713410176739
 30
0.0
 11
1694.765868824742
 21
3953.713410176739
 31
0.0
  0
LINE
  5
84B5
330
19
100
AcDbEntity
  8
1
100
AcDbLine
 10
1694.765868824742
 20
3953.713410176739
 30
0.0
 11
1178.765868824742
 21
3573.713410176739
 31
0.0
  0
LINE
  5
84B6
330
19
100
AcDbEntity
  8
1
100
AcDbLine
 10
1694.765868824742
 20
3573.713410176739
 30
0.0
 11
1178.76586882474
 21
3953.713410176739
 31
0.0
  0
ENDSEC
  0
SECTION
  2
OBJECTS
  0
DICTIONARY
  5
C
330
0
100
AcDbDictionary
281
     1
  3
ACAD_CIP_PREVIOUS_PRODUCT_INFO
350
8043
  3
ACAD_COLOR
350
8026
  3
ACAD_DETAILVIEWSTYLE
350
803F
  3
ACAD_GROUP
350
D
  3
ACAD_LAYOUT
350
7F26
  3
ACAD_MATERIAL
350
7FF4
  3
ACAD_MLEADERSTYLE
350
803B
  3
ACAD_MLINESTYLE
350
E
  3
ACAD_PLOTSETTINGS
350
7F27
  3
ACAD_PLOTSTYLENAME
350
7F24
  3
ACAD_SCALELIST
350
8029
  3
ACAD_SECTIONVIEWSTYLE
350
803D
  3
ACAD_TABLESTYLE
350
8027
  3
ACAD_VISUALSTYLE
350
800D
  3
ACDB_RECOMPOSE_DATA
350
8533
  3
AcDbVariableDictionary
350
7FEC
  3
AcDsDecomposeData
350
853A
  3
DWGPROPS
350
8534
  0
DICTIONARY
  5
8135
330
2
100
AcDbDictionary
280
     1
281
     1
  3
ACAD_LAYERSTATES
360
8136
  0
DICTIONARY
  5
8044
330
F
100
AcDbDictionary
280
     1
281
     1
  3
ADSK_XREC_LAYER_RECONCILED
360
8045
  0
DICTIONARY
  5
8046
330
31
100
AcDbDictionary
280
     1
281
     1
  3
ADSK_XREC_LAYER_RECONCILED
360
8047
  0
DICTIONARY
  5
8048
330
76D0
100
AcDbDictionary
280
     1
281
     1
  3
ADSK_XREC_LAYER_RECONCILED
360
8049
  0
DICTIONARY
  5
804A
330
76D1
100
AcDbDictionary
280
     1
281
     1
  3
ADSK_XREC_LAYER_RECONCILED
360
804B
  0
DICTIONARY
  5
804C
330
76D2
100
AcDbDictionary
280
     1
281
     1
  3
ADSK_XREC_LAYER_RECONCILED
360
804D
  0
DICTIONARY
  5
7F53
330
19
100
AcDbDictionary
280
     1
281
     1
  3
ACAD_LAYOUTSELFREF
360
7F54
  0
DICTIONARY
  5
7F51
330
16
100
AcDbDictionary
280
     1
281
     1
  3
ACAD_LAYOUTSELFREF
360
7F52
  0
XRECORD
  5
8043
102
{ACAD_REACTORS
330
C
102
}
330
C
100
AcDbXrecord
280
     1
300
ACDLT
300
2015
300
INVLTS_F_S
  0
DICTIONARY
  5
8026
102
{ACAD_REACTORS
330
C
102
}
330
C
100
AcDbDictionary
281
     1
  0
DICTIONARY
  5
803F
102
{ACAD_REACTORS
330
C
102
}
330
C
100
AcDbDictionary
281
     1
  3
Metric50
350
8040
  0
DICTIONARY
  5
D
102
{ACAD_REACTORS
330
C
102
}
330
C
100
AcDbDictionary
281
     1
  0
DICTIONARY
  5
7F26
102
{ACAD_REACTORS
330
C
102
}
330
C
100
AcDbDictionary
281
     1
  3
Model
350
7F28
  3
ﾚｲｱｳﾄ1
350
7F29
  0
DICTIONARY
  5
7FF4
102
{ACAD_REACTORS
330
C
102
}
330
C
100
AcDbDictionary
281
     1
  3
ByBlock
350
7FFD
  3
ByLayer
350
7FF5
  3
Global
350
8005
  0
DICTIONARY
  5
803B
102
{ACAD_REACTORS
330
C
102
}
330
C
100
AcDbDictionary
281
     1
  3
Standard
350
803C
  0
DICTIONARY
  5
E
102
{ACAD_REACTORS
330
C
102
}
330
C
100
AcDbDictionary
281
     1
  3
STANDARD
350
1C
  0
DICTIONARY
  5
7F27
102
{ACAD_REACTORS
330
C
102
}
330
C
100
AcDbDictionary
281
     1
  0
ACDBDICTIONARYWDFLT
  5
7F24
102
{ACAD_REACTORS
330
C
102
}
330
C
100
AcDbDictionary
281
     1
  3
Normal
350
7F25
100
AcDbDictionaryWithDefault
340
7F25
  0
DICTIONARY
  5
8029
102
{ACAD_REACTORS
330
C
102
}
330
C
100
AcDbDictionary
281
     1
  3
A0
350
802A
  3
A1
350
802B
  3
A2
350
802C
  3
A3
350
802D
  3
A4
350
802E
  3
A5
350
802F
  3
A6
350
8030
  3
A7
350
8031
  3
A8
350
8032
  3
A9
350
8033
  3
B0
350
8034
  3
B1
350
8035
  3
B2
350
8036
  3
B3
350
8037
  3
B4
350
8038
  3
B5
350
8039
  3
B6
350
803A
  0
DICTIONARY
  5
803D
102
{ACAD_REACTORS
330
C
102
}
330
C
100
AcDbDictionary
281
     1
  3
Metric50
350
803E
  0
DICTIONARY
  5
8027
102
{ACAD_REACTORS
330
C
102
}
330
C
100
AcDbDictionary
281
     1
  3
Standard
350
8028
  0
DICTIONARY
  5
800D
102
{ACAD_REACTORS
330
C
102
}
330
C
100
AcDbDictionary
281
     1
  3
2dWireframe
350
8013
  3
Basic
350
8012
  3
Brighten
350
8019
  3
ColorChange
350
801D
  3
Conceptual
350
8016
  3
Dim
350
8018
  3
EdgeColorOff
350
8025
  3
Facepattern
350
801C
  3
Flat
350
800E
  3
FlatWithEdges
350
800F
  3
Gouraud
350
8010
  3
GouraudWithEdges
350
8011
  3
Hidden
350
8015
  3
JitterOff
350
8023
  3
Linepattern
350
801B
  3
OverhangOff
350
8024
  3
Realistic
350
8017
  3
Shaded
350
8022
  3
Shaded with edges
350
8021
  3
Shades of Gray
350
801E
  3
Sketchy
350
801F
  3
Thicken
350
801A
  3
Wireframe
350
8014
  3
X-Ray
350
8020
  0
XRECORD
  5
8533
102
{ACAD_REACTORS
330
C
102
}
330
C
100
AcDbXrecord
280
     1
 90
        1
330
8028
  0
DICTIONARY
  5
7FEC
102
{ACAD_REACTORS
330
C
102
}
330
C
100
AcDbDictionary
281
     1
  3
CANNOSCALE
350
852D
  3
CMLEADERSTYLE
350
852A
  3
CTABLESTYLE
350
8529
  3
CVIEWDETAILSTYLE
350
852B
  3
CVIEWSECTIONSTYLE
350
852C
  3
DIMASSOC
350
7FED
  3
INDEXCTL
350
852F
  3
SORTENTS
350
852E
  3
XCLIPFRAME
350
8530
  0
DICTIONARY
  5
853A
102
{ACAD_REACTORS
330
C
102
}
330
C
100
AcDbDictionary
281
     1
  3
AcDsRecords
350
853C
  3
AcDsSchemas
350
853B
1001
ACAD
1070
     2
  0
XRECORD
  5
8534
102
{ACAD_REACTORS
330
C
102
}
330
C
100
AcDbXrecord
280
     1
  1
DWGPROPS COOKIE
  2

  3

  4

  6

  7

  8
reiko.miyawaki
  9

300
=
301
=
302
=
303
=
304
=
305
=
306
=
307
=
308
=
309
=
 40
0.1646326273148148
 41
2452773.62282963
 42
2458829.613253797
  1

 90
        0
  0
DICTIONARY
  5
8136
102
{ACAD_REACTORS
330
8135
102
}
330
8135
100
AcDbDictionary
281
     1
  0
XRECORD
  5
8045
102
{ACAD_REACTORS
330
8044
102
}
330
8044
100
AcDbXrecord
280
     1
290
     1
  0
XRECORD
  5
8047
102
{ACAD_REACTORS
330
8046
102
}
330
8046
100
AcDbXrecord
280
     1
290
     1
  0
XRECORD
  5
8049
102
{ACAD_REACTORS
330
8048
102
}
330
8048
100
AcDbXrecord
280
     1
290
     1
  0
XRECORD
  5
804B
102
{ACAD_REACTORS
330
804A
102
}
330
804A
100
AcDbXrecord
280
     1
290
     1
  0
XRECORD
  5
804D
102
{ACAD_REACTORS
330
804C
102
}
330
804C
100
AcDbXrecord
280
     1
290
     1
  0
XRECORD
  5
7F54
102
{ACAD_REACTORS
330
7F53
102
}
330
7F53
100
AcDbXrecord
280
     1
340
19
  0
XRECORD
  5
7F52
102
{ACAD_REACTORS
330
7F51
102
}
330
7F51
100
AcDbXrecord
280
     1
340
16
  0
ACDBDETAILVIEWSTYLE
  5
8040
102
{ACAD_XDICTIONARY
360
857A
102
}
102
{ACAD_REACTORS
330
803F
102
}
330
803F
100
AcDbModelDocViewStyle
 70
     0
  3
Metric50
290
     0
100
AcDbDetailViewStyle
 70
     0
 71
     0
 90
        3
 71
     1
340
10
 40
5.0
340
0
 40
5.0
300

 40
0.0
280
     1
 71
     2
340
15
 90
       25
 71
     3
340
10
 40
5.0
 90
        0
 40
15.0
 90
        1
300
%<\AcVar ViewDetailId>% (%<\AcVar ViewScale \f "%sn">%)
 71
     4
340
15
 90
       25
340
15
 90
       25
280
     0
  0
LAYOUT
  5
7F28
102
{ACAD_XDICTIONARY
360
853D
102
}
102
{ACAD_REACTORS
330
7F26
102
}
330
7F26
100
AcDbPlotSettings
  1

  2
none_device
  4
ISO_A4_(210.00_x_297.00_MM)
  6

 40
7.5
 41
20.0
 42
7.5
 43
20.0
 44
210.0
 45
297.0
 46
0.0
 47
0.0
 48
0.0
 49
0.0
140
0.0
141
0.0
142
1.0
143
58.78083267923542
 70
 11952
 72
     1
 73
     1
 74
     0
  7
monochrome.ctb
 75
     0
147
0.0170123483186596
148
0.0
149
0.0
100
AcDbLayout
  1
Model
 70
     1
 71
     0
 10
0.0
 20
0.0
 11
12.0
 21
9.0
 12
0.0
 22
0.0
 32
0.0
 14
0.0
 24
0.0
 34
0.0
 15
0.0
 25
0.0
 35
0.0
146
0.0
 13
0.0
 23
0.0
 33
0.0
 16
1.0
 26
0.0
 36
0.0
 17
0.0
 27
1.0
 37
0.0
 76
     0
330
19
331
7FF2
1001
ACAD_PSEXT
1000
なし
1000
なし
1000
適切ではありません
1000
新しいプロッタ環境設定名を選択しない限り、レイアウトは印刷されません。
1070
     0
  0
LAYOUT
  5
7F29
102
{ACAD_XDICTIONARY
360
853F
102
}
102
{ACAD_REACTORS
330
7F26
102
}
330
7F26
100
AcDbPlotSettings
  1

  2
\\Txbo34x8944cqyd\EPSON LP-6100
  4

  6

 40
0.0
 41
0.0
 42
0.0
 43
0.0
 44
0.0
 45
0.0
 46
0.0
 47
0.0
 48
0.0
 49
0.0
140
0.0
141
0.0
142
1.0
143
1.0
 70
   688
 72
     0
 73
     0
 74
     5
  7
monochrome.ctb
 75
    16
147
1.0
148
0.0
149
0.0
100
AcDbLayout
  1
ﾚｲｱｳﾄ1
 70
     1
 71
     1
 10
0.0
 20
0.0
 11
12.0
 21
9.0
 12
0.0
 22
0.0
 32
0.0
 14
1.000000000000000E+20
 24
1.000000000000000E+20
 34
1.000000000000000E+20
 15
-1.000000000000000E+20
 25
-1.000000000000000E+20
 35
-1.000000000000000E+20
146
0.0
 13
0.0
 23
0.0
 33
0.0
 16
1.0
 26
0.0
 36
0.0
 17
0.0
 27
1.0
 37
0.0
 76
     0
330
16
  0
MATERIAL
  5
7FFD
102
{ACAD_XDICTIONARY
360
7FFE
102
}
102
{ACAD_REACTORS
330
7FF4
102
}
330
7FF4
100
AcDbMaterial
  1
ByBlock
 72
     0
 43
0.0208333333333333
 43
0.0
 43
0.0
 43
0.0
 43
0.0
 43
0.0208333333333333
 43
0.0
 43
0.0
 43
0.0
 43
0.0
 43
1.0
 43
0.0
 43
0.0
 43
0.0
 43
0.0
 43
1.0
 77
     0
 47
0.0208333333333333
 47
0.0
 47
0.0
 47
0.0
 47
0.0
 47
0.0208333333333333
 47
0.0
 47
0.0
 47
0.0
 47
0.0
 47
1.0
 47
0.0
 47
0.0
 47
0.0
 47
0.0
 47
1.0
171
     0
 49
0.0208333333333333
 49
0.0
 49
0.0
 49
0.0
 49
0.0
 49
0.0208333333333333
 49
0.0
 49
0.0
 49
0.0
 49
0.0
 49
1.0
 49
0.0
 49
0.0
 49
0.0
 49
0.0
 49
1.0
175
     0
142
0.0208333333333333
142
0.0
142
0.0
142
0.0
142
0.0
142
0.0208333333333333
142
0.0
142
0.0
142
0.0
142
0.0
142
1.0
142
0.0
142
0.0
142
0.0
142
0.0
142
1.0
179
     0
144
0.0208333333333333
144
0.0
144
0.0
144
0.0
144
0.0
144
0.0208333333333333
144
0.0
144
0.0
144
0.0
144
0.0
144
1.0
144
0.0
144
0.0
144
0.0
144
0.0
144
1.0
147
0.0208333333333333
147
0.0
147
0.0
147
0.0
147
0.0
147
0.0208333333333333
147
0.0
147
0.0
147
0.0
147
0.0
147
1.0
147
0.0
147
0.0
147
0.0
147
0.0
147
1.0
  0
MATERIAL
  5
7FF5
102
{ACAD_XDICTIONARY
360
7FF6
102
}
102
{ACAD_REACTORS
330
7FF4
102
}
330
7FF4
100
AcDbMaterial
  1
ByLayer
 72
     0
 43
0.0208333333333333
 43
0.0
 43
0.0
 43
0.0
 43
0.0
 43
0.0208333333333333
 43
0.0
 43
0.0
 43
0.0
 43
0.0
 43
1.0
 43
0.0
 43
0.0
 43
0.0
 43
0.0
 43
1.0
 77
     0
 47
0.0208333333333333
 47
0.0
 47
0.0
 47
0.0
 47
0.0
 47
0.0208333333333333
 47
0.0
 47
0.0
 47
0.0
 47
0.0
 47
1.0
 47
0.0
 47
0.0
 47
0.0
 47
0.0
 47
1.0
171
     0
 49
0.0208333333333333
 49
0.0
 49
0.0
 49
0.0
 49
0.0
 49
0.0208333333333333
 49
0.0
 49
0.0
 49
0.0
 49
0.0
 49
1.0
 49
0.0
 49
0.0
 49
0.0
 49
0.0
 49
1.0
175
     0
142
0.0208333333333333
142
0.0
142
0.0
142
0.0
142
0.0
142
0.0208333333333333
142
0.0
142
0.0
142
0.0
142
0.0
142
1.0
142
0.0
142
0.0
142
0.0
142
0.0
142
1.0
179
     0
144
0.0208333333333333
144
0.0
144
0.0
144
0.0
144
0.0
144
0.0208333333333333
144
0.0
144
0.0
144
0.0
144
0.0
144
1.0
144
0.0
144
0.0
144
0.0
144
0.0
144
1.0
147
0.0208333333333333
147
0.0
147
0.0
147
0.0
147
0.0
147
0.0208333333333333
147
0.0
147
0.0
147
0.0
147
0.0
147
1.0
147
0.0
147
0.0
147
0.0
147
0.0
147
1.0
  0
MATERIAL
  5
8005
102
{ACAD_XDICTIONARY
360
8006
102
}
102
{ACAD_REACTORS
330
7FF4
102
}
330
7FF4
100
AcDbMaterial
  1
Global
 72
     0
 43
0.0208333333333333
 43
0.0
 43
0.0
 43
0.0
 43
0.0
 43
0.0208333333333333
 43
0.0
 43
0.0
 43
0.0
 43
0.0
 43
1.0
 43
0.0
 43
0.0
 43
0.0
 43
0.0
 43
1.0
 77
     0
 47
0.0208333333333333
 47
0.0
 47
0.0
 47
0.0
 47
0.0
 47
0.0208333333333333
 47
0.0
 47
0.0
 47
0.0
 47
0.0
 47
1.0
 47
0.0
 47
0.0
 47
0.0
 47
0.0
 47
1.0
171
     0
 49
0.0208333333333333
 49
0.0
 49
0.0
 49
0.0
 49
0.0
 49
0.0208333333333333
 49
0.0
 49
0.0
 49
0.0
 49
0.0
 49
1.0
 49
0.0
 49
0.0
 49
0.0
 49
0.0
 49
1.0
175
     0
142
0.0208333333333333
142
0.0
142
0.0
142
0.0
142
0.0
142
0.0208333333333333
142
0.0
142
0.0
142
0.0
142
0.0
142
1.0
142
0.0
142
0.0
142
0.0
142
0.0
142
1.0
179
     0
144
0.0208333333333333
144
0.0
144
0.0
144
0.0
144
0.0
144
0.0208333333333333
144
0.0
144
0.0
144
0.0
144
0.0
144
1.0
144
0.0
144
0.0
144
0.0
144
0.0
144
1.0
147
0.0208333333333333
147
0.0
147
0.0
147
0.0
147
0.0
147
0.0208333333333333
147
0.0
147
0.0
147
0.0
147
0.0
147
1.0
147
0.0
147
0.0
147
0.0
147
0.0
147
1.0
  0
MLEADERSTYLE
  5
803C
102
{ACAD_XDICTIONARY
360
8576
102
}
102
{ACAD_REACTORS
330
803B
102
}
330
803B
100
AcDbMLeaderStyle
170
     2
171
     1
172
     0
 90
        2
 40
0.0
 41
0.0
173
     1
 91
-1056964608
340
13
 92
       -2
290
     1
 42
2.0
291
     1
 43
0.36
  3
Standard
 44
4.0
300

342
10
174
     1
178
     6
175
     1
176
     0
 93
-1056964608
 45
4.0
292
     0
297
     0
 46
4.0
 94
-1056964608
 47
1.0
 49
1.0
140
1.0
293
     1
141
0.0
294
     1
177
     0
142
1.0
295
     0
296
     0
143
0.125
1001
ACAD_MLEADERVER
1070
     2
  0
MLINESTYLE
  5
1C
102
{ACAD_REACTORS
330
E
102
}
330
E
100
AcDbMlineStyle
  2
STANDARD
 70
     0
  3

 62
     0
 51
90.0
 52
90.0
 71
     2
 49
0.5
 62
   256
  6
BYLAYER
 49
-0.5
 62
   256
  6
BYLAYER
  0
ACDBPLACEHOLDER
  5
7F25
102
{ACAD_REACTORS
330
7F24
102
}
330
7F24
  0
SCALE
  5
802A
102
{ACAD_REACTORS
330
8029
102
}
330
8029
100
AcDbScale
 70
     0
300
1:1
140
1.0
141
1.0
290
     1
  0
SCALE
  5
802B
102
{ACAD_REACTORS
330
8029
102
}
330
8029
100
AcDbScale
 70
     0
300
1:2
140
1.0
141
2.0
290
     0
  0
SCALE
  5
802C
102
{ACAD_REACTORS
330
8029
102
}
330
8029
100
AcDbScale
 70
     0
300
1:4
140
1.0
141
4.0
290
     0
  0
SCALE
  5
802D
102
{ACAD_REACTORS
330
8029
102
}
330
8029
100
AcDbScale
 70
     0
300
1:5
140
1.0
141
5.0
290
     0
  0
SCALE
  5
802E
102
{ACAD_REACTORS
330
8029
102
}
330
8029
100
AcDbScale
 70
     0
300
1:8
140
1.0
141
8.0
290
     0
  0
SCALE
  5
802F
102
{ACAD_REACTORS
330
8029
102
}
330
8029
100
AcDbScale
 70
     0
300
1:10
140
1.0
141
10.0
290
     0
  0
SCALE
  5
8030
102
{ACAD_REACTORS
330
8029
102
}
330
8029
100
AcDbScale
 70
     0
300
1:16
140
1.0
141
16.0
290
     0
  0
SCALE
  5
8031
102
{ACAD_REACTORS
330
8029
102
}
330
8029
100
AcDbScale
 70
     0
300
1:20
140
1.0
141
20.0
290
     0
  0
SCALE
  5
8032
102
{ACAD_REACTORS
330
8029
102
}
330
8029
100
AcDbScale
 70
     0
300
1:30
140
1.0
141
30.0
290
     0
  0
SCALE
  5
8033
102
{ACAD_REACTORS
330
8029
102
}
330
8029
100
AcDbScale
 70
     0
300
1:40
140
1.0
141
40.0
290
     0
  0
SCALE
  5
8034
102
{ACAD_REACTORS
330
8029
102
}
330
8029
100
AcDbScale
 70
     0
300
1:50
140
1.0
141
50.0
290
     0
  0
SCALE
  5
8035
102
{ACAD_REACTORS
330
8029
102
}
330
8029
100
AcDbScale
 70
     0
300
1:100
140
1.0
141
100.0
290
     0
  0
SCALE
  5
8036
102
{ACAD_REACTORS
330
8029
102
}
330
8029
100
AcDbScale
 70
     0
300
2:1
140
2.0
141
1.0
290
     0
  0
SCALE
  5
8037
102
{ACAD_REACTORS
330
8029
102
}
330
8029
100
AcDbScale
 70
     0
300
4:1
140
4.0
141
1.0
290
     0
  0
SCALE
  5
8038
102
{ACAD_REACTORS
330
8029
102
}
330
8029
100
AcDbScale
 70
     0
300
8:1
140
8.0
141
1.0
290
     0
  0
SCALE
  5
8039
102
{ACAD_REACTORS
330
8029
102
}
330
8029
100
AcDbScale
 70
     0
300
10:1
140
10.0
141
1.0
290
     0
  0
SCALE
  5
803A
102
{ACAD_REACTORS
330
8029
102
}
330
8029
100
AcDbScale
 70
     0
300
100:1
140
100.0
141
1.0
290
     0
  0
ACDBSECTIONVIEWSTYLE
  5
803E
102
{ACAD_XDICTIONARY
360
8578
102
}
102
{ACAD_REACTORS
330
803D
102
}
330
803D
100
AcDbModelDocViewStyle
 70
     0
  3
Metric50
290
     0
100
AcDbSectionViewStyle
 70
     0
 71
     0
 90
      102
 71
     1
340
10
 40
5.0
340
0
340
0
 40
5.0
300
I, O, Q, S, X, Z
 40
10.0
 90
        0
 40
2.5
 90
        0
 71
     2
340
15
 90
       25
340
15
 90
       50
 40
5.0
 40
2.5
 40
5.0
 71
     3
340
10
 40
5.0
 90
        0
 40
15.0
 90
        1
300
%<\AcVar ViewSectionStartId>%-%<\AcVar ViewSectionEndId>% (%<\AcVar ViewScale \f "%sn">%)
 71
     4
300
ANSI31
 40
1.0
 90
        0
290
     0
290
     0
 90
        6
 40
0.0
 40
1.570796326794896
 40
0.2617993877991494
 40
1.308996938995747
 40
-0.2617993877991494
 40
1.832595714594046
  0
TABLESTYLE
  5
8028
102
{ACAD_XDICTIONARY
360
8531
102
}
102
{ACAD_REACTORS
330
8027
102
}
330
8027
100
AcDbTableStyle
  3
Standard
 70
     0
 71
     0
 40
1.5
 41
1.5
280
     0
281
     0
  7
STANDARD
140
4.5
170
     2
 62
     0
 63
     7
283
     0
274
    -2
284
     1
 64
     0
275
    -2
285
     1
 65
     0
276
    -2
286
     1
 66
     0
277
    -2
287
     1
 67
     0
278
    -2
288
     1
 68
     0
279
    -2
289
     1
 69
     0
  7
STANDARD
140
6.0
170
     5
 62
     0
 63
     7
283
     0
274
    -2
284
     1
 64
     0
275
    -2
285
     1
 65
     0
276
    -2
286
     1
 66
     0
277
    -2
287
     1
 67
     0
278
    -2
288
     1
 68
     0
279
    -2
289
     1
 69
     0
  7
STANDARD
140
4.5
170
     5
 62
     0
 63
     7
283
     0
274
    -2
284
     1
 64
     0
275
    -2
285
     1
 65
     0
276
    -2
286
     1
 66
     0
277
    -2
287
     1
 67
     0
278
    -2
288
     1
 68
     0
279
    -2
289
     1
 69
     0
  0
VISUALSTYLE
  5
8013
102
{ACAD_XDICTIONARY
360
854E
102
}
102
{ACAD_REACTORS
330
800D
102
}
330
800D
100
AcDbVisualStyle
  2
2dWireframe
 70
     4
 71
     0
 72
     2
 73
     0
 90
        0
 40
-0.6
 41
-30.0
 62
     5
 63
     7
 74
     1
 91
        4
 64
     7
 65
   257
 75
     1
175
     1
 42
1.0
 92
        0
 66
   257
 43
1.0
 76
     1
 77
     6
 78
     2
 67
     7
 79
     5
170
     0
171
     0
290
     0
174
     0
 93
        1
 44
0.0
173
     0
291
     0
 45
0.0
1001
ACAD
1000
AcDbSavedByObjectVersion
1070
     0
  0
VISUALSTYLE
  5
8012
102
{ACAD_XDICTIONARY
360
854C
102
}
102
{ACAD_REACTORS
330
800D
102
}
330
800D
100
AcDbVisualStyle
  2
Basic
 70
     7
 71
     1
 72
     0
 73
     1
 90
        0
 40
-0.6
 41
-30.0
 62
     5
 63
     7
 74
     0
 91
        4
 64
     7
 65
   257
 75
     1
175
     1
 42
1.0
 92
        8
 66
     7
 43
1.0
 76
     1
 77
     6
 78
     2
 67
     7
 79
     5
170
     0
171
     0
290
     0
174
     0
 93
        1
 44
0.0
173
     0
291
     1
 45
0.0
1001
ACAD
1000
AcDbSavedByObjectVersion
1070
     0
  0
VISUALSTYLE
  5
8019
102
{ACAD_XDICTIONARY
360
855A
102
}
102
{ACAD_REACTORS
330
800D
102
}
330
800D
100
AcDbVisualStyle
  2
Brighten
 70
    12
 71
     2
 72
     2
 73
     0
 90
        0
 40
-0.6
 41
-30.0
 62
     5
 63
     7
 74
     1
 91
        4
 64
     7
 65
   257
 75
     1
175
     1
 42
1.0
 92
        8
 66
     7
 43
1.0
 76
     1
 77
     6
 78
     2
 67
     7
 79
     5
170
     0
171
     0
290
     0
174
     0
 93
        1
 44
50.0
173
     0
291
     1
 45
0.0
1001
ACAD
1000
AcDbSavedByObjectVersion
1070
     0
  0
VISUALSTYLE
  5
801D
102
{ACAD_XDICTIONARY
360
8562
102
}
102
{ACAD_REACTORS
330
800D
102
}
330
800D
100
AcDbVisualStyle
  2
ColorChange
 70
    16
 71
     2
 72
     2
 73
     3
 90
        0
 40
-0.6
 41
-30.0
 62
     5
 63
     8
 74
     1
 91
        4
 64
     7
 65
   257
 75
     1
175
     1
 42
1.0
 92
        8
 66
     8
 43
1.0
 76
     1
 77
     6
 78
     2
 67
     7
 79
     5
170
     0
171
     0
290
     0
174
     0
 93
        1
 44
0.0
173
     0
291
     1
 45
0.0
1001
ACAD
1000
AcDbSavedByObjectVersion
1070
     0
  0
VISUALSTYLE
  5
8016
102
{ACAD_XDICTIONARY
360
8554
102
}
102
{ACAD_REACTORS
330
800D
102
}
330
800D
100
AcDbVisualStyle
  2
Conceptual
 70
     9
 71
     3
 72
     2
 73
     0
 90
        0
 40
-0.6
 41
-30.0
 62
     5
 63
     7
 74
     2
 91
        2
 64
     7
 65
   257
 75
     1
175
     1
 42
179.0
 92
        8
 66
     7
 43
1.0
 76
     1
 77
     6
 78
     2
 67
     7
 79
     3
170
     0
171
     0
290
     0
174
     0
 93
        1
 44
0.0
173
     0
291
     0
 45
0.0
1001
ACAD
1000
AcDbSavedByObjectVersion
1070
     0
  0
VISUALSTYLE
  5
8018
102
{ACAD_XDICTIONARY
360
8558
102
}
102
{ACAD_REACTORS
330
800D
102
}
330
800D
100
AcDbVisualStyle
  2
Dim
 70
    11
 71
     2
 72
     2
 73
     0
 90
        0
 40
-0.6
 41
-30.0
 62
     5
 63
     7
 74
     1
 91
        4
 64
     7
 65
   257
 75
     1
175
     1
 42
1.0
 92
        8
 66
     7
 43
1.0
 76
     1
 77
     6
 78
     2
 67
     7
 79
     5
170
     0
171
     0
290
     0
174
     0
 93
        1
 44
-50.0
173
     0
291
     1
 45
0.0
1001
ACAD
1000
AcDbSavedByObjectVersion
1070
     0
  0
VISUALSTYLE
  5
8025
102
{ACAD_XDICTIONARY
360
8572
102
}
102
{ACAD_REACTORS
330
800D
102
}
330
800D
100
AcDbVisualStyle
  2
EdgeColorOff
 70
    22
 71
     2
 72
     2
 73
     0
 90
        0
 40
-0.6
 41
-30.0
 62
     5
 63
     7
 74
     1
 91
        4
 64
     7
 65
   257
 75
     1
175
     1
 42
1.0
 92
        8
 66
     7
 43
1.0
 76
     1
 77
     6
 78
     2
 67
     7
 79
     5
170
     0
171
     0
290
     0
174
     0
 93
        1
 44
0.0
173
     0
291
     1
 45
0.0
1001
ACAD
1000
AcDbSavedByObjectVersion
1070
     0
  0
VISUALSTYLE
  5
801C
102
{ACAD_XDICTIONARY
360
8560
102
}
102
{ACAD_REACTORS
330
800D
102
}
330
800D
100
AcDbVisualStyle
  2
Facepattern
 70
    15
 71
     2
 72
     2
 73
     0
 90
        0
 40
-0.6
 41
-30.0
 62
     5
 63
     7
 74
     1
 91
        4
 64
     7
 65
   257
 75
     1
175
     1
 42
1.0
 92
        8
 66
     7
 43
1.0
 76
     1
 77
     6
 78
     2
 67
     7
 79
     5
170
     0
171
     0
290
     0
174
     0
 93
        1
 44
0.0
173
     0
291
     1
 45
0.0
1001
ACAD
1000
AcDbSavedByObjectVersion
1070
     0
  0
VISUALSTYLE
  5
800E
102
{ACAD_XDICTIONARY
360
8544
102
}
102
{ACAD_REACTORS
330
800D
102
}
330
800D
100
AcDbVisualStyle
  2
Flat
 70
     0
 71
     2
 72
     1
 73
     1
 90
        2
 40
-0.6
 41
30.0
 62
     5
 63
     7
 74
     0
 91
        0
 64
     7
 65
   257
 75
     1
175
     1
 42
1.0
 92
        8
 66
     7
 43
1.0
 76
     1
 77
     6
 78
     2
 67
     7
 79
     5
170
     0
171
     0
290
     0
174
     0
 93
       13
 44
0.0
173
     0
291
     1
 45
0.0
1001
ACAD
1000
AcDbSavedByObjectVersion
1070
     0
  0
VISUALSTYLE
  5
800F
102
{ACAD_XDICTIONARY
360
8546
102
}
102
{ACAD_REACTORS
330
800D
102
}
330
800D
100
AcDbVisualStyle
  2
FlatWithEdges
 70
     1
 71
     2
 72
     1
 73
     1
 90
        2
 40
-0.6
 41
30.0
 62
     5
 63
     7
 74
     1
 91
        0
 64
     7
 65
   257
 75
     1
175
     1
 42
1.0
 92
        0
 66
   257
 43
1.0
 76
     1
 77
     6
 78
     2
 67
     7
 79
     5
170
     0
171
     0
290
     0
174
     0
 93
       13
 44
0.0
173
     0
291
     1
 45
0.0
1001
ACAD
1000
AcDbSavedByObjectVersion
1070
     0
  0
VISUALSTYLE
  5
8010
102
{ACAD_XDICTIONARY
360
8548
102
}
102
{ACAD_REACTORS
330
800D
102
}
330
800D
100
AcDbVisualStyle
  2
Gouraud
 70
     2
 71
     2
 72
     2
 73
     1
 90
        2
 40
-0.6
 41
30.0
 62
     5
 63
     7
 74
     0
 91
        0
 64
     7
 65
   257
 75
     1
175
     1
 42
1.0
 92
        0
 66
     7
 43
1.0
 76
     1
 77
     6
 78
     2
 67
     7
 79
     5
170
     0
171
     0
290
     0
174
     0
 93
       13
 44
0.0
173
     0
291
     1
 45
0.0
1001
ACAD
1000
AcDbSavedByObjectVersion
1070
     0
  0
VISUALSTYLE
  5
8011
102
{ACAD_XDICTIONARY
360
854A
102
}
102
{ACAD_REACTORS
330
800D
102
}
330
800D
100
AcDbVisualStyle
  2
GouraudWithEdges
 70
     3
 71
     2
 72
     2
 73
     1
 90
        2
 40
-0.6
 41
30.0
 62
     5
 63
     7
 74
     1
 91
        0
 64
     7
 65
   257
 75
     1
175
     1
 42
1.0
 92
        0
 66
   257
 43
1.0
 76
     1
 77
     6
 78
     2
 67
     7
 79
     5
170
     0
171
     0
290
     0
174
     0
 93
       13
 44
0.0
173
     0
291
     1
 45
0.0
1001
ACAD
1000
AcDbSavedByObjectVersion
1070
     0
  0
VISUALSTYLE
  5
8015
102
{ACAD_XDICTIONARY
360
8552
102
}
102
{ACAD_REACTORS
330
800D
102
}
330
800D
100
AcDbVisualStyle
  2
Hidden
 70
     6
 71
     1
 72
     2
 73
     2
 90
        0
 40
-0.6
 41
-30.0
 62
     5
 63
     7
 74
     2
 91
        2
 64
     7
 65
   257
 75
     2
175
     1
 42
40.0
 92
        0
 66
   257
 43
1.0
 76
     1
 77
     6
 78
     2
 67
     7
 79
     3
170
     0
171
     0
290
     0
174
     0
 93
        1
 44
0.0
173
     0
291
     0
 45
0.0
1001
ACAD
1000
AcDbSavedByObjectVersion
1070
     0
  0
VISUALSTYLE
  5
8023
102
{ACAD_XDICTIONARY
360
856E
102
}
102
{ACAD_REACTORS
330
800D
102
}
330
800D
100
AcDbVisualStyle
  2
JitterOff
 70
    20
 71
     2
 72
     2
 73
     0
 90
        0
 40
-0.6
 41
-30.0
 62
     5
 63
     7
 74
     1
 91
        4
 64
     7
 65
   257
 75
     1
175
     1
 42
1.0
 92
       10
 66
     7
 43
1.0
 76
     1
 77
     6
 78
     2
 67
     7
 79
     5
170
     0
171
     0
290
     0
174
     0
 93
        1
 44
0.0
173
     0
291
     1
 45
0.0
1001
ACAD
1000
AcDbSavedByObjectVersion
1070
     0
  0
VISUALSTYLE
  5
801B
102
{ACAD_XDICTIONARY
360
855E
102
}
102
{ACAD_REACTORS
330
800D
102
}
330
800D
100
AcDbVisualStyle
  2
Linepattern
 70
    14
 71
     2
 72
     2
 73
     0
 90
        0
 40
-0.6
 41
-30.0
 62
     5
 63
     7
 74
     1
 91
        4
 64
     7
 65
   257
 75
     7
175
     7
 42
1.0
 92
        8
 66
     7
 43
1.0
 76
     1
 77
     6
 78
     2
 67
     7
 79
     5
170
     0
171
     0
290
     0
174
     0
 93
        1
 44
0.0
173
     0
291
     1
 45
0.0
1001
ACAD
1000
AcDbSavedByObjectVersion
1070
     0
  0
VISUALSTYLE
  5
8024
102
{ACAD_XDICTIONARY
360
8570
102
}
102
{ACAD_REACTORS
330
800D
102
}
330
800D
100
AcDbVisualStyle
  2
OverhangOff
 70
    21
 71
     2
 72
     2
 73
     0
 90
        0
 40
-0.6
 41
-30.0
 62
     5
 63
     7
 74
     1
 91
        4
 64
     7
 65
   257
 75
     1
175
     1
 42
1.0
 92
        9
 66
     7
 43
1.0
 76
     1
 77
     6
 78
     2
 67
     7
 79
     5
170
     0
171
     0
290
     0
174
     0
 93
        1
 44
0.0
173
     0
291
     1
 45
0.0
1001
ACAD
1000
AcDbSavedByObjectVersion
1070
     0
  0
VISUALSTYLE
  5
8017
102
{ACAD_XDICTIONARY
360
8556
102
}
102
{ACAD_REACTORS
330
800D
102
}
330
800D
100
AcDbVisualStyle
  2
Realistic
 70
     8
 71
     2
 72
     3
 73
     0
 90
        2
 40
-0.6
 41
30.0
 62
     5
 63
     7
 74
     0
 91
        0
 64
     7
 65
   257
 75
     1
175
     1
 42
1.0
 92
        8
 66
   257
 43
1.0
 76
     1
 77
     6
 78
     2
 67
     7
 79
     3
170
     0
171
     0
290
     0
174
     0
 93
       13
 44
0.0
173
     0
291
     0
 45
0.0
1001
ACAD
1000
AcDbSavedByObjectVersion
1070
     0
  0
VISUALSTYLE
  5
8022
102
{ACAD_XDICTIONARY
360
856C
102
}
102
{ACAD_REACTORS
330
800D
102
}
330
800D
100
AcDbVisualStyle
  2
Shaded
 70
    27
 71
     2
 72
     2
 73
     1
 90
        2
 40
-0.6
 41
30.0
 62
     5
 63
     7
 74
     0
 91
        4
 64
     7
 65
   257
 75
     1
175
     1
 42
1.0
 92
        8
 66
   257
 43
1.0
 76
     1
 77
     6
 78
     2
 67
     8
 79
     3
170
     0
171
     0
290
     0
174
     0
 93
        5
 44
0.0
173
     0
291
     0
 45
0.0
1001
ACAD
1000
AcDbSavedByObjectVersion
1070
     0
  0
VISUALSTYLE
  5
8021
102
{ACAD_XDICTIONARY
360
856A
102
}
102
{ACAD_REACTORS
330
800D
102
}
330
800D
100
AcDbVisualStyle
  2
Shaded with edges
 70
    26
 71
     2
 72
     2
 73
     1
 90
        2
 40
-0.6
 41
30.0
 62
     5
 63
     7
 74
     1
 91
       10
 64
     7
 65
   257
 75
     2
175
     1
 42
1.0
 92
        8
 66
   257
 43
1.0
 76
     1
 77
     6
 78
     2
 67
     7
 79
     3
170
     0
171
     0
290
     0
174
     0
 93
        5
 44
0.0
173
     0
291
     0
 45
0.0
1001
ACAD
1000
AcDbSavedByObjectVersion
1070
     0
  0
VISUALSTYLE
  5
801E
102
{ACAD_XDICTIONARY
360
8564
102
}
102
{ACAD_REACTORS
330
800D
102
}
330
800D
100
AcDbVisualStyle
  2
Shades of Gray
 70
    23
 71
     2
 72
     2
 73
     3
 90
        0
 40
-0.6
 41
-30.0
 62
     5
 63
     7
 74
     2
 91
        2
 64
     7
 65
     7
 75
     1
175
     1
 42
40.0
 92
        8
 66
     7
 43
1.0
 76
     1
 77
     6
 78
     2
 67
     7
 79
     3
170
     0
171
     0
290
     0
174
     0
 93
        1
 44
0.0
173
     0
291
     0
 45
0.0
1001
ACAD
1000
AcDbSavedByObjectVersion
1070
     0
  0
VISUALSTYLE
  5
801F
102
{ACAD_XDICTIONARY
360
8566
102
}
102
{ACAD_REACTORS
330
800D
102
}
330
800D
100
AcDbVisualStyle
  2
Sketchy
 70
    24
 71
     1
 72
     2
 73
     2
 90
        0
 40
-0.6
 41
-30.0
 62
     5
 63
     7
 74
     2
 91
        2
 64
     7
 65
     7
 75
     1
175
     1
 42
40.0
 92
       11
 66
     7
 43
1.0
 76
     1
 77
     6
 78
     2
 67
     7
 79
     6
170
     0
171
     0
290
     0
174
     0
 93
        1
 44
0.0
173
     0
291
     0
 45
0.0
1001
ACAD
1000
AcDbSavedByObjectVersion
1070
     0
  0
VISUALSTYLE
  5
801A
102
{ACAD_XDICTIONARY
360
855C
102
}
102
{ACAD_REACTORS
330
800D
102
}
330
800D
100
AcDbVisualStyle
  2
Thicken
 70
    13
 71
     2
 72
     2
 73
     0
 90
        0
 40
-0.6
 41
-30.0
 62
     5
 63
     7
 74
     1
 91
        4
 64
     7
 65
   257
 75
     1
175
     1
 42
1.0
 92
       12
 66
     7
 43
1.0
 76
     1
 77
     6
 78
     2
 67
     7
 79
     5
170
     0
171
     0
290
     0
174
     0
 93
        1
 44
0.0
173
     0
291
     1
 45
0.0
1001
ACAD
1000
AcDbSavedByObjectVersion
1070
     0
  0
VISUALSTYLE
  5
8014
102
{ACAD_XDICTIONARY
360
8550
102
}
102
{ACAD_REACTORS
330
800D
102
}
330
800D
100
AcDbVisualStyle
  2
Wireframe
 70
     5
 71
     0
 72
     2
 73
     0
 90
        0
 40
-0.6
 41
-30.0
 62
     5
 63
     7
 74
     1
 91
        4
 64
     7
 65
   257
 75
     1
175
     1
 42
1.0
 92
        0
 66
   257
 43
1.0
 76
     1
 77
     6
 78
     2
 67
     7
 79
     3
170
     0
171
     0
290
     0
174
     0
 93
        1
 44
0.0
173
     0
291
     0
 45
0.0
1001
ACAD
1000
AcDbSavedByObjectVersion
1070
     0
  0
VISUALSTYLE
  5
8020
102
{ACAD_XDICTIONARY
360
8568
102
}
102
{ACAD_REACTORS
330
800D
102
}
330
800D
100
AcDbVisualStyle
  2
X-Ray
 70
    25
 71
     2
 72
     2
 73
     1
 90
        1
 40
0.5
 41
-30.0
 62
     5
 63
     7
 74
     1
 91
        0
 64
     7
 65
   257
 75
     1
175
     1
 42
1.0
 92
        8
 66
     7
 43
1.0
 76
     1
 77
     6
 78
     2
 67
     7
 79
     3
170
     0
171
     0
290
     0
174
     0
 93
       13
 44
0.0
173
     0
291
     0
 45
0.0
1001
ACAD
1000
AcDbSavedByObjectVersion
1070
     0
  0
DICTIONARYVAR
  5
852D
102
{ACAD_REACTORS
330
7FEC
102
}
330
7FEC
100
DictionaryVariables
280
     0
  1
1:1
  0
DICTIONARYVAR
  5
852A
102
{ACAD_REACTORS
330
7FEC
102
}
330
7FEC
100
DictionaryVariables
280
     0
  1
STANDARD
  0
DICTIONARYVAR
  5
8529
102
{ACAD_REACTORS
330
7FEC
102
}
330
7FEC
100
DictionaryVariables
280
     0
  1
STANDARD
  0
DICTIONARYVAR
  5
852B
102
{ACAD_REACTORS
330
7FEC
102
}
330
7FEC
100
DictionaryVariables
280
     0
  1
Metric50
  0
DICTIONARYVAR
  5
852C
102
{ACAD_REACTORS
330
7FEC
102
}
330
7FEC
100
DictionaryVariables
280
     0
  1
Metric50
  0
DICTIONARYVAR
  5
7FED
102
{ACAD_REACTORS
330
7FEC
102
}
330
7FEC
100
DictionaryVariables
280
     0
  1
1
  0
DICTIONARYVAR
  5
852F
102
{ACAD_REACTORS
330
7FEC
102
}
330
7FEC
100
DictionaryVariables
280
     0
  1
0
  0
DICTIONARYVAR
  5
852E
102
{ACAD_REACTORS
330
7FEC
102
}
330
7FEC
100
DictionaryVariables
280
     0
  1
127
  0
DICTIONARYVAR
  5
8530
102
{ACAD_REACTORS
330
7FEC
102
}
330
7FEC
100
DictionaryVariables
280
     0
  1
2
  0
DICTIONARY
  5
853C
102
{ACAD_REACTORS
330
853A
102
}
330
853A
100
AcDbDictionary
281
     1
  0
DICTIONARY
  5
853B
102
{ACAD_REACTORS
330
853A
102
}
330
853A
100
AcDbDictionary
281
     1
  3
2130139560
350
8535
  3
2130139568
350
8536
  3
2130139576
350
8537
  3
2130139584
350
8538
  3
2130139592
350
8539
  0
DICTIONARY
  5
857A
330
8040
100
AcDbDictionary
280
     1
281
     1
  3
ACAD_XREC_ROUNDTRIP
360
857B
  0
DICTIONARY
  5
853D
330
7F28
100
AcDbDictionary
280
     1
281
     1
  3
ACAD_XREC_ROUNDTRIP
360
853E
  0
DICTIONARY
  5
853F
330
7F29
100
AcDbDictionary
280
     1
281
     1
  3
ACAD_XREC_ROUNDTRIP
360
8540
  0
DICTIONARY
  5
7FFE
330
7FFD
100
AcDbDictionary
280
     1
281
     1
  3
ACAD_XREC_ROUNDTRIP
360
8542
  3
BUMPTILE
360
8000
  3
DIFFUSETILE
360
7FFF
  3
OPACITYTILE
360
8003
  3
REFLECTIONTILE
360
8002
  3
REFRACTIONTILE
360
8004
  3
SPECULARTILE
360
8001
  0
DICTIONARY
  5
7FF6
330
7FF5
100
AcDbDictionary
280
     1
281
     1
  3
ACAD_XREC_ROUNDTRIP
360
8541
  3
BUMPTILE
360
7FF8
  3
DIFFUSETILE
360
7FF7
  3
OPACITYTILE
360
7FFB
  3
REFLECTIONTILE
360
7FFA
  3
REFRACTIONTILE
360
7FFC
  3
SPECULARTILE
360
7FF9
  0
DICTIONARY
  5
8006
330
8005
100
AcDbDictionary
280
     1
281
     1
  3
ACAD_XREC_ROUNDTRIP
360
8543
  3
BUMPTILE
360
8008
  3
DIFFUSETILE
360
8007
  3
FBXASSET
360
8058
  3
OPACITYTILE
360
800B
  3
REFLECTIONTILE
360
800A
  3
REFRACTIONTILE
360
800C
  3
SPECULARTILE
360
8009
  0
DICTIONARY
  5
8576
330
803C
100
AcDbDictionary
280
     1
281
     1
  3
ACAD_XREC_ROUNDTRIP
360
8577
  0
DICTIONARY
  5
8578
330
803E
100
AcDbDictionary
280
     1
281
     1
  3
ACAD_XREC_ROUNDTRIP
360
8579
  0
DICTIONARY
  5
8531
330
8028
100
AcDbDictionary
280
     1
281
     1
  3
ACAD_ROUNDTRIP_2008_TABLESTYLE_CELLSTYLEMAP
360
8532
  3
ACAD_XREC_ROUNDTRIP
360
8574
  0
DICTIONARY
  5
854E
330
8013
100
AcDbDictionary
280
     1
281
     1
  3
ACAD_XREC_ROUNDTRIP
360
854F
  0
DICTIONARY
  5
854C
330
8012
100
AcDbDictionary
280
     1
281
     1
  3
ACAD_XREC_ROUNDTRIP
360
854D
  0
DICTIONARY
  5
855A
330
8019
100
AcDbDictionary
280
     1
281
     1
  3
ACAD_XREC_ROUNDTRIP
360
855B
  0
DICTIONARY
  5
8562
330
801D
100
AcDbDictionary
280
     1
281
     1
  3
ACAD_XREC_ROUNDTRIP
360
8563
  0
DICTIONARY
  5
8554
330
8016
100
AcDbDictionary
280
     1
281
     1
  3
ACAD_XREC_ROUNDTRIP
360
8555
  0
DICTIONARY
  5
8558
330
8018
100
AcDbDictionary
280
     1
281
     1
  3
ACAD_XREC_ROUNDTRIP
360
8559
  0
DICTIONARY
  5
8572
330
8025
100
AcDbDictionary
280
     1
281
     1
  3
ACAD_XREC_ROUNDTRIP
360
8573
  0
DICTIONARY
  5
8560
330
801C
100
AcDbDictionary
280
     1
281
     1
  3
ACAD_XREC_ROUNDTRIP
360
8561
  0
DICTIONARY
  5
8544
330
800E
100
AcDbDictionary
280
     1
281
     1
  3
ACAD_XREC_ROUNDTRIP
360
8545
  0
DICTIONARY
  5
8546
330
800F
100
AcDbDictionary
280
     1
281
     1
  3
ACAD_XREC_ROUNDTRIP
360
8547
  0
DICTIONARY
  5
8548
330
8010
100
AcDbDictionary
280
     1
281
     1
  3
ACAD_XREC_ROUNDTRIP
360
8549
  0
DICTIONARY
  5
854A
330
8011
100
AcDbDictionary
280
     1
281
     1
  3
ACAD_XREC_ROUNDTRIP
360
854B
  0
DICTIONARY
  5
8552
330
8015
100
AcDbDictionary
280
     1
281
     1
  3
ACAD_XREC_ROUNDTRIP
360
8553
  0
DICTIONARY
  5
856E
330
8023
100
AcDbDictionary
280
     1
281
     1
  3
ACAD_XREC_ROUNDTRIP
360
856F
  0
DICTIONARY
  5
855E
330
801B
100
AcDbDictionary
280
     1
281
     1
  3
ACAD_XREC_ROUNDTRIP
360
855F
  0
DICTIONARY
  5
8570
330
8024
100
AcDbDictionary
280
     1
281
     1
  3
ACAD_XREC_ROUNDTRIP
360
8571
  0
DICTIONARY
  5
8556
330
8017
100
AcDbDictionary
280
     1
281
     1
  3
ACAD_XREC_ROUNDTRIP
360
8557
  0
DICTIONARY
  5
856C
330
8022
100
AcDbDictionary
280
     1
281
     1
  3
ACAD_XREC_ROUNDTRIP
360
856D
  0
DICTIONARY
  5
856A
330
8021
100
AcDbDictionary
280
     1
281
     1
  3
ACAD_XREC_ROUNDTRIP
360
856B
  0
DICTIONARY
  5
8564
330
801E
100
AcDbDictionary
280
     1
281
     1
  3
ACAD_XREC_ROUNDTRIP
360
8565
  0
DICTIONARY
  5
8566
330
801F
100
AcDbDictionary
280
     1
281
     1
  3
ACAD_XREC_ROUNDTRIP
360
8567
  0
DICTIONARY
  5
855C
330
801A
100
AcDbDictionary
280
     1
281
     1
  3
ACAD_XREC_ROUNDTRIP
360
855D
  0
DICTIONARY
  5
8550
330
8014
100
AcDbDictionary
280
     1
281
     1
  3
ACAD_XREC_ROUNDTRIP
360
8551
  0
DICTIONARY
  5
8568
330
8020
100
AcDbDictionary
280
     1
281
     1
  3
ACAD_XREC_ROUNDTRIP
360
8569
  0
XRECORD
  5
8535
102
{ACAD_REACTORS
330
853B
102
}
330
853B
100
AcDbXrecord
280
     1
  1
AcDb_Thumbnail_Schema
102
{ATTRRECORD
341
8536
  2
AcDbDs::TreatedAsObjectData
280
     1
291
     1
102
ATTRRECORD}
102
{ATTRRECORD
341
8537
  2
AcDbDs::Legacy
280
     1
291
     1
102
ATTRRECORD}
  2
AcDbDs::ID
280
    10
 91
        8
102
{ATTRRECORD
341
8538
  2
AcDs:Indexable
280
     1
291
     1
102
ATTRRECORD}
102
{ATTRRECORD
341
8539
  2
AcDbDs::HandleAttribute
280
     7
282
     1
102
ATTRRECORD}
  2
Thumbnail_Data
280
    15
 91
        0
  0
XRECORD
  5
8536
102
{ACAD_REACTORS
330
853B
102
}
330
853B
100
AcDbXrecord
280
     1
  1
AcDbDs::TreatedAsObjectDataSchema
  2
AcDbDs::TreatedAsObjectData
280
     1
 91
        0
  0
XRECORD
  5
8537
102
{ACAD_REACTORS
330
853B
102
}
330
853B
100
AcDbXrecord
280
     1
  1
AcDbDs::LegacySchema
  2
AcDbDs::Legacy
280
     1
 91
        0
  0
XRECORD
  5
8538
102
{ACAD_REACTORS
330
853B
102
}
330
853B
100
AcDbXrecord
280
     1
  1
AcDbDs::IndexedPropertySchema
  2
AcDs:Indexable
280
     1
 91
        0
  0
XRECORD
  5
8539
102
{ACAD_REACTORS
330
853B
102
}
330
853B
100
AcDbXrecord
280
     1
  1
AcDbDs::HandleAttributeSchema
  2
AcDbDs::HandleAttribute
280
     7
 91
        1
284
     1
  0
XRECORD
  5
857B
102
{ACAD_REACTORS
330
857A
102
}
330
857A
100
AcDbXrecord
280
     1
102
DISPLAYNAME
  1
Metric50
102
FLAGS
 90
        0
  0
XRECORD
  5
853E
102
{ACAD_REACTORS
330
853D
102
}
330
853D
100
AcDbXrecord
280
     1
102
SHADEPLOT
 70
     0
102
SHADEPLOTRESLEVEL
 70
     2
102
SHADEPLOTCUSTOMDPI
 70
   300
  0
XRECORD
  5
8540
102
{ACAD_REACTORS
330
853F
102
}
330
853F
100
AcDbXrecord
280
     1
102
SHADEPLOT
 70
     0
102
SHADEPLOTRESLEVEL
 70
     2
102
SHADEPLOTCUSTOMDPI
 70
   300
  0
XRECORD
  5
8542
102
{ACAD_REACTORS
330
7FFE
102
}
330
7FFE
100
AcDbXrecord
280
     1
102
MATERIAL
148
0.0
149
0.0
149
0.0
 93
        0
 94
      127
282
     0
 72
     0
 77
     0
171
     0
175
     0
179
     0
273
     0
  0
XRECORD
  5
8000
102
{ACAD_REACTORS
330
7FFE
102
}
330
7FFE
100
AcDbXrecord
280
     1
270
     1
271
     1
  0
XRECORD
  5
7FFF
102
{ACAD_REACTORS
330
7FFE
102
}
330
7FFE
100
AcDbXrecord
280
     1
270
     1
271
     1
  0
XRECORD
  5
8003
102
{ACAD_REACTORS
330
7FFE
102
}
330
7FFE
100
AcDbXrecord
280
     1
270
     1
271
     1
  0
XRECORD
  5
8002
102
{ACAD_REACTORS
330
7FFE
102
}
330
7FFE
100
AcDbXrecord
280
     1
270
     1
271
     1
  0
XRECORD
  5
8004
102
{ACAD_REACTORS
330
7FFE
102
}
330
7FFE
100
AcDbXrecord
280
     1
270
     1
271
     1
  0
XRECORD
  5
8001
102
{ACAD_REACTORS
330
7FFE
102
}
330
7FFE
100
AcDbXrecord
280
     1
270
     1
271
     1
  0
XRECORD
  5
8541
102
{ACAD_REACTORS
330
7FF6
102
}
330
7FF6
100
AcDbXrecord
280
     1
102
MATERIAL
148
0.0
149
0.0
149
0.0
 93
        0
 94
      127
282
     0
 72
     0
 77
     0
171
     0
175
     0
179
     0
273
     0
  0
XRECORD
  5
7FF8
102
{ACAD_REACTORS
330
7FF6
102
}
330
7FF6
100
AcDbXrecord
280
     1
270
     1
271
     1
  0
XRECORD
  5
7FF7
102
{ACAD_REACTORS
330
7FF6
102
}
330
7FF6
100
AcDbXrecord
280
     1
270
     1
271
     1
  0
XRECORD
  5
7FFB
102
{ACAD_REACTORS
330
7FF6
102
}
330
7FF6
100
AcDbXrecord
280
     1
270
     1
271
     1
  0
XRECORD
  5
7FFA
102
{ACAD_REACTORS
330
7FF6
102
}
330
7FF6
100
AcDbXrecord
280
     1
270
     1
271
     1
  0
XRECORD
  5
7FFC
102
{ACAD_REACTORS
330
7FF6
102
}
330
7FF6
100
AcDbXrecord
280
     1
270
     1
271
     1
  0
XRECORD
  5
7FF9
102
{ACAD_REACTORS
330
7FF6
102
}
330
7FF6
100
AcDbXrecord
280
     1
270
     1
271
     1
  0
XRECORD
  5
8543
102
{ACAD_REACTORS
330
8006
102
}
330
8006
100
AcDbXrecord
280
     1
102
MATERIAL
148
0.0
149
0.0
149
0.0
 93
        0
 94
      127
282
     0
 72
     0
 77
     0
171
     0
175
     0
179
     0
273
     0
  0
XRECORD
  5
8008
102
{ACAD_REACTORS
330
8006
102
}
330
8006
100
AcDbXrecord
280
     1
270
     1
271
     1
  0
XRECORD
  5
8007
102
{ACAD_REACTORS
330
8006
102
}
330
8006
100
AcDbXrecord
280
     1
270
     1
271
     1
  0
XRECORD
  5
8058
102
{ACAD_REACTORS
330
8006
102
}
330
8006
100
AcDbXrecord
280
     1
 70
     1
 90
1959938040
 71
     1
  1
1EC6719B-8D1B-4D91-94EF-C114A4B8815A
311
504B0304140006080800CF5A8B4F16412320D8000000200100004F00000036454633443239332D444430382D343441392D393141452D3134443844414238323232452F4173736574446174612F446566696E6974696F6E4974657261746F7250726F706572746965732E62696E454E3D4FC33010350C200606FE41D5DD38E7
311
540D446D114A5226586062A9AEEE3544729CCA76244646FE359C45514F7AF7EEF3DD7D0B217E8EC6A138637CB1BF667E2247BE33AFE6837A1417A962872DDACB53EF9CC394D6B4C7D1C6B4F5DC0543D6A2A3610C37A7D1498F91E5D0DEA6A52BC67F212485F6EF58BAFFC2482F25C6DDA17CC010282ED57EFBA96A5D15730D
311
2001EE2A399BAD1BF998CF73D914795301D4B56E0AE5290CA337149456D9E6A8BC39B8969653E389FFD84D573A837B099A85DE004AADCB3C7B5FA8D8F5B45A84E83BD74E1CF6BF504B0304140006080800CF5A8B4F73D3EEB340010000300200004500000036454633443239332D444430382D343441392D393141452D3134
311
443844414238323232452F4173736574446174612F496E7374616E636550726F706572746965732E62696EEB606060F80F0540260323103700495E20ED9E9A975A94991C9C9C919A9BA80214307475363337B474D2B5703174D23571B134D4B5347175D375363434713471B2B0303475644768046931363471713532B5D435
311
353131D635313332D475727372D13534373670367376B67474B5042A03DBCBA019D37FE8ABC6157B20CD04146B0062181F4C03F940F0C11EA29A8141C08141002C0426541C106CAC2CA046088033B02A030AC2157C6006F21A8018AAF50194E6010A610250382264E08660284CD9E98021862280A91564B406929A0FF62C40
311
1E28B6F88038B83CB1243943D7A928312F25350524F38993832186599161038B2543009B06C327665D86342659864D40F6344E11861E4E6E861FEC260C6E5C6C0C5338F91802B838191E70F232447109308871F130DCE01464B8C429C0D00294BBC5C9C5C0C5A5C45006640300504B0304140006080800CF5A8B4F28BB58AF
311
800100009E0500003D00000036454633443239332D444430382D343441392D393141452D3134443844414238323232452F536368656D61732F436F6D6D6F6E536368656D612E786D6CBD544D4FC23018BEFB2B96DE15493C78601010A34B880709DEDFB52FD0D8B54BD70DF6EFED3AC0B12E6442E2716BFB3CEFF3D18E26FB
311
440405EA8C2B1992E1C323095052C5B8DC842437EBFB673219DF8DA659866649B798C078B48AE6410122242F2A4994AC7F93815DF85C049C8564CA0A901499DD886B2EB9B1E02448F358701A9235880C49A0119892A20C89D1B9FD768815CAD268CB5E0355B40B1E47F3E37A2020464BED06AA57CE8FCC20C3C3446D46761A
311
2632A8C1283D07031EFF2AE7CCB1BFEEE916E406DFAC8E36FFD99A9D60A6944090EEDC3B670C7DC13DE86B6B2C5C240D6E503BB85ACD579D513F1B9F9A69DC9CC22AFA80C426D40AF0B21EA168559156B6276F0F726A6BFF04DCD513A87A62CAD41FB24FCB2858B3952E3D852084DA25B9303C15687973CC8E8AAE11DF2836
311
C38C6A9E765E8C1BA1BFB1DC29CDFE518C8B5A7655A4ED7E77291ABEB80DBD82EC866ADE1B8D05AF9E35CF09D7A061F38A986D9EC412B8F0F65E5D81534D9B231D1E5A8FE577A241F3A5FD01504B0304140006080800CF5A8B4F2CCEBD668A040000E01200003E00000036454633443239332D444430382D343441392D3931
311
41452D3134443844414238323232452F536368656D61732F47656E65726963536368656D612E786D6CD5586D6FDB380CFE7EBF42F0F7A649B70E1B90744856B4970F450FCD7A5F05459613EDE4174872DADCAF3F522F8ED3B88D2F1D06AC4050DBA2493EE4438AF2F8EB73AEC8466823CB62928C06C384888297A92C5693A4
311
B6D9D9E7E4EBD51FE3A931C22EF85AE4EC6AFC38BF261BA626C9AD288496DC3F4FCEAFC63366845F7A10452AF41DB320C0D44EC26EAB20918735565582695670811A6A49643A49A6E9069FA4604A64B29016DC4B48552F95E4932463CA888468C1D2B250DB4962750DF7CE273069CE8363F1FF4EDB00E0A21999574AE4A2B0
311
0C353B93F3BD4777B8A61ED8F604ABFEDD79CE56A2B7BDFBDBC50996E0ADDE16FED26223C5D30956C29BDF4A55EA686E5E58B112DA45CE67F76F4FA27EFA3FB672FD7372FC388FAECDCA5209E693CAD167BADCD272F943701B3812F8A3D852008B1D2E32DB927B2F833C6EA95879925356D254582695095A3CE982924720BE
311
5774A3CB9CDCDB350427D2DF20DA1B5532EBE2D5D6288D75D4F7E4FD9890A0EF8E3D93EBB8F8BA4758158EF6FB90A6F9520281C93DE7AAC6D24607DA296BB96018123F821A7D6A5C5884050C475DA4865442732C8B95684A50165CBB3A32F25F783A4A480ED59AD7F924B968AEA50131F46303223E6A397B0E52976030DC1D
311
CA81D7E7C1EDEEA42C19FF27635C505E2BD5198A599020DF50A2330FCB3AAF28CB0124108429553EF1B228802E2265D8F7CC2401042B155BCC7070F1E5C55F13B4A9577362CCCE46C32174E010C3C378C44841A4BDA00FE3A12006CE11EE6AEC59894D3526DDE1CD59D503ECC324017F8061B7F162162FA62EDD81AE330861
311
7770796DCBDAD2B2625C5AE8A63DE20B2C8AA5E95E76E5730823955956E33E705425A2187C185D36489A1B44D3DCEC2172F6BA2105C3546287A7194B2331768EBBE64F6E70A9930ABE0ADEA89E9E2C38523B810287AD67A54A039C1606EAFE68F8304610BB9093DBDDABC0B2AE4E290DCDA15376D7E39F72B556F0B32EAB5D
311
3D498B4C41ABADEC3A1434C422D87E8025A84BDCB2B1417ED750FAE4DA8976863974C577C7F902D3F156AD354DEA3540DE6BEAE2BEA52F7A2EB4CA43802ECE5BF2CE2EDC9347179FFB023CE412E60BE16DA0BE29B374988A553F561DC04615DD35F7D2C8979F60E5955CE93DF29DED8AFA1EE6642D53418086C03C47C37791
311
0F75F7E8F5EF665F70B60FFB22AEDF897D119E8423C773E819A3C1E55E550599EE6EDCA34D0C86FD72057DF2CD46F16A470682471C164E4346D5306BF12D7D12D82CFF673D41636C347443FEB51B50D72EA171A8E4A58623A4A16E0FA2B8B10A0D23268D87C33896EE8FB73305A74BF224EDBADFA0BD674AB354D63DB7BD5D
311
83426761C077DE767728235446A552754EB93B755891C3C4CC6CADE37CF0E912A7BB38DBA010F9DE1282EDF470CA69A9CDA482E334C4A6EA4107987980B17E72F31730EBF88BBD39E7C629F56797A3C0009C2C5AE7951D9A05A02773440F02EEB4DE396A3B6A570C72CCFBCD823B0B8ED3F1D5CEDDFED772FA70236C83FB7D
311
86C385D570B87107535572A60A96035F8F7C6A7192F13007246BBE0521855E6AC46F3E27689CEE7D186A6FD679D98CDCAD13333E04EBE7ED6F55FF01504B0304140006080800CF5A8B4F6180134D5F0100006B0300004500000036454633443239332D444430382D343441392D393141452D3134443844414238323232452F
311
536368656D61732F52656E6465724D6174657269616C536368656D612E786D6CA5934D6FC2300C86EFFB1551EEE343DBA41D1A103009551ADAD40EAE28A4A68D9426284961FCFBE5A340113B2071746D3F765EBF4DC6BFB5407BD0862B49F0B037C0082453059725C18DDD3EBFE3F1E829991803366715D474942CD30FB4A7
311
82E00C64017A412D684E454CE3FE28995203B162A6EA5AC94B66997D225E109CD63B0135484BAD1B3C07E9080CA35DB3119C11BCA5C200461A68A1A438126C75E3E230D40FF81FB3F03C91D1E3A3A0AF79FE28E25BC39EC3E17E4C2A2D94A0833A51AF55BCCA7D88572FCBAC529C4140B020FC3AAFA886621DCED7EAD7664C
311
C86024E806DC297DA1BB393E4156543457A4537DB8817349A70F8ACBF09B3EEE2CB2F33E91B65D60786E4E3B39B77E3FEEEF5650424525DA657FB8B46BE6BF064646F0A0F7327C0BC1BC1B4CBBC1C419FA3CCB23500007872A2580CAAE5461865565294E4EDB4617B62FF579DF9A5B2F54E834076A597573A020912FED777F
311
9B3F504B0304140006080800CF5A8B4F0DB6B80A51000000570000004700000036454633443239332D444430382D343441392D393141452D3134443844414238323232452F4173736574446174612F41737365745461626C654F66436F6E74656E74732E62696E53616060307475363337B474D2B5703174D23571B134D4B5
311
347175D375363434713471B2B03034751402AACB4D2C492DCA4CCC492C28484D2C4ACC4B4E050A82012F90744FCD03CA26072767A4E6260200504B0304140006080800CF5A8B4FF865834058000000680000004500000036454633443239332D444430382D343441392D393141452D3134443844414238323232452F417373
311
6574446174612F53747265616D56657273696F6E5461626C652E696E66558CBD0A80300C06F73E4B117FB66E451741D041DC5BF98480A492E4FDD18EAEC7DD4555D89EF28DF51A0B1BD8340C4DE7DD848B988C0ACF0649566493F2408C508DDEBB99D5129FF8F1AF8CF5B9503E20FAE5A16B5AF702504B0304140006080800
311
CF5A8B4F7CED78A4330100009A0400003600000036454633443239332D444430382D343441392D393141452D3134443844414238323232452F4173736574446174612F636E782E786D6CCD94314FC3301085FF4AE43D761C16A81C5708964E205131B05D9D4BB1EAD8917D41F0EFB1DB0CA022A60E5DCFEFCECF9FFC4EAD3F
311
47577D604C36F88E49DEB00ABD09BDF5FB8ECD34D4B7AC5A6B1543A01F32567918B163A5CCB4DAC7304F4BA9C7016657AACEFAC352BC4F09690B3B874FC343F0849E12AB8C83943A96CC3B8EC061A6D0633AF01E08B8E4115398A3C13C89EC88CB241311087BA6DB46DED5B2ADA5DC4AB96ADBD54DF3A644516AB50BC12D7A
311
9B2F8B61AACCE956A61B25CAB15673B48BA6BC85E9BF3CF29DF54A64A556896266B274D0D7943B609A9C3540199D088690EA2C4218953889B51285C12F128F38586F4BCB261B030AF139DBC34816AF8EC87F5E2F4F66E313813778BD3CCE1D5E9EC2CBF107BD9E02794CCCB5E5E4DC21B77EB8404AC4718DE4D094ADA2BF01
311
504B0304140006080800CF5A8B4F20322388060100004F0300003400000036454633443239332D444430382D343441392D393141452D3134443844414238323232452F536368656D61732F636E782E786D6CCD93BD4E042114855F65423F308C8D6E18B6B0B0B2512B3B84BB2B59E04EF831FAF6C248B19BD869B11D1CBE90
311
730E17B1FFF46EF880982C8685703A9101824663C37121251FC65B32ECA58888F90C2343501E16D26422C5316259BB64E0A08A6BAAB3E1D4C57BF41EC3B37E07AFC8A09D4A692169DB5255321A48276A545694D308094BD4506FC8D643BF414750190C91F3C4EF463E8F9CBF70BE9BE7DDCDF42A5823A57843749DB72143C4
311
75D05817A1DA99046BC75294683BD3321079EE8DD63604AB841429C7DA4127F3D75A49B5AECE6A956B556C037F1829588B7A11F8010244ABAF33F185B97F8BFC04C1407CACAF14AD72D799FC378F7F2B806DB35F47A07D05F90D504B0304140006080800CF5A8B4F410A3D5871000000A40000002C00000036454633443239
311
332D444430382D343441392D393141452D3134443844414238323232452F636E782E786D6C55CC4D0E82301086E1AB34B31774E7A22D31F1069E60020334B633A63FC6E34B0909B07DDE2F9FEE7EC1AB2FC5E4840DDC9A2B28E25E06C7938192C7CB1D54677514C9871928C640062A83D55394F2D968A0118BAFEA1DBF377C
311
A444F98919176EAB9FEAAB9F2960DA5BBB1E2ED3FA6FFF504B0304140006080800CF5A8B4FA7F839297D000000A300000007000000636E782E786D6C4D8CD10AC22018465F45FE7B6B73120AEA30B4F718CD0DC969D88C1E3F8D5D74F5C1E13B478C9F2DA0B7CB2F9FA284FED40172F19E661F5709655F3003342A9153DAFF
311
6E80E2B439090D83126B4EE579A0D92D53098D061F1F07BCD8DB60081FB0311DC3946A8E79AF2DEEA961465F1921C456E3DC943ABF5EDD96575F504B0304140006080800CF5A8B4F16E99B5DA600000035010000130000005B436F6E74656E745F54797065735D2E786D6C9590410E82301045AFD2740F4517C6180A0BF506
311
5E60AC53688469D30E066F6F91AD9AB89CF9FFFD3F99BA9DC7413C3026E749CB4D59498164FCCD51A7E5C4B6D84BD136F5E5193089ECA5A465CF1C0E4A25D3E308A9F401292BD6C711388FB15301CC1D3A54DBAADA29E38991B8E0254336F5092D4C038BF39CD76B6FC6A538AEBEA54A4B08617006389FA516557DE4AE8E7E
311
70DE30729138228C5F021CD93F02D4FB0DCD0B504B0304140006080800CF5A8B4F3DEE336E64000000790000001B0000006175746F6465736B2D64657369676E2D7061636B6167652E786D6C35CBC10E83200C00D05F21DCA56CA76D41FC96062B120735B69A7DBE268BB7777961F8D5AF396893C2ADB70FE7ADA196782C2D
311
F776D7A97B5933C430F15651E5469C55D70F80A4992A3ADC954792C525AE70A1E4D6AD9816CC044FEFDF01FE3FDE907802504B0304140006080800CF5A8B4F2F38103CF8000000960100003700000036454633443239332D444430382D343441392D393141452D3134443844414238323232452F4173736574446174612F63
311
6F72652E786D6C8550CB6EC32010FC156BEFD886C44D1C61A244D45FD0536F08888B1283C5A3EAE71762576A4F3DED6A76667677E8F96B7E549FDA07E3EC00B86EA1D2563A65EC34408A377484EACCA8772EFEA24165C5AC072830303A7997960D92CE466D0B6A9DD21B2842D0112AF9C8CD00417EE859D422C5CC08F77A11
311
F22E265DE37AE5319A92519BD4A8EC666E467B60C7B125A43F703476AF2F68DFF51C5DAF5D8F2E7C1C393F1CBA768F6953C48C4633FF6C975E8BA81530D2E21E6182307EC3F844C869D7BED3A630190DD1E79FB7A5E53B609772351751D0669DFE714D8BFADF35191B7764735D15015839F23960B42929E5F28C30D79228FB
311
06504B0304140006080800CF5A8B4F136560ECF7000000940100003500000036454633443239332D444430382D343441392D393141452D3134443844414238323232452F536368656D61732F636F72652E786D6C8550CB6E833010FC15B477037642099171D488F203EDA937CB76A89560233FAA7E7E6DA0527BEA6957B333
311
B3BB432F5FF3A3F854CE6B6B7AC0650D8532C24A6DA61E62B8A1131417469DB5E1170D0AC367D5438681D1C9D9B8EC90B02628935163A5DA41EEBD0A5088476A7AF0E243CDBCE4312486BF970B17773EA912971B8FD118B5DCA55A26377DD3CA013B8D35215D3BA0B1797942C7A61BD0F5DA74E87918C76168DBA63E625A65
311
31A341CF3FDB85533C28098CD4B84398208CDF303E13723ED4EFB4CA4C467D70E9E77D69FE0ED8EB7AA7A7D536FBE31917F9BF67D4261CC8EEB9293CB07CE23A60B4CA19A5B206986ACE937D03504B0304140006080800CF5A8B4F6490A7AC00010000D70100002D00000036454633443239332D444430382D343441392D39
311
3141452D3134443844414238323232452F636F72652E786D6C9591C16E842010865F85CC1D15B48D6E908D8DF6097AEA8DC2AC25BB82116CFAF8C56AD3F6D69E203FDF3FC33F23CEEFD38DBCE112AC772DB0AC00824E7B63DDD8C21A2FB406729662F13EFEC0803835610B9B0C528C8B5FE743D2DE45749BEABCC143542160
311
04A26FE9D242D0AF38A94CAD3111E19ACD4A5FD58819CB764E8A68A72FAB5E5045342079C11ACA3865EC89B113E7A7B27816F9464AB15A174B7E34C3E9050DF1734C9140DE897C7F4DD46ACDC15893FE682F161790F7C363D9F3A6A47D5FD4B4AABA8636AC1B28ABFABAEF1E6ACEF9908A24B314212E693247916D067FB5EF
311
C65FC9D6D9FC33D9EE0820D977A87C1BB314F9E70ED2B9AD447E00504B0304140006080800CF5A8B4F42E7000D06010000B201000008000000636F72652E786D6C8D50416EC32010FC0ADA3B3690B88E234CD4C8F50B7AEA8D1AE2A2D8601988DADF1712576A6F3D2D9A99DD19869F3EE709DDF4EA8DB32DD08200D27670CA
311
D8B185182EF800E824F8EA5CF8250364E5AC5BC830083EAE2E2E1B34381BB4CDA8754A6FA0F45E0740C3941E2DF8E143CFB290312485BF168B1CAE72D4052D1E3AC183997F568755CBA0150846688329C394BE527A64ECB8236FBCCC4AC163346AB3322AB99B8BD12B88434F186BEA0EF7D5CB13DE574D87CFE7AAC1CF5DDF
311
775D5D57644F79999705F7614D7FDE8EA49C017979CBBEBC7C5082BF3B376D82144A2167A72F10849799F8133A2EEA1FA18D0D3BB61D7C6C781039D09D48C6B9C134EEF5A699DB16DF504B01021400140006080800CF5A8B4F16412320D8000000200100004F00000000000000000000000000000000003645463344323933
311
2D444430382D343441392D393141452D3134443844414238323232452F4173736574446174612F446566696E6974696F6E4974657261746F7250726F706572746965732E62696E504B01021400140006080800CF5A8B4F73D3EEB3400100003002000045000000000000000000000000004501000036454633443239332D44
311
4430382D343441392D393141452D3134443844414238323232452F4173736574446174612F496E7374616E636550726F706572746965732E62696E504B01021400140006080800CF5A8B4F28BB58AF800100009E0500003D00000000000000000000000000E802000036454633443239332D444430382D343441392D393141
311
452D3134443844414238323232452F536368656D61732F436F6D6D6F6E536368656D612E786D6C504B01021400140006080800CF5A8B4F2CCEBD668A040000E01200003E00000000000000000000000000C304000036454633443239332D444430382D343441392D393141452D3134443844414238323232452F536368656D
311
61732F47656E65726963536368656D612E786D6C504B01021400140006080800CF5A8B4F6180134D5F0100006B0300004500000000000000000000000000A909000036454633443239332D444430382D343441392D393141452D3134443844414238323232452F536368656D61732F52656E6465724D6174657269616C5363
311
68656D612E786D6C504B01021400140006080800CF5A8B4F0DB6B80A510000005700000047000000000000000000000000006B0B000036454633443239332D444430382D343441392D393141452D3134443844414238323232452F4173736574446174612F41737365745461626C654F66436F6E74656E74732E62696E504B
311
01021400140006080800CF5A8B4FF865834058000000680000004500000000000000000000000000210C000036454633443239332D444430382D343441392D393141452D3134443844414238323232452F4173736574446174612F53747265616D56657273696F6E5461626C652E696E66504B01021400140006080800CF5A
311
8B4F7CED78A4330100009A0400003600000000000000000000000000DC0C000036454633443239332D444430382D343441392D393141452D3134443844414238323232452F4173736574446174612F636E782E786D6C504B01021400140006080800CF5A8B4F20322388060100004F03000034000000000000000000000000
311
00630E000036454633443239332D444430382D343441392D393141452D3134443844414238323232452F536368656D61732F636E782E786D6C504B01021400140006080800CF5A8B4F410A3D5871000000A40000002C00000000000000000000000000BB0F000036454633443239332D444430382D343441392D393141452D
311
3134443844414238323232452F636E782E786D6C504B01021400140006080800CF5A8B4FA7F839297D000000A3000000070000000000000000000000000076100000636E782E786D6C504B01021400140006080800CF5A8B4F16E99B5DA6000000350100001300000000000000000000000000181100005B436F6E74656E74
311
5F54797065735D2E786D6C504B01021400140006080800CF5A8B4F3DEE336E64000000790000001B00000000000000000000000000EF1100006175746F6465736B2D64657369676E2D7061636B6167652E786D6C504B01021400140006080800CF5A8B4F2F38103CF80000009601000037000000000000000000000000008C
311
12000036454633443239332D444430382D343441392D393141452D3134443844414238323232452F4173736574446174612F636F72652E786D6C504B01021400140006080800CF5A8B4F136560ECF7000000940100003500000000000000000000000000D913000036454633443239332D444430382D343441392D39314145
311
2D3134443844414238323232452F536368656D61732F636F72652E786D6C504B01021400140006080800CF5A8B4F6490A7AC00010000D70100002D000000000000000000000000002315000036454633443239332D444430382D343441392D393141452D3134443844414238323232452F636F72652E786D6C504B01021400
311
140006080800CF5A8B4F42E7000D06010000B201000008000000000000000000000000006E160000636F72652E786D6C504B050600000000110011005A0600009A1700000000
310
504B0304140006080800CF5A8B4F000000000000000000000000370000006662782F35394442363732372D414243462D343334322D394432382D4336453131413138394145382F617474726962757465732E62696E504B0304140006080800CF5A8B4F000000000000000000000000350000006662782F3539444236373237
310
2D414243462D343334322D394432382D4336453131413138394145382F76657274696365732E62696E504B0304140006080800CF5A8B4FF270F1330600000004000000360000006662782F35394442363732372D414243462D343334322D394432382D4336453131413138394145382F747269616E676C65732E62696E6366
310
60600000504B0304140006080800CF5A8B4F51464CB48900000043010000360000006662782F35394442363732372D414243462D343334322D394432382D4336453131413138394145382F6469726563746F72792E786D6C9D8F310EC2300C45AF127987122606C71DD918B841D4B851A43646695A717C52A85029031293A5
310
A76FBF6FACEF7DA7264E43906840EF0FA03836E242F406C6DCEE4EA06AC22492573150D1F66C60C640E8938CB705396EEDD86DE9B5042FE27813D640EA63BB001C722AF6E55CB61E4863F58284D5D3F53DD715CE1C3985E63FD7F1B7EBDD617E9F1E504B0304140006080800CF5A8B4F5BDBE1ED330700001A1C0000340000
310
006662782F35394442363732372D414243462D343334322D394432382D4336453131413138394145382F6F626A656374732E786D6CDD59EB6FA33810FF572CEE3310F26893559A559BA45574EAEE6AA33DDD37E410437D350F19E8E3FEFA1B1B9B604A12BA0F6975A9D41063C633BF790FF38F2F31434F84E7344DAE2CCF19
310
58882441BAA74974659545684F2DF47181E63C4D8BC63E0B253826579658B616F388A765A696F624C4256BAFDEDEFC8DF28024C44201C3797E65E5C10389B183CB22DD93FCD1D9E3023B51F8E2784EB5D1241B719C3DB48ECA30274901ACC27A025414079EF91344721773576C30B68DFA6D1B9ED8E64AC14D466992173809
310
DE70D53A6E7884ABD671236FBC5A0F27337B321E8FECF1C5D0B36F6E6F56B677391A2C2F96CBD9F57A66A1C57C97A6AC564046923D68F1D55A787357DCA9C5572874F11DA44942028566D7863D517429C9DB9818C07A52B486422A591B0BA39EC21FD9D60B148325036D2D9CFE6E5A6FBAFB0740C8FB5829CF89B0F2BCE0A0
310
6B857DE50F83B95BAD1A7AA1398A714138C50C31BAE3988382606BA520838CF016410A09CCA41635BD26AF60D8E77DA98BCBB0644CF8AFB5909EE6833F9222979CD17F093F70DF3C0D7802694B9A1453256CF19A0189D9DC958BD5BDD150DDAC804421C311580B8829368D862DBC9622166C56D6E2CFDBDDCB56C487EEC333
310
9E668417C2F2A4332BBFD31A6C9816185F0F502A5C4DDD1D50F90AD07F02E46B5ED01C34C7E9CBF865AC65E738C9C394C7A01D3440F600FE0D90B87C733577EB87170819B1F218A6E0B63F0953430CE3EC06A48BF913187DCA474AB86D8019D8F43D4D849F83A12096C212C4FB70F7622D36104C61119EC20CA487BFB92B2E
310
117C557420DEB434D4157E7B284A3B4CDBCF0EBABA039BE134A85565C8780CDFC94FC1F77AB5FD735BF21007E45E39F68A8434A10524D36E860CD00D97FFB6F9243DF28EA53BCC0E4F1B9B0238264A45DCE850CB56A90549BD0027220D579A912BF714BC9D319C90B4CCD57A579C0A5296727FF7EA572EDC79D65FDA06AAC3
310
940174C63248EE01A799C0C45A286DD581D069080A1686B9B2C0A8D2AABF2BE3CCC7715A2622D4BE35C5361F106784250255494D1BB6F65A4D764FC3B0CC217875925C1A402A7FD6842B0B1F431CEBE29793906348A269E253C8C1E02C9D271807D4E09DE639272CF4296365EC8794411EF1639C1DA1DF538266E67A24AFCF
310
29DF7712342D4BFBA4B62101B8025683A4B35515F3954E3979A2A2CC94F94C67036387AA43ADC5F848BA1099A203506D8C55405A2F2F2EBDD98D3D5D7937F67835F3ECD9787D6B2F3D6F7C3DBE994EBDC9759B4F1DAD9AF90E5429CA1CC3FF8A8732DE259832B821C4C6FBECC347993DAF5C088DEE6AB8BC8412CDB33D6FBA
310
B4C7E3DBB57D3DBA18D9EBCBD11ACE5FAD86EB4B97933C2D79407277E80E7C6D9259121DE34A73F736864259733ED9697DB585F91FC7D0764E3094F8BB06D13A767514847D83A878B41D4271F02852941F40D5D7E93EAD20DAE6A32BCEBD332E0F9CD1407E3C6F361CCC86D3D9456DEC2703B53CE787E35C970401F49D65E1
310
A7190E68D19D505BB8F48CD3EFCA2DCEC89B2040A7FE5F1F723ACFA8437C1AE388F821165D4247603C2741670E8B589AE73421B9ECF2DE547F2D9A03078A2933E7761821CDFD9814F87BEC4FB60D2D9B86D8CC7CE8470B3111385B15D406AD3A90631445F70B895BCAFFEAE738CE58D5E99EC3C01B6A08748FD36571826971
310
C413D89B8F0B7FB0277270718E7ACDBEAE0F3AB5D6A63EFB6EF247E0D175CD2F84471FD1BF747226DE4C7CA610542E26DEE8522BE21C56FAA842F471AC84CE3378F59F098D1E7A159AFD74D228D9AAA2BA2031B4B1B828792F7FBD980CDE1CA4E242CB211A27BDB33894FD9BEEE0003DD9C01D2B6F1BC7401D4A139873F512
310
E48D149D262C7521677A6274F50EBF3EA9EC26D51F8E97BFBC626E3A5F2C873FE771806AB90AC02AFA18357567D56DD443F9332E0208A45BF96DDF8047ECC9FED09819E4BA4A745D9F9EAB9E3722A0C630B1C522CEDE8B0BF61583AAA17BCEDDBBAA6873ABF58D486C0E0CA70F7C184C9BB43EDF6D5B5460A5F7D35F0446E4
310
B94541AD2E45377C82D4B7CDA1E76F5150127DDB9C78FCB7E828B4021B63349806E729A33094277B149114B2378C1D7A741B3C26B9CCCA60BC2A48E937023D9E7EAA66AA05DE31FD74F0806130CD542F56063014858C7965A975F4078C41C524520EA79C4768C3540CB350C9E99505165B50E8B69C1D8CB3E4F050526F8D2B
310
C1B17112897C5F3D55FF3E3C26D081A87490ABDED307172599E14C50D866F23D01547DD58DC5FCFB45D7EC205CC0E5AE2C6A610E0B07691408FA8540251C4CFD1E15BC2F50509C96CB73E41E03925E93F993765051B50BCC23395E6FE07DBDFAE28AC9F8E633CA581909759EEA7E0D4AB6E8BA59594DA1E660184ACC0C8B1A
310
72F9C1FDC25378C514A35B0A46E02ED3384E13F5E35ABDA242DB0778E1B477F5B00F1AF881377165FFAF06FAFE0EE7C4C1FBFC111640A99C8AA96805AEA1FA3A8E3654AF7521B4008F19FB372BA4AAA2C66CA419700530729A8FC085C45B1CE130CD0D8DD123780170256F1E2EF4C2DCE530FE5EFC07504B03041400060808
310
00CF5A8B4F1E7BBFD13C01000046050000300000006662782F35394442363732372D414243462D343334322D394432382D4336453131413138394145382F636E782E786D6CCD94C14E032110865F65C37D61592FDAB034F1E0137830DE5876BA6259D8C0ACB16F2F545A35A6C64393F646867F92FF9BF93362FD3ED9EA0D42
310
34DE7584D38654E0B41F8C1B3BB2E0A6BE25D55A8AE03D7E9391CAA9093A92CB448A31F8652EA501366AB1B96A8DDB96A2420CA65F1022A9B455317624EA179814550BFA01E2960E0A15E53440F44BD090FAD14C50FA7500853010D936FCAEE66DCDF923E7ABB65DDD34CF8265A514BDF7B6E88D43087EAEB44F0F97CC3482
310
E56F2996608A261310F9E58CF6C60996FEA588C9AD1B8B0E7773D6CDB3355A611A13F31A01EB24023509F629968265DE1FD40FF74F0707D5600268F46177A101F05303381AA32909FFE3DF0BFFC6F6FD6BC2BDD4B64FC2165B67433DA435A6B8FEDE7F4A9172A3BDBED01F8D9D3FF3E994A0D1D7877CF0752662B63F7969E9
310
F902CA0F504B0304140006080800CF5A8B4F67636C4C7F000000A30000000B0000006662782F636E782E786D6C4D8CDF0E82201C465F85FDEEA92053D800877F7A0F97E89C088DA4F5F841F3A2AB6F3BFBCE11F567B3E86DC26BF14E02395D0019F7F0E3E26609719F3003542B11BCDFFF6E80DCB0190919831273F0F179A0
310
D14C43B499DAC5AD07BCF1AE292B5A61DDB4775C5C0B8A7947196ECB9E104D18D73D4BC6392B697EBDB439AFBE504B0304140006080800CF5A8B4FA6D797065F0000008200000007000000636E782E786D6C4DCB3B0E80201045D1AD90E9FD7516806B51190811670C8A61F982B1B0BAC9C97B72CA7B1037C6D3332918DA1E
310
04D2CAC69353902EDB8C20262D23F3F59B81A079470595414B17391D1F19B4730A5583A7ED43BBE4025D9592775E5ADFFA01504B0304140006080800CF5A8B4F4FEB6A7CA0000000F4000000130000005B436F6E74656E745F54797065735D2E786D6C7D8F4B0EC2300C44AF1279DFA6B0400835ED02B8011730C16D239A8F
310
121795DB93D02D6269CFBC19BBED573B8B17C564BC53B0AB1B10E4B47F18372A5878A88E20FAAEBDBD032591BD2E299898C349CAA427B2986A1FC86565F0D122E7318E32A07EE24872DF3407A9BD63725C71C980AEBDD080CBCCE2BAE6F5D69B7110E7CD57AA146008B3D1C8F92C5954F993BB1BF787F39A89ABC491D09600
310
F9FDA2FB00504B0304140006080800CF5A8B4F3DEE336E64000000790000001B0000006175746F6465736B2D64657369676E2D7061636B6167652E786D6C35CBC10E83200C00D05F21DCA56CA76D41FC96062B120735B69A7DBE268BB7777961F8D5AF396893C2ADB70FE7ADA196782C2DF776D7A97B5933C430F15651E546
310
9C55D70F80A4992A3ADC954792C525AE70A1E4D6AD9816CC044FEFDF01FE3FDE907802504B0304140006080800CF5A8B4FFE09A47DF9000000960100003B0000006662782F35394442363732372D414243462D343334322D394432382D4336453131413138394145382F7265736F75726365732F636F72652E786D6C8550CB
310
6E833010FC15B477033634A59171D408F2053DF566990DB5126CE447D5CFAF1DA8D49E7ADAD5ECCCECEEF0D3D7722F3ED1796D4D0FB4ACA140A3ECA4CDDC430C57D2417112DC591B7ED1A03072C11E320C82CFCEC675879435014D468D9D7007A5F718A050F7D4F4E0D5072EB294312486BF95AB5437396349CB8D27788C7A
310
DAA57A4A6EFAAAD18168D9A11BD8A523E3EB3892B6196AD23D1D18E99AA13D3F9F87EE72A87995C58207BDFC6C570E65C00904ABE90BA18C50FA46E991B16353BFF32A3305F7C1A59FF7A5F93B100EBD8D4EA1E7D536FDE31AD7E97FD7A84D68D8EEBA293C089A8E7C0C04AF724AA93C224C35272ABE01504B030414000608
310
0800CF5A8B4FADF4883CF2000000B1010000310000006662782F35394442363732372D414243462D343334322D394432382D4336453131413138394145382F636F72652E786D6C8D50CB6EC32010FC158B3BB617A7891D6122E7D12FE8A93704C44189C1E251F5F30BB12BB5B79C16CDCE30B3430FDFD3A3F852CE6B6B7A04
310
658D0A658495DA8C3D8AE18A5B541C1875D6863F3454183EA91E6518313A3A1BE71512D60465326AAC542BC8BD570115E2911E3DF2E2A6265EF21812C3DFCB998B3B1F5509E5C26334E8E9572A9CE24149C4480D1D0682013E00F684EC9BFA935699C9688C5AAE565A26777DD5CA21F6D69D8FDB1DD9E1E1787AC79B664370
310
77262D3E6D2F0003B4DD70696995C58CFAE0D2CDEB27F9BA57E58BF05FE638CB17326B131AB21A2E0A8F18A43CCF05A3552E308D67BB69E6B2D90F504B0304140006080800CF5A8B4F5F0868A354010000DD0200000C0000006662782F636F72652E786D6C8D525D6F832014FD2B867754D075AE419A35B6BF604F7BA3481D
310
A9824130FDF9033FD2F9B06E314172EEBDE7DC730239DCBB361A8519A4562540710A22A1B8AEA56A4AE0EC1516203A5062B4B63FDA40A458274A1060404963B4EB17886B65850AA8D2B55840360CC28288B7FE5282817F898EC5CC59DF31DCE29EF11B6B448CE2B98F12E764BD8CCADAB3C9AB1406D01CEF8A0A9F0B787A3F
310
9D609E55292C5E76181659951F5F8F5571DEA52409C39458D9ADEADC0866450D284ED11B441822F481D01EE37D967E922474523258E33D2FA2C11DA0D7CB9D2433BEE1737DFD379F93CA6678E19B270640915F6F2A5092847CFC6F0A6F9BA117F6F9597669570B370F8D825B6D725FA9B57B9446D63AE1A9D368FA4832573D
310
F344F01B0F7EC2F39CC307C554E35763D65F2FCE06F5ED4EBD3070B4F74869D3B1F6B1DCBCE2E37C086D2CADE35CB7DAFC677AB5BA8699848749BF01504B0304140006080800CF5A8B4FA248EC8406010000B201000008000000636F72652E786D6C8D50CD6E8420107E15327754D05ABB4136DDE83E414FBD51615DB20A46
310
70D3BE7D61A5497BEB69C837DF1FC38E9FF384EE6A75DA9A164856005266B0529BB185CD5F7003E8C8D96AADFF450364C4AC5A88307036AE765B123458E39589A8B152255038A73CA0610A8F16DC7055B3C8C4E603C3DDB2450C3731AA8C643B8F33AFE71FE9B02AE195044E0BF28209C584BC1172A0F45016EF2C8F4CCEB6
310
4DCB14A56548D717AD56E015AD9B8E9E1BDCBFF63DAECAAEC0CD534D715376D5E9F9D435E7BA60791473E6FC1AFE9C4C424F8F9CB8C75C96EF2BCE3EAC9D12219492C89AE90B7870888B3FA5B745FEA3B436BEA4C9705738E024147A2C4270BC60188FF38619AFCDBF01504B01021400140006080800CF5A8B4F0000000000
310
000000000000003700000000000000000000000000000000006662782F35394442363732372D414243462D343334322D394432382D4336453131413138394145382F617474726962757465732E62696E504B01021400140006080800CF5A8B4F00000000000000000000000035000000000000000000000000005500000066
310
62782F35394442363732372D414243462D343334322D394432382D4336453131413138394145382F76657274696365732E62696E504B01021400140006080800CF5A8B4FF270F13306000000040000003600000000000000000000000000A80000006662782F35394442363732372D414243462D343334322D394432382D43
310
36453131413138394145382F747269616E676C65732E62696E504B01021400140006080800CF5A8B4F51464CB489000000430100003600000000000000000000000000020100006662782F35394442363732372D414243462D343334322D394432382D4336453131413138394145382F6469726563746F72792E786D6C504B
310
01021400140006080800CF5A8B4F5BDBE1ED330700001A1C00003400000000000000000000000000DF0100006662782F35394442363732372D414243462D343334322D394432382D4336453131413138394145382F6F626A656374732E786D6C504B01021400140006080800CF5A8B4F1E7BBFD13C01000046050000300000
310
0000000000000000000000640900006662782F35394442363732372D414243462D343334322D394432382D4336453131413138394145382F636E782E786D6C504B01021400140006080800CF5A8B4F67636C4C7F000000A30000000B00000000000000000000000000EE0A00006662782F636E782E786D6C504B0102140014
310
0006080800CF5A8B4FA6D797065F000000820000000700000000000000000000000000960B0000636E782E786D6C504B01021400140006080800CF5A8B4F4FEB6A7CA0000000F400000013000000000000000000000000001A0C00005B436F6E74656E745F54797065735D2E786D6C504B01021400140006080800CF5A8B4F
310
3DEE336E64000000790000001B00000000000000000000000000EB0C00006175746F6465736B2D64657369676E2D7061636B6167652E786D6C504B01021400140006080800CF5A8B4FFE09A47DF9000000960100003B00000000000000000000000000880D00006662782F35394442363732372D414243462D343334322D39
310
4432382D4336453131413138394145382F7265736F75726365732F636F72652E786D6C504B01021400140006080800CF5A8B4FADF4883CF2000000B10100003100000000000000000000000000DA0E00006662782F35394442363732372D414243462D343334322D394432382D4336453131413138394145382F636F72652E
310
786D6C504B01021400140006080800CF5A8B4F5F0868A354010000DD0200000C000000000000000000000000001B1000006662782F636F72652E786D6C504B01021400140006080800CF5A8B4FA248EC8406010000B2010000080000000000000000000000000099110000636F72652E786D6C504B0506000000000E000E00
310
80040000C51200000000
  0
XRECORD
  5
800B
102
{ACAD_REACTORS
330
8006
102
}
330
8006
100
AcDbXrecord
280
     1
270
     1
271
     1
  0
XRECORD
  5
800A
102
{ACAD_REACTORS
330
8006
102
}
330
8006
100
AcDbXrecord
280
     1
270
     1
271
     1
  0
XRECORD
  5
800C
102
{ACAD_REACTORS
330
8006
102
}
330
8006
100
AcDbXrecord
280
     1
270
     1
271
     1
  0
XRECORD
  5
8009
102
{ACAD_REACTORS
330
8006
102
}
330
8006
100
AcDbXrecord
280
     1
270
     1
271
     1
  0
XRECORD
  5
8577
102
{ACAD_REACTORS
330
8576
102
}
330
8576
100
AcDbXrecord
280
     1
102
ACAD_ROUNDTRIP_2012_MLEADER_STYLE
298
     1
  0
XRECORD
  5
8579
102
{ACAD_REACTORS
330
8578
102
}
330
8578
100
AcDbXrecord
280
     1
102
DISPLAYNAME
  1
Metric50
102
FLAGS
 90
        0
  0
CELLSTYLEMAP
  5
8532
102
{ACAD_REACTORS
330
8531
102
}
330
8531
100
AcDbCellStyleMap
 90
        3
300
CELLSTYLE
  1
TABLEFORMAT_BEGIN
 90
        5
170
     1
 91
        0
 92
    32768
 62
   257
 93
        1
300
CONTENTFORMAT
  1
CONTENTFORMAT_BEGIN
 90
        0
 91
        0
 92
      512
 93
        0
300

 40
0.0
140
1.0
 94
        5
 62
     0
340
10
144
6.0
309
CONTENTFORMAT_END
171
     1
301
MARGIN
  1
CELLMARGIN_BEGIN
 40
1.5
 40
1.5
 40
1.5
 40
1.5
 40
4.5
 40
4.5
309
CELLMARGIN_END
 94
        6
 95
        1
302
GRIDFORMAT
  1
GRIDFORMAT_BEGIN
 90
        0
 91
        1
 62
     0
 92
       -2
340
0
 93
        0
 40
1.125
309
GRIDFORMAT_END
 95
        2
302
GRIDFORMAT
  1
GRIDFORMAT_BEGIN
 90
        0
 91
        1
 62
     0
 92
       -2
340
0
 93
        0
 40
1.125
309
GRIDFORMAT_END
 95
        4
302
GRIDFORMAT
  1
GRIDFORMAT_BEGIN
 90
        0
 91
        1
 62
     0
 92
       -2
340
0
 93
        0
 40
1.125
309
GRIDFORMAT_END
 95
        8
302
GRIDFORMAT
  1
GRIDFORMAT_BEGIN
 90
        0
 91
        1
 62
     0
 92
       -2
340
0
 93
        0
 40
1.125
309
GRIDFORMAT_END
 95
       16
302
GRIDFORMAT
  1
GRIDFORMAT_BEGIN
 90
        0
 91
        1
 62
     0
 92
       -2
340
0
 93
        0
 40
1.125
309
GRIDFORMAT_END
 95
       32
302
GRIDFORMAT
  1
GRIDFORMAT_BEGIN
 90
        0
 91
        1
 62
     0
 92
       -2
340
0
 93
        0
 40
1.125
309
GRIDFORMAT_END
309
TABLEFORMAT_END
  1
CELLSTYLE_BEGIN
 90
        1
 91
        1
300
_TITLE
309
CELLSTYLE_END
300
CELLSTYLE
  1
TABLEFORMAT_BEGIN
 90
        5
170
     1
 91
        0
 92
        0
 62
   257
 93
        1
300
CONTENTFORMAT
  1
CONTENTFORMAT_BEGIN
 90
        0
 91
        0
 92
      512
 93
        0
300

 40
0.0
140
1.0
 94
        5
 62
     0
340
10
144
4.5
309
CONTENTFORMAT_END
171
     1
301
MARGIN
  1
CELLMARGIN_BEGIN
 40
1.5
 40
1.5
 40
1.5
 40
1.5
 40
4.5
 40
4.5
309
CELLMARGIN_END
 94
        6
 95
        1
302
GRIDFORMAT
  1
GRIDFORMAT_BEGIN
 90
        0
 91
        1
 62
     0
 92
       -2
340
0
 93
        0
 40
1.125
309
GRIDFORMAT_END
 95
        2
302
GRIDFORMAT
  1
GRIDFORMAT_BEGIN
 90
        0
 91
        1
 62
     0
 92
       -2
340
0
 93
        0
 40
1.125
309
GRIDFORMAT_END
 95
        4
302
GRIDFORMAT
  1
GRIDFORMAT_BEGIN
 90
        0
 91
        1
 62
     0
 92
       -2
340
0
 93
        0
 40
1.125
309
GRIDFORMAT_END
 95
        8
302
GRIDFORMAT
  1
GRIDFORMAT_BEGIN
 90
        0
 91
        1
 62
     0
 92
       -2
340
0
 93
        0
 40
1.125
309
GRIDFORMAT_END
 95
       16
302
GRIDFORMAT
  1
GRIDFORMAT_BEGIN
 90
        0
 91
        1
 62
     0
 92
       -2
340
0
 93
        0
 40
1.125
309
GRIDFORMAT_END
 95
       32
302
GRIDFORMAT
  1
GRIDFORMAT_BEGIN
 90
        0
 91
        1
 62
     0
 92
       -2
340
0
 93
        0
 40
1.125
309
GRIDFORMAT_END
309
TABLEFORMAT_END
  1
CELLSTYLE_BEGIN
 90
        2
 91
        1
300
_HEADER
309
CELLSTYLE_END
300
CELLSTYLE
  1
TABLEFORMAT_BEGIN
 90
        5
170
     1
 91
        0
 92
        0
 62
   257
 93
        1
300
CONTENTFORMAT
  1
CONTENTFORMAT_BEGIN
 90
        0
 91
        0
 92
      512
 93
        0
300

 40
0.0
140
1.0
 94
        2
 62
     0
340
10
144
4.5
309
CONTENTFORMAT_END
171
     1
301
MARGIN
  1
CELLMARGIN_BEGIN
 40
1.5
 40
1.5
 40
1.5
 40
1.5
 40
4.5
 40
4.5
309
CELLMARGIN_END
 94
        6
 95
        1
302
GRIDFORMAT
  1
GRIDFORMAT_BEGIN
 90
        0
 91
        1
 62
     0
 92
       -2
340
0
 93
        0
 40
1.125
309
GRIDFORMAT_END
 95
        2
302
GRIDFORMAT
  1
GRIDFORMAT_BEGIN
 90
        0
 91
        1
 62
     0
 92
       -2
340
0
 93
        0
 40
1.125
309
GRIDFORMAT_END
 95
        4
302
GRIDFORMAT
  1
GRIDFORMAT_BEGIN
 90
        0
 91
        1
 62
     0
 92
       -2
340
0
 93
        0
 40
1.125
309
GRIDFORMAT_END
 95
        8
302
GRIDFORMAT
  1
GRIDFORMAT_BEGIN
 90
        0
 91
        1
 62
     0
 92
       -2
340
0
 93
        0
 40
1.125
309
GRIDFORMAT_END
 95
       16
302
GRIDFORMAT
  1
GRIDFORMAT_BEGIN
 90
        0
 91
        1
 62
     0
 92
       -2
340
0
 93
        0
 40
1.125
309
GRIDFORMAT_END
 95
       32
302
GRIDFORMAT
  1
GRIDFORMAT_BEGIN
 90
        0
 91
        1
 62
     0
 92
       -2
340
0
 93
        0
 40
1.125
309
GRIDFORMAT_END
309
TABLEFORMAT_END
  1
CELLSTYLE_BEGIN
 90
        3
 91
        2
300
_DATA
309
CELLSTYLE_END
  0
XRECORD
  5
8574
102
{ACAD_REACTORS
330
8531
102
}
330
8531
100
AcDbXrecord
280
     1
102
ACAD_ROUNDTRIP_PRE2007_TABLESTYLE
 90
      512
 91
        0
  1

 92
      512
 93
        0
  2

 94
      512
 95
        0
  3

  0
XRECORD
  5
854F
102
{ACAD_REACTORS
330
854E
102
}
330
854E
100
AcDbXrecord
280
     1
102
RTVSPost2010Prop28
280
     1
102
RTVSPost2010PropOp28
 70
     1
102
RTVSPost2010Prop29
280
     1
102
RTVSPost2010PropOp29
 70
     1
102
RTVSPost2010Prop30
280
     0
102
RTVSPost2010PropOp30
 70
     1
102
RTVSPost2010Prop31
280
     0
102
RTVSPost2010PropOp31
 70
     1
102
RTVSPost2010Prop32
280
     0
102
RTVSPost2010PropOp32
 70
     1
102
RTVSPost2010Prop33
280
     0
102
RTVSPost2010PropOp33
 70
     1
102
RTVSPost2010Prop34
280
     0
102
RTVSPost2010PropOp34
 70
     1
102
RTVSPost2010Prop35
280
     0
102
RTVSPost2010PropOp35
 70
     1
102
RTVSPost2010Prop36
280
     0
102
RTVSPost2010PropOp36
 70
     1
102
RTVSPost2010Prop37
 90
       50
102
RTVSPost2010PropOp37
 70
     1
102
RTVSPost2010Prop38
140
0.0
102
RTVSPost2010PropOp38
 70
     1
102
RTVSPost2010Prop39
140
1.0
102
RTVSPost2010PropOp39
 70
     1
102
RTVSPost2010Prop40
 90
        0
102
RTVSPost2010PropOp40
 70
     1
102
RTVSPost2010Prop41ColorIndex
 90
       18
102
RTVSPost2010Prop41ColorRGB
 90
        0
102
RTVSPost2010PropOp41
 70
     1
102
RTVSPost2010Prop42
 90
       50
102
RTVSPost2010PropOp42
 70
     1
102
RTVSPost2010Prop43
 90
        3
102
RTVSPost2010PropOp43
 70
     1
102
RTVSPost2010Prop44ColorIndex
 90
        5
102
RTVSPost2010Prop44ColorRGB
 90
      255
102
RTVSPost2010PropOp44
 70
     1
102
RTVSPost2010Prop45
280
     0
102
RTVSPost2010PropOp45
 70
     1
102
RTVSPost2010Prop46
 90
       50
102
RTVSPost2010PropOp46
 70
     1
102
RTVSPost2010Prop47
 90
       50
102
RTVSPost2010PropOp47
 70
     1
102
RTVSPost2010Prop48
 90
       50
102
RTVSPost2010PropOp48
 70
     1
102
RTVSPost2010Prop49
280
     0
102
RTVSPost2010PropOp49
 70
     1
102
RTVSPost2010Prop50
 90
       50
102
RTVSPost2010PropOp50
 70
     1
102
RTVSPost2010Prop51ColorIndex
 90
      256
102
RTVSPost2010Prop51ColorRGB
 90
-16777216
102
RTVSPost2010PropOp51
 70
     0
102
RTVSPost2010Prop52
140
1.0
102
RTVSPost2010PropOp52
 70
     0
102
RTVSPost2010Prop53
 90
        2
102
RTVSPost2010PropOp53
 70
     1
102
RTVSPost2010Prop54
  1
strokes_ogs.tif
102
RTVSPost2010PropOp54
 70
     1
102
RTVSPost2010Prop55
280
     0
102
RTVSPost2010PropOp55
 70
     1
102
RTVSPost2010Prop56
140
1.0
102
RTVSPost2010PropOp56
 70
     1
102
RTVSPost2010Prop57
140
1.0
102
RTVSPost2010PropOp57
 70
     1
102
RTVSPropertyOp0
 70
     1
102
RTVSPropertyOp1
 70
     1
102
RTVSPropertyOp2
 70
     1
102
RTVSPropertyOp3
 70
     1
102
RTVSPropertyOp4
 70
     1
102
RTVSPropertyOp5
 70
     1
102
RTVSPropertyOp6
 70
     1
102
RTVSPropertyOp7
 70
     1
102
RTVSPropertyOp8
 70
     1
102
RTVSPropertyOp9
 70
     1
102
RTVSPropertyOp10
 70
     1
102
RTVSPropertyOp11
 70
     1
102
RTVSPropertyOp12
 70
     1
102
RTVSPropertyOp13
 70
     1
102
RTVSPropertyOp14
 70
     1
102
RTVSPropertyOp15
 70
     1
102
RTVSPropertyOp16
 70
     1
102
RTVSPropertyOp17
 70
     1
102
RTVSPropertyOp18
 70
     1
102
RTVSPropertyOp19
 70
     1
102
RTVSPropertyOp20
 70
     1
102
RTVSPropertyOp21
 70
     1
102
RTVSPropertyOp22
 70
     1
102
RTVSPropertyOp23
 70
     1
102
RTVSPropertyOp24
 70
     1
102
RTVSPropertyOp25
 70
     1
102
RTVSPropertyOp26
 70
     1
102
RTVSPropertyOp27
 70
     1
102
RTVSPropertyOp28
 70
     1
102
RTVSPropertyOp29
 70
     1
102
RTVSPropertyOp30
 70
     1
102
RTVSPropertyOp31
 70
     1
102
RTVSPropertyOp32
 70
     1
102
RTVSPropertyOp33
 70
     1
102
RTVSPropertyOp34
 70
     1
102
RTVSPropertyOp35
 70
     1
102
RTVSPropertyOp36
 70
     1
102
RTVSPropertyOp37
 70
     1
102
RTVSPropertyOp38
 70
     1
102
RTVSPropertyOp39
 70
     1
102
RTVSPropertyOp40
 70
     1
102
RTVSPropertyOp41
 70
     1
102
RTVSPropertyOp42
 70
     1
102
RTVSPropertyOp43
 70
     1
102
RTVSPropertyOp44
 70
     1
102
RTVSPropertyOp45
 70
     1
102
RTVSPropertyOp46
 70
     1
102
RTVSPropertyOp47
 70
     1
102
RTVSPropertyOp48
 70
     1
102
RTVSPropertyOp49
 70
     1
102
RTVSPropertyOp50
 70
     1
102
RTVSPropertyOp51
 70
     0
102
RTVSPropertyOp52
 70
     0
102
RTVSPropertyOp53
 70
     1
102
RTVSPropertyOp54
 70
     1
102
RTVSPropertyOp55
 70
     1
102
RTVSPropertyOp56
 70
     1
102
RTVSPropertyOp57
 70
     1
102
RTVSPropertyOp58
 70
     1
102
RTVSPropertyOp59
 70
     1
102
RTVSPropertyOp60
 70
     1
102
RTVSPropertyOp61
 70
     1
102
RTVSPropertyOp62
 70
     1
  0
XRECORD
  5
854D
102
{ACAD_REACTORS
330
854C
102
}
330
854C
100
AcDbXrecord
280
     1
102
RTVSPost2010Prop28
280
     0
102
RTVSPost2010PropOp28
 70
     1
102
RTVSPost2010Prop29
280
     1
102
RTVSPost2010PropOp29
 70
     1
102
RTVSPost2010Prop30
280
     1
102
RTVSPost2010PropOp30
 70
     1
102
RTVSPost2010Prop31
280
     0
102
RTVSPost2010PropOp31
 70
     1
102
RTVSPost2010Prop32
280
     0
102
RTVSPost2010PropOp32
 70
     1
102
RTVSPost2010Prop33
280
     0
102
RTVSPost2010PropOp33
 70
     1
102
RTVSPost2010Prop34
280
     0
102
RTVSPost2010PropOp34
 70
     1
102
RTVSPost2010Prop35
280
     0
102
RTVSPost2010PropOp35
 70
     1
102
RTVSPost2010Prop36
280
     0
102
RTVSPost2010PropOp36
 70
     1
102
RTVSPost2010Prop37
 90
       50
102
RTVSPost2010PropOp37
 70
     1
102
RTVSPost2010Prop38
140
0.0
102
RTVSPost2010PropOp38
 70
     1
102
RTVSPost2010Prop39
140
1.0
102
RTVSPost2010PropOp39
 70
     1
102
RTVSPost2010Prop40
 90
        0
102
RTVSPost2010PropOp40
 70
     1
102
RTVSPost2010Prop41ColorIndex
 90
       18
102
RTVSPost2010Prop41ColorRGB
 90
        0
102
RTVSPost2010PropOp41
 70
     1
102
RTVSPost2010Prop42
 90
       50
102
RTVSPost2010PropOp42
 70
     1
102
RTVSPost2010Prop43
 90
        3
102
RTVSPost2010PropOp43
 70
     1
102
RTVSPost2010Prop44ColorIndex
 90
        5
102
RTVSPost2010Prop44ColorRGB
 90
      255
102
RTVSPost2010PropOp44
 70
     1
102
RTVSPost2010Prop45
280
     0
102
RTVSPost2010PropOp45
 70
     1
102
RTVSPost2010Prop46
 90
       50
102
RTVSPost2010PropOp46
 70
     1
102
RTVSPost2010Prop47
 90
       50
102
RTVSPost2010PropOp47
 70
     1
102
RTVSPost2010Prop48
 90
       50
102
RTVSPost2010PropOp48
 70
     1
102
RTVSPost2010Prop49
280
     0
102
RTVSPost2010PropOp49
 70
     1
102
RTVSPost2010Prop50
 90
       50
102
RTVSPost2010PropOp50
 70
     1
102
RTVSPost2010Prop51ColorIndex
 90
      256
102
RTVSPost2010Prop51ColorRGB
 90
-16777216
102
RTVSPost2010PropOp51
 70
     0
102
RTVSPost2010Prop52
140
1.0
102
RTVSPost2010PropOp52
 70
     0
102
RTVSPost2010Prop53
 90
        2
102
RTVSPost2010PropOp53
 70
     1
102
RTVSPost2010Prop54
  1
strokes_ogs.tif
102
RTVSPost2010PropOp54
 70
     1
102
RTVSPost2010Prop55
280
     0
102
RTVSPost2010PropOp55
 70
     1
102
RTVSPost2010Prop56
140
1.0
102
RTVSPost2010PropOp56
 70
     1
102
RTVSPost2010Prop57
140
1.0
102
RTVSPost2010PropOp57
 70
     1
102
RTVSPropertyOp0
 70
     1
102
RTVSPropertyOp1
 70
     1
102
RTVSPropertyOp2
 70
     1
102
RTVSPropertyOp3
 70
     1
102
RTVSPropertyOp4
 70
     1
102
RTVSPropertyOp5
 70
     1
102
RTVSPropertyOp6
 70
     1
102
RTVSPropertyOp7
 70
     1
102
RTVSPropertyOp8
 70
     1
102
RTVSPropertyOp9
 70
     1
102
RTVSPropertyOp10
 70
     1
102
RTVSPropertyOp11
 70
     1
102
RTVSPropertyOp12
 70
     1
102
RTVSPropertyOp13
 70
     1
102
RTVSPropertyOp14
 70
     1
102
RTVSPropertyOp15
 70
     1
102
RTVSPropertyOp16
 70
     1
102
RTVSPropertyOp17
 70
     1
102
RTVSPropertyOp18
 70
     1
102
RTVSPropertyOp19
 70
     1
102
RTVSPropertyOp20
 70
     1
102
RTVSPropertyOp21
 70
     1
102
RTVSPropertyOp22
 70
     1
102
RTVSPropertyOp23
 70
     1
102
RTVSPropertyOp24
 70
     1
102
RTVSPropertyOp25
 70
     1
102
RTVSPropertyOp26
 70
     1
102
RTVSPropertyOp27
 70
     1
102
RTVSPropertyOp28
 70
     1
102
RTVSPropertyOp29
 70
     1
102
RTVSPropertyOp30
 70
     1
102
RTVSPropertyOp31
 70
     1
102
RTVSPropertyOp32
 70
     1
102
RTVSPropertyOp33
 70
     1
102
RTVSPropertyOp34
 70
     1
102
RTVSPropertyOp35
 70
     1
102
RTVSPropertyOp36
 70
     1
102
RTVSPropertyOp37
 70
     1
102
RTVSPropertyOp38
 70
     1
102
RTVSPropertyOp39
 70
     1
102
RTVSPropertyOp40
 70
     1
102
RTVSPropertyOp41
 70
     1
102
RTVSPropertyOp42
 70
     1
102
RTVSPropertyOp43
 70
     1
102
RTVSPropertyOp44
 70
     1
102
RTVSPropertyOp45
 70
     1
102
RTVSPropertyOp46
 70
     1
102
RTVSPropertyOp47
 70
     1
102
RTVSPropertyOp48
 70
     1
102
RTVSPropertyOp49
 70
     1
102
RTVSPropertyOp50
 70
     1
102
RTVSPropertyOp51
 70
     0
102
RTVSPropertyOp52
 70
     0
102
RTVSPropertyOp53
 70
     1
102
RTVSPropertyOp54
 70
     1
102
RTVSPropertyOp55
 70
     1
102
RTVSPropertyOp56
 70
     1
102
RTVSPropertyOp57
 70
     1
102
RTVSPropertyOp58
 70
     1
102
RTVSPropertyOp59
 70
     1
102
RTVSPropertyOp60
 70
     1
102
RTVSPropertyOp61
 70
     1
102
RTVSPropertyOp62
 70
     1
  0
XRECORD
  5
855B
102
{ACAD_REACTORS
330
855A
102
}
330
855A
100
AcDbXrecord
280
     1
102
RTVSPost2010Prop28
280
     0
102
RTVSPost2010PropOp28
 70
     1
102
RTVSPost2010Prop29
280
     1
102
RTVSPost2010PropOp29
 70
     1
102
RTVSPost2010Prop30
280
     1
102
RTVSPost2010PropOp30
 70
     1
102
RTVSPost2010Prop31
280
     0
102
RTVSPost2010PropOp31
 70
     1
102
RTVSPost2010Prop32
280
     0
102
RTVSPost2010PropOp32
 70
     1
102
RTVSPost2010Prop33
280
     0
102
RTVSPost2010PropOp33
 70
     1
102
RTVSPost2010Prop34
280
     0
102
RTVSPost2010PropOp34
 70
     1
102
RTVSPost2010Prop35
280
     0
102
RTVSPost2010PropOp35
 70
     1
102
RTVSPost2010Prop36
280
     0
102
RTVSPost2010PropOp36
 70
     1
102
RTVSPost2010Prop37
 90
       50
102
RTVSPost2010PropOp37
 70
     1
102
RTVSPost2010Prop38
140
0.0
102
RTVSPost2010PropOp38
 70
     1
102
RTVSPost2010Prop39
140
1.0
102
RTVSPost2010PropOp39
 70
     1
102
RTVSPost2010Prop40
 90
        0
102
RTVSPost2010PropOp40
 70
     1
102
RTVSPost2010Prop41ColorIndex
 90
       18
102
RTVSPost2010Prop41ColorRGB
 90
        0
102
RTVSPost2010PropOp41
 70
     1
102
RTVSPost2010Prop42
 90
       50
102
RTVSPost2010PropOp42
 70
     1
102
RTVSPost2010Prop43
 90
        3
102
RTVSPost2010PropOp43
 70
     1
102
RTVSPost2010Prop44ColorIndex
 90
        5
102
RTVSPost2010Prop44ColorRGB
 90
      255
102
RTVSPost2010PropOp44
 70
     1
102
RTVSPost2010Prop45
280
     0
102
RTVSPost2010PropOp45
 70
     1
102
RTVSPost2010Prop46
 90
       50
102
RTVSPost2010PropOp46
 70
     1
102
RTVSPost2010Prop47
 90
       50
102
RTVSPost2010PropOp47
 70
     1
102
RTVSPost2010Prop48
 90
       50
102
RTVSPost2010PropOp48
 70
     1
102
RTVSPost2010Prop49
280
     0
102
RTVSPost2010PropOp49
 70
     1
102
RTVSPost2010Prop50
 90
       50
102
RTVSPost2010PropOp50
 70
     1
102
RTVSPost2010Prop51ColorIndex
 90
      256
102
RTVSPost2010Prop51ColorRGB
 90
-16777216
102
RTVSPost2010PropOp51
 70
     0
102
RTVSPost2010Prop52
140
1.0
102
RTVSPost2010PropOp52
 70
     0
102
RTVSPost2010Prop53
 90
        2
102
RTVSPost2010PropOp53
 70
     1
102
RTVSPost2010Prop54
  1
strokes_ogs.tif
102
RTVSPost2010PropOp54
 70
     1
102
RTVSPost2010Prop55
280
     0
102
RTVSPost2010PropOp55
 70
     1
102
RTVSPost2010Prop56
140
1.0
102
RTVSPost2010PropOp56
 70
     1
102
RTVSPost2010Prop57
140
1.0
102
RTVSPost2010PropOp57
 70
     1
102
RTVSPropertyOp0
 70
     1
102
RTVSPropertyOp1
 70
     1
102
RTVSPropertyOp2
 70
     1
102
RTVSPropertyOp3
 70
     1
102
RTVSPropertyOp4
 70
     1
102
RTVSPropertyOp5
 70
     1
102
RTVSPropertyOp6
 70
     1
102
RTVSPropertyOp7
 70
     1
102
RTVSPropertyOp8
 70
     1
102
RTVSPropertyOp9
 70
     1
102
RTVSPropertyOp10
 70
     1
102
RTVSPropertyOp11
 70
     1
102
RTVSPropertyOp12
 70
     1
102
RTVSPropertyOp13
 70
     1
102
RTVSPropertyOp14
 70
     1
102
RTVSPropertyOp15
 70
     1
102
RTVSPropertyOp16
 70
     1
102
RTVSPropertyOp17
 70
     1
102
RTVSPropertyOp18
 70
     1
102
RTVSPropertyOp19
 70
     1
102
RTVSPropertyOp20
 70
     1
102
RTVSPropertyOp21
 70
     1
102
RTVSPropertyOp22
 70
     1
102
RTVSPropertyOp23
 70
     1
102
RTVSPropertyOp24
 70
     1
102
RTVSPropertyOp25
 70
     1
102
RTVSPropertyOp26
 70
     1
102
RTVSPropertyOp27
 70
     1
102
RTVSPropertyOp28
 70
     1
102
RTVSPropertyOp29
 70
     1
102
RTVSPropertyOp30
 70
     1
102
RTVSPropertyOp31
 70
     1
102
RTVSPropertyOp32
 70
     1
102
RTVSPropertyOp33
 70
     1
102
RTVSPropertyOp34
 70
     1
102
RTVSPropertyOp35
 70
     1
102
RTVSPropertyOp36
 70
     1
102
RTVSPropertyOp37
 70
     1
102
RTVSPropertyOp38
 70
     1
102
RTVSPropertyOp39
 70
     1
102
RTVSPropertyOp40
 70
     1
102
RTVSPropertyOp41
 70
     1
102
RTVSPropertyOp42
 70
     1
102
RTVSPropertyOp43
 70
     1
102
RTVSPropertyOp44
 70
     1
102
RTVSPropertyOp45
 70
     1
102
RTVSPropertyOp46
 70
     1
102
RTVSPropertyOp47
 70
     1
102
RTVSPropertyOp48
 70
     1
102
RTVSPropertyOp49
 70
     1
102
RTVSPropertyOp50
 70
     1
102
RTVSPropertyOp51
 70
     0
102
RTVSPropertyOp52
 70
     0
102
RTVSPropertyOp53
 70
     1
102
RTVSPropertyOp54
 70
     1
102
RTVSPropertyOp55
 70
     1
102
RTVSPropertyOp56
 70
     1
102
RTVSPropertyOp57
 70
     1
102
RTVSPropertyOp58
 70
     1
102
RTVSPropertyOp59
 70
     1
102
RTVSPropertyOp60
 70
     1
102
RTVSPropertyOp61
 70
     1
102
RTVSPropertyOp62
 70
     1
  0
XRECORD
  5
8563
102
{ACAD_REACTORS
330
8562
102
}
330
8562
100
AcDbXrecord
280
     1
102
RTVSPost2010Prop28
280
     0
102
RTVSPost2010PropOp28
 70
     1
102
RTVSPost2010Prop29
280
     1
102
RTVSPost2010PropOp29
 70
     1
102
RTVSPost2010Prop30
280
     1
102
RTVSPost2010PropOp30
 70
     1
102
RTVSPost2010Prop31
280
     0
102
RTVSPost2010PropOp31
 70
     1
102
RTVSPost2010Prop32
280
     0
102
RTVSPost2010PropOp32
 70
     1
102
RTVSPost2010Prop33
280
     0
102
RTVSPost2010PropOp33
 70
     1
102
RTVSPost2010Prop34
280
     0
102
RTVSPost2010PropOp34
 70
     1
102
RTVSPost2010Prop35
280
     0
102
RTVSPost2010PropOp35
 70
     1
102
RTVSPost2010Prop36
280
     0
102
RTVSPost2010PropOp36
 70
     1
102
RTVSPost2010Prop37
 90
       50
102
RTVSPost2010PropOp37
 70
     1
102
RTVSPost2010Prop38
140
0.0
102
RTVSPost2010PropOp38
 70
     1
102
RTVSPost2010Prop39
140
1.0
102
RTVSPost2010PropOp39
 70
     1
102
RTVSPost2010Prop40
 90
        0
102
RTVSPost2010PropOp40
 70
     1
102
RTVSPost2010Prop41ColorIndex
 90
       18
102
RTVSPost2010Prop41ColorRGB
 90
        0
102
RTVSPost2010PropOp41
 70
     1
102
RTVSPost2010Prop42
 90
       50
102
RTVSPost2010PropOp42
 70
     1
102
RTVSPost2010Prop43
 90
        3
102
RTVSPost2010PropOp43
 70
     1
102
RTVSPost2010Prop44ColorIndex
 90
        5
102
RTVSPost2010Prop44ColorRGB
 90
      255
102
RTVSPost2010PropOp44
 70
     1
102
RTVSPost2010Prop45
280
     0
102
RTVSPost2010PropOp45
 70
     1
102
RTVSPost2010Prop46
 90
       50
102
RTVSPost2010PropOp46
 70
     1
102
RTVSPost2010Prop47
 90
       50
102
RTVSPost2010PropOp47
 70
     1
102
RTVSPost2010Prop48
 90
       50
102
RTVSPost2010PropOp48
 70
     1
102
RTVSPost2010Prop49
280
     0
102
RTVSPost2010PropOp49
 70
     1
102
RTVSPost2010Prop50
 90
       50
102
RTVSPost2010PropOp50
 70
     1
102
RTVSPost2010Prop51ColorIndex
 90
      256
102
RTVSPost2010Prop51ColorRGB
 90
-16777216
102
RTVSPost2010PropOp51
 70
     0
102
RTVSPost2010Prop52
140
1.0
102
RTVSPost2010PropOp52
 70
     0
102
RTVSPost2010Prop53
 90
        2
102
RTVSPost2010PropOp53
 70
     1
102
RTVSPost2010Prop54
  1
strokes_ogs.tif
102
RTVSPost2010PropOp54
 70
     1
102
RTVSPost2010Prop55
280
     0
102
RTVSPost2010PropOp55
 70
     1
102
RTVSPost2010Prop56
140
1.0
102
RTVSPost2010PropOp56
 70
     1
102
RTVSPost2010Prop57
140
1.0
102
RTVSPost2010PropOp57
 70
     1
102
RTVSPropertyOp0
 70
     1
102
RTVSPropertyOp1
 70
     1
102
RTVSPropertyOp2
 70
     1
102
RTVSPropertyOp3
 70
     1
102
RTVSPropertyOp4
 70
     1
102
RTVSPropertyOp5
 70
     1
102
RTVSPropertyOp6
 70
     1
102
RTVSPropertyOp7
 70
     1
102
RTVSPropertyOp8
 70
     1
102
RTVSPropertyOp9
 70
     1
102
RTVSPropertyOp10
 70
     1
102
RTVSPropertyOp11
 70
     1
102
RTVSPropertyOp12
 70
     1
102
RTVSPropertyOp13
 70
     1
102
RTVSPropertyOp14
 70
     1
102
RTVSPropertyOp15
 70
     1
102
RTVSPropertyOp16
 70
     1
102
RTVSPropertyOp17
 70
     1
102
RTVSPropertyOp18
 70
     1
102
RTVSPropertyOp19
 70
     1
102
RTVSPropertyOp20
 70
     1
102
RTVSPropertyOp21
 70
     1
102
RTVSPropertyOp22
 70
     1
102
RTVSPropertyOp23
 70
     1
102
RTVSPropertyOp24
 70
     1
102
RTVSPropertyOp25
 70
     1
102
RTVSPropertyOp26
 70
     1
102
RTVSPropertyOp27
 70
     1
102
RTVSPropertyOp28
 70
     1
102
RTVSPropertyOp29
 70
     1
102
RTVSPropertyOp30
 70
     1
102
RTVSPropertyOp31
 70
     1
102
RTVSPropertyOp32
 70
     1
102
RTVSPropertyOp33
 70
     1
102
RTVSPropertyOp34
 70
     1
102
RTVSPropertyOp35
 70
     1
102
RTVSPropertyOp36
 70
     1
102
RTVSPropertyOp37
 70
     1
102
RTVSPropertyOp38
 70
     1
102
RTVSPropertyOp39
 70
     1
102
RTVSPropertyOp40
 70
     1
102
RTVSPropertyOp41
 70
     1
102
RTVSPropertyOp42
 70
     1
102
RTVSPropertyOp43
 70
     1
102
RTVSPropertyOp44
 70
     1
102
RTVSPropertyOp45
 70
     1
102
RTVSPropertyOp46
 70
     1
102
RTVSPropertyOp47
 70
     1
102
RTVSPropertyOp48
 70
     1
102
RTVSPropertyOp49
 70
     1
102
RTVSPropertyOp50
 70
     1
102
RTVSPropertyOp51
 70
     0
102
RTVSPropertyOp52
 70
     0
102
RTVSPropertyOp53
 70
     1
102
RTVSPropertyOp54
 70
     1
102
RTVSPropertyOp55
 70
     1
102
RTVSPropertyOp56
 70
     1
102
RTVSPropertyOp57
 70
     1
102
RTVSPropertyOp58
 70
     1
102
RTVSPropertyOp59
 70
     1
102
RTVSPropertyOp60
 70
     1
102
RTVSPropertyOp61
 70
     1
102
RTVSPropertyOp62
 70
     1
  0
XRECORD
  5
8555
102
{ACAD_REACTORS
330
8554
102
}
330
8554
100
AcDbXrecord
280
     1
102
RTVSPost2010Prop28
280
     0
102
RTVSPost2010PropOp28
 70
     1
102
RTVSPost2010Prop29
280
     1
102
RTVSPost2010PropOp29
 70
     1
102
RTVSPost2010Prop30
280
     1
102
RTVSPost2010PropOp30
 70
     1
102
RTVSPost2010Prop31
280
     0
102
RTVSPost2010PropOp31
 70
     1
102
RTVSPost2010Prop32
280
     0
102
RTVSPost2010PropOp32
 70
     1
102
RTVSPost2010Prop33
280
     0
102
RTVSPost2010PropOp33
 70
     1
102
RTVSPost2010Prop34
280
     0
102
RTVSPost2010PropOp34
 70
     1
102
RTVSPost2010Prop35
280
     0
102
RTVSPost2010PropOp35
 70
     1
102
RTVSPost2010Prop36
280
     0
102
RTVSPost2010PropOp36
 70
     1
102
RTVSPost2010Prop37
 90
       50
102
RTVSPost2010PropOp37
 70
     1
102
RTVSPost2010Prop38
140
0.0
102
RTVSPost2010PropOp38
 70
     1
102
RTVSPost2010Prop39
140
1.0
102
RTVSPost2010PropOp39
 70
     1
102
RTVSPost2010Prop40
 90
        0
102
RTVSPost2010PropOp40
 70
     1
102
RTVSPost2010Prop41ColorIndex
 90
       18
102
RTVSPost2010Prop41ColorRGB
 90
        0
102
RTVSPost2010PropOp41
 70
     1
102
RTVSPost2010Prop42
 90
       50
102
RTVSPost2010PropOp42
 70
     1
102
RTVSPost2010Prop43
 90
        3
102
RTVSPost2010PropOp43
 70
     1
102
RTVSPost2010Prop44ColorIndex
 90
        5
102
RTVSPost2010Prop44ColorRGB
 90
      255
102
RTVSPost2010PropOp44
 70
     1
102
RTVSPost2010Prop45
280
     0
102
RTVSPost2010PropOp45
 70
     1
102
RTVSPost2010Prop46
 90
       50
102
RTVSPost2010PropOp46
 70
     1
102
RTVSPost2010Prop47
 90
       50
102
RTVSPost2010PropOp47
 70
     1
102
RTVSPost2010Prop48
 90
       50
102
RTVSPost2010PropOp48
 70
     1
102
RTVSPost2010Prop49
280
     0
102
RTVSPost2010PropOp49
 70
     1
102
RTVSPost2010Prop50
 90
       50
102
RTVSPost2010PropOp50
 70
     1
102
RTVSPost2010Prop51ColorIndex
 90
      256
102
RTVSPost2010Prop51ColorRGB
 90
-16777216
102
RTVSPost2010PropOp51
 70
     0
102
RTVSPost2010Prop52
140
1.0
102
RTVSPost2010PropOp52
 70
     0
102
RTVSPost2010Prop53
 90
        2
102
RTVSPost2010PropOp53
 70
     1
102
RTVSPost2010Prop54
  1
strokes_ogs.tif
102
RTVSPost2010PropOp54
 70
     1
102
RTVSPost2010Prop55
280
     0
102
RTVSPost2010PropOp55
 70
     1
102
RTVSPost2010Prop56
140
1.0
102
RTVSPost2010PropOp56
 70
     1
102
RTVSPost2010Prop57
140
1.0
102
RTVSPost2010PropOp57
 70
     1
102
RTVSPropertyOp0
 70
     1
102
RTVSPropertyOp1
 70
     1
102
RTVSPropertyOp2
 70
     1
102
RTVSPropertyOp3
 70
     1
102
RTVSPropertyOp4
 70
     1
102
RTVSPropertyOp5
 70
     1
102
RTVSPropertyOp6
 70
     1
102
RTVSPropertyOp7
 70
     1
102
RTVSPropertyOp8
 70
     1
102
RTVSPropertyOp9
 70
     1
102
RTVSPropertyOp10
 70
     1
102
RTVSPropertyOp11
 70
     1
102
RTVSPropertyOp12
 70
     1
102
RTVSPropertyOp13
 70
     1
102
RTVSPropertyOp14
 70
     1
102
RTVSPropertyOp15
 70
     1
102
RTVSPropertyOp16
 70
     1
102
RTVSPropertyOp17
 70
     1
102
RTVSPropertyOp18
 70
     1
102
RTVSPropertyOp19
 70
     1
102
RTVSPropertyOp20
 70
     1
102
RTVSPropertyOp21
 70
     1
102
RTVSPropertyOp22
 70
     1
102
RTVSPropertyOp23
 70
     1
102
RTVSPropertyOp24
 70
     1
102
RTVSPropertyOp25
 70
     1
102
RTVSPropertyOp26
 70
     1
102
RTVSPropertyOp27
 70
     1
102
RTVSPropertyOp28
 70
     1
102
RTVSPropertyOp29
 70
     1
102
RTVSPropertyOp30
 70
     1
102
RTVSPropertyOp31
 70
     1
102
RTVSPropertyOp32
 70
     1
102
RTVSPropertyOp33
 70
     1
102
RTVSPropertyOp34
 70
     1
102
RTVSPropertyOp35
 70
     1
102
RTVSPropertyOp36
 70
     1
102
RTVSPropertyOp37
 70
     1
102
RTVSPropertyOp38
 70
     1
102
RTVSPropertyOp39
 70
     1
102
RTVSPropertyOp40
 70
     1
102
RTVSPropertyOp41
 70
     1
102
RTVSPropertyOp42
 70
     1
102
RTVSPropertyOp43
 70
     1
102
RTVSPropertyOp44
 70
     1
102
RTVSPropertyOp45
 70
     1
102
RTVSPropertyOp46
 70
     1
102
RTVSPropertyOp47
 70
     1
102
RTVSPropertyOp48
 70
     1
102
RTVSPropertyOp49
 70
     1
102
RTVSPropertyOp50
 70
     1
102
RTVSPropertyOp51
 70
     0
102
RTVSPropertyOp52
 70
     0
102
RTVSPropertyOp53
 70
     1
102
RTVSPropertyOp54
 70
     1
102
RTVSPropertyOp55
 70
     1
102
RTVSPropertyOp56
 70
     1
102
RTVSPropertyOp57
 70
     1
102
RTVSPropertyOp58
 70
     1
102
RTVSPropertyOp59
 70
     1
102
RTVSPropertyOp60
 70
     1
102
RTVSPropertyOp61
 70
     1
102
RTVSPropertyOp62
 70
     1
  0
XRECORD
  5
8559
102
{ACAD_REACTORS
330
8558
102
}
330
8558
100
AcDbXrecord
280
     1
102
RTVSPost2010Prop28
280
     0
102
RTVSPost2010PropOp28
 70
     1
102
RTVSPost2010Prop29
280
     1
102
RTVSPost2010PropOp29
 70
     1
102
RTVSPost2010Prop30
280
     1
102
RTVSPost2010PropOp30
 70
     1
102
RTVSPost2010Prop31
280
     0
102
RTVSPost2010PropOp31
 70
     1
102
RTVSPost2010Prop32
280
     0
102
RTVSPost2010PropOp32
 70
     1
102
RTVSPost2010Prop33
280
     0
102
RTVSPost2010PropOp33
 70
     1
102
RTVSPost2010Prop34
280
     0
102
RTVSPost2010PropOp34
 70
     1
102
RTVSPost2010Prop35
280
     0
102
RTVSPost2010PropOp35
 70
     1
102
RTVSPost2010Prop36
280
     0
102
RTVSPost2010PropOp36
 70
     1
102
RTVSPost2010Prop37
 90
       50
102
RTVSPost2010PropOp37
 70
     1
102
RTVSPost2010Prop38
140
0.0
102
RTVSPost2010PropOp38
 70
     1
102
RTVSPost2010Prop39
140
1.0
102
RTVSPost2010PropOp39
 70
     1
102
RTVSPost2010Prop40
 90
        0
102
RTVSPost2010PropOp40
 70
     1
102
RTVSPost2010Prop41ColorIndex
 90
       18
102
RTVSPost2010Prop41ColorRGB
 90
        0
102
RTVSPost2010PropOp41
 70
     1
102
RTVSPost2010Prop42
 90
       50
102
RTVSPost2010PropOp42
 70
     1
102
RTVSPost2010Prop43
 90
        3
102
RTVSPost2010PropOp43
 70
     1
102
RTVSPost2010Prop44ColorIndex
 90
        5
102
RTVSPost2010Prop44ColorRGB
 90
      255
102
RTVSPost2010PropOp44
 70
     1
102
RTVSPost2010Prop45
280
     0
102
RTVSPost2010PropOp45
 70
     1
102
RTVSPost2010Prop46
 90
       50
102
RTVSPost2010PropOp46
 70
     1
102
RTVSPost2010Prop47
 90
       50
102
RTVSPost2010PropOp47
 70
     1
102
RTVSPost2010Prop48
 90
       50
102
RTVSPost2010PropOp48
 70
     1
102
RTVSPost2010Prop49
280
     0
102
RTVSPost2010PropOp49
 70
     1
102
RTVSPost2010Prop50
 90
       50
102
RTVSPost2010PropOp50
 70
     1
102
RTVSPost2010Prop51ColorIndex
 90
      256
102
RTVSPost2010Prop51ColorRGB
 90
-16777216
102
RTVSPost2010PropOp51
 70
     0
102
RTVSPost2010Prop52
140
1.0
102
RTVSPost2010PropOp52
 70
     0
102
RTVSPost2010Prop53
 90
        2
102
RTVSPost2010PropOp53
 70
     1
102
RTVSPost2010Prop54
  1
strokes_ogs.tif
102
RTVSPost2010PropOp54
 70
     1
102
RTVSPost2010Prop55
280
     0
102
RTVSPost2010PropOp55
 70
     1
102
RTVSPost2010Prop56
140
1.0
102
RTVSPost2010PropOp56
 70
     1
102
RTVSPost2010Prop57
140
1.0
102
RTVSPost2010PropOp57
 70
     1
102
RTVSPropertyOp0
 70
     1
102
RTVSPropertyOp1
 70
     1
102
RTVSPropertyOp2
 70
     1
102
RTVSPropertyOp3
 70
     1
102
RTVSPropertyOp4
 70
     1
102
RTVSPropertyOp5
 70
     1
102
RTVSPropertyOp6
 70
     1
102
RTVSPropertyOp7
 70
     1
102
RTVSPropertyOp8
 70
     1
102
RTVSPropertyOp9
 70
     1
102
RTVSPropertyOp10
 70
     1
102
RTVSPropertyOp11
 70
     1
102
RTVSPropertyOp12
 70
     1
102
RTVSPropertyOp13
 70
     1
102
RTVSPropertyOp14
 70
     1
102
RTVSPropertyOp15
 70
     1
102
RTVSPropertyOp16
 70
     1
102
RTVSPropertyOp17
 70
     1
102
RTVSPropertyOp18
 70
     1
102
RTVSPropertyOp19
 70
     1
102
RTVSPropertyOp20
 70
     1
102
RTVSPropertyOp21
 70
     1
102
RTVSPropertyOp22
 70
     1
102
RTVSPropertyOp23
 70
     1
102
RTVSPropertyOp24
 70
     1
102
RTVSPropertyOp25
 70
     1
102
RTVSPropertyOp26
 70
     1
102
RTVSPropertyOp27
 70
     1
102
RTVSPropertyOp28
 70
     1
102
RTVSPropertyOp29
 70
     1
102
RTVSPropertyOp30
 70
     1
102
RTVSPropertyOp31
 70
     1
102
RTVSPropertyOp32
 70
     1
102
RTVSPropertyOp33
 70
     1
102
RTVSPropertyOp34
 70
     1
102
RTVSPropertyOp35
 70
     1
102
RTVSPropertyOp36
 70
     1
102
RTVSPropertyOp37
 70
     1
102
RTVSPropertyOp38
 70
     1
102
RTVSPropertyOp39
 70
     1
102
RTVSPropertyOp40
 70
     1
102
RTVSPropertyOp41
 70
     1
102
RTVSPropertyOp42
 70
     1
102
RTVSPropertyOp43
 70
     1
102
RTVSPropertyOp44
 70
     1
102
RTVSPropertyOp45
 70
     1
102
RTVSPropertyOp46
 70
     1
102
RTVSPropertyOp47
 70
     1
102
RTVSPropertyOp48
 70
     1
102
RTVSPropertyOp49
 70
     1
102
RTVSPropertyOp50
 70
     1
102
RTVSPropertyOp51
 70
     0
102
RTVSPropertyOp52
 70
     0
102
RTVSPropertyOp53
 70
     1
102
RTVSPropertyOp54
 70
     1
102
RTVSPropertyOp55
 70
     1
102
RTVSPropertyOp56
 70
     1
102
RTVSPropertyOp57
 70
     1
102
RTVSPropertyOp58
 70
     1
102
RTVSPropertyOp59
 70
     1
102
RTVSPropertyOp60
 70
     1
102
RTVSPropertyOp61
 70
     1
102
RTVSPropertyOp62
 70
     1
  0
XRECORD
  5
8573
102
{ACAD_REACTORS
330
8572
102
}
330
8572
100
AcDbXrecord
280
     1
102
RTVSPost2010Prop28
280
     0
102
RTVSPost2010PropOp28
 70
     0
102
RTVSPost2010Prop29
280
     1
102
RTVSPost2010PropOp29
 70
     0
102
RTVSPost2010Prop30
280
     1
102
RTVSPost2010PropOp30
 70
     0
102
RTVSPost2010Prop31
280
     0
102
RTVSPost2010PropOp31
 70
     0
102
RTVSPost2010Prop32
280
     0
102
RTVSPost2010PropOp32
 70
     0
102
RTVSPost2010Prop33
280
     0
102
RTVSPost2010PropOp33
 70
     0
102
RTVSPost2010Prop34
280
     0
102
RTVSPost2010PropOp34
 70
     0
102
RTVSPost2010Prop35
280
     0
102
RTVSPost2010PropOp35
 70
     0
102
RTVSPost2010Prop36
280
     0
102
RTVSPost2010PropOp36
 70
     0
102
RTVSPost2010Prop37
 90
       50
102
RTVSPost2010PropOp37
 70
     0
102
RTVSPost2010Prop38
140
0.0
102
RTVSPost2010PropOp38
 70
     0
102
RTVSPost2010Prop39
140
1.0
102
RTVSPost2010PropOp39
 70
     0
102
RTVSPost2010Prop40
 90
        0
102
RTVSPost2010PropOp40
 70
     0
102
RTVSPost2010Prop41ColorIndex
 90
       18
102
RTVSPost2010Prop41ColorRGB
 90
        0
102
RTVSPost2010PropOp41
 70
     0
102
RTVSPost2010Prop42
 90
       50
102
RTVSPost2010PropOp42
 70
     0
102
RTVSPost2010Prop43
 90
        3
102
RTVSPost2010PropOp43
 70
     0
102
RTVSPost2010Prop44ColorIndex
 90
        5
102
RTVSPost2010Prop44ColorRGB
 90
      255
102
RTVSPost2010PropOp44
 70
     0
102
RTVSPost2010Prop45
280
     0
102
RTVSPost2010PropOp45
 70
     0
102
RTVSPost2010Prop46
 90
       50
102
RTVSPost2010PropOp46
 70
     0
102
RTVSPost2010Prop47
 90
       50
102
RTVSPost2010PropOp47
 70
     0
102
RTVSPost2010Prop48
 90
       50
102
RTVSPost2010PropOp48
 70
     0
102
RTVSPost2010Prop49
280
     0
102
RTVSPost2010PropOp49
 70
     0
102
RTVSPost2010Prop50
 90
       50
102
RTVSPost2010PropOp50
 70
     0
102
RTVSPost2010Prop51ColorIndex
 90
      256
102
RTVSPost2010Prop51ColorRGB
 90
-16777216
102
RTVSPost2010PropOp51
 70
     0
102
RTVSPost2010Prop52
140
1.0
102
RTVSPost2010PropOp52
 70
     0
102
RTVSPost2010Prop53
 90
        2
102
RTVSPost2010PropOp53
 70
     0
102
RTVSPost2010Prop54
  1
strokes_ogs.tif
102
RTVSPost2010PropOp54
 70
     0
102
RTVSPost2010Prop55
280
     0
102
RTVSPost2010PropOp55
 70
     0
102
RTVSPost2010Prop56
140
1.0
102
RTVSPost2010PropOp56
 70
     0
102
RTVSPost2010Prop57
140
1.0
102
RTVSPost2010PropOp57
 70
     0
102
RTVSPropertyOp0
 70
     0
102
RTVSPropertyOp1
 70
     0
102
RTVSPropertyOp2
 70
     0
102
RTVSPropertyOp3
 70
     0
102
RTVSPropertyOp4
 70
     0
102
RTVSPropertyOp5
 70
     0
102
RTVSPropertyOp6
 70
     0
102
RTVSPropertyOp7
 70
     0
102
RTVSPropertyOp8
 70
     0
102
RTVSPropertyOp9
 70
     0
102
RTVSPropertyOp10
 70
     0
102
RTVSPropertyOp11
 70
     0
102
RTVSPropertyOp12
 70
     0
102
RTVSPropertyOp13
 70
     0
102
RTVSPropertyOp14
 70
     2
102
RTVSPropertyOp15
 70
     0
102
RTVSPropertyOp16
 70
     0
102
RTVSPropertyOp17
 70
     0
102
RTVSPropertyOp18
 70
     0
102
RTVSPropertyOp19
 70
     0
102
RTVSPropertyOp20
 70
     0
102
RTVSPropertyOp21
 70
     0
102
RTVSPropertyOp22
 70
     0
102
RTVSPropertyOp23
 70
     0
102
RTVSPropertyOp24
 70
     0
102
RTVSPropertyOp25
 70
     0
102
RTVSPropertyOp26
 70
     0
102
RTVSPropertyOp27
 70
     0
102
RTVSPropertyOp28
 70
     0
102
RTVSPropertyOp29
 70
     0
102
RTVSPropertyOp30
 70
     0
102
RTVSPropertyOp31
 70
     0
102
RTVSPropertyOp32
 70
     0
102
RTVSPropertyOp33
 70
     0
102
RTVSPropertyOp34
 70
     0
102
RTVSPropertyOp35
 70
     0
102
RTVSPropertyOp36
 70
     0
102
RTVSPropertyOp37
 70
     0
102
RTVSPropertyOp38
 70
     0
102
RTVSPropertyOp39
 70
     0
102
RTVSPropertyOp40
 70
     0
102
RTVSPropertyOp41
 70
     0
102
RTVSPropertyOp42
 70
     0
102
RTVSPropertyOp43
 70
     0
102
RTVSPropertyOp44
 70
     0
102
RTVSPropertyOp45
 70
     0
102
RTVSPropertyOp46
 70
     0
102
RTVSPropertyOp47
 70
     0
102
RTVSPropertyOp48
 70
     0
102
RTVSPropertyOp49
 70
     0
102
RTVSPropertyOp50
 70
     0
102
RTVSPropertyOp51
 70
     0
102
RTVSPropertyOp52
 70
     0
102
RTVSPropertyOp53
 70
     0
102
RTVSPropertyOp54
 70
     0
102
RTVSPropertyOp55
 70
     0
102
RTVSPropertyOp56
 70
     0
102
RTVSPropertyOp57
 70
     0
102
RTVSPropertyOp58
 70
     0
102
RTVSPropertyOp59
 70
     0
102
RTVSPropertyOp60
 70
     0
102
RTVSPropertyOp61
 70
     0
102
RTVSPropertyOp62
 70
     0
  0
XRECORD
  5
8561
102
{ACAD_REACTORS
330
8560
102
}
330
8560
100
AcDbXrecord
280
     1
102
RTVSPost2010Prop28
280
     0
102
RTVSPost2010PropOp28
 70
     1
102
RTVSPost2010Prop29
280
     1
102
RTVSPost2010PropOp29
 70
     1
102
RTVSPost2010Prop30
280
     1
102
RTVSPost2010PropOp30
 70
     1
102
RTVSPost2010Prop31
280
     0
102
RTVSPost2010PropOp31
 70
     1
102
RTVSPost2010Prop32
280
     0
102
RTVSPost2010PropOp32
 70
     1
102
RTVSPost2010Prop33
280
     0
102
RTVSPost2010PropOp33
 70
     1
102
RTVSPost2010Prop34
280
     0
102
RTVSPost2010PropOp34
 70
     1
102
RTVSPost2010Prop35
280
     0
102
RTVSPost2010PropOp35
 70
     1
102
RTVSPost2010Prop36
280
     0
102
RTVSPost2010PropOp36
 70
     1
102
RTVSPost2010Prop37
 90
       50
102
RTVSPost2010PropOp37
 70
     1
102
RTVSPost2010Prop38
140
0.0
102
RTVSPost2010PropOp38
 70
     1
102
RTVSPost2010Prop39
140
1.0
102
RTVSPost2010PropOp39
 70
     1
102
RTVSPost2010Prop40
 90
        0
102
RTVSPost2010PropOp40
 70
     1
102
RTVSPost2010Prop41ColorIndex
 90
       18
102
RTVSPost2010Prop41ColorRGB
 90
        0
102
RTVSPost2010PropOp41
 70
     1
102
RTVSPost2010Prop42
 90
       50
102
RTVSPost2010PropOp42
 70
     1
102
RTVSPost2010Prop43
 90
        3
102
RTVSPost2010PropOp43
 70
     1
102
RTVSPost2010Prop44ColorIndex
 90
        5
102
RTVSPost2010Prop44ColorRGB
 90
      255
102
RTVSPost2010PropOp44
 70
     1
102
RTVSPost2010Prop45
280
     0
102
RTVSPost2010PropOp45
 70
     1
102
RTVSPost2010Prop46
 90
       50
102
RTVSPost2010PropOp46
 70
     1
102
RTVSPost2010Prop47
 90
       50
102
RTVSPost2010PropOp47
 70
     1
102
RTVSPost2010Prop48
 90
       50
102
RTVSPost2010PropOp48
 70
     1
102
RTVSPost2010Prop49
280
     0
102
RTVSPost2010PropOp49
 70
     1
102
RTVSPost2010Prop50
 90
       50
102
RTVSPost2010PropOp50
 70
     1
102
RTVSPost2010Prop51ColorIndex
 90
      256
102
RTVSPost2010Prop51ColorRGB
 90
-16777216
102
RTVSPost2010PropOp51
 70
     0
102
RTVSPost2010Prop52
140
1.0
102
RTVSPost2010PropOp52
 70
     0
102
RTVSPost2010Prop53
 90
        2
102
RTVSPost2010PropOp53
 70
     1
102
RTVSPost2010Prop54
  1
strokes_ogs.tif
102
RTVSPost2010PropOp54
 70
     1
102
RTVSPost2010Prop55
280
     0
102
RTVSPost2010PropOp55
 70
     1
102
RTVSPost2010Prop56
140
1.0
102
RTVSPost2010PropOp56
 70
     1
102
RTVSPost2010Prop57
140
1.0
102
RTVSPost2010PropOp57
 70
     1
102
RTVSPropertyOp0
 70
     1
102
RTVSPropertyOp1
 70
     1
102
RTVSPropertyOp2
 70
     1
102
RTVSPropertyOp3
 70
     1
102
RTVSPropertyOp4
 70
     1
102
RTVSPropertyOp5
 70
     1
102
RTVSPropertyOp6
 70
     1
102
RTVSPropertyOp7
 70
     1
102
RTVSPropertyOp8
 70
     1
102
RTVSPropertyOp9
 70
     1
102
RTVSPropertyOp10
 70
     1
102
RTVSPropertyOp11
 70
     1
102
RTVSPropertyOp12
 70
     1
102
RTVSPropertyOp13
 70
     1
102
RTVSPropertyOp14
 70
     1
102
RTVSPropertyOp15
 70
     1
102
RTVSPropertyOp16
 70
     1
102
RTVSPropertyOp17
 70
     1
102
RTVSPropertyOp18
 70
     1
102
RTVSPropertyOp19
 70
     1
102
RTVSPropertyOp20
 70
     1
102
RTVSPropertyOp21
 70
     1
102
RTVSPropertyOp22
 70
     1
102
RTVSPropertyOp23
 70
     1
102
RTVSPropertyOp24
 70
     1
102
RTVSPropertyOp25
 70
     1
102
RTVSPropertyOp26
 70
     1
102
RTVSPropertyOp27
 70
     1
102
RTVSPropertyOp28
 70
     1
102
RTVSPropertyOp29
 70
     1
102
RTVSPropertyOp30
 70
     1
102
RTVSPropertyOp31
 70
     1
102
RTVSPropertyOp32
 70
     1
102
RTVSPropertyOp33
 70
     1
102
RTVSPropertyOp34
 70
     1
102
RTVSPropertyOp35
 70
     1
102
RTVSPropertyOp36
 70
     1
102
RTVSPropertyOp37
 70
     1
102
RTVSPropertyOp38
 70
     1
102
RTVSPropertyOp39
 70
     1
102
RTVSPropertyOp40
 70
     1
102
RTVSPropertyOp41
 70
     1
102
RTVSPropertyOp42
 70
     1
102
RTVSPropertyOp43
 70
     1
102
RTVSPropertyOp44
 70
     1
102
RTVSPropertyOp45
 70
     1
102
RTVSPropertyOp46
 70
     1
102
RTVSPropertyOp47
 70
     1
102
RTVSPropertyOp48
 70
     1
102
RTVSPropertyOp49
 70
     1
102
RTVSPropertyOp50
 70
     1
102
RTVSPropertyOp51
 70
     0
102
RTVSPropertyOp52
 70
     0
102
RTVSPropertyOp53
 70
     1
102
RTVSPropertyOp54
 70
     1
102
RTVSPropertyOp55
 70
     1
102
RTVSPropertyOp56
 70
     1
102
RTVSPropertyOp57
 70
     1
102
RTVSPropertyOp58
 70
     1
102
RTVSPropertyOp59
 70
     1
102
RTVSPropertyOp60
 70
     1
102
RTVSPropertyOp61
 70
     1
102
RTVSPropertyOp62
 70
     1
  0
XRECORD
  5
8545
102
{ACAD_REACTORS
330
8544
102
}
330
8544
100
AcDbXrecord
280
     1
102
RTVSPost2010Prop28
280
     0
102
RTVSPost2010PropOp28
 70
     1
102
RTVSPost2010Prop29
280
     1
102
RTVSPost2010PropOp29
 70
     1
102
RTVSPost2010Prop30
280
     1
102
RTVSPost2010PropOp30
 70
     1
102
RTVSPost2010Prop31
280
     0
102
RTVSPost2010PropOp31
 70
     1
102
RTVSPost2010Prop32
280
     0
102
RTVSPost2010PropOp32
 70
     1
102
RTVSPost2010Prop33
280
     0
102
RTVSPost2010PropOp33
 70
     1
102
RTVSPost2010Prop34
280
     0
102
RTVSPost2010PropOp34
 70
     1
102
RTVSPost2010Prop35
280
     0
102
RTVSPost2010PropOp35
 70
     1
102
RTVSPost2010Prop36
280
     0
102
RTVSPost2010PropOp36
 70
     1
102
RTVSPost2010Prop37
 90
       50
102
RTVSPost2010PropOp37
 70
     1
102
RTVSPost2010Prop38
140
0.0
102
RTVSPost2010PropOp38
 70
     1
102
RTVSPost2010Prop39
140
1.0
102
RTVSPost2010PropOp39
 70
     1
102
RTVSPost2010Prop40
 90
        0
102
RTVSPost2010PropOp40
 70
     1
102
RTVSPost2010Prop41ColorIndex
 90
       18
102
RTVSPost2010Prop41ColorRGB
 90
        0
102
RTVSPost2010PropOp41
 70
     1
102
RTVSPost2010Prop42
 90
       50
102
RTVSPost2010PropOp42
 70
     1
102
RTVSPost2010Prop43
 90
        3
102
RTVSPost2010PropOp43
 70
     1
102
RTVSPost2010Prop44ColorIndex
 90
        5
102
RTVSPost2010Prop44ColorRGB
 90
      255
102
RTVSPost2010PropOp44
 70
     1
102
RTVSPost2010Prop45
280
     0
102
RTVSPost2010PropOp45
 70
     1
102
RTVSPost2010Prop46
 90
       50
102
RTVSPost2010PropOp46
 70
     1
102
RTVSPost2010Prop47
 90
       50
102
RTVSPost2010PropOp47
 70
     1
102
RTVSPost2010Prop48
 90
       50
102
RTVSPost2010PropOp48
 70
     1
102
RTVSPost2010Prop49
280
     0
102
RTVSPost2010PropOp49
 70
     1
102
RTVSPost2010Prop50
 90
       50
102
RTVSPost2010PropOp50
 70
     1
102
RTVSPost2010Prop51ColorIndex
 90
      256
102
RTVSPost2010Prop51ColorRGB
 90
-16777216
102
RTVSPost2010PropOp51
 70
     0
102
RTVSPost2010Prop52
140
1.0
102
RTVSPost2010PropOp52
 70
     0
102
RTVSPost2010Prop53
 90
        2
102
RTVSPost2010PropOp53
 70
     1
102
RTVSPost2010Prop54
  1
strokes_ogs.tif
102
RTVSPost2010PropOp54
 70
     1
102
RTVSPost2010Prop55
280
     0
102
RTVSPost2010PropOp55
 70
     1
102
RTVSPost2010Prop56
140
1.0
102
RTVSPost2010PropOp56
 70
     1
102
RTVSPost2010Prop57
140
1.0
102
RTVSPost2010PropOp57
 70
     1
102
RTVSPropertyOp0
 70
     1
102
RTVSPropertyOp1
 70
     1
102
RTVSPropertyOp2
 70
     1
102
RTVSPropertyOp3
 70
     1
102
RTVSPropertyOp4
 70
     1
102
RTVSPropertyOp5
 70
     1
102
RTVSPropertyOp6
 70
     1
102
RTVSPropertyOp7
 70
     1
102
RTVSPropertyOp8
 70
     1
102
RTVSPropertyOp9
 70
     1
102
RTVSPropertyOp10
 70
     1
102
RTVSPropertyOp11
 70
     1
102
RTVSPropertyOp12
 70
     1
102
RTVSPropertyOp13
 70
     1
102
RTVSPropertyOp14
 70
     1
102
RTVSPropertyOp15
 70
     1
102
RTVSPropertyOp16
 70
     1
102
RTVSPropertyOp17
 70
     1
102
RTVSPropertyOp18
 70
     1
102
RTVSPropertyOp19
 70
     1
102
RTVSPropertyOp20
 70
     1
102
RTVSPropertyOp21
 70
     1
102
RTVSPropertyOp22
 70
     1
102
RTVSPropertyOp23
 70
     1
102
RTVSPropertyOp24
 70
     1
102
RTVSPropertyOp25
 70
     1
102
RTVSPropertyOp26
 70
     1
102
RTVSPropertyOp27
 70
     1
102
RTVSPropertyOp28
 70
     1
102
RTVSPropertyOp29
 70
     1
102
RTVSPropertyOp30
 70
     1
102
RTVSPropertyOp31
 70
     1
102
RTVSPropertyOp32
 70
     1
102
RTVSPropertyOp33
 70
     1
102
RTVSPropertyOp34
 70
     1
102
RTVSPropertyOp35
 70
     1
102
RTVSPropertyOp36
 70
     1
102
RTVSPropertyOp37
 70
     1
102
RTVSPropertyOp38
 70
     1
102
RTVSPropertyOp39
 70
     1
102
RTVSPropertyOp40
 70
     1
102
RTVSPropertyOp41
 70
     1
102
RTVSPropertyOp42
 70
     1
102
RTVSPropertyOp43
 70
     1
102
RTVSPropertyOp44
 70
     1
102
RTVSPropertyOp45
 70
     1
102
RTVSPropertyOp46
 70
     1
102
RTVSPropertyOp47
 70
     1
102
RTVSPropertyOp48
 70
     1
102
RTVSPropertyOp49
 70
     1
102
RTVSPropertyOp50
 70
     1
102
RTVSPropertyOp51
 70
     0
102
RTVSPropertyOp52
 70
     0
102
RTVSPropertyOp53
 70
     1
102
RTVSPropertyOp54
 70
     1
102
RTVSPropertyOp55
 70
     1
102
RTVSPropertyOp56
 70
     1
102
RTVSPropertyOp57
 70
     1
102
RTVSPropertyOp58
 70
     1
102
RTVSPropertyOp59
 70
     1
102
RTVSPropertyOp60
 70
     1
102
RTVSPropertyOp61
 70
     1
102
RTVSPropertyOp62
 70
     1
  0
XRECORD
  5
8547
102
{ACAD_REACTORS
330
8546
102
}
330
8546
100
AcDbXrecord
280
     1
102
RTVSPost2010Prop28
280
     0
102
RTVSPost2010PropOp28
 70
     1
102
RTVSPost2010Prop29
280
     1
102
RTVSPost2010PropOp29
 70
     1
102
RTVSPost2010Prop30
280
     1
102
RTVSPost2010PropOp30
 70
     1
102
RTVSPost2010Prop31
280
     0
102
RTVSPost2010PropOp31
 70
     1
102
RTVSPost2010Prop32
280
     0
102
RTVSPost2010PropOp32
 70
     1
102
RTVSPost2010Prop33
280
     0
102
RTVSPost2010PropOp33
 70
     1
102
RTVSPost2010Prop34
280
     0
102
RTVSPost2010PropOp34
 70
     1
102
RTVSPost2010Prop35
280
     0
102
RTVSPost2010PropOp35
 70
     1
102
RTVSPost2010Prop36
280
     0
102
RTVSPost2010PropOp36
 70
     1
102
RTVSPost2010Prop37
 90
       50
102
RTVSPost2010PropOp37
 70
     1
102
RTVSPost2010Prop38
140
0.0
102
RTVSPost2010PropOp38
 70
     1
102
RTVSPost2010Prop39
140
1.0
102
RTVSPost2010PropOp39
 70
     1
102
RTVSPost2010Prop40
 90
        0
102
RTVSPost2010PropOp40
 70
     1
102
RTVSPost2010Prop41ColorIndex
 90
       18
102
RTVSPost2010Prop41ColorRGB
 90
        0
102
RTVSPost2010PropOp41
 70
     1
102
RTVSPost2010Prop42
 90
       50
102
RTVSPost2010PropOp42
 70
     1
102
RTVSPost2010Prop43
 90
        3
102
RTVSPost2010PropOp43
 70
     1
102
RTVSPost2010Prop44ColorIndex
 90
        5
102
RTVSPost2010Prop44ColorRGB
 90
      255
102
RTVSPost2010PropOp44
 70
     1
102
RTVSPost2010Prop45
280
     0
102
RTVSPost2010PropOp45
 70
     1
102
RTVSPost2010Prop46
 90
       50
102
RTVSPost2010PropOp46
 70
     1
102
RTVSPost2010Prop47
 90
       50
102
RTVSPost2010PropOp47
 70
     1
102
RTVSPost2010Prop48
 90
       50
102
RTVSPost2010PropOp48
 70
     1
102
RTVSPost2010Prop49
280
     0
102
RTVSPost2010PropOp49
 70
     1
102
RTVSPost2010Prop50
 90
       50
102
RTVSPost2010PropOp50
 70
     1
102
RTVSPost2010Prop51ColorIndex
 90
      256
102
RTVSPost2010Prop51ColorRGB
 90
-16777216
102
RTVSPost2010PropOp51
 70
     0
102
RTVSPost2010Prop52
140
1.0
102
RTVSPost2010PropOp52
 70
     0
102
RTVSPost2010Prop53
 90
        2
102
RTVSPost2010PropOp53
 70
     1
102
RTVSPost2010Prop54
  1
strokes_ogs.tif
102
RTVSPost2010PropOp54
 70
     1
102
RTVSPost2010Prop55
280
     0
102
RTVSPost2010PropOp55
 70
     1
102
RTVSPost2010Prop56
140
1.0
102
RTVSPost2010PropOp56
 70
     1
102
RTVSPost2010Prop57
140
1.0
102
RTVSPost2010PropOp57
 70
     1
102
RTVSPropertyOp0
 70
     1
102
RTVSPropertyOp1
 70
     1
102
RTVSPropertyOp2
 70
     1
102
RTVSPropertyOp3
 70
     1
102
RTVSPropertyOp4
 70
     1
102
RTVSPropertyOp5
 70
     1
102
RTVSPropertyOp6
 70
     1
102
RTVSPropertyOp7
 70
     1
102
RTVSPropertyOp8
 70
     1
102
RTVSPropertyOp9
 70
     1
102
RTVSPropertyOp10
 70
     1
102
RTVSPropertyOp11
 70
     1
102
RTVSPropertyOp12
 70
     1
102
RTVSPropertyOp13
 70
     1
102
RTVSPropertyOp14
 70
     1
102
RTVSPropertyOp15
 70
     1
102
RTVSPropertyOp16
 70
     1
102
RTVSPropertyOp17
 70
     1
102
RTVSPropertyOp18
 70
     1
102
RTVSPropertyOp19
 70
     1
102
RTVSPropertyOp20
 70
     1
102
RTVSPropertyOp21
 70
     1
102
RTVSPropertyOp22
 70
     1
102
RTVSPropertyOp23
 70
     1
102
RTVSPropertyOp24
 70
     1
102
RTVSPropertyOp25
 70
     1
102
RTVSPropertyOp26
 70
     1
102
RTVSPropertyOp27
 70
     1
102
RTVSPropertyOp28
 70
     1
102
RTVSPropertyOp29
 70
     1
102
RTVSPropertyOp30
 70
     1
102
RTVSPropertyOp31
 70
     1
102
RTVSPropertyOp32
 70
     1
102
RTVSPropertyOp33
 70
     1
102
RTVSPropertyOp34
 70
     1
102
RTVSPropertyOp35
 70
     1
102
RTVSPropertyOp36
 70
     1
102
RTVSPropertyOp37
 70
     1
102
RTVSPropertyOp38
 70
     1
102
RTVSPropertyOp39
 70
     1
102
RTVSPropertyOp40
 70
     1
102
RTVSPropertyOp41
 70
     1
102
RTVSPropertyOp42
 70
     1
102
RTVSPropertyOp43
 70
     1
102
RTVSPropertyOp44
 70
     1
102
RTVSPropertyOp45
 70
     1
102
RTVSPropertyOp46
 70
     1
102
RTVSPropertyOp47
 70
     1
102
RTVSPropertyOp48
 70
     1
102
RTVSPropertyOp49
 70
     1
102
RTVSPropertyOp50
 70
     1
102
RTVSPropertyOp51
 70
     0
102
RTVSPropertyOp52
 70
     0
102
RTVSPropertyOp53
 70
     1
102
RTVSPropertyOp54
 70
     1
102
RTVSPropertyOp55
 70
     1
102
RTVSPropertyOp56
 70
     1
102
RTVSPropertyOp57
 70
     1
102
RTVSPropertyOp58
 70
     1
102
RTVSPropertyOp59
 70
     1
102
RTVSPropertyOp60
 70
     1
102
RTVSPropertyOp61
 70
     1
102
RTVSPropertyOp62
 70
     1
  0
XRECORD
  5
8549
102
{ACAD_REACTORS
330
8548
102
}
330
8548
100
AcDbXrecord
280
     1
102
RTVSPost2010Prop28
280
     0
102
RTVSPost2010PropOp28
 70
     1
102
RTVSPost2010Prop29
280
     1
102
RTVSPost2010PropOp29
 70
     1
102
RTVSPost2010Prop30
280
     1
102
RTVSPost2010PropOp30
 70
     1
102
RTVSPost2010Prop31
280
     0
102
RTVSPost2010PropOp31
 70
     1
102
RTVSPost2010Prop32
280
     0
102
RTVSPost2010PropOp32
 70
     1
102
RTVSPost2010Prop33
280
     0
102
RTVSPost2010PropOp33
 70
     1
102
RTVSPost2010Prop34
280
     0
102
RTVSPost2010PropOp34
 70
     1
102
RTVSPost2010Prop35
280
     0
102
RTVSPost2010PropOp35
 70
     1
102
RTVSPost2010Prop36
280
     0
102
RTVSPost2010PropOp36
 70
     1
102
RTVSPost2010Prop37
 90
       50
102
RTVSPost2010PropOp37
 70
     1
102
RTVSPost2010Prop38
140
0.0
102
RTVSPost2010PropOp38
 70
     1
102
RTVSPost2010Prop39
140
1.0
102
RTVSPost2010PropOp39
 70
     1
102
RTVSPost2010Prop40
 90
        0
102
RTVSPost2010PropOp40
 70
     1
102
RTVSPost2010Prop41ColorIndex
 90
       18
102
RTVSPost2010Prop41ColorRGB
 90
        0
102
RTVSPost2010PropOp41
 70
     1
102
RTVSPost2010Prop42
 90
       50
102
RTVSPost2010PropOp42
 70
     1
102
RTVSPost2010Prop43
 90
        3
102
RTVSPost2010PropOp43
 70
     1
102
RTVSPost2010Prop44ColorIndex
 90
        5
102
RTVSPost2010Prop44ColorRGB
 90
      255
102
RTVSPost2010PropOp44
 70
     1
102
RTVSPost2010Prop45
280
     0
102
RTVSPost2010PropOp45
 70
     1
102
RTVSPost2010Prop46
 90
       50
102
RTVSPost2010PropOp46
 70
     1
102
RTVSPost2010Prop47
 90
       50
102
RTVSPost2010PropOp47
 70
     1
102
RTVSPost2010Prop48
 90
       50
102
RTVSPost2010PropOp48
 70
     1
102
RTVSPost2010Prop49
280
     0
102
RTVSPost2010PropOp49
 70
     1
102
RTVSPost2010Prop50
 90
       50
102
RTVSPost2010PropOp50
 70
     1
102
RTVSPost2010Prop51ColorIndex
 90
      256
102
RTVSPost2010Prop51ColorRGB
 90
-16777216
102
RTVSPost2010PropOp51
 70
     0
102
RTVSPost2010Prop52
140
1.0
102
RTVSPost2010PropOp52
 70
     0
102
RTVSPost2010Prop53
 90
        2
102
RTVSPost2010PropOp53
 70
     1
102
RTVSPost2010Prop54
  1
strokes_ogs.tif
102
RTVSPost2010PropOp54
 70
     1
102
RTVSPost2010Prop55
280
     0
102
RTVSPost2010PropOp55
 70
     1
102
RTVSPost2010Prop56
140
1.0
102
RTVSPost2010PropOp56
 70
     1
102
RTVSPost2010Prop57
140
1.0
102
RTVSPost2010PropOp57
 70
     1
102
RTVSPropertyOp0
 70
     1
102
RTVSPropertyOp1
 70
     1
102
RTVSPropertyOp2
 70
     1
102
RTVSPropertyOp3
 70
     1
102
RTVSPropertyOp4
 70
     1
102
RTVSPropertyOp5
 70
     1
102
RTVSPropertyOp6
 70
     1
102
RTVSPropertyOp7
 70
     1
102
RTVSPropertyOp8
 70
     1
102
RTVSPropertyOp9
 70
     1
102
RTVSPropertyOp10
 70
     1
102
RTVSPropertyOp11
 70
     1
102
RTVSPropertyOp12
 70
     1
102
RTVSPropertyOp13
 70
     1
102
RTVSPropertyOp14
 70
     1
102
RTVSPropertyOp15
 70
     1
102
RTVSPropertyOp16
 70
     1
102
RTVSPropertyOp17
 70
     1
102
RTVSPropertyOp18
 70
     1
102
RTVSPropertyOp19
 70
     1
102
RTVSPropertyOp20
 70
     1
102
RTVSPropertyOp21
 70
     1
102
RTVSPropertyOp22
 70
     1
102
RTVSPropertyOp23
 70
     1
102
RTVSPropertyOp24
 70
     1
102
RTVSPropertyOp25
 70
     1
102
RTVSPropertyOp26
 70
     1
102
RTVSPropertyOp27
 70
     1
102
RTVSPropertyOp28
 70
     1
102
RTVSPropertyOp29
 70
     1
102
RTVSPropertyOp30
 70
     1
102
RTVSPropertyOp31
 70
     1
102
RTVSPropertyOp32
 70
     1
102
RTVSPropertyOp33
 70
     1
102
RTVSPropertyOp34
 70
     1
102
RTVSPropertyOp35
 70
     1
102
RTVSPropertyOp36
 70
     1
102
RTVSPropertyOp37
 70
     1
102
RTVSPropertyOp38
 70
     1
102
RTVSPropertyOp39
 70
     1
102
RTVSPropertyOp40
 70
     1
102
RTVSPropertyOp41
 70
     1
102
RTVSPropertyOp42
 70
     1
102
RTVSPropertyOp43
 70
     1
102
RTVSPropertyOp44
 70
     1
102
RTVSPropertyOp45
 70
     1
102
RTVSPropertyOp46
 70
     1
102
RTVSPropertyOp47
 70
     1
102
RTVSPropertyOp48
 70
     1
102
RTVSPropertyOp49
 70
     1
102
RTVSPropertyOp50
 70
     1
102
RTVSPropertyOp51
 70
     0
102
RTVSPropertyOp52
 70
     0
102
RTVSPropertyOp53
 70
     1
102
RTVSPropertyOp54
 70
     1
102
RTVSPropertyOp55
 70
     1
102
RTVSPropertyOp56
 70
     1
102
RTVSPropertyOp57
 70
     1
102
RTVSPropertyOp58
 70
     1
102
RTVSPropertyOp59
 70
     1
102
RTVSPropertyOp60
 70
     1
102
RTVSPropertyOp61
 70
     1
102
RTVSPropertyOp62
 70
     1
  0
XRECORD
  5
854B
102
{ACAD_REACTORS
330
854A
102
}
330
854A
100
AcDbXrecord
280
     1
102
RTVSPost2010Prop28
280
     0
102
RTVSPost2010PropOp28
 70
     1
102
RTVSPost2010Prop29
280
     1
102
RTVSPost2010PropOp29
 70
     1
102
RTVSPost2010Prop30
280
     1
102
RTVSPost2010PropOp30
 70
     1
102
RTVSPost2010Prop31
280
     0
102
RTVSPost2010PropOp31
 70
     1
102
RTVSPost2010Prop32
280
     0
102
RTVSPost2010PropOp32
 70
     1
102
RTVSPost2010Prop33
280
     0
102
RTVSPost2010PropOp33
 70
     1
102
RTVSPost2010Prop34
280
     0
102
RTVSPost2010PropOp34
 70
     1
102
RTVSPost2010Prop35
280
     0
102
RTVSPost2010PropOp35
 70
     1
102
RTVSPost2010Prop36
280
     0
102
RTVSPost2010PropOp36
 70
     1
102
RTVSPost2010Prop37
 90
       50
102
RTVSPost2010PropOp37
 70
     1
102
RTVSPost2010Prop38
140
0.0
102
RTVSPost2010PropOp38
 70
     1
102
RTVSPost2010Prop39
140
1.0
102
RTVSPost2010PropOp39
 70
     1
102
RTVSPost2010Prop40
 90
        0
102
RTVSPost2010PropOp40
 70
     1
102
RTVSPost2010Prop41ColorIndex
 90
       18
102
RTVSPost2010Prop41ColorRGB
 90
        0
102
RTVSPost2010PropOp41
 70
     1
102
RTVSPost2010Prop42
 90
       50
102
RTVSPost2010PropOp42
 70
     1
102
RTVSPost2010Prop43
 90
        3
102
RTVSPost2010PropOp43
 70
     1
102
RTVSPost2010Prop44ColorIndex
 90
        5
102
RTVSPost2010Prop44ColorRGB
 90
      255
102
RTVSPost2010PropOp44
 70
     1
102
RTVSPost2010Prop45
280
     0
102
RTVSPost2010PropOp45
 70
     1
102
RTVSPost2010Prop46
 90
       50
102
RTVSPost2010PropOp46
 70
     1
102
RTVSPost2010Prop47
 90
       50
102
RTVSPost2010PropOp47
 70
     1
102
RTVSPost2010Prop48
 90
       50
102
RTVSPost2010PropOp48
 70
     1
102
RTVSPost2010Prop49
280
     0
102
RTVSPost2010PropOp49
 70
     1
102
RTVSPost2010Prop50
 90
       50
102
RTVSPost2010PropOp50
 70
     1
102
RTVSPost2010Prop51ColorIndex
 90
      256
102
RTVSPost2010Prop51ColorRGB
 90
-16777216
102
RTVSPost2010PropOp51
 70
     0
102
RTVSPost2010Prop52
140
1.0
102
RTVSPost2010PropOp52
 70
     0
102
RTVSPost2010Prop53
 90
        2
102
RTVSPost2010PropOp53
 70
     1
102
RTVSPost2010Prop54
  1
strokes_ogs.tif
102
RTVSPost2010PropOp54
 70
     1
102
RTVSPost2010Prop55
280
     0
102
RTVSPost2010PropOp55
 70
     1
102
RTVSPost2010Prop56
140
1.0
102
RTVSPost2010PropOp56
 70
     1
102
RTVSPost2010Prop57
140
1.0
102
RTVSPost2010PropOp57
 70
     1
102
RTVSPropertyOp0
 70
     1
102
RTVSPropertyOp1
 70
     1
102
RTVSPropertyOp2
 70
     1
102
RTVSPropertyOp3
 70
     1
102
RTVSPropertyOp4
 70
     1
102
RTVSPropertyOp5
 70
     1
102
RTVSPropertyOp6
 70
     1
102
RTVSPropertyOp7
 70
     1
102
RTVSPropertyOp8
 70
     1
102
RTVSPropertyOp9
 70
     1
102
RTVSPropertyOp10
 70
     1
102
RTVSPropertyOp11
 70
     1
102
RTVSPropertyOp12
 70
     1
102
RTVSPropertyOp13
 70
     1
102
RTVSPropertyOp14
 70
     1
102
RTVSPropertyOp15
 70
     1
102
RTVSPropertyOp16
 70
     1
102
RTVSPropertyOp17
 70
     1
102
RTVSPropertyOp18
 70
     1
102
RTVSPropertyOp19
 70
     1
102
RTVSPropertyOp20
 70
     1
102
RTVSPropertyOp21
 70
     1
102
RTVSPropertyOp22
 70
     1
102
RTVSPropertyOp23
 70
     1
102
RTVSPropertyOp24
 70
     1
102
RTVSPropertyOp25
 70
     1
102
RTVSPropertyOp26
 70
     1
102
RTVSPropertyOp27
 70
     1
102
RTVSPropertyOp28
 70
     1
102
RTVSPropertyOp29
 70
     1
102
RTVSPropertyOp30
 70
     1
102
RTVSPropertyOp31
 70
     1
102
RTVSPropertyOp32
 70
     1
102
RTVSPropertyOp33
 70
     1
102
RTVSPropertyOp34
 70
     1
102
RTVSPropertyOp35
 70
     1
102
RTVSPropertyOp36
 70
     1
102
RTVSPropertyOp37
 70
     1
102
RTVSPropertyOp38
 70
     1
102
RTVSPropertyOp39
 70
     1
102
RTVSPropertyOp40
 70
     1
102
RTVSPropertyOp41
 70
     1
102
RTVSPropertyOp42
 70
     1
102
RTVSPropertyOp43
 70
     1
102
RTVSPropertyOp44
 70
     1
102
RTVSPropertyOp45
 70
     1
102
RTVSPropertyOp46
 70
     1
102
RTVSPropertyOp47
 70
     1
102
RTVSPropertyOp48
 70
     1
102
RTVSPropertyOp49
 70
     1
102
RTVSPropertyOp50
 70
     1
102
RTVSPropertyOp51
 70
     0
102
RTVSPropertyOp52
 70
     0
102
RTVSPropertyOp53
 70
     1
102
RTVSPropertyOp54
 70
     1
102
RTVSPropertyOp55
 70
     1
102
RTVSPropertyOp56
 70
     1
102
RTVSPropertyOp57
 70
     1
102
RTVSPropertyOp58
 70
     1
102
RTVSPropertyOp59
 70
     1
102
RTVSPropertyOp60
 70
     1
102
RTVSPropertyOp61
 70
     1
102
RTVSPropertyOp62
 70
     1
  0
XRECORD
  5
8553
102
{ACAD_REACTORS
330
8552
102
}
330
8552
100
AcDbXrecord
280
     1
102
RTVSPost2010Prop28
280
     0
102
RTVSPost2010PropOp28
 70
     1
102
RTVSPost2010Prop29
280
     1
102
RTVSPost2010PropOp29
 70
     1
102
RTVSPost2010Prop30
280
     1
102
RTVSPost2010PropOp30
 70
     1
102
RTVSPost2010Prop31
280
     0
102
RTVSPost2010PropOp31
 70
     1
102
RTVSPost2010Prop32
280
     0
102
RTVSPost2010PropOp32
 70
     1
102
RTVSPost2010Prop33
280
     0
102
RTVSPost2010PropOp33
 70
     1
102
RTVSPost2010Prop34
280
     0
102
RTVSPost2010PropOp34
 70
     1
102
RTVSPost2010Prop35
280
     0
102
RTVSPost2010PropOp35
 70
     1
102
RTVSPost2010Prop36
280
     0
102
RTVSPost2010PropOp36
 70
     1
102
RTVSPost2010Prop37
 90
       50
102
RTVSPost2010PropOp37
 70
     1
102
RTVSPost2010Prop38
140
0.0
102
RTVSPost2010PropOp38
 70
     1
102
RTVSPost2010Prop39
140
1.0
102
RTVSPost2010PropOp39
 70
     1
102
RTVSPost2010Prop40
 90
        0
102
RTVSPost2010PropOp40
 70
     1
102
RTVSPost2010Prop41ColorIndex
 90
       18
102
RTVSPost2010Prop41ColorRGB
 90
        0
102
RTVSPost2010PropOp41
 70
     1
102
RTVSPost2010Prop42
 90
       50
102
RTVSPost2010PropOp42
 70
     1
102
RTVSPost2010Prop43
 90
        3
102
RTVSPost2010PropOp43
 70
     1
102
RTVSPost2010Prop44ColorIndex
 90
        5
102
RTVSPost2010Prop44ColorRGB
 90
      255
102
RTVSPost2010PropOp44
 70
     1
102
RTVSPost2010Prop45
280
     0
102
RTVSPost2010PropOp45
 70
     1
102
RTVSPost2010Prop46
 90
       50
102
RTVSPost2010PropOp46
 70
     1
102
RTVSPost2010Prop47
 90
       50
102
RTVSPost2010PropOp47
 70
     1
102
RTVSPost2010Prop48
 90
       50
102
RTVSPost2010PropOp48
 70
     1
102
RTVSPost2010Prop49
280
     0
102
RTVSPost2010PropOp49
 70
     1
102
RTVSPost2010Prop50
 90
       50
102
RTVSPost2010PropOp50
 70
     1
102
RTVSPost2010Prop51ColorIndex
 90
      256
102
RTVSPost2010Prop51ColorRGB
 90
-16777216
102
RTVSPost2010PropOp51
 70
     0
102
RTVSPost2010Prop52
140
1.0
102
RTVSPost2010PropOp52
 70
     0
102
RTVSPost2010Prop53
 90
        2
102
RTVSPost2010PropOp53
 70
     1
102
RTVSPost2010Prop54
  1
strokes_ogs.tif
102
RTVSPost2010PropOp54
 70
     1
102
RTVSPost2010Prop55
280
     0
102
RTVSPost2010PropOp55
 70
     1
102
RTVSPost2010Prop56
140
1.0
102
RTVSPost2010PropOp56
 70
     1
102
RTVSPost2010Prop57
140
1.0
102
RTVSPost2010PropOp57
 70
     1
102
RTVSPropertyOp0
 70
     1
102
RTVSPropertyOp1
 70
     1
102
RTVSPropertyOp2
 70
     1
102
RTVSPropertyOp3
 70
     1
102
RTVSPropertyOp4
 70
     1
102
RTVSPropertyOp5
 70
     1
102
RTVSPropertyOp6
 70
     1
102
RTVSPropertyOp7
 70
     1
102
RTVSPropertyOp8
 70
     1
102
RTVSPropertyOp9
 70
     1
102
RTVSPropertyOp10
 70
     1
102
RTVSPropertyOp11
 70
     1
102
RTVSPropertyOp12
 70
     1
102
RTVSPropertyOp13
 70
     1
102
RTVSPropertyOp14
 70
     1
102
RTVSPropertyOp15
 70
     1
102
RTVSPropertyOp16
 70
     1
102
RTVSPropertyOp17
 70
     1
102
RTVSPropertyOp18
 70
     1
102
RTVSPropertyOp19
 70
     1
102
RTVSPropertyOp20
 70
     1
102
RTVSPropertyOp21
 70
     1
102
RTVSPropertyOp22
 70
     1
102
RTVSPropertyOp23
 70
     1
102
RTVSPropertyOp24
 70
     1
102
RTVSPropertyOp25
 70
     1
102
RTVSPropertyOp26
 70
     1
102
RTVSPropertyOp27
 70
     1
102
RTVSPropertyOp28
 70
     1
102
RTVSPropertyOp29
 70
     1
102
RTVSPropertyOp30
 70
     1
102
RTVSPropertyOp31
 70
     1
102
RTVSPropertyOp32
 70
     1
102
RTVSPropertyOp33
 70
     1
102
RTVSPropertyOp34
 70
     1
102
RTVSPropertyOp35
 70
     1
102
RTVSPropertyOp36
 70
     1
102
RTVSPropertyOp37
 70
     1
102
RTVSPropertyOp38
 70
     1
102
RTVSPropertyOp39
 70
     1
102
RTVSPropertyOp40
 70
     1
102
RTVSPropertyOp41
 70
     1
102
RTVSPropertyOp42
 70
     1
102
RTVSPropertyOp43
 70
     1
102
RTVSPropertyOp44
 70
     1
102
RTVSPropertyOp45
 70
     1
102
RTVSPropertyOp46
 70
     1
102
RTVSPropertyOp47
 70
     1
102
RTVSPropertyOp48
 70
     1
102
RTVSPropertyOp49
 70
     1
102
RTVSPropertyOp50
 70
     1
102
RTVSPropertyOp51
 70
     0
102
RTVSPropertyOp52
 70
     0
102
RTVSPropertyOp53
 70
     1
102
RTVSPropertyOp54
 70
     1
102
RTVSPropertyOp55
 70
     1
102
RTVSPropertyOp56
 70
     1
102
RTVSPropertyOp57
 70
     1
102
RTVSPropertyOp58
 70
     1
102
RTVSPropertyOp59
 70
     1
102
RTVSPropertyOp60
 70
     1
102
RTVSPropertyOp61
 70
     1
102
RTVSPropertyOp62
 70
     1
  0
XRECORD
  5
856F
102
{ACAD_REACTORS
330
856E
102
}
330
856E
100
AcDbXrecord
280
     1
102
RTVSPost2010Prop28
280
     0
102
RTVSPost2010PropOp28
 70
     0
102
RTVSPost2010Prop29
280
     1
102
RTVSPost2010PropOp29
 70
     0
102
RTVSPost2010Prop30
280
     1
102
RTVSPost2010PropOp30
 70
     0
102
RTVSPost2010Prop31
280
     0
102
RTVSPost2010PropOp31
 70
     0
102
RTVSPost2010Prop32
280
     0
102
RTVSPost2010PropOp32
 70
     0
102
RTVSPost2010Prop33
280
     0
102
RTVSPost2010PropOp33
 70
     0
102
RTVSPost2010Prop34
280
     0
102
RTVSPost2010PropOp34
 70
     0
102
RTVSPost2010Prop35
280
     0
102
RTVSPost2010PropOp35
 70
     0
102
RTVSPost2010Prop36
280
     0
102
RTVSPost2010PropOp36
 70
     0
102
RTVSPost2010Prop37
 90
       50
102
RTVSPost2010PropOp37
 70
     0
102
RTVSPost2010Prop38
140
0.0
102
RTVSPost2010PropOp38
 70
     0
102
RTVSPost2010Prop39
140
1.0
102
RTVSPost2010PropOp39
 70
     0
102
RTVSPost2010Prop40
 90
        0
102
RTVSPost2010PropOp40
 70
     0
102
RTVSPost2010Prop41ColorIndex
 90
       18
102
RTVSPost2010Prop41ColorRGB
 90
        0
102
RTVSPost2010PropOp41
 70
     0
102
RTVSPost2010Prop42
 90
       50
102
RTVSPost2010PropOp42
 70
     0
102
RTVSPost2010Prop43
 90
        3
102
RTVSPost2010PropOp43
 70
     0
102
RTVSPost2010Prop44ColorIndex
 90
        5
102
RTVSPost2010Prop44ColorRGB
 90
      255
102
RTVSPost2010PropOp44
 70
     0
102
RTVSPost2010Prop45
280
     0
102
RTVSPost2010PropOp45
 70
     0
102
RTVSPost2010Prop46
 90
       50
102
RTVSPost2010PropOp46
 70
     0
102
RTVSPost2010Prop47
 90
       50
102
RTVSPost2010PropOp47
 70
     0
102
RTVSPost2010Prop48
 90
       50
102
RTVSPost2010PropOp48
 70
     0
102
RTVSPost2010Prop49
280
     0
102
RTVSPost2010PropOp49
 70
     0
102
RTVSPost2010Prop50
 90
       50
102
RTVSPost2010PropOp50
 70
     0
102
RTVSPost2010Prop51ColorIndex
 90
      256
102
RTVSPost2010Prop51ColorRGB
 90
-16777216
102
RTVSPost2010PropOp51
 70
     0
102
RTVSPost2010Prop52
140
1.0
102
RTVSPost2010PropOp52
 70
     0
102
RTVSPost2010Prop53
 90
        2
102
RTVSPost2010PropOp53
 70
     0
102
RTVSPost2010Prop54
  1
strokes_ogs.tif
102
RTVSPost2010PropOp54
 70
     0
102
RTVSPost2010Prop55
280
     0
102
RTVSPost2010PropOp55
 70
     0
102
RTVSPost2010Prop56
140
1.0
102
RTVSPost2010PropOp56
 70
     0
102
RTVSPost2010Prop57
140
1.0
102
RTVSPost2010PropOp57
 70
     0
102
RTVSPropertyOp0
 70
     0
102
RTVSPropertyOp1
 70
     0
102
RTVSPropertyOp2
 70
     0
102
RTVSPropertyOp3
 70
     0
102
RTVSPropertyOp4
 70
     0
102
RTVSPropertyOp5
 70
     0
102
RTVSPropertyOp6
 70
     0
102
RTVSPropertyOp7
 70
     0
102
RTVSPropertyOp8
 70
     0
102
RTVSPropertyOp9
 70
     0
102
RTVSPropertyOp10
 70
     0
102
RTVSPropertyOp11
 70
     0
102
RTVSPropertyOp12
 70
     0
102
RTVSPropertyOp13
 70
     0
102
RTVSPropertyOp14
 70
     2
102
RTVSPropertyOp15
 70
     0
102
RTVSPropertyOp16
 70
     0
102
RTVSPropertyOp17
 70
     0
102
RTVSPropertyOp18
 70
     0
102
RTVSPropertyOp19
 70
     0
102
RTVSPropertyOp20
 70
     0
102
RTVSPropertyOp21
 70
     0
102
RTVSPropertyOp22
 70
     0
102
RTVSPropertyOp23
 70
     0
102
RTVSPropertyOp24
 70
     0
102
RTVSPropertyOp25
 70
     0
102
RTVSPropertyOp26
 70
     0
102
RTVSPropertyOp27
 70
     0
102
RTVSPropertyOp28
 70
     0
102
RTVSPropertyOp29
 70
     0
102
RTVSPropertyOp30
 70
     0
102
RTVSPropertyOp31
 70
     0
102
RTVSPropertyOp32
 70
     0
102
RTVSPropertyOp33
 70
     0
102
RTVSPropertyOp34
 70
     0
102
RTVSPropertyOp35
 70
     0
102
RTVSPropertyOp36
 70
     0
102
RTVSPropertyOp37
 70
     0
102
RTVSPropertyOp38
 70
     0
102
RTVSPropertyOp39
 70
     0
102
RTVSPropertyOp40
 70
     0
102
RTVSPropertyOp41
 70
     0
102
RTVSPropertyOp42
 70
     0
102
RTVSPropertyOp43
 70
     0
102
RTVSPropertyOp44
 70
     0
102
RTVSPropertyOp45
 70
     0
102
RTVSPropertyOp46
 70
     0
102
RTVSPropertyOp47
 70
     0
102
RTVSPropertyOp48
 70
     0
102
RTVSPropertyOp49
 70
     0
102
RTVSPropertyOp50
 70
     0
102
RTVSPropertyOp51
 70
     0
102
RTVSPropertyOp52
 70
     0
102
RTVSPropertyOp53
 70
     0
102
RTVSPropertyOp54
 70
     0
102
RTVSPropertyOp55
 70
     0
102
RTVSPropertyOp56
 70
     0
102
RTVSPropertyOp57
 70
     0
102
RTVSPropertyOp58
 70
     0
102
RTVSPropertyOp59
 70
     0
102
RTVSPropertyOp60
 70
     0
102
RTVSPropertyOp61
 70
     0
102
RTVSPropertyOp62
 70
     0
  0
XRECORD
  5
855F
102
{ACAD_REACTORS
330
855E
102
}
330
855E
100
AcDbXrecord
280
     1
102
RTVSPost2010Prop28
280
     0
102
RTVSPost2010PropOp28
 70
     1
102
RTVSPost2010Prop29
280
     1
102
RTVSPost2010PropOp29
 70
     1
102
RTVSPost2010Prop30
280
     1
102
RTVSPost2010PropOp30
 70
     1
102
RTVSPost2010Prop31
280
     0
102
RTVSPost2010PropOp31
 70
     1
102
RTVSPost2010Prop32
280
     0
102
RTVSPost2010PropOp32
 70
     1
102
RTVSPost2010Prop33
280
     0
102
RTVSPost2010PropOp33
 70
     1
102
RTVSPost2010Prop34
280
     0
102
RTVSPost2010PropOp34
 70
     1
102
RTVSPost2010Prop35
280
     0
102
RTVSPost2010PropOp35
 70
     1
102
RTVSPost2010Prop36
280
     0
102
RTVSPost2010PropOp36
 70
     1
102
RTVSPost2010Prop37
 90
       50
102
RTVSPost2010PropOp37
 70
     1
102
RTVSPost2010Prop38
140
0.0
102
RTVSPost2010PropOp38
 70
     1
102
RTVSPost2010Prop39
140
1.0
102
RTVSPost2010PropOp39
 70
     1
102
RTVSPost2010Prop40
 90
        0
102
RTVSPost2010PropOp40
 70
     1
102
RTVSPost2010Prop41ColorIndex
 90
       18
102
RTVSPost2010Prop41ColorRGB
 90
        0
102
RTVSPost2010PropOp41
 70
     1
102
RTVSPost2010Prop42
 90
       50
102
RTVSPost2010PropOp42
 70
     1
102
RTVSPost2010Prop43
 90
        3
102
RTVSPost2010PropOp43
 70
     1
102
RTVSPost2010Prop44ColorIndex
 90
        5
102
RTVSPost2010Prop44ColorRGB
 90
      255
102
RTVSPost2010PropOp44
 70
     1
102
RTVSPost2010Prop45
280
     0
102
RTVSPost2010PropOp45
 70
     1
102
RTVSPost2010Prop46
 90
       50
102
RTVSPost2010PropOp46
 70
     1
102
RTVSPost2010Prop47
 90
       50
102
RTVSPost2010PropOp47
 70
     1
102
RTVSPost2010Prop48
 90
       50
102
RTVSPost2010PropOp48
 70
     1
102
RTVSPost2010Prop49
280
     0
102
RTVSPost2010PropOp49
 70
     1
102
RTVSPost2010Prop50
 90
       50
102
RTVSPost2010PropOp50
 70
     1
102
RTVSPost2010Prop51ColorIndex
 90
      256
102
RTVSPost2010Prop51ColorRGB
 90
-16777216
102
RTVSPost2010PropOp51
 70
     0
102
RTVSPost2010Prop52
140
1.0
102
RTVSPost2010PropOp52
 70
     0
102
RTVSPost2010Prop53
 90
        2
102
RTVSPost2010PropOp53
 70
     1
102
RTVSPost2010Prop54
  1
strokes_ogs.tif
102
RTVSPost2010PropOp54
 70
     1
102
RTVSPost2010Prop55
280
     0
102
RTVSPost2010PropOp55
 70
     1
102
RTVSPost2010Prop56
140
1.0
102
RTVSPost2010PropOp56
 70
     1
102
RTVSPost2010Prop57
140
1.0
102
RTVSPost2010PropOp57
 70
     1
102
RTVSPropertyOp0
 70
     1
102
RTVSPropertyOp1
 70
     1
102
RTVSPropertyOp2
 70
     1
102
RTVSPropertyOp3
 70
     1
102
RTVSPropertyOp4
 70
     1
102
RTVSPropertyOp5
 70
     1
102
RTVSPropertyOp6
 70
     1
102
RTVSPropertyOp7
 70
     1
102
RTVSPropertyOp8
 70
     1
102
RTVSPropertyOp9
 70
     1
102
RTVSPropertyOp10
 70
     1
102
RTVSPropertyOp11
 70
     1
102
RTVSPropertyOp12
 70
     1
102
RTVSPropertyOp13
 70
     1
102
RTVSPropertyOp14
 70
     1
102
RTVSPropertyOp15
 70
     1
102
RTVSPropertyOp16
 70
     1
102
RTVSPropertyOp17
 70
     1
102
RTVSPropertyOp18
 70
     1
102
RTVSPropertyOp19
 70
     1
102
RTVSPropertyOp20
 70
     1
102
RTVSPropertyOp21
 70
     1
102
RTVSPropertyOp22
 70
     1
102
RTVSPropertyOp23
 70
     1
102
RTVSPropertyOp24
 70
     1
102
RTVSPropertyOp25
 70
     1
102
RTVSPropertyOp26
 70
     1
102
RTVSPropertyOp27
 70
     1
102
RTVSPropertyOp28
 70
     1
102
RTVSPropertyOp29
 70
     1
102
RTVSPropertyOp30
 70
     1
102
RTVSPropertyOp31
 70
     1
102
RTVSPropertyOp32
 70
     1
102
RTVSPropertyOp33
 70
     1
102
RTVSPropertyOp34
 70
     1
102
RTVSPropertyOp35
 70
     1
102
RTVSPropertyOp36
 70
     1
102
RTVSPropertyOp37
 70
     1
102
RTVSPropertyOp38
 70
     1
102
RTVSPropertyOp39
 70
     1
102
RTVSPropertyOp40
 70
     1
102
RTVSPropertyOp41
 70
     1
102
RTVSPropertyOp42
 70
     1
102
RTVSPropertyOp43
 70
     1
102
RTVSPropertyOp44
 70
     1
102
RTVSPropertyOp45
 70
     1
102
RTVSPropertyOp46
 70
     1
102
RTVSPropertyOp47
 70
     1
102
RTVSPropertyOp48
 70
     1
102
RTVSPropertyOp49
 70
     1
102
RTVSPropertyOp50
 70
     1
102
RTVSPropertyOp51
 70
     0
102
RTVSPropertyOp52
 70
     0
102
RTVSPropertyOp53
 70
     1
102
RTVSPropertyOp54
 70
     1
102
RTVSPropertyOp55
 70
     1
102
RTVSPropertyOp56
 70
     1
102
RTVSPropertyOp57
 70
     1
102
RTVSPropertyOp58
 70
     1
102
RTVSPropertyOp59
 70
     1
102
RTVSPropertyOp60
 70
     1
102
RTVSPropertyOp61
 70
     1
102
RTVSPropertyOp62
 70
     1
  0
XRECORD
  5
8571
102
{ACAD_REACTORS
330
8570
102
}
330
8570
100
AcDbXrecord
280
     1
102
RTVSPost2010Prop28
280
     0
102
RTVSPost2010PropOp28
 70
     0
102
RTVSPost2010Prop29
280
     1
102
RTVSPost2010PropOp29
 70
     0
102
RTVSPost2010Prop30
280
     1
102
RTVSPost2010PropOp30
 70
     0
102
RTVSPost2010Prop31
280
     0
102
RTVSPost2010PropOp31
 70
     0
102
RTVSPost2010Prop32
280
     0
102
RTVSPost2010PropOp32
 70
     0
102
RTVSPost2010Prop33
280
     0
102
RTVSPost2010PropOp33
 70
     0
102
RTVSPost2010Prop34
280
     0
102
RTVSPost2010PropOp34
 70
     0
102
RTVSPost2010Prop35
280
     0
102
RTVSPost2010PropOp35
 70
     0
102
RTVSPost2010Prop36
280
     0
102
RTVSPost2010PropOp36
 70
     0
102
RTVSPost2010Prop37
 90
       50
102
RTVSPost2010PropOp37
 70
     0
102
RTVSPost2010Prop38
140
0.0
102
RTVSPost2010PropOp38
 70
     0
102
RTVSPost2010Prop39
140
1.0
102
RTVSPost2010PropOp39
 70
     0
102
RTVSPost2010Prop40
 90
        0
102
RTVSPost2010PropOp40
 70
     0
102
RTVSPost2010Prop41ColorIndex
 90
       18
102
RTVSPost2010Prop41ColorRGB
 90
        0
102
RTVSPost2010PropOp41
 70
     0
102
RTVSPost2010Prop42
 90
       50
102
RTVSPost2010PropOp42
 70
     0
102
RTVSPost2010Prop43
 90
        3
102
RTVSPost2010PropOp43
 70
     0
102
RTVSPost2010Prop44ColorIndex
 90
        5
102
RTVSPost2010Prop44ColorRGB
 90
      255
102
RTVSPost2010PropOp44
 70
     0
102
RTVSPost2010Prop45
280
     0
102
RTVSPost2010PropOp45
 70
     0
102
RTVSPost2010Prop46
 90
       50
102
RTVSPost2010PropOp46
 70
     0
102
RTVSPost2010Prop47
 90
       50
102
RTVSPost2010PropOp47
 70
     0
102
RTVSPost2010Prop48
 90
       50
102
RTVSPost2010PropOp48
 70
     0
102
RTVSPost2010Prop49
280
     0
102
RTVSPost2010PropOp49
 70
     0
102
RTVSPost2010Prop50
 90
       50
102
RTVSPost2010PropOp50
 70
     0
102
RTVSPost2010Prop51ColorIndex
 90
      256
102
RTVSPost2010Prop51ColorRGB
 90
-16777216
102
RTVSPost2010PropOp51
 70
     0
102
RTVSPost2010Prop52
140
1.0
102
RTVSPost2010PropOp52
 70
     0
102
RTVSPost2010Prop53
 90
        2
102
RTVSPost2010PropOp53
 70
     0
102
RTVSPost2010Prop54
  1
strokes_ogs.tif
102
RTVSPost2010PropOp54
 70
     0
102
RTVSPost2010Prop55
280
     0
102
RTVSPost2010PropOp55
 70
     0
102
RTVSPost2010Prop56
140
1.0
102
RTVSPost2010PropOp56
 70
     0
102
RTVSPost2010Prop57
140
1.0
102
RTVSPost2010PropOp57
 70
     0
102
RTVSPropertyOp0
 70
     0
102
RTVSPropertyOp1
 70
     0
102
RTVSPropertyOp2
 70
     0
102
RTVSPropertyOp3
 70
     0
102
RTVSPropertyOp4
 70
     0
102
RTVSPropertyOp5
 70
     0
102
RTVSPropertyOp6
 70
     0
102
RTVSPropertyOp7
 70
     0
102
RTVSPropertyOp8
 70
     0
102
RTVSPropertyOp9
 70
     0
102
RTVSPropertyOp10
 70
     0
102
RTVSPropertyOp11
 70
     0
102
RTVSPropertyOp12
 70
     0
102
RTVSPropertyOp13
 70
     0
102
RTVSPropertyOp14
 70
     2
102
RTVSPropertyOp15
 70
     0
102
RTVSPropertyOp16
 70
     0
102
RTVSPropertyOp17
 70
     0
102
RTVSPropertyOp18
 70
     0
102
RTVSPropertyOp19
 70
     0
102
RTVSPropertyOp20
 70
     0
102
RTVSPropertyOp21
 70
     0
102
RTVSPropertyOp22
 70
     0
102
RTVSPropertyOp23
 70
     0
102
RTVSPropertyOp24
 70
     0
102
RTVSPropertyOp25
 70
     0
102
RTVSPropertyOp26
 70
     0
102
RTVSPropertyOp27
 70
     0
102
RTVSPropertyOp28
 70
     0
102
RTVSPropertyOp29
 70
     0
102
RTVSPropertyOp30
 70
     0
102
RTVSPropertyOp31
 70
     0
102
RTVSPropertyOp32
 70
     0
102
RTVSPropertyOp33
 70
     0
102
RTVSPropertyOp34
 70
     0
102
RTVSPropertyOp35
 70
     0
102
RTVSPropertyOp36
 70
     0
102
RTVSPropertyOp37
 70
     0
102
RTVSPropertyOp38
 70
     0
102
RTVSPropertyOp39
 70
     0
102
RTVSPropertyOp40
 70
     0
102
RTVSPropertyOp41
 70
     0
102
RTVSPropertyOp42
 70
     0
102
RTVSPropertyOp43
 70
     0
102
RTVSPropertyOp44
 70
     0
102
RTVSPropertyOp45
 70
     0
102
RTVSPropertyOp46
 70
     0
102
RTVSPropertyOp47
 70
     0
102
RTVSPropertyOp48
 70
     0
102
RTVSPropertyOp49
 70
     0
102
RTVSPropertyOp50
 70
     0
102
RTVSPropertyOp51
 70
     0
102
RTVSPropertyOp52
 70
     0
102
RTVSPropertyOp53
 70
     0
102
RTVSPropertyOp54
 70
     0
102
RTVSPropertyOp55
 70
     0
102
RTVSPropertyOp56
 70
     0
102
RTVSPropertyOp57
 70
     0
102
RTVSPropertyOp58
 70
     0
102
RTVSPropertyOp59
 70
     0
102
RTVSPropertyOp60
 70
     0
102
RTVSPropertyOp61
 70
     0
102
RTVSPropertyOp62
 70
     0
  0
XRECORD
  5
8557
102
{ACAD_REACTORS
330
8556
102
}
330
8556
100
AcDbXrecord
280
     1
102
RTVSPost2010Prop28
280
     0
102
RTVSPost2010PropOp28
 70
     1
102
RTVSPost2010Prop29
280
     1
102
RTVSPost2010PropOp29
 70
     1
102
RTVSPost2010Prop30
280
     1
102
RTVSPost2010PropOp30
 70
     1
102
RTVSPost2010Prop31
280
     0
102
RTVSPost2010PropOp31
 70
     1
102
RTVSPost2010Prop32
280
     0
102
RTVSPost2010PropOp32
 70
     1
102
RTVSPost2010Prop33
280
     0
102
RTVSPost2010PropOp33
 70
     1
102
RTVSPost2010Prop34
280
     0
102
RTVSPost2010PropOp34
 70
     1
102
RTVSPost2010Prop35
280
     0
102
RTVSPost2010PropOp35
 70
     1
102
RTVSPost2010Prop36
280
     0
102
RTVSPost2010PropOp36
 70
     1
102
RTVSPost2010Prop37
 90
       50
102
RTVSPost2010PropOp37
 70
     1
102
RTVSPost2010Prop38
140
0.0
102
RTVSPost2010PropOp38
 70
     1
102
RTVSPost2010Prop39
140
1.0
102
RTVSPost2010PropOp39
 70
     1
102
RTVSPost2010Prop40
 90
        0
102
RTVSPost2010PropOp40
 70
     1
102
RTVSPost2010Prop41ColorIndex
 90
       18
102
RTVSPost2010Prop41ColorRGB
 90
        0
102
RTVSPost2010PropOp41
 70
     1
102
RTVSPost2010Prop42
 90
       50
102
RTVSPost2010PropOp42
 70
     1
102
RTVSPost2010Prop43
 90
        3
102
RTVSPost2010PropOp43
 70
     1
102
RTVSPost2010Prop44ColorIndex
 90
        5
102
RTVSPost2010Prop44ColorRGB
 90
      255
102
RTVSPost2010PropOp44
 70
     1
102
RTVSPost2010Prop45
280
     0
102
RTVSPost2010PropOp45
 70
     1
102
RTVSPost2010Prop46
 90
       50
102
RTVSPost2010PropOp46
 70
     1
102
RTVSPost2010Prop47
 90
       50
102
RTVSPost2010PropOp47
 70
     1
102
RTVSPost2010Prop48
 90
       50
102
RTVSPost2010PropOp48
 70
     1
102
RTVSPost2010Prop49
280
     0
102
RTVSPost2010PropOp49
 70
     1
102
RTVSPost2010Prop50
 90
       50
102
RTVSPost2010PropOp50
 70
     1
102
RTVSPost2010Prop51ColorIndex
 90
      256
102
RTVSPost2010Prop51ColorRGB
 90
-16777216
102
RTVSPost2010PropOp51
 70
     0
102
RTVSPost2010Prop52
140
1.0
102
RTVSPost2010PropOp52
 70
     0
102
RTVSPost2010Prop53
 90
        2
102
RTVSPost2010PropOp53
 70
     1
102
RTVSPost2010Prop54
  1
strokes_ogs.tif
102
RTVSPost2010PropOp54
 70
     1
102
RTVSPost2010Prop55
280
     0
102
RTVSPost2010PropOp55
 70
     1
102
RTVSPost2010Prop56
140
1.0
102
RTVSPost2010PropOp56
 70
     1
102
RTVSPost2010Prop57
140
1.0
102
RTVSPost2010PropOp57
 70
     1
102
RTVSPropertyOp0
 70
     1
102
RTVSPropertyOp1
 70
     1
102
RTVSPropertyOp2
 70
     1
102
RTVSPropertyOp3
 70
     1
102
RTVSPropertyOp4
 70
     1
102
RTVSPropertyOp5
 70
     1
102
RTVSPropertyOp6
 70
     1
102
RTVSPropertyOp7
 70
     1
102
RTVSPropertyOp8
 70
     1
102
RTVSPropertyOp9
 70
     1
102
RTVSPropertyOp10
 70
     1
102
RTVSPropertyOp11
 70
     1
102
RTVSPropertyOp12
 70
     1
102
RTVSPropertyOp13
 70
     1
102
RTVSPropertyOp14
 70
     1
102
RTVSPropertyOp15
 70
     1
102
RTVSPropertyOp16
 70
     1
102
RTVSPropertyOp17
 70
     1
102
RTVSPropertyOp18
 70
     1
102
RTVSPropertyOp19
 70
     1
102
RTVSPropertyOp20
 70
     1
102
RTVSPropertyOp21
 70
     1
102
RTVSPropertyOp22
 70
     1
102
RTVSPropertyOp23
 70
     1
102
RTVSPropertyOp24
 70
     1
102
RTVSPropertyOp25
 70
     1
102
RTVSPropertyOp26
 70
     1
102
RTVSPropertyOp27
 70
     1
102
RTVSPropertyOp28
 70
     1
102
RTVSPropertyOp29
 70
     1
102
RTVSPropertyOp30
 70
     1
102
RTVSPropertyOp31
 70
     1
102
RTVSPropertyOp32
 70
     1
102
RTVSPropertyOp33
 70
     1
102
RTVSPropertyOp34
 70
     1
102
RTVSPropertyOp35
 70
     1
102
RTVSPropertyOp36
 70
     1
102
RTVSPropertyOp37
 70
     1
102
RTVSPropertyOp38
 70
     1
102
RTVSPropertyOp39
 70
     1
102
RTVSPropertyOp40
 70
     1
102
RTVSPropertyOp41
 70
     1
102
RTVSPropertyOp42
 70
     1
102
RTVSPropertyOp43
 70
     1
102
RTVSPropertyOp44
 70
     1
102
RTVSPropertyOp45
 70
     1
102
RTVSPropertyOp46
 70
     1
102
RTVSPropertyOp47
 70
     1
102
RTVSPropertyOp48
 70
     1
102
RTVSPropertyOp49
 70
     1
102
RTVSPropertyOp50
 70
     1
102
RTVSPropertyOp51
 70
     0
102
RTVSPropertyOp52
 70
     0
102
RTVSPropertyOp53
 70
     1
102
RTVSPropertyOp54
 70
     1
102
RTVSPropertyOp55
 70
     1
102
RTVSPropertyOp56
 70
     1
102
RTVSPropertyOp57
 70
     1
102
RTVSPropertyOp58
 70
     1
102
RTVSPropertyOp59
 70
     1
102
RTVSPropertyOp60
 70
     1
102
RTVSPropertyOp61
 70
     1
102
RTVSPropertyOp62
 70
     1
  0
XRECORD
  5
856D
102
{ACAD_REACTORS
330
856C
102
}
330
856C
100
AcDbXrecord
280
     1
102
RTVSPost2010Prop28
280
     0
102
RTVSPost2010PropOp28
 70
     1
102
RTVSPost2010Prop29
280
     1
102
RTVSPost2010PropOp29
 70
     1
102
RTVSPost2010Prop30
280
     1
102
RTVSPost2010PropOp30
 70
     1
102
RTVSPost2010Prop31
280
     0
102
RTVSPost2010PropOp31
 70
     1
102
RTVSPost2010Prop32
280
     0
102
RTVSPost2010PropOp32
 70
     1
102
RTVSPost2010Prop33
280
     0
102
RTVSPost2010PropOp33
 70
     1
102
RTVSPost2010Prop34
280
     0
102
RTVSPost2010PropOp34
 70
     1
102
RTVSPost2010Prop35
280
     0
102
RTVSPost2010PropOp35
 70
     1
102
RTVSPost2010Prop36
280
     0
102
RTVSPost2010PropOp36
 70
     1
102
RTVSPost2010Prop37
 90
       50
102
RTVSPost2010PropOp37
 70
     1
102
RTVSPost2010Prop38
140
0.0
102
RTVSPost2010PropOp38
 70
     1
102
RTVSPost2010Prop39
140
1.0
102
RTVSPost2010PropOp39
 70
     1
102
RTVSPost2010Prop40
 90
        0
102
RTVSPost2010PropOp40
 70
     1
102
RTVSPost2010Prop41ColorIndex
 90
       18
102
RTVSPost2010Prop41ColorRGB
 90
        0
102
RTVSPost2010PropOp41
 70
     1
102
RTVSPost2010Prop42
 90
       50
102
RTVSPost2010PropOp42
 70
     1
102
RTVSPost2010Prop43
 90
        3
102
RTVSPost2010PropOp43
 70
     1
102
RTVSPost2010Prop44ColorIndex
 90
        5
102
RTVSPost2010Prop44ColorRGB
 90
      255
102
RTVSPost2010PropOp44
 70
     1
102
RTVSPost2010Prop45
280
     0
102
RTVSPost2010PropOp45
 70
     1
102
RTVSPost2010Prop46
 90
       50
102
RTVSPost2010PropOp46
 70
     1
102
RTVSPost2010Prop47
 90
       50
102
RTVSPost2010PropOp47
 70
     1
102
RTVSPost2010Prop48
 90
       50
102
RTVSPost2010PropOp48
 70
     1
102
RTVSPost2010Prop49
280
     0
102
RTVSPost2010PropOp49
 70
     1
102
RTVSPost2010Prop50
 90
       50
102
RTVSPost2010PropOp50
 70
     1
102
RTVSPost2010Prop51ColorIndex
 90
      256
102
RTVSPost2010Prop51ColorRGB
 90
-16777216
102
RTVSPost2010PropOp51
 70
     0
102
RTVSPost2010Prop52
140
1.0
102
RTVSPost2010PropOp52
 70
     0
102
RTVSPost2010Prop53
 90
        2
102
RTVSPost2010PropOp53
 70
     1
102
RTVSPost2010Prop54
  1
strokes_ogs.tif
102
RTVSPost2010PropOp54
 70
     1
102
RTVSPost2010Prop55
280
     0
102
RTVSPost2010PropOp55
 70
     1
102
RTVSPost2010Prop56
140
1.0
102
RTVSPost2010PropOp56
 70
     1
102
RTVSPost2010Prop57
140
1.0
102
RTVSPost2010PropOp57
 70
     1
102
RTVSPropertyOp0
 70
     1
102
RTVSPropertyOp1
 70
     1
102
RTVSPropertyOp2
 70
     1
102
RTVSPropertyOp3
 70
     1
102
RTVSPropertyOp4
 70
     1
102
RTVSPropertyOp5
 70
     1
102
RTVSPropertyOp6
 70
     1
102
RTVSPropertyOp7
 70
     1
102
RTVSPropertyOp8
 70
     1
102
RTVSPropertyOp9
 70
     1
102
RTVSPropertyOp10
 70
     1
102
RTVSPropertyOp11
 70
     1
102
RTVSPropertyOp12
 70
     1
102
RTVSPropertyOp13
 70
     1
102
RTVSPropertyOp14
 70
     1
102
RTVSPropertyOp15
 70
     1
102
RTVSPropertyOp16
 70
     1
102
RTVSPropertyOp17
 70
     1
102
RTVSPropertyOp18
 70
     1
102
RTVSPropertyOp19
 70
     1
102
RTVSPropertyOp20
 70
     1
102
RTVSPropertyOp21
 70
     1
102
RTVSPropertyOp22
 70
     1
102
RTVSPropertyOp23
 70
     1
102
RTVSPropertyOp24
 70
     1
102
RTVSPropertyOp25
 70
     1
102
RTVSPropertyOp26
 70
     1
102
RTVSPropertyOp27
 70
     1
102
RTVSPropertyOp28
 70
     1
102
RTVSPropertyOp29
 70
     1
102
RTVSPropertyOp30
 70
     1
102
RTVSPropertyOp31
 70
     1
102
RTVSPropertyOp32
 70
     1
102
RTVSPropertyOp33
 70
     1
102
RTVSPropertyOp34
 70
     1
102
RTVSPropertyOp35
 70
     1
102
RTVSPropertyOp36
 70
     1
102
RTVSPropertyOp37
 70
     1
102
RTVSPropertyOp38
 70
     1
102
RTVSPropertyOp39
 70
     1
102
RTVSPropertyOp40
 70
     1
102
RTVSPropertyOp41
 70
     1
102
RTVSPropertyOp42
 70
     1
102
RTVSPropertyOp43
 70
     1
102
RTVSPropertyOp44
 70
     1
102
RTVSPropertyOp45
 70
     1
102
RTVSPropertyOp46
 70
     1
102
RTVSPropertyOp47
 70
     1
102
RTVSPropertyOp48
 70
     1
102
RTVSPropertyOp49
 70
     1
102
RTVSPropertyOp50
 70
     1
102
RTVSPropertyOp51
 70
     0
102
RTVSPropertyOp52
 70
     0
102
RTVSPropertyOp53
 70
     1
102
RTVSPropertyOp54
 70
     1
102
RTVSPropertyOp55
 70
     1
102
RTVSPropertyOp56
 70
     1
102
RTVSPropertyOp57
 70
     1
102
RTVSPropertyOp58
 70
     1
102
RTVSPropertyOp59
 70
     1
102
RTVSPropertyOp60
 70
     1
102
RTVSPropertyOp61
 70
     1
102
RTVSPropertyOp62
 70
     1
  0
XRECORD
  5
856B
102
{ACAD_REACTORS
330
856A
102
}
330
856A
100
AcDbXrecord
280
     1
102
RTVSPost2010Prop28
280
     0
102
RTVSPost2010PropOp28
 70
     1
102
RTVSPost2010Prop29
280
     1
102
RTVSPost2010PropOp29
 70
     1
102
RTVSPost2010Prop30
280
     1
102
RTVSPost2010PropOp30
 70
     1
102
RTVSPost2010Prop31
280
     0
102
RTVSPost2010PropOp31
 70
     1
102
RTVSPost2010Prop32
280
     0
102
RTVSPost2010PropOp32
 70
     1
102
RTVSPost2010Prop33
280
     0
102
RTVSPost2010PropOp33
 70
     1
102
RTVSPost2010Prop34
280
     0
102
RTVSPost2010PropOp34
 70
     1
102
RTVSPost2010Prop35
280
     0
102
RTVSPost2010PropOp35
 70
     1
102
RTVSPost2010Prop36
280
     0
102
RTVSPost2010PropOp36
 70
     1
102
RTVSPost2010Prop37
 90
       50
102
RTVSPost2010PropOp37
 70
     1
102
RTVSPost2010Prop38
140
0.0
102
RTVSPost2010PropOp38
 70
     1
102
RTVSPost2010Prop39
140
1.0
102
RTVSPost2010PropOp39
 70
     1
102
RTVSPost2010Prop40
 90
        0
102
RTVSPost2010PropOp40
 70
     1
102
RTVSPost2010Prop41ColorIndex
 90
       18
102
RTVSPost2010Prop41ColorRGB
 90
        0
102
RTVSPost2010PropOp41
 70
     1
102
RTVSPost2010Prop42
 90
       50
102
RTVSPost2010PropOp42
 70
     1
102
RTVSPost2010Prop43
 90
        3
102
RTVSPost2010PropOp43
 70
     1
102
RTVSPost2010Prop44ColorIndex
 90
        5
102
RTVSPost2010Prop44ColorRGB
 90
      255
102
RTVSPost2010PropOp44
 70
     1
102
RTVSPost2010Prop45
280
     0
102
RTVSPost2010PropOp45
 70
     1
102
RTVSPost2010Prop46
 90
       50
102
RTVSPost2010PropOp46
 70
     1
102
RTVSPost2010Prop47
 90
       50
102
RTVSPost2010PropOp47
 70
     1
102
RTVSPost2010Prop48
 90
       50
102
RTVSPost2010PropOp48
 70
     1
102
RTVSPost2010Prop49
280
     0
102
RTVSPost2010PropOp49
 70
     1
102
RTVSPost2010Prop50
 90
       50
102
RTVSPost2010PropOp50
 70
     1
102
RTVSPost2010Prop51ColorIndex
 90
      256
102
RTVSPost2010Prop51ColorRGB
 90
-16777216
102
RTVSPost2010PropOp51
 70
     0
102
RTVSPost2010Prop52
140
1.0
102
RTVSPost2010PropOp52
 70
     0
102
RTVSPost2010Prop53
 90
        2
102
RTVSPost2010PropOp53
 70
     1
102
RTVSPost2010Prop54
  1
strokes_ogs.tif
102
RTVSPost2010PropOp54
 70
     1
102
RTVSPost2010Prop55
280
     0
102
RTVSPost2010PropOp55
 70
     1
102
RTVSPost2010Prop56
140
1.0
102
RTVSPost2010PropOp56
 70
     1
102
RTVSPost2010Prop57
140
1.0
102
RTVSPost2010PropOp57
 70
     1
102
RTVSPropertyOp0
 70
     1
102
RTVSPropertyOp1
 70
     1
102
RTVSPropertyOp2
 70
     1
102
RTVSPropertyOp3
 70
     1
102
RTVSPropertyOp4
 70
     1
102
RTVSPropertyOp5
 70
     1
102
RTVSPropertyOp6
 70
     1
102
RTVSPropertyOp7
 70
     1
102
RTVSPropertyOp8
 70
     1
102
RTVSPropertyOp9
 70
     1
102
RTVSPropertyOp10
 70
     1
102
RTVSPropertyOp11
 70
     1
102
RTVSPropertyOp12
 70
     1
102
RTVSPropertyOp13
 70
     1
102
RTVSPropertyOp14
 70
     1
102
RTVSPropertyOp15
 70
     1
102
RTVSPropertyOp16
 70
     1
102
RTVSPropertyOp17
 70
     1
102
RTVSPropertyOp18
 70
     1
102
RTVSPropertyOp19
 70
     1
102
RTVSPropertyOp20
 70
     1
102
RTVSPropertyOp21
 70
     1
102
RTVSPropertyOp22
 70
     1
102
RTVSPropertyOp23
 70
     1
102
RTVSPropertyOp24
 70
     1
102
RTVSPropertyOp25
 70
     1
102
RTVSPropertyOp26
 70
     1
102
RTVSPropertyOp27
 70
     1
102
RTVSPropertyOp28
 70
     1
102
RTVSPropertyOp29
 70
     1
102
RTVSPropertyOp30
 70
     1
102
RTVSPropertyOp31
 70
     1
102
RTVSPropertyOp32
 70
     1
102
RTVSPropertyOp33
 70
     1
102
RTVSPropertyOp34
 70
     1
102
RTVSPropertyOp35
 70
     1
102
RTVSPropertyOp36
 70
     1
102
RTVSPropertyOp37
 70
     1
102
RTVSPropertyOp38
 70
     1
102
RTVSPropertyOp39
 70
     1
102
RTVSPropertyOp40
 70
     1
102
RTVSPropertyOp41
 70
     1
102
RTVSPropertyOp42
 70
     1
102
RTVSPropertyOp43
 70
     1
102
RTVSPropertyOp44
 70
     1
102
RTVSPropertyOp45
 70
     1
102
RTVSPropertyOp46
 70
     1
102
RTVSPropertyOp47
 70
     1
102
RTVSPropertyOp48
 70
     1
102
RTVSPropertyOp49
 70
     1
102
RTVSPropertyOp50
 70
     1
102
RTVSPropertyOp51
 70
     0
102
RTVSPropertyOp52
 70
     0
102
RTVSPropertyOp53
 70
     1
102
RTVSPropertyOp54
 70
     1
102
RTVSPropertyOp55
 70
     1
102
RTVSPropertyOp56
 70
     1
102
RTVSPropertyOp57
 70
     1
102
RTVSPropertyOp58
 70
     1
102
RTVSPropertyOp59
 70
     1
102
RTVSPropertyOp60
 70
     1
102
RTVSPropertyOp61
 70
     1
102
RTVSPropertyOp62
 70
     1
  0
XRECORD
  5
8565
102
{ACAD_REACTORS
330
8564
102
}
330
8564
100
AcDbXrecord
280
     1
102
RTVSPost2010Prop28
280
     0
102
RTVSPost2010PropOp28
 70
     1
102
RTVSPost2010Prop29
280
     1
102
RTVSPost2010PropOp29
 70
     1
102
RTVSPost2010Prop30
280
     1
102
RTVSPost2010PropOp30
 70
     1
102
RTVSPost2010Prop31
280
     0
102
RTVSPost2010PropOp31
 70
     1
102
RTVSPost2010Prop32
280
     0
102
RTVSPost2010PropOp32
 70
     1
102
RTVSPost2010Prop33
280
     0
102
RTVSPost2010PropOp33
 70
     1
102
RTVSPost2010Prop34
280
     0
102
RTVSPost2010PropOp34
 70
     1
102
RTVSPost2010Prop35
280
     0
102
RTVSPost2010PropOp35
 70
     1
102
RTVSPost2010Prop36
280
     0
102
RTVSPost2010PropOp36
 70
     1
102
RTVSPost2010Prop37
 90
       50
102
RTVSPost2010PropOp37
 70
     1
102
RTVSPost2010Prop38
140
0.0
102
RTVSPost2010PropOp38
 70
     1
102
RTVSPost2010Prop39
140
1.0
102
RTVSPost2010PropOp39
 70
     1
102
RTVSPost2010Prop40
 90
        0
102
RTVSPost2010PropOp40
 70
     1
102
RTVSPost2010Prop41ColorIndex
 90
       18
102
RTVSPost2010Prop41ColorRGB
 90
        0
102
RTVSPost2010PropOp41
 70
     1
102
RTVSPost2010Prop42
 90
       50
102
RTVSPost2010PropOp42
 70
     1
102
RTVSPost2010Prop43
 90
        3
102
RTVSPost2010PropOp43
 70
     1
102
RTVSPost2010Prop44ColorIndex
 90
        5
102
RTVSPost2010Prop44ColorRGB
 90
      255
102
RTVSPost2010PropOp44
 70
     1
102
RTVSPost2010Prop45
280
     0
102
RTVSPost2010PropOp45
 70
     1
102
RTVSPost2010Prop46
 90
       50
102
RTVSPost2010PropOp46
 70
     1
102
RTVSPost2010Prop47
 90
       50
102
RTVSPost2010PropOp47
 70
     1
102
RTVSPost2010Prop48
 90
       50
102
RTVSPost2010PropOp48
 70
     1
102
RTVSPost2010Prop49
280
     0
102
RTVSPost2010PropOp49
 70
     1
102
RTVSPost2010Prop50
 90
       50
102
RTVSPost2010PropOp50
 70
     1
102
RTVSPost2010Prop51ColorIndex
 90
      256
102
RTVSPost2010Prop51ColorRGB
 90
-16777216
102
RTVSPost2010PropOp51
 70
     0
102
RTVSPost2010Prop52
140
1.0
102
RTVSPost2010PropOp52
 70
     0
102
RTVSPost2010Prop53
 90
        2
102
RTVSPost2010PropOp53
 70
     1
102
RTVSPost2010Prop54
  1
strokes_ogs.tif
102
RTVSPost2010PropOp54
 70
     1
102
RTVSPost2010Prop55
280
     0
102
RTVSPost2010PropOp55
 70
     1
102
RTVSPost2010Prop56
140
1.0
102
RTVSPost2010PropOp56
 70
     1
102
RTVSPost2010Prop57
140
1.0
102
RTVSPost2010PropOp57
 70
     1
102
RTVSPropertyOp0
 70
     1
102
RTVSPropertyOp1
 70
     1
102
RTVSPropertyOp2
 70
     1
102
RTVSPropertyOp3
 70
     1
102
RTVSPropertyOp4
 70
     1
102
RTVSPropertyOp5
 70
     1
102
RTVSPropertyOp6
 70
     1
102
RTVSPropertyOp7
 70
     1
102
RTVSPropertyOp8
 70
     1
102
RTVSPropertyOp9
 70
     1
102
RTVSPropertyOp10
 70
     1
102
RTVSPropertyOp11
 70
     1
102
RTVSPropertyOp12
 70
     1
102
RTVSPropertyOp13
 70
     1
102
RTVSPropertyOp14
 70
     1
102
RTVSPropertyOp15
 70
     1
102
RTVSPropertyOp16
 70
     1
102
RTVSPropertyOp17
 70
     1
102
RTVSPropertyOp18
 70
     1
102
RTVSPropertyOp19
 70
     1
102
RTVSPropertyOp20
 70
     1
102
RTVSPropertyOp21
 70
     1
102
RTVSPropertyOp22
 70
     1
102
RTVSPropertyOp23
 70
     1
102
RTVSPropertyOp24
 70
     1
102
RTVSPropertyOp25
 70
     1
102
RTVSPropertyOp26
 70
     1
102
RTVSPropertyOp27
 70
     1
102
RTVSPropertyOp28
 70
     1
102
RTVSPropertyOp29
 70
     1
102
RTVSPropertyOp30
 70
     1
102
RTVSPropertyOp31
 70
     1
102
RTVSPropertyOp32
 70
     1
102
RTVSPropertyOp33
 70
     1
102
RTVSPropertyOp34
 70
     1
102
RTVSPropertyOp35
 70
     1
102
RTVSPropertyOp36
 70
     1
102
RTVSPropertyOp37
 70
     1
102
RTVSPropertyOp38
 70
     1
102
RTVSPropertyOp39
 70
     1
102
RTVSPropertyOp40
 70
     1
102
RTVSPropertyOp41
 70
     1
102
RTVSPropertyOp42
 70
     1
102
RTVSPropertyOp43
 70
     1
102
RTVSPropertyOp44
 70
     1
102
RTVSPropertyOp45
 70
     1
102
RTVSPropertyOp46
 70
     1
102
RTVSPropertyOp47
 70
     1
102
RTVSPropertyOp48
 70
     1
102
RTVSPropertyOp49
 70
     1
102
RTVSPropertyOp50
 70
     1
102
RTVSPropertyOp51
 70
     0
102
RTVSPropertyOp52
 70
     0
102
RTVSPropertyOp53
 70
     1
102
RTVSPropertyOp54
 70
     1
102
RTVSPropertyOp55
 70
     1
102
RTVSPropertyOp56
 70
     1
102
RTVSPropertyOp57
 70
     1
102
RTVSPropertyOp58
 70
     1
102
RTVSPropertyOp59
 70
     1
102
RTVSPropertyOp60
 70
     1
102
RTVSPropertyOp61
 70
     1
102
RTVSPropertyOp62
 70
     1
  0
XRECORD
  5
8567
102
{ACAD_REACTORS
330
8566
102
}
330
8566
100
AcDbXrecord
280
     1
102
RTVSPost2010Prop28
280
     0
102
RTVSPost2010PropOp28
 70
     1
102
RTVSPost2010Prop29
280
     1
102
RTVSPost2010PropOp29
 70
     1
102
RTVSPost2010Prop30
280
     1
102
RTVSPost2010PropOp30
 70
     1
102
RTVSPost2010Prop31
280
     0
102
RTVSPost2010PropOp31
 70
     1
102
RTVSPost2010Prop32
280
     0
102
RTVSPost2010PropOp32
 70
     1
102
RTVSPost2010Prop33
280
     0
102
RTVSPost2010PropOp33
 70
     1
102
RTVSPost2010Prop34
280
     0
102
RTVSPost2010PropOp34
 70
     1
102
RTVSPost2010Prop35
280
     0
102
RTVSPost2010PropOp35
 70
     1
102
RTVSPost2010Prop36
280
     0
102
RTVSPost2010PropOp36
 70
     1
102
RTVSPost2010Prop37
 90
       50
102
RTVSPost2010PropOp37
 70
     1
102
RTVSPost2010Prop38
140
0.0
102
RTVSPost2010PropOp38
 70
     1
102
RTVSPost2010Prop39
140
1.0
102
RTVSPost2010PropOp39
 70
     1
102
RTVSPost2010Prop40
 90
        0
102
RTVSPost2010PropOp40
 70
     1
102
RTVSPost2010Prop41ColorIndex
 90
       18
102
RTVSPost2010Prop41ColorRGB
 90
        0
102
RTVSPost2010PropOp41
 70
     1
102
RTVSPost2010Prop42
 90
       50
102
RTVSPost2010PropOp42
 70
     1
102
RTVSPost2010Prop43
 90
        3
102
RTVSPost2010PropOp43
 70
     1
102
RTVSPost2010Prop44ColorIndex
 90
        5
102
RTVSPost2010Prop44ColorRGB
 90
      255
102
RTVSPost2010PropOp44
 70
     1
102
RTVSPost2010Prop45
280
     0
102
RTVSPost2010PropOp45
 70
     1
102
RTVSPost2010Prop46
 90
       50
102
RTVSPost2010PropOp46
 70
     1
102
RTVSPost2010Prop47
 90
       50
102
RTVSPost2010PropOp47
 70
     1
102
RTVSPost2010Prop48
 90
       50
102
RTVSPost2010PropOp48
 70
     1
102
RTVSPost2010Prop49
280
     0
102
RTVSPost2010PropOp49
 70
     1
102
RTVSPost2010Prop50
 90
       50
102
RTVSPost2010PropOp50
 70
     1
102
RTVSPost2010Prop51ColorIndex
 90
      256
102
RTVSPost2010Prop51ColorRGB
 90
-16777216
102
RTVSPost2010PropOp51
 70
     0
102
RTVSPost2010Prop52
140
1.0
102
RTVSPost2010PropOp52
 70
     0
102
RTVSPost2010Prop53
 90
        2
102
RTVSPost2010PropOp53
 70
     1
102
RTVSPost2010Prop54
  1
strokes_ogs.tif
102
RTVSPost2010PropOp54
 70
     1
102
RTVSPost2010Prop55
280
     0
102
RTVSPost2010PropOp55
 70
     1
102
RTVSPost2010Prop56
140
1.0
102
RTVSPost2010PropOp56
 70
     1
102
RTVSPost2010Prop57
140
1.0
102
RTVSPost2010PropOp57
 70
     1
102
RTVSPropertyOp0
 70
     1
102
RTVSPropertyOp1
 70
     1
102
RTVSPropertyOp2
 70
     1
102
RTVSPropertyOp3
 70
     1
102
RTVSPropertyOp4
 70
     1
102
RTVSPropertyOp5
 70
     1
102
RTVSPropertyOp6
 70
     1
102
RTVSPropertyOp7
 70
     1
102
RTVSPropertyOp8
 70
     1
102
RTVSPropertyOp9
 70
     1
102
RTVSPropertyOp10
 70
     1
102
RTVSPropertyOp11
 70
     1
102
RTVSPropertyOp12
 70
     1
102
RTVSPropertyOp13
 70
     1
102
RTVSPropertyOp14
 70
     1
102
RTVSPropertyOp15
 70
     1
102
RTVSPropertyOp16
 70
     1
102
RTVSPropertyOp17
 70
     1
102
RTVSPropertyOp18
 70
     1
102
RTVSPropertyOp19
 70
     1
102
RTVSPropertyOp20
 70
     1
102
RTVSPropertyOp21
 70
     1
102
RTVSPropertyOp22
 70
     1
102
RTVSPropertyOp23
 70
     1
102
RTVSPropertyOp24
 70
     1
102
RTVSPropertyOp25
 70
     1
102
RTVSPropertyOp26
 70
     1
102
RTVSPropertyOp27
 70
     1
102
RTVSPropertyOp28
 70
     1
102
RTVSPropertyOp29
 70
     1
102
RTVSPropertyOp30
 70
     1
102
RTVSPropertyOp31
 70
     1
102
RTVSPropertyOp32
 70
     1
102
RTVSPropertyOp33
 70
     1
102
RTVSPropertyOp34
 70
     1
102
RTVSPropertyOp35
 70
     1
102
RTVSPropertyOp36
 70
     1
102
RTVSPropertyOp37
 70
     1
102
RTVSPropertyOp38
 70
     1
102
RTVSPropertyOp39
 70
     1
102
RTVSPropertyOp40
 70
     1
102
RTVSPropertyOp41
 70
     1
102
RTVSPropertyOp42
 70
     1
102
RTVSPropertyOp43
 70
     1
102
RTVSPropertyOp44
 70
     1
102
RTVSPropertyOp45
 70
     1
102
RTVSPropertyOp46
 70
     1
102
RTVSPropertyOp47
 70
     1
102
RTVSPropertyOp48
 70
     1
102
RTVSPropertyOp49
 70
     1
102
RTVSPropertyOp50
 70
     1
102
RTVSPropertyOp51
 70
     0
102
RTVSPropertyOp52
 70
     0
102
RTVSPropertyOp53
 70
     1
102
RTVSPropertyOp54
 70
     1
102
RTVSPropertyOp55
 70
     1
102
RTVSPropertyOp56
 70
     1
102
RTVSPropertyOp57
 70
     1
102
RTVSPropertyOp58
 70
     1
102
RTVSPropertyOp59
 70
     1
102
RTVSPropertyOp60
 70
     1
102
RTVSPropertyOp61
 70
     1
102
RTVSPropertyOp62
 70
     1
  0
XRECORD
  5
855D
102
{ACAD_REACTORS
330
855C
102
}
330
855C
100
AcDbXrecord
280
     1
102
RTVSPost2010Prop28
280
     0
102
RTVSPost2010PropOp28
 70
     1
102
RTVSPost2010Prop29
280
     1
102
RTVSPost2010PropOp29
 70
     1
102
RTVSPost2010Prop30
280
     1
102
RTVSPost2010PropOp30
 70
     1
102
RTVSPost2010Prop31
280
     0
102
RTVSPost2010PropOp31
 70
     1
102
RTVSPost2010Prop32
280
     0
102
RTVSPost2010PropOp32
 70
     1
102
RTVSPost2010Prop33
280
     0
102
RTVSPost2010PropOp33
 70
     1
102
RTVSPost2010Prop34
280
     0
102
RTVSPost2010PropOp34
 70
     1
102
RTVSPost2010Prop35
280
     0
102
RTVSPost2010PropOp35
 70
     1
102
RTVSPost2010Prop36
280
     0
102
RTVSPost2010PropOp36
 70
     1
102
RTVSPost2010Prop37
 90
       50
102
RTVSPost2010PropOp37
 70
     1
102
RTVSPost2010Prop38
140
0.0
102
RTVSPost2010PropOp38
 70
     1
102
RTVSPost2010Prop39
140
1.0
102
RTVSPost2010PropOp39
 70
     1
102
RTVSPost2010Prop40
 90
        0
102
RTVSPost2010PropOp40
 70
     1
102
RTVSPost2010Prop41ColorIndex
 90
       18
102
RTVSPost2010Prop41ColorRGB
 90
        0
102
RTVSPost2010PropOp41
 70
     1
102
RTVSPost2010Prop42
 90
       50
102
RTVSPost2010PropOp42
 70
     1
102
RTVSPost2010Prop43
 90
        3
102
RTVSPost2010PropOp43
 70
     1
102
RTVSPost2010Prop44ColorIndex
 90
        5
102
RTVSPost2010Prop44ColorRGB
 90
      255
102
RTVSPost2010PropOp44
 70
     1
102
RTVSPost2010Prop45
280
     0
102
RTVSPost2010PropOp45
 70
     1
102
RTVSPost2010Prop46
 90
       50
102
RTVSPost2010PropOp46
 70
     1
102
RTVSPost2010Prop47
 90
       50
102
RTVSPost2010PropOp47
 70
     1
102
RTVSPost2010Prop48
 90
       50
102
RTVSPost2010PropOp48
 70
     1
102
RTVSPost2010Prop49
280
     0
102
RTVSPost2010PropOp49
 70
     1
102
RTVSPost2010Prop50
 90
       50
102
RTVSPost2010PropOp50
 70
     1
102
RTVSPost2010Prop51ColorIndex
 90
      256
102
RTVSPost2010Prop51ColorRGB
 90
-16777216
102
RTVSPost2010PropOp51
 70
     0
102
RTVSPost2010Prop52
140
1.0
102
RTVSPost2010PropOp52
 70
     0
102
RTVSPost2010Prop53
 90
        2
102
RTVSPost2010PropOp53
 70
     1
102
RTVSPost2010Prop54
  1
strokes_ogs.tif
102
RTVSPost2010PropOp54
 70
     1
102
RTVSPost2010Prop55
280
     0
102
RTVSPost2010PropOp55
 70
     1
102
RTVSPost2010Prop56
140
1.0
102
RTVSPost2010PropOp56
 70
     1
102
RTVSPost2010Prop57
140
1.0
102
RTVSPost2010PropOp57
 70
     1
102
RTVSPropertyOp0
 70
     1
102
RTVSPropertyOp1
 70
     1
102
RTVSPropertyOp2
 70
     1
102
RTVSPropertyOp3
 70
     1
102
RTVSPropertyOp4
 70
     1
102
RTVSPropertyOp5
 70
     1
102
RTVSPropertyOp6
 70
     1
102
RTVSPropertyOp7
 70
     1
102
RTVSPropertyOp8
 70
     1
102
RTVSPropertyOp9
 70
     1
102
RTVSPropertyOp10
 70
     1
102
RTVSPropertyOp11
 70
     1
102
RTVSPropertyOp12
 70
     1
102
RTVSPropertyOp13
 70
     1
102
RTVSPropertyOp14
 70
     1
102
RTVSPropertyOp15
 70
     1
102
RTVSPropertyOp16
 70
     1
102
RTVSPropertyOp17
 70
     1
102
RTVSPropertyOp18
 70
     1
102
RTVSPropertyOp19
 70
     1
102
RTVSPropertyOp20
 70
     1
102
RTVSPropertyOp21
 70
     1
102
RTVSPropertyOp22
 70
     1
102
RTVSPropertyOp23
 70
     1
102
RTVSPropertyOp24
 70
     1
102
RTVSPropertyOp25
 70
     1
102
RTVSPropertyOp26
 70
     1
102
RTVSPropertyOp27
 70
     1
102
RTVSPropertyOp28
 70
     1
102
RTVSPropertyOp29
 70
     1
102
RTVSPropertyOp30
 70
     1
102
RTVSPropertyOp31
 70
     1
102
RTVSPropertyOp32
 70
     1
102
RTVSPropertyOp33
 70
     1
102
RTVSPropertyOp34
 70
     1
102
RTVSPropertyOp35
 70
     1
102
RTVSPropertyOp36
 70
     1
102
RTVSPropertyOp37
 70
     1
102
RTVSPropertyOp38
 70
     1
102
RTVSPropertyOp39
 70
     1
102
RTVSPropertyOp40
 70
     1
102
RTVSPropertyOp41
 70
     1
102
RTVSPropertyOp42
 70
     1
102
RTVSPropertyOp43
 70
     1
102
RTVSPropertyOp44
 70
     1
102
RTVSPropertyOp45
 70
     1
102
RTVSPropertyOp46
 70
     1
102
RTVSPropertyOp47
 70
     1
102
RTVSPropertyOp48
 70
     1
102
RTVSPropertyOp49
 70
     1
102
RTVSPropertyOp50
 70
     1
102
RTVSPropertyOp51
 70
     0
102
RTVSPropertyOp52
 70
     0
102
RTVSPropertyOp53
 70
     1
102
RTVSPropertyOp54
 70
     1
102
RTVSPropertyOp55
 70
     1
102
RTVSPropertyOp56
 70
     1
102
RTVSPropertyOp57
 70
     1
102
RTVSPropertyOp58
 70
     1
102
RTVSPropertyOp59
 70
     1
102
RTVSPropertyOp60
 70
     1
102
RTVSPropertyOp61
 70
     1
102
RTVSPropertyOp62
 70
     1
  0
XRECORD
  5
8551
102
{ACAD_REACTORS
330
8550
102
}
330
8550
100
AcDbXrecord
280
     1
102
RTVSPost2010Prop28
280
     0
102
RTVSPost2010PropOp28
 70
     1
102
RTVSPost2010Prop29
280
     1
102
RTVSPost2010PropOp29
 70
     1
102
RTVSPost2010Prop30
280
     1
102
RTVSPost2010PropOp30
 70
     1
102
RTVSPost2010Prop31
280
     0
102
RTVSPost2010PropOp31
 70
     1
102
RTVSPost2010Prop32
280
     0
102
RTVSPost2010PropOp32
 70
     1
102
RTVSPost2010Prop33
280
     0
102
RTVSPost2010PropOp33
 70
     1
102
RTVSPost2010Prop34
280
     0
102
RTVSPost2010PropOp34
 70
     1
102
RTVSPost2010Prop35
280
     0
102
RTVSPost2010PropOp35
 70
     1
102
RTVSPost2010Prop36
280
     0
102
RTVSPost2010PropOp36
 70
     1
102
RTVSPost2010Prop37
 90
       50
102
RTVSPost2010PropOp37
 70
     1
102
RTVSPost2010Prop38
140
0.0
102
RTVSPost2010PropOp38
 70
     1
102
RTVSPost2010Prop39
140
1.0
102
RTVSPost2010PropOp39
 70
     1
102
RTVSPost2010Prop40
 90
        0
102
RTVSPost2010PropOp40
 70
     1
102
RTVSPost2010Prop41ColorIndex
 90
       18
102
RTVSPost2010Prop41ColorRGB
 90
        0
102
RTVSPost2010PropOp41
 70
     1
102
RTVSPost2010Prop42
 90
       50
102
RTVSPost2010PropOp42
 70
     1
102
RTVSPost2010Prop43
 90
        3
102
RTVSPost2010PropOp43
 70
     1
102
RTVSPost2010Prop44ColorIndex
 90
        5
102
RTVSPost2010Prop44ColorRGB
 90
      255
102
RTVSPost2010PropOp44
 70
     1
102
RTVSPost2010Prop45
280
     0
102
RTVSPost2010PropOp45
 70
     1
102
RTVSPost2010Prop46
 90
       50
102
RTVSPost2010PropOp46
 70
     1
102
RTVSPost2010Prop47
 90
       50
102
RTVSPost2010PropOp47
 70
     1
102
RTVSPost2010Prop48
 90
       50
102
RTVSPost2010PropOp48
 70
     1
102
RTVSPost2010Prop49
280
     0
102
RTVSPost2010PropOp49
 70
     1
102
RTVSPost2010Prop50
 90
       50
102
RTVSPost2010PropOp50
 70
     1
102
RTVSPost2010Prop51ColorIndex
 90
      256
102
RTVSPost2010Prop51ColorRGB
 90
-16777216
102
RTVSPost2010PropOp51
 70
     0
102
RTVSPost2010Prop52
140
1.0
102
RTVSPost2010PropOp52
 70
     0
102
RTVSPost2010Prop53
 90
        2
102
RTVSPost2010PropOp53
 70
     1
102
RTVSPost2010Prop54
  1
strokes_ogs.tif
102
RTVSPost2010PropOp54
 70
     1
102
RTVSPost2010Prop55
280
     0
102
RTVSPost2010PropOp55
 70
     1
102
RTVSPost2010Prop56
140
1.0
102
RTVSPost2010PropOp56
 70
     1
102
RTVSPost2010Prop57
140
1.0
102
RTVSPost2010PropOp57
 70
     1
102
RTVSPropertyOp0
 70
     1
102
RTVSPropertyOp1
 70
     1
102
RTVSPropertyOp2
 70
     1
102
RTVSPropertyOp3
 70
     1
102
RTVSPropertyOp4
 70
     1
102
RTVSPropertyOp5
 70
     1
102
RTVSPropertyOp6
 70
     1
102
RTVSPropertyOp7
 70
     1
102
RTVSPropertyOp8
 70
     1
102
RTVSPropertyOp9
 70
     1
102
RTVSPropertyOp10
 70
     1
102
RTVSPropertyOp11
 70
     1
102
RTVSPropertyOp12
 70
     1
102
RTVSPropertyOp13
 70
     1
102
RTVSPropertyOp14
 70
     1
102
RTVSPropertyOp15
 70
     1
102
RTVSPropertyOp16
 70
     1
102
RTVSPropertyOp17
 70
     1
102
RTVSPropertyOp18
 70
     1
102
RTVSPropertyOp19
 70
     1
102
RTVSPropertyOp20
 70
     1
102
RTVSPropertyOp21
 70
     1
102
RTVSPropertyOp22
 70
     1
102
RTVSPropertyOp23
 70
     1
102
RTVSPropertyOp24
 70
     1
102
RTVSPropertyOp25
 70
     1
102
RTVSPropertyOp26
 70
     1
102
RTVSPropertyOp27
 70
     1
102
RTVSPropertyOp28
 70
     1
102
RTVSPropertyOp29
 70
     1
102
RTVSPropertyOp30
 70
     1
102
RTVSPropertyOp31
 70
     1
102
RTVSPropertyOp32
 70
     1
102
RTVSPropertyOp33
 70
     1
102
RTVSPropertyOp34
 70
     1
102
RTVSPropertyOp35
 70
     1
102
RTVSPropertyOp36
 70
     1
102
RTVSPropertyOp37
 70
     1
102
RTVSPropertyOp38
 70
     1
102
RTVSPropertyOp39
 70
     1
102
RTVSPropertyOp40
 70
     1
102
RTVSPropertyOp41
 70
     1
102
RTVSPropertyOp42
 70
     1
102
RTVSPropertyOp43
 70
     1
102
RTVSPropertyOp44
 70
     1
102
RTVSPropertyOp45
 70
     1
102
RTVSPropertyOp46
 70
     1
102
RTVSPropertyOp47
 70
     1
102
RTVSPropertyOp48
 70
     1
102
RTVSPropertyOp49
 70
     1
102
RTVSPropertyOp50
 70
     1
102
RTVSPropertyOp51
 70
     0
102
RTVSPropertyOp52
 70
     0
102
RTVSPropertyOp53
 70
     1
102
RTVSPropertyOp54
 70
     1
102
RTVSPropertyOp55
 70
     1
102
RTVSPropertyOp56
 70
     1
102
RTVSPropertyOp57
 70
     1
102
RTVSPropertyOp58
 70
     1
102
RTVSPropertyOp59
 70
     1
102
RTVSPropertyOp60
 70
     1
102
RTVSPropertyOp61
 70
     1
102
RTVSPropertyOp62
 70
     1
  0
XRECORD
  5
8569
102
{ACAD_REACTORS
330
8568
102
}
330
8568
100
AcDbXrecord
280
     1
102
RTVSPost2010Prop28
280
     0
102
RTVSPost2010PropOp28
 70
     1
102
RTVSPost2010Prop29
280
     1
102
RTVSPost2010PropOp29
 70
     1
102
RTVSPost2010Prop30
280
     1
102
RTVSPost2010PropOp30
 70
     1
102
RTVSPost2010Prop31
280
     0
102
RTVSPost2010PropOp31
 70
     1
102
RTVSPost2010Prop32
280
     0
102
RTVSPost2010PropOp32
 70
     1
102
RTVSPost2010Prop33
280
     0
102
RTVSPost2010PropOp33
 70
     1
102
RTVSPost2010Prop34
280
     0
102
RTVSPost2010PropOp34
 70
     1
102
RTVSPost2010Prop35
280
     0
102
RTVSPost2010PropOp35
 70
     1
102
RTVSPost2010Prop36
280
     0
102
RTVSPost2010PropOp36
 70
     1
102
RTVSPost2010Prop37
 90
       50
102
RTVSPost2010PropOp37
 70
     1
102
RTVSPost2010Prop38
140
0.0
102
RTVSPost2010PropOp38
 70
     1
102
RTVSPost2010Prop39
140
1.0
102
RTVSPost2010PropOp39
 70
     1
102
RTVSPost2010Prop40
 90
        0
102
RTVSPost2010PropOp40
 70
     1
102
RTVSPost2010Prop41ColorIndex
 90
       18
102
RTVSPost2010Prop41ColorRGB
 90
        0
102
RTVSPost2010PropOp41
 70
     1
102
RTVSPost2010Prop42
 90
       50
102
RTVSPost2010PropOp42
 70
     1
102
RTVSPost2010Prop43
 90
        3
102
RTVSPost2010PropOp43
 70
     1
102
RTVSPost2010Prop44ColorIndex
 90
        5
102
RTVSPost2010Prop44ColorRGB
 90
      255
102
RTVSPost2010PropOp44
 70
     1
102
RTVSPost2010Prop45
280
     0
102
RTVSPost2010PropOp45
 70
     1
102
RTVSPost2010Prop46
 90
       50
102
RTVSPost2010PropOp46
 70
     1
102
RTVSPost2010Prop47
 90
       50
102
RTVSPost2010PropOp47
 70
     1
102
RTVSPost2010Prop48
 90
       50
102
RTVSPost2010PropOp48
 70
     1
102
RTVSPost2010Prop49
280
     0
102
RTVSPost2010PropOp49
 70
     1
102
RTVSPost2010Prop50
 90
       50
102
RTVSPost2010PropOp50
 70
     1
102
RTVSPost2010Prop51ColorIndex
 90
      256
102
RTVSPost2010Prop51ColorRGB
 90
-16777216
102
RTVSPost2010PropOp51
 70
     0
102
RTVSPost2010Prop52
140
1.0
102
RTVSPost2010PropOp52
 70
     0
102
RTVSPost2010Prop53
 90
        2
102
RTVSPost2010PropOp53
 70
     1
102
RTVSPost2010Prop54
  1
strokes_ogs.tif
102
RTVSPost2010PropOp54
 70
     1
102
RTVSPost2010Prop55
280
     0
102
RTVSPost2010PropOp55
 70
     1
102
RTVSPost2010Prop56
140
1.0
102
RTVSPost2010PropOp56
 70
     1
102
RTVSPost2010Prop57
140
1.0
102
RTVSPost2010PropOp57
 70
     1
102
RTVSPropertyOp0
 70
     1
102
RTVSPropertyOp1
 70
     1
102
RTVSPropertyOp2
 70
     1
102
RTVSPropertyOp3
 70
     1
102
RTVSPropertyOp4
 70
     1
102
RTVSPropertyOp5
 70
     1
102
RTVSPropertyOp6
 70
     1
102
RTVSPropertyOp7
 70
     1
102
RTVSPropertyOp8
 70
     1
102
RTVSPropertyOp9
 70
     1
102
RTVSPropertyOp10
 70
     1
102
RTVSPropertyOp11
 70
     1
102
RTVSPropertyOp12
 70
     1
102
RTVSPropertyOp13
 70
     1
102
RTVSPropertyOp14
 70
     1
102
RTVSPropertyOp15
 70
     1
102
RTVSPropertyOp16
 70
     1
102
RTVSPropertyOp17
 70
     1
102
RTVSPropertyOp18
 70
     1
102
RTVSPropertyOp19
 70
     1
102
RTVSPropertyOp20
 70
     1
102
RTVSPropertyOp21
 70
     1
102
RTVSPropertyOp22
 70
     1
102
RTVSPropertyOp23
 70
     1
102
RTVSPropertyOp24
 70
     1
102
RTVSPropertyOp25
 70
     1
102
RTVSPropertyOp26
 70
     1
102
RTVSPropertyOp27
 70
     1
102
RTVSPropertyOp28
 70
     1
102
RTVSPropertyOp29
 70
     1
102
RTVSPropertyOp30
 70
     1
102
RTVSPropertyOp31
 70
     1
102
RTVSPropertyOp32
 70
     1
102
RTVSPropertyOp33
 70
     1
102
RTVSPropertyOp34
 70
     1
102
RTVSPropertyOp35
 70
     1
102
RTVSPropertyOp36
 70
     1
102
RTVSPropertyOp37
 70
     1
102
RTVSPropertyOp38
 70
     1
102
RTVSPropertyOp39
 70
     1
102
RTVSPropertyOp40
 70
     1
102
RTVSPropertyOp41
 70
     1
102
RTVSPropertyOp42
 70
     1
102
RTVSPropertyOp43
 70
     1
102
RTVSPropertyOp44
 70
     1
102
RTVSPropertyOp45
 70
     1
102
RTVSPropertyOp46
 70
     1
102
RTVSPropertyOp47
 70
     1
102
RTVSPropertyOp48
 70
     1
102
RTVSPropertyOp49
 70
     1
102
RTVSPropertyOp50
 70
     1
102
RTVSPropertyOp51
 70
     0
102
RTVSPropertyOp52
 70
     0
102
RTVSPropertyOp53
 70
     1
102
RTVSPropertyOp54
 70
     1
102
RTVSPropertyOp55
 70
     1
102
RTVSPropertyOp56
 70
     1
102
RTVSPropertyOp57
 70
     1
102
RTVSPropertyOp58
 70
     1
102
RTVSPropertyOp59
 70
     1
102
RTVSPropertyOp60
 70
     1
102
RTVSPropertyOp61
 70
     1
102
RTVSPropertyOp62
 70
     1
  0
ENDSEC
  0
EOF
