  0
SECTION
  2
HEADER
  9
$ACADVER
  1
AC1009
  9
$INSBASE
 10
0.0
 20
0.0
 30
0.0
  9
$EXTMIN
 10
0.0
 20
0.0
 30
0.0
  9
$EXTMAX
 10
4200.0
 20
5900.0
 30
0.0
  9
$LIMMIN
 10
0.0
 20
0.0
  9
$LIMMAX
 10
297.0
 20
210.0
  9
$ORTHOMODE
 70
     0
  9
$REGENMODE
 70
     1
  9
$FILLMODE
 70
     0
  9
$QTEXTMODE
 70
     0
  9
$MIRRTEXT
 70
     1
  9
$DRAGMODE
 70
     2
  9
$LTSCALE
 40
100.0
  9
$OSMODE
 70
    37
  9
$ATTMODE
 70
     1
  9
$TEXTSIZE
 40
180.0
  9
$TRACEWID
 40
0.05
  9
$TEXTSTYLE
  7
STANDARD
  9
$CLAYER
  8
1
  9
$CELTYPE
  6
BYLAYER
  9
$CECOLOR
 62
   256
  9
$DIMSCALE
 40
20.0
  9
$DIMASZ
 40
2.0
  9
$DIMEXO
 40
0.5
  9
$DIMDLI
 40
10.0
  9
$DIMRND
 40
0.0
  9
$DIMDLE
 40
0.0
  9
$DIMEXE
 40
1.0
  9
$DIMTP
 40
1.0
  9
$DIMTM
 40
1.0
  9
$DIMTXT
 40
3.0
  9
$DIMCEN
 40
0.0
  9
$DIMTSZ
 40
0.0
  9
$DIMTOL
 70
     0
  9
$DIMLIM
 70
     0
  9
$DIMTIH
 70
     0
  9
$DIMTOH
 70
     0
  9
$DIMSE1
 70
     0
  9
$DIMSE2
 70
     0
  9
$DIMTAD
 70
     1
  9
$DIMZIN
 70
     8
  9
$DIMBLK
  1

  9
$DIMASO
 70
     1
  9
$DIMSHO
 70
     1
  9
$DIMPOST
  1

  9
$DIMAPOST
  1

  9
$DIMALT
 70
     0
  9
$DIMALTD
 70
     2
  9
$DIMALTF
 40
0.039
  9
$DIMLFAC
 40
1.0
  9
$DIMTOFL
 70
     1
  9
$DIMTVP
 40
0.0
  9
$DIMTIX
 70
     0
  9
$DIMSOXD
 70
     0
  9
$DIMSAH
 70
     1
  9
$DIMBLK1
  1
OPEN
  9
$DIMBLK2
  1
OPEN
  9
$DIMSTYLE
  2
IGA
  9
$DIMCLRD
 70
     0
  9
$DIMCLRE
 70
     0
  9
$DIMCLRT
 70
     0
  9
$DIMTFAC
 40
10.0
  9
$DIMGAP
 40
1.0
  9
$LUNITS
 70
     2
  9
$LUPREC
 70
     3
  9
$SKETCHINC
 40
0.1
  9
$FILLETRAD
 40
50.0
  9
$AUNITS
 70
     0
  9
$AUPREC
 70
     0
  9
$MENU
  1
acad
  9
$ELEVATION
 40
0.0
  9
$PELEVATION
 40
0.0
  9
$THICKNESS
 40
0.0
  9
$LIMCHECK
 70
     0
  9
$BLIPMODE
 70
     0
  9
$CHAMFERA
 40
0.5
  9
$CHAMFERB
 40
0.5
  9
$SKPOLY
 70
     0
  9
$TDCREATE
 40
2452773.6228296291
  9
$TDUPDATE
 40
2454953.8540117592
  9
$TDINDWG
 40
0.0182343634
  9
$TDUSRTIMER
 40
0.0182343634
  9
$USRTIMER
 70
     1
  9
$ANGBASE
 50
0.0
  9
$ANGDIR
 70
     0
  9
$PDMODE
 70
     0
  9
$PDSIZE
 40
0.0
  9
$PLINEWID
 40
0.0
  9
$COORDS
 70
     1
  9
$SPLFRAME
 70
     0
  9
$SPLINETYPE
 70
     6
  9
$SPLINESEGS
 70
     8
  9
$ATTDIA
 70
     0
  9
$ATTREQ
 70
     1
  9
$HANDLING
 70
 10241
  9
$HANDSEED
  5
803C
  9
$SURFTAB1
 70
     6
  9
$SURFTAB2
 70
     6
  9
$SURFTYPE
 70
     6
  9
$SURFU
 70
     6
  9
$SURFV
 70
     6
  9
$UCSNAME
  2

  9
$UCSORG
 10
0.0
 20
0.0
 30
0.0
  9
$UCSXDIR
 10
1.0
 20
0.0
 30
0.0
  9
$UCSYDIR
 10
0.0
 20
1.0
 30
0.0
  9
$PUCSNAME
  2

  9
$PUCSORG
 10
0.0
 20
0.0
 30
0.0
  9
$PUCSXDIR
 10
1.0
 20
0.0
 30
0.0
  9
$PUCSYDIR
 10
0.0
 20
1.0
 30
0.0
  9
$USERI1
 70
     0
  9
$USERI2
 70
     0
  9
$USERI3
 70
     0
  9
$USERI4
 70
     0
  9
$USERI5
 70
     0
  9
$USERR1
 40
0.0
  9
$USERR2
 40
0.0
  9
$USERR3
 40
0.0
  9
$USERR4
 40
0.0
  9
$USERR5
 40
0.0
  9
$WORLDVIEW
 70
     1
  9
$SHADEDGE
 70
     3
  9
$SHADEDIF
 70
    70
  9
$TILEMODE
 70
     1
  9
$MAXACTVP
 70
    16
  9
$PLIMCHECK
 70
     0
  9
$PEXTMIN
 10
1.0000000000000000E+020
 20
1.0000000000000000E+020
 30
1.0000000000000000E+020
  9
$PEXTMAX
 10
-1.0000000000000000E+020
 20
-1.0000000000000000E+020
 30
-1.0000000000000000E+020
  9
$PLIMMIN
 10
0.0
 20
0.0
  9
$PLIMMAX
 10
12.0
 20
9.0
  9
$UNITMODE
 70
     0
  9
$VISRETAIN
 70
     0
  9
$PLINEGEN
 70
     0
  9
$PSLTSCALE
 70
     1
  0
ENDSEC
  0
SECTION
  2
TABLES
  0
TABLE
  2
VPORT
 70
     2
  0
VPORT
  2
*ACTIVE
 70
     0
 10
0.0
 20
0.0
 11
1.0
 21
1.0
 12
6027.9826464208236
 22
4004.9978160586938
 13
0.0
 23
0.0
 14
10.0
 24
10.0
 15
10.0
 25
10.0
 16
0.0
 26
0.0
 36
1.0
 17
0.0
 27
0.0
 37
0.0
 40
8009.9956321173886
 41
1.5051150895140659
 42
50.0
 43
0.0
 44
0.0
 50
0.0
 51
0.0
 71
     0
 72
   100
 73
     1
 74
     0
 75
     0
 76
     0
 77
     0
 78
     0
  0
ENDTAB
  0
TABLE
  2
LTYPE
 70
     2
  0
LTYPE
  2
CONTINUOUS
 70
     0
  3
Solid line
 72
    65
 73
     0
 40
0.0
  0
LTYPE
  2
CENTER
 70
     0
  3
____ _ ____ _ ____ _ ____ _ ____ _ ____ _ ____ 
 72
    65
 73
     4
 40
2.0
 49
1.25
 49
-0.25
 49
0.25
 49
-0.25
  0
ENDTAB
  0
TABLE
  2
LAYER
 70
     6
  0
LAYER
  2
0
 70
     0
 62
     7
  6
CONTINUOUS
  0
LAYER
  2
3
 70
     0
 62
     2
  6
CONTINUOUS
  0
LAYER
  2
2
 70
     0
 62
     3
  6
CENTER
  0
LAYER
  2
1
 70
     0
 62
     4
  6
CONTINUOUS
  0
LAYER
  2
4
 70
     0
 62
     7
  6
CONTINUOUS
  0
LAYER
  2
DEFPOINTS
 70
     0
 62
     7
  6
CONTINUOUS
  0
ENDTAB
  0
TABLE
  2
STYLE
 70
     1
  0
STYLE
  2
STANDARD
 70
     0
 40
0.0
 41
1.0
 50
0.0
 71
     0
 42
180.0
  3
simplex.shx
  4
extfont.shx
  0
ENDTAB
  0
TABLE
  2
VIEW
 70
     0
  0
ENDTAB
  0
TABLE
  2
UCS
 70
     0
  0
ENDTAB
  0
TABLE
  2
APPID
 70
     1
  0
APPID
  2
ACAD
 70
     0
  0
ENDTAB
  0
TABLE
  2
DIMSTYLE
 70
     1
  0
DIMSTYLE
  2
IGA
 70
     0
  3

  4

  5

  6
OPEN
  7
OPEN
 40
2.0
 41
2.0
 42
0.5
 43
10.0
 44
1.0
 45
0.0
 46
0.0
 47
1.0
 48
1.0
140
3.0
141
0.0
142
0.0
143
0.03937
144
1.0
145
0.0
146
10.0
147
1.0
 71
     0
 72
     0
 73
     0
 74
     0
 75
     0
 76
     0
 77
     1
 78
     8
170
     0
171
     2
172
     0
173
     1
174
     0
175
     0
176
     0
177
     0
178
     0
  0
ENDTAB
  0
ENDSEC
  0
SECTION
  2
BLOCKS
  0
BLOCK
  8
0
  2
$MODEL_SPACE
 70
     0
 10
0.0
 20
0.0
 30
0.0
  3
$MODEL_SPACE
  1

  0
ENDBLK
  5
1B
  8
0
  0
BLOCK
 67
     1
  8
0
  2
$PAPER_SPACE
 70
     0
 10
0.0
 20
0.0
 30
0.0
  3
$PAPER_SPACE
  1

  0
ENDBLK
  5
18
 67
     1
  8
0
  0
BLOCK
  8
0
  2
_OPEN
 70
     0
 10
0.0
 20
0.0
 30
0.0
  3
_OPEN
  1

  0
LINE
  5
79FD
  8
0
  6
BYBLOCK
 62
     0
 10
-1.0
 20
0.1666666666666666
 30
0.0
 11
0.0
 21
0.0
 31
0.0
  0
LINE
  5
79FE
  8
0
  6
BYBLOCK
 62
     0
 10
0.0
 20
0.0
 30
0.0
 11
-1.0
 21
-0.1666666666666666
 31
0.0
  0
LINE
  5
79FF
  8
0
  6
BYBLOCK
 62
     0
 10
0.0
 20
0.0
 30
0.0
 11
-1.0
 21
0.0
 31
0.0
  0
ENDBLK
  5
7A01
  8
0
  0
BLOCK
  8
0
  2
*D1
 70
     1
 10
0.0
 20
0.0
 30
0.0
  3
*D1
  1

  0
LINE
  5
7F8E
  8
3
 62
     0
 10
845.16068586144502
 20
1566.5992989360791
 30
0.0
 11
845.16068586144502
 21
1399.648523111493
 31
0.0
  0
LINE
  5
7F8F
  8
3
 62
     0
 10
1155.1606858614459
 20
1524.793437407712
 30
0.0
 11
1155.1606858614459
 21
1399.648523111493
 31
0.0
  0
LINE
  5
7F90
  8
3
 62
     0
 10
885.16068586144502
 20
1419.648523111493
 30
0.0
 11
1115.1606858614459
 21
1419.648523111493
 31
0.0
  0
INSERT
  5
7F91
  8
3
 62
     0
  2
_OPEN
 10
845.16068586144502
 20
1419.648523111493
 30
0.0
 41
40.0
 42
40.0
 43
40.0
 50
180.0
  0
INSERT
  5
7F92
  8
3
 62
     0
  2
_OPEN
 10
1155.1606858614459
 20
1419.648523111493
 30
0.0
 41
40.0
 42
40.0
 43
40.0
  0
TEXT
  8
3
  40
60
  5
802A
  62
0
  72
0
  71
0
 10
903.732
 20
1363.45
 30
0.000000
  1
310
  0
POINT
  5
7F94
  8
DEFPOINTS
 62
     0
 10
845.16068586144502
 20
1576.5992989360791
 30
0.0
  0
POINT
  5
7F95
  8
DEFPOINTS
 62
     0
 10
1155.1606858614459
 20
1534.793437407712
 30
0.0
  0
POINT
  5
7F96
  8
DEFPOINTS
 62
     0
 10
1155.1606858614459
 20
1419.648523111493
 30
0.0
  0
ENDBLK
  5
7C7F
  8
0
  0
BLOCK
  8
0
  2
*D2
 70
     1
 10
0.0
 20
0.0
 30
0.0
  3
*D2
  1

  0
LINE
  5
7F97
  8
3
 62
     0
 10
1965.1606858614441
 20
1566.599298936088
 30
0.0
 11
1965.1606858614441
 21
1399.648523111493
 31
0.0
  0
LINE
  5
7F98
  8
3
 62
     0
 10
1195.1606858614459
 20
1419.648523111493
 30
0.0
 11
1925.160685861445
 21
1419.648523111493
 31
0.0
  0
INSERT
  5
7F99
  8
3
 62
     0
  2
_OPEN
 10
1155.1606858614459
 20
1419.648523111493
 30
0.0
 41
40.0
 42
40.0
 43
40.0
 50
180.0
  0
INSERT
  5
7F9A
  8
3
 62
     0
  2
_OPEN
 10
1965.1606858614441
 20
1419.648523111493
 30
0.0
 41
40.0
 42
40.0
 43
40.0
  0
TEXT
  8
3
  40
60
  5
802B
  62
0
  72
0
  71
0
 10
1440.16
 20
1363.45
 30
0.000000
  1
810
  0
POINT
  5
7F9C
  8
DEFPOINTS
 62
     0
 10
1155.1606858614459
 20
1534.793437407712
 30
0.0
  0
POINT
  5
7F9D
  8
DEFPOINTS
 62
     0
 10
1965.1606858614441
 20
1576.599298936088
 30
0.0
  0
POINT
  5
7F9E
  8
DEFPOINTS
 62
     0
 10
1965.1606858614441
 20
1419.648523111493
 30
0.0
  0
ENDBLK
  5
7C8B
  8
0
  0
BLOCK
  8
0
  2
*D3
 70
     1
 10
0.0
 20
0.0
 30
0.0
  3
*D3
  1

  0
LINE
  5
7F9F
  8
3
 62
     0
 10
2756.8305378057648
 20
1556.5992989360909
 30
0.0
 11
2756.8305378057648
 21
1394.0623550760131
 31
0.0
  0
LINE
  5
7FA0
  8
3
 62
     0
 10
3151.8305378057639
 20
1532.3865061589629
 30
0.0
 11
3151.8305378057639
 21
1394.0623550760131
 31
0.0
  0
LINE
  5
7FA1
  8
3
 62
     0
 10
2796.8305378057648
 20
1414.0623550760131
 30
0.0
 11
3111.8305378057639
 21
1414.0623550760131
 31
0.0
  0
INSERT
  5
7FA2
  8
3
 62
     0
  2
_OPEN
 10
2756.8305378057648
 20
1414.0623550760131
 30
0.0
 41
40.0
 42
40.0
 43
40.0
 50
180.0
  0
INSERT
  5
7FA3
  8
3
 62
     0
  2
_OPEN
 10
3151.8305378057639
 20
1414.0623550760131
 30
0.0
 41
40.0
 42
40.0
 43
40.0
  0
TEXT
  8
3
  40
60
  5
802C
  62
0
  72
0
  71
0
 10
2853.55
 20
1357.86
 30
0.000000
  1
395
  0
POINT
  5
7FA5
  8
DEFPOINTS
 62
     0
 10
2756.8305378057648
 20
1566.5992989360909
 30
0.0
  0
POINT
  5
7FA6
  8
DEFPOINTS
 62
     0
 10
3151.8305378057639
 20
1542.3865061589629
 30
0.0
  0
POINT
  5
7FA7
  8
DEFPOINTS
 62
     0
 10
3151.8305378057639
 20
1414.0623550760131
 30
0.0
  0
ENDBLK
  5
7C98
  8
0
  0
BLOCK
  8
0
  2
*D4
 70
     1
 10
0.0
 20
0.0
 30
0.0
  3
*D4
  1

  0
LINE
  5
7CB3
  8
0
  6
BYBLOCK
 62
     0
 10
3381.8305378057662
 20
1556.5992989360909
 30
0.0
 11
3381.8305378057662
 21
1394.0623550760131
 31
0.0
  0
LINE
  5
7CB4
  8
0
  6
BYBLOCK
 62
     0
 10
3191.830537805763
 20
1414.0623550760131
 30
0.0
 11
3341.8305378057648
 21
1414.0623550760131
 31
0.0
  0
TEXT
  5
7CB5
  8
1
 62
     0
 10
3189.687680662907
 20
1439.923994219783
 30
0.0
 40
60.0
  1
230
  0
INSERT
  5
7CB6
  8
0
  6
BYBLOCK
 62
     0
  2
_OPEN
 10
3151.8305378057639
 20
1414.0623550760131
 30
0.0
 41
40.0
 42
40.0
 43
40.0
 50
180.0
  0
INSERT
  5
7CB7
  8
0
  6
BYBLOCK
 62
     0
  2
_OPEN
 10
3381.8305378057662
 20
1414.0623550760131
 30
0.0
 41
40.0
 42
40.0
 43
40.0
  0
POINT
  5
7CB8
  8
DEFPOINTS
  6
BYBLOCK
 62
     0
 10
3151.8305378057639
 20
1542.3865061589629
 30
0.0
  0
POINT
  5
7CB9
  8
DEFPOINTS
  6
BYBLOCK
 62
     0
 10
3381.8305378057662
 20
1566.5992989360909
 30
0.0
  0
POINT
  5
7CBA
  8
DEFPOINTS
  6
BYBLOCK
 62
     0
 10
3381.8305378057662
 20
1414.0623550760131
 30
0.0
  0
ENDBLK
  5
7CBB
  8
0
  0
BLOCK
  8
0
  2
*D5
 70
     1
 10
0.0
 20
0.0
 30
0.0
  3
*D5
  1

  0
LINE
  5
7FA8
  8
3
 62
     0
 10
785.16068586143774
 20
2721.599298936078
 30
0.0
 11
597.59566734086945
 21
2721.599298936078
 31
0.0
  0
LINE
  5
7FA9
  8
3
 62
     0
 10
727.84648596150316
 20
2183.599298936077
 30
0.0
 11
597.59566734086945
 21
2183.599298936077
 31
0.0
  0
LINE
  5
7FAA
  8
3
 62
     0
 10
617.59566734086957
 20
2681.599298936078
 30
0.0
 11
617.59566734086945
 21
2223.599298936077
 31
0.0
  0
INSERT
  5
7FAB
  8
3
 62
     0
  2
_OPEN
 10
617.59566734086957
 20
2721.599298936078
 30
0.0
 41
40.0
 42
40.0
 43
40.0
 50
90.0
  0
INSERT
  5
7FAC
  8
3
 62
     0
  2
_OPEN
 10
617.59566734086945
 20
2183.599298936077
 30
0.0
 41
40.0
 42
40.0
 43
40.0
 50
270.0
  0
TEXT
  8
3
  40
60
  5
802D
  62
0
  72
0
  71
0
 10
447.596
 20
2330.13
 30
0.000000
  1
538
  0
POINT
  5
7FAE
  8
DEFPOINTS
 62
     0
 10
795.16068586143774
 20
2721.599298936078
 30
0.0
  0
POINT
  5
7FAF
  8
DEFPOINTS
 62
     0
 10
737.84648596150316
 20
2183.599298936077
 30
0.0
  0
POINT
  5
7FB0
  8
DEFPOINTS
 62
     0
 10
617.59566734086945
 20
2183.599298936077
 30
0.0
  0
ENDBLK
  5
7CE0
  8
0
  0
BLOCK
  8
0
  2
*D6
 70
     1
 10
0.0
 20
0.0
 30
0.0
  3
*D6
  1

  0
LINE
  5
7FB1
  8
3
 62
     0
 10
785.16068586143786
 20
2721.599298936078
 30
0.0
 11
715.96224969263903
 21
2721.599298936078
 31
0.0
  0
LINE
  5
7FB2
  8
3
 62
     0
 10
785.16068586144127
 20
2209.599298936078
 30
0.0
 11
715.96224969263892
 21
2209.599298936078
 31
0.0
  0
LINE
  5
7FB3
  8
3
 62
     0
 10
735.96224969263903
 20
2681.599298936078
 30
0.0
 11
735.96224969263892
 21
2249.599298936078
 31
0.0
  0
INSERT
  5
7FB4
  8
3
 62
     0
  2
_OPEN
 10
735.96224969263903
 20
2721.599298936078
 30
0.0
 41
40.0
 42
40.0
 43
40.0
 50
90.0
  0
INSERT
  5
7FB5
  8
3
 62
     0
  2
_OPEN
 10
735.96224969263892
 20
2209.599298936078
 30
0.0
 41
40.0
 42
40.0
 43
40.0
 50
270.0
  0
TEXT
  8
3
  40
60
  5
802E
  62
0
  72
0
  71
0
 10
565.962
 20
2355.79
 30
0.000000
  1
512
  0
POINT
  5
7FB7
  8
DEFPOINTS
 62
     0
 10
795.16068586143786
 20
2721.599298936078
 30
0.0
  0
POINT
  5
7FB8
  8
DEFPOINTS
 62
     0
 10
795.16068586144138
 20
2209.599298936078
 30
0.0
  0
POINT
  5
7FB9
  8
DEFPOINTS
 62
     0
 10
735.96224969263892
 20
2209.599298936078
 30
0.0
  0
ENDBLK
  5
7CD4
  8
0
  0
BLOCK
  8
0
  2
*D7
 70
     1
 10
0.0
 20
0.0
 30
0.0
  3
*D7
  1

  0
LINE
  5
7FBA
  8
3
 62
     0
 10
835.16068586144422
 20
1663.5992989360791
 30
0.0
 11
597.59566734086911
 21
1663.5992989360791
 31
0.0
  0
LINE
  5
7FBB
  8
3
 62
     0
 10
617.59566734086923
 20
2143.599298936077
 30
0.0
 11
617.59566734086911
 21
1703.5992989360791
 31
0.0
  0
INSERT
  5
7FBC
  8
3
 62
     0
  2
_OPEN
 10
617.59566734086923
 20
2183.599298936077
 30
0.0
 41
40.0
 42
40.0
 43
40.0
 50
90.0
  0
INSERT
  5
7FBD
  8
3
 62
     0
  2
_OPEN
 10
617.59566734086911
 20
1663.5992989360791
 30
0.0
 41
40.0
 42
40.0
 43
40.0
 50
270.0
  0
TEXT
  8
3
  40
60
  5
802F
  62
0
  72
0
  71
0
 10
447.596
 20
1817.40
 30
0.000000
  1
520
  0
POINT
  5
7FBF
  8
DEFPOINTS
 62
     0
 10
737.84648596150316
 20
2183.599298936077
 30
0.0
  0
POINT
  5
7FC0
  8
DEFPOINTS
 62
     0
 10
845.16068586144411
 20
1663.5992989360791
 30
0.0
  0
POINT
  5
7FC1
  8
DEFPOINTS
 62
     0
 10
617.59566734086911
 20
1663.5992989360791
 30
0.0
  0
ENDBLK
  5
7CEB
  8
0
  0
BLOCK
  8
0
  2
*D8
 70
     1
 10
0.0
 20
0.0
 30
0.0
  3
*D8
  1

  0
LINE
  5
7D4F
  8
0
  6
BYBLOCK
 62
     0
 10
835.16068586144422
 20
1641.599298936078
 30
0.0
 11
597.59566734086911
 21
1641.599298936078
 31
0.0
  0
LINE
  5
7D50
  8
0
  6
BYBLOCK
 62
     0
 10
617.59566734086911
 20
1703.5992989360791
 30
0.0
 11
617.59566734086911
 21
1743.599298936078
 31
0.0
  0
LINE
  5
7D51
  8
0
  6
BYBLOCK
 62
     0
 10
617.59566734086911
 20
1601.599298936078
 30
0.0
 11
617.59566734086911
 21
1561.599298936078
 31
0.0
  0
TEXT
  5
7D52
  8
1
 62
     0
 10
541.88138162658345
 20
1565.4564417932211
 30
0.0
 40
60.0
  1
(22)
 50
90.0
  0
LINE
  5
7D53
  8
0
  6
BYBLOCK
 62
     0
 10
617.59566734086911
 20
1663.5992989360791
 30
0.0
 11
617.59566734086911
 21
1641.599298936078
 31
0.0
  0
INSERT
  5
7D54
  8
0
  6
BYBLOCK
 62
     0
  2
_OPEN
 10
617.59566734086911
 20
1663.5992989360791
 30
0.0
 41
40.0
 42
40.0
 43
40.0
 50
270.0
  0
INSERT
  5
7D55
  8
0
  6
BYBLOCK
 62
     0
  2
_DOT
 10
617.59566734086911
 20
1641.599298936078
 30
0.0
 41
40.0
 42
40.0
 43
40.0
 50
90.0
  0
POINT
  5
7D56
  8
DEFPOINTS
  6
BYBLOCK
 62
     0
 10
845.16068586144411
 20
1663.5992989360791
 30
0.0
  0
POINT
  5
7D57
  8
DEFPOINTS
  6
BYBLOCK
 62
     0
 10
845.16068586144411
 20
1641.599298936078
 30
0.0
  0
POINT
  5
7D58
  8
DEFPOINTS
  6
BYBLOCK
 62
     0
 10
617.59566734086911
 20
1641.599298936078
 30
0.0
  0
ENDBLK
  5
7D59
  8
0
  0
BLOCK
  8
0
  2
*D9
 70
     1
 10
0.0
 20
0.0
 30
0.0
  3
*D9
  1

  0
LINE
  5
7FC2
  8
3
 62
     0
 10
835.16068586144422
 20
1641.599298936078
 30
0.0
 11
597.59566734086911
 21
1641.599298936078
 31
0.0
  0
LINE
  5
7FC3
  8
3
 62
     0
 10
835.16068586144502
 20
1576.5992989360791
 30
0.0
 11
597.59566734086911
 21
1576.5992989360791
 31
0.0
  0
LINE
  5
7FC4
  8
3
 62
     0
 10
617.59566734086911
 20
1681.5992989360791
 30
0.0
 11
617.59566734086911
 21
1721.599298936078
 31
0.0
  0
LINE
  5
7FC5
  8
3
 62
     0
 10
617.59566734086911
 20
1536.5992989360791
 30
0.0
 11
617.59566734086911
 21
1359.4564417932211
 31
0.0
  0
LINE
  5
7FC6
  8
3
 62
     0
 10
617.59566734086911
 20
1641.599298936078
 30
0.0
 11
617.59566734086911
 21
1576.5992989360791
 31
0.0
  0
INSERT
  5
7FC7
  8
3
 62
     0
  2
_DOT
 10
617.59566734086911
 20
1641.599298936078
 30
0.0
 41
40.0
 42
40.0
 43
40.0
 50
270.0
  0
INSERT
  5
7FC8
  8
3
 62
     0
  2
_OPEN
 10
617.59566734086911
 20
1576.5992989360791
 30
0.0
 41
40.0
 42
40.0
 43
40.0
 50
90.0
  0
TEXT
  8
3
  40
60
  5
8030
  62
0
  72
0
  71
0
 10
447.596
 20
1321.83
 30
0.000000
  1
65
  0
POINT
  5
7FCA
  8
DEFPOINTS
 62
     0
 10
845.16068586144411
 20
1641.599298936078
 30
0.0
  0
POINT
  5
7FCB
  8
DEFPOINTS
 62
     0
 10
845.16068586144502
 20
1576.5992989360791
 30
0.0
  0
POINT
  5
7FCC
  8
DEFPOINTS
 62
     0
 10
617.59566734086911
 20
1576.5992989360791
 30
0.0
  0
ENDBLK
  5
7D66
  8
0
  0
BLOCK
  8
0
  2
_DOT
 70
     0
 10
0.0
 20
0.0
 30
0.0
  3
_DOT
  1

  0
LINE
  5
7E4B
  8
0
  6
BYBLOCK
 62
     0
 10
0.0
 20
0.0
 30
0.0
 11
-1.0
 21
-0.0000000000000284
 31
0.0
  0
POLYLINE
  5
7E4C
  8
0
  6
BYBLOCK
 62
     0
 66
     1
 10
0.0
 20
0.0
 30
0.0
 70
     1
 40
0.1666666666666666
 41
0.1666666666666666
  0
VERTEX
  5
8027
  8
0
  6
BYBLOCK
 62
     0
 10
-0.0833333333333286
 20
-0.0000000000000284
 30
0.0
 42
1.0
  0
VERTEX
  5
8028
  8
0
  6
BYBLOCK
 62
     0
 10
0.0833333333333286
 20
-0.0000000000000284
 30
0.0
 42
1.0
  0
SEQEND
  5
8029
  8
0
  6
BYBLOCK
 62
     0
  0
ENDBLK
  5
7D4D
  8
0
  0
BLOCK
  8
0
  2
*D11
 70
     1
 10
0.0
 20
0.0
 30
0.0
  3
*D11
  1

  0
LINE
  5
7FCD
  8
3
 62
     0
 10
785.16068586143683
 20
2753.2044818993809
 30
0.0
 11
432.354756704583
 21
2753.2044818993809
 31
0.0
  0
LINE
  5
7FCE
  8
3
 62
     0
 10
835.16068586144502
 20
1576.5992989360791
 30
0.0
 11
432.35475670458271
 21
1576.5992989360791
 31
0.0
  0
LINE
  5
7FCF
  8
3
 62
     0
 10
452.354756704583
 20
2713.2044818993809
 30
0.0
 11
452.35475670458271
 21
1616.5992989360791
 31
0.0
  0
INSERT
  5
7FD0
  8
3
 62
     0
  2
_OPEN
 10
452.354756704583
 20
2753.2044818993809
 30
0.0
 41
40.0
 42
40.0
 43
40.0
 50
90.0
  0
INSERT
  5
7FD1
  8
3
 62
     0
  2
_OPEN
 10
452.35475670458271
 20
1576.5992989360791
 30
0.0
 41
40.0
 42
40.0
 43
40.0
 50
270.0
  0
TEXT
  8
3
  40
60
  5
8031
  62
0
  72
0
  71
0
 10
266.640
 20
2045.24
 30
0.000000
  1
(1177)
  0
POINT
  5
7FD3
  8
DEFPOINTS
 62
     0
 10
795.16068586143683
 20
2753.2044818993809
 30
0.0
  0
POINT
  5
7FD4
  8
DEFPOINTS
 62
     0
 10
845.16068586144502
 20
1576.5992989360791
 30
0.0
  0
POINT
  5
7FD5
  8
DEFPOINTS
 62
     0
 10
452.35475670458271
 20
1576.5992989360791
 30
0.0
  0
ENDBLK
  5
7D7E
  8
0
  0
BLOCK
  8
0
  2
*D12
 70
     1
 10
0.0
 20
0.0
 30
0.0
  3
*D12
  1

  0
LINE
  5
7FD6
  8
3
 62
     0
 10
795.16068586143683
 20
2763.2044818993818
 30
0.0
 11
795.16068586143683
 21
2908.8098510110831
 31
0.0
  0
LINE
  5
7FD7
  8
3
 62
     0
 10
1155.1606858614359
 20
2836.8920235358892
 30
0.0
 11
1155.1606858614359
 21
2908.8098510110831
 31
0.0
  0
LINE
  5
7FD8
  8
3
 62
     0
 10
835.16068586143695
 20
2888.8098510110831
 30
0.0
 11
1115.1606858614359
 21
2888.8098510110831
 31
0.0
  0
INSERT
  5
7FD9
  8
3
 62
     0
  2
_OPEN
 10
795.16068586143683
 20
2888.8098510110831
 30
0.0
 41
40.0
 42
40.0
 43
40.0
 50
180.0
  0
INSERT
  5
7FDA
  8
3
 62
     0
  2
_OPEN
 10
1155.1606858614359
 20
2888.8098510110831
 30
0.0
 41
40.0
 42
40.0
 43
40.0
  0
TEXT
  8
3
  40
60
  5
8032
  62
0
  72
0
  71
0
 10
857.836
 20
2832.61
 30
0.000000
  1
360
  0
POINT
  5
7FDC
  8
DEFPOINTS
 62
     0
 10
795.16068586143683
 20
2753.2044818993809
 30
0.0
  0
POINT
  5
7FDD
  8
DEFPOINTS
 62
     0
 10
1155.1606858614359
 20
2826.8920235358901
 30
0.0
  0
POINT
  5
7FDE
  8
DEFPOINTS
 62
     0
 10
1155.1606858614359
 20
2888.8098510110831
 30
0.0
  0
ENDBLK
  5
7D8A
  8
0
  0
BLOCK
  8
0
  2
*D13
 70
     1
 10
0.0
 20
0.0
 30
0.0
  3
*D13
  1

  0
LINE
  5
7FDF
  8
3
 62
     0
 10
1591.608676669302
 20
2230.5992989360798
 30
0.0
 11
1591.608676669302
 21
2908.8098510110831
 31
0.0
  0
LINE
  5
7FE0
  8
3
 62
     0
 10
1195.1606858614359
 20
2888.8098510110831
 30
0.0
 11
1551.608676669302
 21
2888.8098510110831
 31
0.0
  0
INSERT
  5
7FE1
  8
3
 62
     0
  2
_OPEN
 10
1155.1606858614359
 20
2888.8098510110831
 30
0.0
 41
40.0
 42
40.0
 43
40.0
 50
180.0
  0
INSERT
  5
7FE2
  8
3
 62
     0
  2
_OPEN
 10
1591.608676669302
 20
2888.8098510110831
 30
0.0
 41
40.0
 42
40.0
 43
40.0
  0
TEXT
  8
3
  40
60
  5
8033
  62
0
  72
0
  71
0
 10
1253.38
 20
2832.61
 30
0.000000
  1
436
  0
POINT
  5
7FE4
  8
DEFPOINTS
 62
     0
 10
1155.1606858614359
 20
2826.8920235358901
 30
0.0
  0
POINT
  5
7FE5
  8
DEFPOINTS
 62
     0
 10
1591.608676669302
 20
2220.5992989360789
 30
0.0
  0
POINT
  5
7FE6
  8
DEFPOINTS
 62
     0
 10
1591.608676669302
 20
2888.8098510110831
 30
0.0
  0
ENDBLK
  5
7D96
  8
0
  0
BLOCK
  8
0
  2
*D14
 70
     1
 10
0.0
 20
0.0
 30
0.0
  3
*D14
  1

  0
LINE
  5
7FE7
  8
3
 62
     0
 10
2964.3305378057639
 20
2731.599298936083
 30
0.0
 11
2964.3305378057639
 21
2875.292870272222
 31
0.0
  0
LINE
  5
7FE8
  8
3
 62
     0
 10
3339.3305378057639
 20
2731.599298936083
 30
0.0
 11
3339.3305378057639
 21
2875.292870272222
 31
0.0
  0
LINE
  5
7FE9
  8
3
 62
     0
 10
3004.330537805763
 20
2855.292870272222
 30
0.0
 11
3299.3305378057648
 21
2855.292870272222
 31
0.0
  0
INSERT
  5
7FEA
  8
3
 62
     0
  2
_OPEN
 10
2964.3305378057639
 20
2855.292870272222
 30
0.0
 41
40.0
 42
40.0
 43
40.0
 50
180.0
  0
INSERT
  5
7FEB
  8
3
 62
     0
  2
_OPEN
 10
3339.3305378057639
 20
2855.292870272222
 30
0.0
 41
40.0
 42
40.0
 43
40.0
  0
TEXT
  8
3
  40
60
  5
8034
  62
0
  72
0
  71
0
 10
3032.44
 20
2799.09
 30
0.000000
  1
375
  0
POINT
  5
7FED
  8
DEFPOINTS
 62
     0
 10
2964.3305378057639
 20
2721.599298936083
 30
0.0
  0
POINT
  5
7FEE
  8
DEFPOINTS
 62
     0
 10
3339.3305378057639
 20
2721.599298936083
 30
0.0
  0
POINT
  5
7FEF
  8
DEFPOINTS
 62
     0
 10
3339.3305378057639
 20
2855.292870272222
 30
0.0
  0
ENDBLK
  5
7DA3
  8
0
  0
BLOCK
  8
0
  2
*D15
 70
     1
 10
0.0
 20
0.0
 30
0.0
  3
*D15
  1

  0
LINE
  5
7FF0
  8
3
 62
     0
 10
3151.8305378057662
 20
2934.4992348544029
 30
0.0
 11
3151.8305378057662
 21
2992.8685810210809
 31
0.0
  0
LINE
  5
7FF1
  8
3
 62
     0
 10
3343.630537805765
 20
2473.599298936083
 30
0.0
 11
3343.630537805765
 21
2992.8685810210809
 31
0.0
  0
LINE
  5
7FF2
  8
3
 62
     0
 10
3111.8305378057662
 20
2972.8685810210809
 30
0.0
 11
3071.8305378057648
 21
2972.8685810210809
 31
0.0
  0
LINE
  5
7FF3
  8
3
 62
     0
 10
3383.630537805765
 20
2972.8685810210809
 30
0.0
 11
3423.630537805765
 21
2972.8685810210809
 31
0.0
  0
LINE
  5
7FF4
  8
3
 62
     0
 10
3151.8305378057662
 20
2972.8685810210809
 30
0.0
 11
3343.630537805765
 21
2972.8685810210809
 31
0.0
  0
INSERT
  5
7FF5
  8
3
 62
     0
  2
_OPEN
 10
3151.8305378057662
 20
2972.8685810210809
 30
0.0
 41
40.0
 42
40.0
 43
40.0
  0
INSERT
  5
7FF6
  8
3
 62
     0
  2
_OPEN
 10
3343.630537805765
 20
2972.8685810210809
 30
0.0
 41
40.0
 42
40.0
 43
40.0
 50
180.0
  0
TEXT
  8
3
  40
60
  5
8035
  62
0
  72
0
  71
0
 10
3127.73
 20
2916.67
 30
0.000000
  1
192
  0
POINT
  5
7FF8
  8
DEFPOINTS
 62
     0
 10
3151.8305378057662
 20
2924.4992348544029
 30
0.0
  0
POINT
  5
7FF9
  8
DEFPOINTS
 62
     0
 10
3343.630537805765
 20
2463.599298936083
 30
0.0
  0
POINT
  5
7FFA
  8
DEFPOINTS
 62
     0
 10
3343.630537805765
 20
2972.8685810210809
 30
0.0
  0
ENDBLK
  5
7DC0
  8
0
  0
BLOCK
  8
0
  2
*D16
 70
     1
 10
0.0
 20
0.0
 30
0.0
  3
*D16
  1

  0
LINE
  5
7FFB
  8
3
 62
     0
 10
2618.5902994562539
 20
2413.5992989360821
 30
0.0
 11
2618.5902994562539
 21
2992.8685810210809
 31
0.0
  0
LINE
  5
7FFC
  8
3
 62
     0
 10
3111.8305378057662
 20
2972.8685810210809
 30
0.0
 11
2658.590299456253
 21
2972.8685810210809
 31
0.0
  0
INSERT
  5
7FFD
  8
3
 62
     0
  2
_OPEN
 10
3151.8305378057662
 20
2972.8685810210809
 30
0.0
 41
40.0
 42
40.0
 43
40.0
  0
INSERT
  5
7FFE
  8
3
 62
     0
  2
_OPEN
 10
2618.5902994562539
 20
2972.8685810210809
 30
0.0
 41
40.0
 42
40.0
 43
40.0
 50
180.0
  0
TEXT
  8
3
  40
60
  5
8036
  62
0
  72
0
  71
0
 10
2765.21
 20
2966.67
 30
0.000000
  1
MAX
  0
TEXT
  8
3
  40
60
  5
8037
  62
0
  72
0
  71
0
 10
2765.21
 20
2888.67
 30
0.000000
  1
560
  0
POINT
  5
8000
  8
DEFPOINTS
 62
     0
 10
3151.8305378057662
 20
2924.4992348544029
 30
0.0
  0
POINT
  5
8001
  8
DEFPOINTS
 62
     0
 10
2618.5902994562539
 20
2403.5992989360821
 30
0.0
  0
POINT
  5
8002
  8
DEFPOINTS
 62
     0
 10
2618.5902994562539
 20
2972.8685810210809
 30
0.0
  0
ENDBLK
  5
7DD6
  8
0
  0
BLOCK
  8
0
  2
*D17
 70
     1
 10
0.0
 20
0.0
 30
0.0
  3
*D17
  1

  0
LINE
  5
8003
  8
3
 62
     0
 10
3381.8305378057648
 20
2433.599298936083
 30
0.0
 11
3563.2867566744462
 21
2433.599298936083
 31
0.0
  0
LINE
  5
8004
  8
3
 62
     0
 10
3381.8305378057648
 20
1933.599298936083
 30
0.0
 11
3563.2867566744462
 21
1933.599298936083
 31
0.0
  0
LINE
  5
8005
  8
3
 62
     0
 10
3543.2867566744471
 20
2393.599298936083
 30
0.0
 11
3543.2867566744471
 21
1973.599298936083
 31
0.0
  0
INSERT
  5
8006
  8
3
 62
     0
  2
_OPEN
 10
3543.2867566744471
 20
2433.599298936083
 30
0.0
 41
40.0
 42
40.0
 43
40.0
 50
90.0
  0
INSERT
  5
8007
  8
3
 62
     0
  2
_OPEN
 10
3543.2867566744471
 20
1933.599298936083
 30
0.0
 41
40.0
 42
40.0
 43
40.0
 50
270.0
  0
TEXT
  8
3
  40
60
  5
8038
  62
0
  72
0
  71
0
 10
3373.29
 20
2077.14
 30
0.000000
  1
φ500
  0
POINT
  5
8009
  8
DEFPOINTS
 62
     0
 10
3371.8305378057648
 20
2433.599298936083
 30
0.0
  0
POINT
  5
800A
  8
DEFPOINTS
 62
     0
 10
3371.8305378057648
 20
1933.599298936083
 30
0.0
  0
POINT
  5
800B
  8
DEFPOINTS
 62
     0
 10
3543.2867566744471
 20
1933.599298936083
 30
0.0
  0
ENDBLK
  5
7DEF
  8
0
  0
BLOCK
  8
0
  2
*D18
 70
     1
 10
0.0
 20
0.0
 30
0.0
  3
*D18
  1

  0
LINE
  5
800C
  8
3
 62
     0
 10
845.16068586143217
 20
4003.7134101767379
 30
0.0
 11
845.16068586143217
 21
4217.0812807996608
 31
0.0
  0
LINE
  5
800D
  8
3
 62
     0
 10
1965.1606858614321
 20
4003.7134101767479
 30
0.0
 11
1965.1606858614321
 21
4217.0812807996608
 31
0.0
  0
LINE
  5
800E
  8
3
 62
     0
 10
885.16068586143228
 20
4197.0812807996599
 30
0.0
 11
1925.1606858614321
 21
4197.0812807996599
 31
0.0
  0
INSERT
  5
800F
  8
3
 62
     0
  2
_OPEN
 10
845.16068586143217
 20
4197.0812807996599
 30
0.0
 41
40.0
 42
40.0
 43
40.0
 50
180.0
  0
INSERT
  5
8010
  8
3
 62
     0
  2
_OPEN
 10
1965.1606858614321
 20
4197.0812807996599
 30
0.0
 41
40.0
 42
40.0
 43
40.0
  0
TEXT
  8
3
  40
60
  5
8039
  62
0
  72
0
  71
0
 10
1232.38
 20
4140.88
 30
0.000000
  1
1120
  0
POINT
  5
8012
  8
DEFPOINTS
 62
     0
 10
845.16068586143217
 20
3993.7134101767379
 30
0.0
  0
POINT
  5
8013
  8
DEFPOINTS
 62
     0
 10
1965.1606858614321
 20
3993.7134101767492
 30
0.0
  0
POINT
  5
8014
  8
DEFPOINTS
 62
     0
 10
1965.1606858614321
 20
4197.0812807996599
 30
0.0
  0
ENDBLK
  5
7E99
  8
0
  0
BLOCK
  8
0
  2
*D19
 70
     1
 10
0.0
 20
0.0
 30
0.0
  3
*D19
  1

  0
LINE
  5
8015
  8
3
 62
     0
 10
1975.1606858614321
 20
3993.7134101767492
 30
0.0
 11
2171.7845584003489
 21
3993.7134101767492
 31
0.0
  0
LINE
  5
8016
  8
3
 62
     0
 10
1975.1606858614359
 20
3368.7134101767469
 30
0.0
 11
2171.7845584003489
 21
3368.7134101767469
 31
0.0
  0
LINE
  5
8017
  8
3
 62
     0
 10
2151.784558400348
 20
3953.7134101767479
 30
0.0
 11
2151.784558400348
 21
3408.7134101767479
 31
0.0
  0
INSERT
  5
8018
  8
3
 62
     0
  2
_OPEN
 10
2151.784558400348
 20
3993.7134101767492
 30
0.0
 41
40.0
 42
40.0
 43
40.0
 50
90.0
  0
INSERT
  5
8019
  8
3
 62
     0
  2
_OPEN
 10
2151.784558400348
 20
3368.7134101767469
 30
0.0
 41
40.0
 42
40.0
 43
40.0
 50
270.0
  0
TEXT
  8
3
  40
60
  5
803A
  62
0
  72
0
  71
0
 10
1981.78
 20
3582.54
 30
0.000000
  1
625
  0
POINT
  5
801B
  8
DEFPOINTS
 62
     0
 10
1965.1606858614321
 20
3993.7134101767492
 30
0.0
  0
POINT
  5
801C
  8
DEFPOINTS
 62
     0
 10
1965.1606858614359
 20
3368.7134101767469
 30
0.0
  0
POINT
  5
801D
  8
DEFPOINTS
 62
     0
 10
2151.784558400348
 20
3368.7134101767469
 30
0.0
  0
ENDBLK
  5
7EA4
  8
0
  0
BLOCK
  8
0
  2
*D20
 70
     1
 10
0.0
 20
0.0
 30
0.0
  3
*D20
  1

  0
LINE
  5
801E
  8
3
 62
     0
 10
795.16068586143683
 20
2763.2044818993818
 30
0.0
 11
795.16068586143683
 21
3058.2243059698699
 31
0.0
  0
LINE
  5
801F
  8
3
 62
     0
 10
1965.160685861443
 20
1738.599298936088
 30
0.0
 11
1965.160685861443
 21
3058.2243059698699
 31
0.0
  0
LINE
  5
8020
  8
3
 62
     0
 10
835.16068586143695
 20
3038.2243059698699
 30
0.0
 11
1925.160685861443
 21
3038.2243059698699
 31
0.0
  0
INSERT
  5
8021
  8
3
 62
     0
  2
_OPEN
 10
795.16068586143683
 20
3038.2243059698699
 30
0.0
 41
40.0
 42
40.0
 43
40.0
 50
180.0
  0
INSERT
  5
8022
  8
3
 62
     0
  2
_OPEN
 10
1965.160685861443
 20
3038.2243059698699
 30
0.0
 41
40.0
 42
40.0
 43
40.0
  0
TEXT
  8
3
  40
60
  5
803B
  62
0
  72
0
  71
0
 10
1320.21
 20
2982.02
 30
0.000000
  1
1170
  0
POINT
  5
8024
  8
DEFPOINTS
 62
     0
 10
795.16068586143683
 20
2753.2044818993809
 30
0.0
  0
POINT
  5
8025
  8
DEFPOINTS
 62
     0
 10
1965.160685861443
 20
1728.599298936088
 30
0.0
  0
POINT
  5
8026
  8
DEFPOINTS
 62
     0
 10
1965.160685861443
 20
3038.2243059698699
 30
0.0
  0
ENDBLK
  5
7E4A
  8
0
  0
ENDSEC
  0
SECTION
  2
ENTITIES
  0
LINE
  5
7B33
  8
1
 10
2757.3305378057648
 20
2123.599298936083
 30
0.0
 11
2962.3305378057648
 21
2123.599298936083
 31
0.0
  0
LINE
  5
7B34
  8
1
 10
2756.8305378057639
 20
1738.5992989360909
 30
0.0
 11
3381.8305378057648
 21
1738.5992989360921
 31
0.0
  0
LINE
  5
7B35
  8
1
 10
2756.8305378057639
 20
1663.5992989360909
 30
0.0
 11
3381.8305378057648
 21
1663.5992989360921
 31
0.0
  0
LINE
  5
7B36
  8
1
 10
2757.3305378057648
 20
2120.3992989360818
 30
0.0
 11
2962.3305378057648
 21
2120.3992989360841
 31
0.0
  0
LINE
  5
7B37
  8
2
 10
2535.2309992133341
 20
2183.599298936083
 30
0.0
 11
3395.7067976458802
 21
2183.599298936083
 31
0.0
1001
ACAD
1000
ASC_BOUNDS
1002
{
1070
    19
1002
}
  0
LINE
  5
7B38
  8
1
 10
2791.8305378057648
 20
1663.5992989360909
 30
0.0
 11
3381.8305378057648
 21
1663.5992989360921
 31
0.0
  0
CIRCLE
  5
7B39
  8
1
 10
1155.1606858614409
 20
2183.5992989360811
 30
0.0
 40
139.69999999999999
  0
ARC
  5
7B3A
  8
1
 10
1186.1606858614409
 20
2152.5992989360811
 30
0.0
 40
331.18379814435627
 50
183.5488295040773
 51
264.95754893082949
  0
LINE
  5
7B3B
  8
1
 10
795.16068586143774
 20
2721.599298936078
 30
0.0
 11
1155.1606858614371
 21
2692.5992989360811
 31
0.0
  0
LINE
  5
7B3C
  8
1
 10
2665.5305378057628
 20
2323.2992989360828
 30
0.0
 11
2665.530537805766
 21
2043.899298936082
 31
0.0
  0
LINE
  5
7B3D
  8
1
 10
2705.5305378057628
 20
2323.2992989360828
 30
0.0
 11
2705.5305378057651
 21
2043.899298936082
 31
0.0
  0
LINE
  5
7B3E
  8
1
 10
2618.5902994562539
 20
2403.599298936083
 30
0.0
 11
2618.5902994562548
 21
1738.59929893609
 31
0.0
  0
LINE
  5
7B3F
  8
2
 10
737.84648596150316
 20
2183.599298936077
 30
0.0
 11
1687.795484133788
 21
2183.5992989360848
 31
0.0
  0
ARC
  5
7B40
  8
1
 10
1118.1606858614409
 20
2220.5992989360789
 30
0.0
 40
473.44799080786078
 50
0.0000000000004796
 51
85.517759629575451
  0
LINE
  5
7B41
  8
1
 10
845.1606858614432
 20
1728.599298936078
 30
0.0
 11
1965.160685861443
 21
1728.599298936088
 31
0.0
  0
LINE
  5
7B42
  8
1
 10
845.16068586144411
 20
1663.5992989360791
 30
0.0
 11
1965.1606858614441
 21
1663.5992989360871
 31
0.0
  0
CIRCLE
  5
7B43
  8
1
 10
1805.1606858614421
 20
1851.5992989360859
 30
0.0
 40
57.149999999999991
  0
LINE
  5
7B44
  8
1
 10
1805.160685861443
 20
1782.615198936086
 30
0.0
 11
1805.1606858614409
 21
1960.0603989360859
 31
0.0
  0
LINE
  5
7B45
  8
1
 10
1928.876580386257
 20
1728.5992989360871
 30
0.0
 11
1681.4447913366309
 21
1728.599298936085
 31
0.0
  0
LINE
  5
7B46
  8
1
 10
1965.1606858614441
 20
1663.5992989360871
 30
0.0
 11
1965.160685861443
 21
1728.599298936088
 31
0.0
  0
ARC
  5
7B47
  8
1
 10
1192.1606858614409
 20
2220.5992989360811
 30
0.0
 40
399.44799080786061
 50
264.95754893082949
 51
0.0000000000004796
  0
LINE
  5
7B48
  8
2
 10
1155.1606858614359
 20
2826.8920235358901
 30
0.0
 11
1155.1606858614459
 21
1534.793437407712
 31
0.0
  0
LINE
  5
7B49
  8
1
 10
845.16068586144411
 20
1663.5992989360791
 30
0.0
 11
845.1606858614432
 21
1728.599298936078
 31
0.0
  0
LINE
  5
7B4A
  8
1
 10
2665.530537805766
 20
2043.899298936082
 30
0.0
 11
2665.5305378057651
 21
1792.449298936084
 31
0.0
  0
LINE
  5
7B4B
  8
1
 10
2705.5305378057651
 20
2043.899298936082
 30
0.0
 11
2705.5305378057651
 21
1792.449298936084
 31
0.0
  0
LINE
  5
7B4C
  8
1
 10
2757.3305378057648
 20
2123.599298936083
 30
0.0
 11
2757.3305378057648
 21
1935.5992989360909
 31
0.0
  0
LINE
  5
7B4D
  8
1
 10
2760.5305378057642
 20
2120.3992989360818
 30
0.0
 11
2760.5305378057651
 21
1935.5992989360909
 31
0.0
  0
LINE
  5
7B4E
  8
1
 10
2665.530537805766
 20
1792.4492989360849
 30
0.0
 11
2705.530537805766
 21
1792.4492989360849
 31
0.0
  0
LINE
  5
7B4F
  8
1
 10
2618.5902994562548
 20
1738.59929893609
 30
0.0
 11
2740.5902994562539
 21
1738.59929893609
 31
0.0
  0
LINE
  5
7B50
  8
1
 10
2740.5902994562539
 20
1758.59929893609
 30
0.0
 11
2740.5902994562539
 21
1738.59929893609
 31
0.0
  0
LINE
  5
7B51
  8
1
 10
2665.530537805766
 20
2043.899298936082
 30
0.0
 11
2705.5305378057651
 21
2043.899298936082
 31
0.0
1001
ACAD
1000
ASC_BOUNDS
1002
{
1070
    19
1002
}
  0
LINE
  5
7B52
  8
1
 10
2665.530537805766
 20
1906.7492989360851
 30
0.0
 11
2705.530537805766
 21
1906.7492989360851
 31
0.0
  0
LINE
  5
7B53
  8
1
 10
2705.5305378057642
 20
2202.599298936083
 30
0.0
 11
2735.5305378057651
 21
2202.5992989360811
 31
0.0
1001
ACAD
1000
ASC_BOUNDS
1002
{
1070
    19
1002
}
  0
LINE
  5
7B54
  8
1
 10
2705.5305378057651
 20
2164.599298936083
 30
0.0
 11
2735.5305378057651
 21
2164.599298936083
 31
0.0
1001
ACAD
1000
ASC_BOUNDS
1002
{
1070
    19
1002
}
  0
LINE
  5
7B55
  8
1
 10
2735.5305378057651
 20
2206.099298936083
 30
0.0
 11
2735.5305378057651
 21
2161.099298936083
 31
0.0
  0
LINE
  5
7B56
  8
1
 10
1965.1606858614321
 20
3993.7134101767492
 30
0.0
 11
845.16068586143217
 21
3993.7134101767379
 31
0.0
  0
LINE
  5
7B57
  8
1
 10
1965.1606858614321
 20
3953.7134101767479
 30
0.0
 11
845.16068586143217
 21
3953.7134101767379
 31
0.0
  0
LINE
  5
7B58
  8
1
 10
1965.1606858614359
 20
3368.7134101767469
 30
0.0
 11
1925.9606858614361
 21
3368.7134101767469
 31
0.0
  0
LINE
  5
7B59
  8
1
 10
1965.1606858614359
 20
3408.7134101767479
 30
0.0
 11
1925.9606858614361
 21
3408.7134101767479
 31
0.0
  0
LINE
  5
7B5A
  8
1
 10
798.16068586143683
 20
2753.20448189938
 30
0.0
 11
798.16068586144127
 21
2177.999298936078
 31
0.0
  0
LINE
  5
7B5B
  8
1
 10
795.16068586143774
 20
2721.599298936078
 30
0.0
 11
795.16068586144138
 21
2209.599298936078
 31
0.0
  0
LINE
  5
7B5C
  8
1
 10
795.16068586144138
 20
2199.599298936078
 30
0.0
 11
795.16068586143774
 21
2731.6316924567232
 31
0.0
  0
LINE
  5
7B5D
  8
1
 10
825.16068586143672
 20
2753.2044818993809
 30
0.0
 11
825.16068586144138
 21
2177.999298936078
 31
0.0
  0
LINE
  5
7B5E
  8
1
 10
795.16068586144138
 20
2177.999298936078
 30
0.0
 11
795.16068586143683
 21
2753.2044818993809
 31
0.0
  0
LINE
  5
7B5F
  8
1
 10
1925.1606858614321
 20
3953.7134101767479
 30
0.0
 11
1925.160685861435
 21
3625.0634674915009
 31
0.0
  0
LINE
  5
7B60
  8
1
 10
1965.1606858614321
 20
3953.7134101767479
 30
0.0
 11
1965.1606858614359
 21
3408.7134101767479
 31
0.0
  0
POINT
  5
7B61
  8
1
 10
795.16068586143774
 20
2723.2044818993809
 30
0.0
  0
POINT
  5
7B62
  8
1
 10
795.16068586143774
 20
2721.599298936078
 30
0.0
  0
POINT
  5
7B63
  8
1
 10
795.16068586143774
 20
2721.599298936078
 30
0.0
  0
POINT
  5
7B64
  8
1
 10
795.16068586143774
 20
2721.599298936078
 30
0.0
  0
LINE
  5
7B65
  8
1
 10
795.16068586143683
 20
2753.2044818993809
 30
0.0
 11
825.16068586143672
 21
2753.2044818993809
 31
0.0
  0
LINE
  5
7B66
  8
1
 10
1965.1606858614359
 20
3368.7134101767469
 30
0.0
 11
1965.1606858614359
 21
3408.7134101767479
 31
0.0
  0
LINE
  5
7B67
  8
1
 10
1965.1606858614321
 20
3953.7134101767479
 30
0.0
 11
1965.1606858614321
 21
3993.7134101767492
 31
0.0
  0
LINE
  5
7B68
  8
1
 10
845.16068586143683
 20
3368.7134101767379
 30
0.0
 11
845.16068586143683
 21
3408.7134101767379
 31
0.0
  0
ARC
  5
7B69
  8
1
 10
1124.160685861443
 20
2152.5992989360811
 30
0.0
 40
269.18379814435679
 50
167.77500151106651
 51
176.91218006349641
  0
LINE
  5
7B6A
  8
1
 10
861.08100746833225
 20
2209.599298936078
 30
0.0
 11
795.16068586144138
 21
2209.599298936078
 31
0.0
  0
POINT
  5
7B6B
  8
1
 10
795.16068586144138
 20
2209.599298936078
 30
0.0
  0
LINE
  5
7B6C
  8
1
 10
825.16068586144138
 20
2177.999298936078
 30
0.0
 11
795.16068586144138
 21
2177.999298936078
 31
0.0
  0
LINE
  5
7B6D
  8
1
 10
2740.5902994562539
 20
2403.599298936083
 30
0.0
 11
2618.5902994562539
 21
2403.599298936083
 31
0.0
  0
LINE
  5
7B6E
  8
1
 10
2618.5902994562539
 20
2403.5992989360821
 30
0.0
 11
2740.5902994562539
 21
2403.5992989360821
 31
0.0
  0
LINE
  5
7B6F
  8
1
 10
2665.5305378057628
 20
2323.2992989360828
 30
0.0
 11
2705.5305378057628
 21
2323.2992989360828
 31
0.0
1001
ACAD
1000
ASC_BOUNDS
1002
{
1070
    19
1002
}
  0
LINE
  5
7B70
  8
1
 10
2740.5902994562539
 20
2383.5992989360821
 30
0.0
 11
2740.5902994562539
 21
2403.599298936083
 31
0.0
  0
LINE
  5
7B71
  8
1
 10
2964.3305378057639
 20
2723.8992989360841
 30
0.0
 11
2964.3305378057648
 21
2183.5992989360821
 31
0.0
  0
LINE
  5
7B72
  8
1
 10
3339.3305378057639
 20
2723.8992989360841
 30
0.0
 11
3339.3305378057648
 21
2183.599298936083
 31
0.0
  0
LINE
  5
7B73
  8
1
 10
3343.630537805765
 20
2177.599298936083
 30
0.0
 11
3343.630537805765
 21
2433.599298936083
 31
0.0
  0
LINE
  5
7B74
  8
1
 10
3373.6305378057659
 20
1968.2992989360821
 30
0.0
 11
3373.6305378057659
 21
2433.599298936083
 31
0.0
  0
LINE
  5
7B76
  8
1
 10
2964.3305378057648
 20
2183.599298936083
 30
0.0
 11
2964.3305378057662
 21
1948.323396153796
 31
0.0
  0
LINE
  5
7B77
  8
1
 10
2860.8305378057662
 20
2206.099298936083
 30
0.0
 11
2962.3305378057648
 21
2206.099298936083
 31
0.0
1001
ACAD
1000
ASC_BOUNDS
1002
{
1070
    19
1002
}
  0
LINE
  5
7B78
  8
1
 10
2735.5305378057651
 20
2161.099298936083
 30
0.0
 11
2962.3305378057648
 21
2161.099298936083
 31
0.0
1001
ACAD
1000
ASC_BOUNDS
1002
{
1070
    19
1002
}
  0
LINE
  5
7B79
  8
1
 10
2864.9589551676622
 20
2161.099298936083
 30
0.0
 11
2900.823645586267
 21
2161.099298936083
 31
0.0
1001
ACAD
1000
ASC_BOUNDS
1002
{
1070
    19
1002
}
  0
LINE
  5
7B7A
  8
1
 10
2735.5305378057651
 20
2206.099298936083
 30
0.0
 11
2900.823645586267
 21
2206.099298936083
 31
0.0
1001
ACAD
1000
ASC_BOUNDS
1002
{
1070
    19
1002
}
  0
LINE
  5
7B7B
  8
1
 10
3343.630537805765
 20
1933.599298936083
 30
0.0
 11
3343.630537805765
 21
2177.599298936083
 31
0.0
  0
LINE
  5
7B7C
  8
1
 10
3339.3305378057648
 20
2183.599298936083
 30
0.0
 11
3339.3305378057639
 21
1738.5992989360921
 31
0.0
  0
LINE
  5
7B7D
  8
1
 10
3381.8305378057648
 20
1738.5992989360921
 30
0.0
 11
3381.8305378057648
 21
1663.5992989360921
 31
0.0
  0
LINE
  5
7B7E
  8
1
 10
3343.630537805765
 20
1903.599298936083
 30
0.0
 11
3339.3305378057639
 21
1903.599298936083
 31
0.0
  0
LINE
  5
7B7F
  8
1
 10
3343.630537805765
 20
1903.599298936083
 30
0.0
 11
3343.630537805765
 21
1933.599298936083
 31
0.0
  0
LINE
  5
7B80
  8
1
 10
3343.630537805765
 20
2463.599298936083
 30
0.0
 11
3343.630537805765
 21
2433.599298936083
 31
0.0
  0
LINE
  5
7B81
  8
1
 10
3343.630537805765
 20
2433.599298936083
 30
0.0
 11
3373.6305378057659
 21
2433.599298936083
 31
0.0
  0
LINE
  5
7B82
  8
1
 10
3343.630537805765
 20
2463.599298936083
 30
0.0
 11
3339.3305378057639
 21
2463.599298936083
 31
0.0
  0
POINT
  5
7B83
  8
1
 10
3343.630537805765
 20
2458.599298936083
 30
0.0
  0
LINE
  5
7B84
  8
1
 10
3013.180595120522
 20
1821.151308128228
 30
0.0
 11
3339.3305378057639
 21
1821.1513081282301
 31
0.0
  0
LINE
  5
7B85
  8
1
 10
1805.160685861443
 20
1749.0992989360859
 30
0.0
 11
1805.1606858614409
 21
1926.659770243486
 31
0.0
  0
LINE
  5
7B86
  8
1
 10
1214.797578976918
 20
2309.930336213281
 30
0.0
 11
1833.986504962719
 21
1900.1847099557151
 31
0.0
  0
LINE
  5
7B87
  8
1
 10
1155.1606858614391
 20
2447.1821100921288
 30
0.0
 11
1905.160685861443
 21
1931.4287060838651
 31
0.0
  0
LINE
  5
7B88
  8
1
 10
1126.459571535815
 20
2046.8793807219911
 30
0.0
 11
1781.6465383317609
 21
1799.510841808308
 31
0.0
  0
LINE
  5
7B89
  8
1
 10
2964.3305378057639
 20
2721.599298936083
 30
0.0
 11
3339.3305378057639
 21
2721.599298936083
 31
0.0
1001
ACAD
1000
ASC_BOUNDS
1002
{
1070
    19
1002
}
  0
LINE
  5
7B8A
  8
1
 10
2931.8305378057648
 20
2753.599298936083
 30
0.0
 11
3371.8305378057648
 21
2753.599298936083
 31
0.0
1001
ACAD
1000
ASC_BOUNDS
1002
{
1070
    19
1002
}
  0
LINE
  5
7B8B
  8
1
 10
2931.8305378057648
 20
2753.599298936083
 30
0.0
 11
2931.8305378057639
 21
2206.099298936083
 31
0.0
  0
LINE
  5
7B8C
  8
1
 10
3371.8305378057648
 20
2753.599298936083
 30
0.0
 11
3371.8305378057648
 21
2433.599298936083
 31
0.0
  0
LINE
  5
7B8D
  8
2
 10
3151.8305378057662
 20
2837.8504554860742
 30
0.0
 11
3151.8305378057639
 21
1542.3865061589629
 31
0.0
  0
LINE
  5
7B8E
  8
1
 10
845.16068586144502
 20
1576.5992989360791
 30
0.0
 11
1965.1606858614441
 21
1576.599298936088
 31
0.0
  0
LINE
  5
7B8F
  8
1
 10
845.16068586144411
 20
1641.599298936078
 30
0.0
 11
1965.1606858614441
 21
1641.599298936088
 31
0.0
  0
LINE
  5
7B90
  8
1
 10
845.16068586144502
 20
1576.5992989360791
 30
0.0
 11
845.16068586144411
 21
1641.599298936078
 31
0.0
  0
LINE
  5
7B91
  8
1
 10
1965.1606858614441
 20
1576.599298936088
 30
0.0
 11
1965.1606858614441
 21
1641.599298936088
 31
0.0
  0
LINE
  5
7B92
  8
1
 10
1387.1606858614421
 20
2132.0992989360821
 30
0.0
 11
1387.160685861445
 21
1728.599298936083
 31
0.0
  0
LINE
  5
7B93
  8
1
 10
923.16068586144229
 20
2132.0992989360789
 30
0.0
 11
923.1606858614449
 21
1728.5992989360791
 31
0.0
  0
LINE
  5
7B94
  8
1
 10
835.16068586144218
 20
2132.099298936077
 30
0.0
 11
1475.1606858614421
 21
2132.099298936083
 31
0.0
  0
LINE
  5
7B95
  8
1
 10
1475.1606858614409
 20
2167.099298936083
 30
0.0
 11
1475.1606858614421
 21
2132.099298936083
 31
0.0
  0
LINE
  5
7B96
  8
1
 10
835.16068586144127
 20
2167.099298936078
 30
0.0
 11
835.16068586144218
 21
2132.099298936077
 31
0.0
  0
LINE
  5
7B97
  8
1
 10
835.16068586144218
 20
2167.099298936078
 30
0.0
 11
1475.1606858614409
 21
2167.099298936083
 31
0.0
  0
LINE
  5
7B98
  8
1
 10
963.16068586144229
 20
2132.0992989360798
 30
0.0
 11
963.16068586144502
 21
1728.59929893608
 31
0.0
  0
LINE
  5
7B99
  8
1
 10
1347.1606858614421
 20
2132.0992989360821
 30
0.0
 11
1347.160685861445
 21
1728.599298936083
 31
0.0
  0
LINE
  5
7B9A
  8
1
 10
915.16068586144047
 20
2308.1253321638578
 30
0.0
 11
915.1606858614449
 21
1728.5992989360791
 31
0.0
  0
LINE
  5
7B9B
  8
1
 10
1155.1606858614391
 20
2447.1821100921288
 30
0.0
 11
915.16068586144047
 21
2308.1253321638578
 31
0.0
  0
LINE
  5
7B9C
  8
1
 10
3381.3305378057648
 20
1960.599298936083
 30
0.0
 11
3381.3305378057639
 21
1738.5992989360921
 31
0.0
  0
LINE
  5
7B9D
  8
1
 10
3339.3305378057639
 20
1968.599298936083
 30
0.0
 11
3373.3305378057648
 21
1968.599298936083
 31
0.0
  0
LINE
  5
7B9E
  8
1
 10
3373.3305378057648
 20
1968.599298936083
 30
0.0
 11
3381.3305378057648
 21
1960.599298936083
 31
0.0
  0
LINE
  5
7B9F
  8
1
 10
2756.8305378057639
 20
1738.5992989360909
 30
0.0
 11
2756.8305378057639
 21
1663.5992989360909
 31
0.0
  0
LINE
  5
7BA0
  8
1
 10
2756.8305378057648
 20
1566.5992989360909
 30
0.0
 11
3381.8305378057662
 21
1566.5992989360909
 31
0.0
  0
LINE
  5
7BA1
  8
1
 10
2756.8305378057648
 20
1641.5992989360909
 30
0.0
 11
2756.8305378057648
 21
1566.59929893609
 31
0.0
  0
LINE
  5
7BA2
  8
1
 10
2756.8305378057648
 20
1641.5992989360909
 30
0.0
 11
3381.8305378057662
 21
1641.5992989360909
 31
0.0
  0
LINE
  5
7BA3
  8
1
 10
3381.8305378057662
 20
1641.5992989360909
 30
0.0
 11
3381.8305378057662
 21
1566.5992989360909
 31
0.0
  0
ARC
  5
7BA4
  8
1
 10
1805.1606858614421
 20
1851.5992989360859
 30
0.0
 40
100.8
 50
300.3932999999999
 51
0.0
  0
ARC
  5
7BA5
  8
1
 10
1805.1606858614421
 20
1851.5992989360859
 30
0.0
 40
100.8
 50
0.0
 51
239.69929999999999
  0
LINE
  5
7BA6
  8
1
 10
1870.1606858614421
 20
1771.5992989360859
 30
0.0
 11
1870.1606858614421
 21
1761.5992989360859
 31
0.0
  0
LINE
  5
7BA7
  8
1
 10
1880.1606858614421
 20
1771.5992989360859
 30
0.0
 11
1880.1606858614421
 21
1761.5992989360859
 31
0.0
  0
LINE
  5
7BA8
  8
1
 10
1875.1606858614421
 20
1757.2327989360861
 30
0.0
 11
1875.1606858614421
 21
1774.136198936086
 31
0.0
  0
LINE
  5
7BA9
  8
1
 10
1893.1606858614421
 20
1761.5992989360859
 30
0.0
 11
1893.1606858614421
 21
1769.5992989360859
 31
0.0
  0
LINE
  5
7BAA
  8
1
 10
1740.1606858614421
 20
1771.5992989360859
 30
0.0
 11
1740.1606858614421
 21
1761.5992989360859
 31
0.0
  0
LINE
  5
7BAB
  8
1
 10
1730.1606858614421
 20
1771.5992989360859
 30
0.0
 11
1730.1606858614421
 21
1761.5992989360859
 31
0.0
  0
LINE
  5
7BAC
  8
1
 10
1735.1606858614421
 20
1757.2327989360861
 30
0.0
 11
1735.1606858614421
 21
1774.136198936086
 31
0.0
  0
LINE
  5
7BAD
  8
2
 10
1805.1606858614421
 20
1755.615198936086
 30
0.0
 11
1805.1606858614421
 21
1960.0603989360859
 31
0.0
  0
LINE
  5
7BAE
  8
1
 10
1717.1606858614421
 20
1761.5992989360859
 30
0.0
 11
1717.1606858614421
 21
1769.5992989360859
 31
0.0
  0
ARC
  5
7BAF
  8
1
 10
1805.1606858614421
 20
1851.5992989360859
 30
0.0
 40
100.8
 50
300.3932999999999
 51
0.0
  0
LINE
  5
7BB0
  8
1
 10
1760.330185861442
 20
1765.5992989360859
 30
0.0
 11
1850.284585861441
 21
1765.5992989360859
 31
0.0
  0
LINE
  5
7BB1
  8
1
 10
1754.2365858614421
 20
1764.5992989360859
 30
0.0
 11
1856.191685861442
 21
1764.5992989360859
 31
0.0
  0
LINE
  5
7BB2
  8
1
 10
1754.2365858614421
 20
1764.5992989360859
 30
0.0
 11
1856.191685861442
 21
1764.5992989360859
 31
0.0
  0
LINE
  5
7BB3
  8
1
 10
1717.1606858614421
 20
1761.5992989360859
 30
0.0
 11
1757.1606858614421
 21
1761.5992989360859
 31
0.0
  0
LINE
  5
7BB4
  8
1
 10
1757.1606858614421
 20
1764.5720989360859
 30
0.0
 11
1757.1606858614421
 21
1761.5992989360859
 31
0.0
  0
LINE
  5
7BB5
  8
1
 10
1893.1606858614421
 20
1761.5992989360859
 30
0.0
 11
1853.1606858614421
 21
1761.5992989360859
 31
0.0
  0
LINE
  5
7BB6
  8
1
 10
1853.1606858614421
 20
1764.530298936086
 30
0.0
 11
1853.1606858614421
 21
1761.5992989360859
 31
0.0
  0
LINE
  5
7BB7
  8
2
 10
1700.695485861442
 20
1851.5992989360859
 30
0.0
 11
1911.2634858614419
 21
1851.5992989360859
 31
0.0
  0
LINE
  5
7BB8
  8
1
 10
1743.836685861442
 20
1771.5992989360859
 30
0.0
 11
1719.1606858614421
 21
1771.5992989360859
 31
0.0
  0
LINE
  5
7BB9
  8
1
 10
1723.014185861442
 20
1793.1819989360861
 30
0.0
 11
1717.1606858614421
 21
1769.5992989360859
 31
0.0
  0
ARC
  5
7BBA
  8
1
 10
1719.1606858614421
 20
1769.5992989360859
 30
0.0
 40
2.0
 50
90.0
 51
180.0
  0
LINE
  5
7BBB
  8
1
 10
1866.4495858614421
 20
1771.5992989360859
 30
0.0
 11
1891.1606858614421
 21
1771.5992989360859
 31
0.0
  0
LINE
  5
7BBC
  8
1
 10
1887.3072858614421
 20
1793.1819989360861
 30
0.0
 11
1893.1606858614421
 21
1769.5992989360859
 31
0.0
  0
ARC
  5
7BBD
  8
1
 10
1891.1606858614421
 20
1769.5992989360859
 30
0.0
 40
2.0
 50
0.0
 51
90.0
  0
LINE
  5
7BBE
  8
1
 10
1928.8765803862559
 20
1728.599298936088
 30
0.0
 11
1917.660685861443
 21
1763.599298936088
 31
0.0
  0
LINE
  5
7BBF
  8
1
 10
1833.563437777929
 20
1763.5992989360871
 30
0.0
 11
1833.563437777929
 21
1757.302627301176
 31
0.0
  0
LINE
  5
7BC0
  8
1
 10
1776.7579339449569
 20
1757.302627301176
 30
0.0
 11
1776.757933944956
 21
1763.5992989360859
 31
0.0
  0
LINE
  5
7BC1
  8
1
 10
1692.660685861443
 20
1763.599298936085
 30
0.0
 11
1681.4447913366309
 21
1728.599298936085
 31
0.0
  0
LINE
  5
7BC2
  8
1
 10
1681.4447913366309
 20
1728.599298936085
 30
0.0
 11
1776.7579339449569
 21
1728.5992989360859
 31
0.0
  0
LINE
  5
7BC3
  8
1
 10
1833.563437777929
 20
1728.5992989360871
 30
0.0
 11
1928.8765803862559
 21
1728.599298936088
 31
0.0
  0
LINE
  5
7BC4
  8
1
 10
1776.7579339449569
 20
1735.73993371242
 30
0.0
 11
1833.563437777929
 21
1735.7399337124209
 31
0.0
  0
LINE
  5
7BC5
  8
1
 10
1833.563437777929
 20
1757.302627301176
 30
0.0
 11
1776.7579339449569
 21
1757.302627301176
 31
0.0
  0
LINE
  5
7BC6
  8
1
 10
1776.7579339449569
 20
1728.5992989360859
 30
0.0
 11
1776.7579339449569
 21
1735.73993371242
 31
0.0
  0
LINE
  5
7BC7
  8
1
 10
1833.563437777929
 20
1735.7399337124209
 30
0.0
 11
1833.563437777929
 21
1728.5992989360871
 31
0.0
  0
LINE
  5
7BC8
  8
1
 10
1776.757933944956
 20
1763.5992989360859
 30
0.0
 11
1692.660685861443
 21
1763.599298936085
 31
0.0
  0
LINE
  5
7BC9
  8
1
 10
1917.660685861443
 20
1763.599298936088
 30
0.0
 11
1833.563437777929
 21
1763.5992989360871
 31
0.0
  0
LINE
  5
7BCA
  8
1
 10
1905.160685861443
 20
1931.4287060838651
 30
0.0
 11
1905.1606858614459
 21
1728.5992989360871
 31
0.0
  0
LINE
  5
7BCB
  8
2
 10
2539.2001776145148
 20
1851.59929893609
 30
0.0
 11
3095.1989770800301
 21
1851.59929893609
 31
0.0
  0
LINE
  5
7BCC
  8
1
 10
2854.680595120521
 20
1951.599398936092
 30
0.0
 11
2793.840895120522
 21
1951.599398936092
 31
0.0
  0
LINE
  5
7BCD
  8
1
 10
2781.6805951205229
 20
1771.5992989360909
 30
0.0
 11
2832.1805951205229
 21
1771.5992989360909
 31
0.0
  0
LINE
  5
7BCE
  8
1
 10
2774.6805951205229
 20
1761.59929893609
 30
0.0
 11
2854.6805951205229
 21
1761.5992989360921
 31
0.0
  0
LINE
  5
7BD0
  8
1
 10
2782.1805951205229
 20
1771.5992989360909
 30
0.0
 11
2782.180595120522
 21
1936.5992989360909
 31
0.0
  0
LINE
  5
7BD1
  8
1
 10
2741.180595120522
 20
1888.0992989360909
 30
0.0
 11
2741.1805951205229
 21
1815.0992989360909
 31
0.0
  0
LINE
  5
7BD2
  8
1
 10
2751.1805951205229
 20
1769.5993989360909
 30
0.0
 11
2751.180595120521
 21
1933.5992989360909
 31
0.0
  0
LINE
  5
7BD3
  8
1
 10
2736.180595120522
 20
1863.59929893609
 30
0.0
 11
2686.180595120522
 21
1863.59929893609
 31
0.0
  0
LINE
  5
7BD4
  8
1
 10
2736.180595120522
 20
1839.59929893609
 30
0.0
 11
2686.180595120522
 21
1839.59929893609
 31
0.0
  0
LINE
  5
7BD5
  8
1
 10
2726.180595120522
 20
1866.59929893609
 30
0.0
 11
2686.180595120522
 21
1866.59929893609
 31
0.0
  0
LINE
  5
7BD6
  8
1
 10
2686.180595120522
 20
1839.59929893609
 30
0.0
 11
2686.180595120522
 21
1866.59929893609
 31
0.0
  0
LINE
  5
7BD7
  8
1
 10
2726.180595120522
 20
1863.59929893609
 30
0.0
 11
2726.180595120522
 21
1866.59929893609
 31
0.0
  0
LINE
  5
7BD8
  8
1
 10
2779.6805951205229
 20
1767.5992989360909
 30
0.0
 11
2753.1805951205229
 21
1767.5992989360909
 31
0.0
  0
ARC
  5
7BD9
  8
1
 10
2753.1807951205228
 20
1769.5993989360909
 30
0.0
 40
2.0001000000000002
 50
180.0035000000004
 51
269.99650000000048
  0
ARC
  5
7BDA
  8
1
 10
2781.6805951205229
 20
1769.5992989360909
 30
0.0
 40
2.0
 50
90.000000000000483
 51
180.0000000000004
  0
LINE
  5
7BDB
  8
1
 10
2779.6805951205229
 20
1761.5992989360909
 30
0.0
 11
2779.6805951205229
 21
1769.5992989360909
 31
0.0
  0
LINE
  5
7BDC
  8
1
 10
2792.1805951205229
 20
1755.615298936091
 30
0.0
 11
2792.1805951205229
 21
1773.7680989360911
 31
0.0
  0
LINE
  5
7BDD
  8
1
 10
2787.1805951205229
 20
1771.5992989360909
 30
0.0
 11
2787.1805951205229
 21
1761.5992989360909
 31
0.0
  0
LINE
  5
7BDE
  8
1
 10
2741.180595120522
 20
1864.0992989360909
 30
0.0
 11
2736.180595120522
 21
1864.09929893609
 31
0.0
  0
LINE
  5
7BDF
  8
1
 10
2741.180595120522
 20
1839.0992989360909
 30
0.0
 11
2736.180595120522
 21
1839.09929893609
 31
0.0
  0
ARC
  5
7BE0
  8
1
 10
2742.180595120522
 20
1815.0993989360909
 30
0.0
 40
1.0000999999999991
 50
180.0035000000004
 51
270.00000000000051
  0
ARC
  5
7BE1
  8
1
 10
2750.180595120522
 20
1813.0992989360909
 30
0.0
 40
1.0000999999999991
 50
0.0035000000004913
 51
90.000000000000483
  0
LINE
  5
7BE2
  8
1
 10
2742.180595120522
 20
1814.0992989360909
 30
0.0
 11
2750.180595120522
 21
1814.0992989360909
 31
0.0
  0
LINE
  5
7BE3
  8
1
 10
2736.180595120522
 20
1839.09929893609
 30
0.0
 11
2736.180595120522
 21
1864.09929893609
 31
0.0
  0
LINE
  5
7BE4
  8
1
 10
2777.180595120521
 20
1935.5992989360909
 30
0.0
 11
2753.180595120521
 21
1935.5992989360909
 31
0.0
  0
ARC
  5
7BE5
  8
1
 10
2753.1807951205219
 20
1933.59919893609
 30
0.0
 40
2.0001000000000002
 50
90.0035000000005
 51
179.9965000000004
  0
ARC
  5
7BE6
  8
1
 10
2742.1806951205222
 20
1888.0992989360909
 30
0.0
 40
1.0000999999999991
 50
90.0035000000005
 51
180.0000000000004
  0
ARC
  5
7BE7
  8
1
 10
2750.180595120522
 20
1890.0992989360909
 30
0.0
 40
1.0000999999999991
 50
270.00350000000037
 51
0.0000000000004941
  0
LINE
  5
7BE8
  8
1
 10
2742.180595120522
 20
1889.0992989360909
 30
0.0
 11
2750.180595120522
 21
1889.0992989360909
 31
0.0
  0
LINE
  5
7BE9
  8
1
 10
2782.180595120522
 20
1936.5992989360909
 30
0.0
 11
2777.180595120521
 21
1936.5992989360909
 31
0.0
  0
LINE
  5
7BEA
  8
1
 10
2793.840895120522
 20
1951.599398936092
 30
0.0
 11
2785.180595120521
 21
1936.5992989360909
 31
0.0
  0
LINE
  5
7BEB
  8
1
 10
2785.180595120521
 20
1936.5992989360909
 30
0.0
 11
2782.180595120522
 21
1936.5992989360909
 31
0.0
  0
LINE
  5
7BEC
  8
1
 10
2927.6805951205229
 20
1771.5992989360921
 30
0.0
 11
2877.1805951205229
 21
1771.5992989360921
 31
0.0
  0
LINE
  5
7BED
  8
1
 10
2934.6805951205229
 20
1761.5992989360921
 30
0.0
 11
2774.6805951205229
 21
1761.5992989360909
 31
0.0
  0
LINE
  5
7BEE
  8
1
 10
2854.680595120521
 20
1951.599398936092
 30
0.0
 11
2915.5203951205222
 21
1951.599398936092
 31
0.0
  0
LINE
  5
7BF0
  8
1
 10
2797.1805951205229
 20
1771.5992989360909
 30
0.0
 11
2797.1805951205229
 21
1761.5992989360909
 31
0.0
  0
LINE
  5
7BF1
  8
1
 10
2848.3210951205228
 20
1779.3924989360919
 30
0.0
 11
2849.1648951205229
 21
1788.342998936092
 31
0.0
  0
ARC
  5
7BF2
  8
1
 10
2840.3563951205228
 20
1780.143398936091
 30
0.0
 40
8.0
 50
273.69150000000047
 51
354.61400000000049
  0
ARC
  5
7BF3
  8
1
 10
2844.1869951205231
 20
1788.8123989360911
 30
0.0
 40
5.0
 50
354.61360000000047
 51
90.000000000000483
  0
LINE
  5
7BF4
  8
1
 10
2832.1805951205229
 20
1771.5992989360909
 30
0.0
 11
2840.8714951205229
 21
1772.1599989360909
 31
0.0
  0
LINE
  5
7BF5
  8
1
 10
2861.0401951205231
 20
1779.3924989360919
 30
0.0
 11
2860.1962951205228
 21
1788.342998936092
 31
0.0
  0
LINE
  5
7BF6
  8
1
 10
2877.1805951205229
 20
1771.5992989360921
 30
0.0
 11
2868.4897951205221
 21
1772.1599989360921
 31
0.0
  0
ARC
  5
7BF7
  8
1
 10
2869.0047951205229
 20
1780.1433989360919
 30
0.0
 40
8.0
 50
185.38600000000051
 51
266.30850000000049
  0
ARC
  5
7BF8
  8
1
 10
2865.1741951205231
 20
1788.812398936092
 30
0.0
 40
5.0
 50
90.000000000000483
 51
185.38640000000041
  0
LINE
  5
7BF9
  8
1
 10
2923.180595120522
 20
1952.399398936092
 30
0.0
 11
2923.180595120522
 21
1804.5992989360921
 31
0.0
  0
LINE
  5
7BFA
  8
1
 10
3013.1805951205229
 20
1767.5794989360929
 30
0.0
 11
3013.180595120521
 21
1935.8108989360931
 31
0.0
  0
LINE
  5
7BFB
  8
1
 10
2963.1805951205229
 20
1764.599298936093
 30
0.0
 11
2963.180595120521
 21
1951.3993989360929
 31
0.0
  0
LINE
  5
7BFC
  8
1
 10
2963.1805951205229
 20
1765.5992989360921
 30
0.0
 11
3012.2005951205228
 21
1766.5796989360931
 31
0.0
  0
LINE
  5
7BFD
  8
1
 10
2927.1805951205229
 20
1801.7103989360919
 30
0.0
 11
2927.1805951205229
 21
1771.5992989360921
 31
0.0
  0
LINE
  5
7BFE
  8
1
 10
2923.180595120522
 20
1804.5992989360921
 30
0.0
 11
2939.1080951205231
 21
1793.0960989360919
 31
0.0
  0
ARC
  5
7BFF
  8
1
 10
2936.1804951205231
 20
1789.0426989360919
 30
0.0
 40
5.0000999999999989
 50
0.0000000000004941
 51
54.160900000000481
  0
LINE
  5
7C00
  8
1
 10
2932.1805951205229
 20
1767.5992989360921
 30
0.0
 11
2941.1805951205229
 21
1768.884098936092
 31
0.0
  0
ARC
  5
7C01
  8
1
 10
2927.6805951205229
 20
1769.5992989360921
 30
0.0
 40
2.0
 50
0.0000000000004941
 51
90.000000000000483
  0
LINE
  5
7C02
  8
1
 10
2929.6805951205229
 20
1767.5992989360921
 30
0.0
 11
2932.1805951205229
 21
1767.5992989360921
 31
0.0
  0
LINE
  5
7C03
  8
1
 10
2929.6805951205229
 20
1761.5992989360921
 30
0.0
 11
2929.6805951205229
 21
1769.5992989360921
 31
0.0
  0
LINE
  5
7C04
  8
1
 10
2917.1805951205229
 20
1755.6152989360919
 30
0.0
 11
2917.1805951205229
 21
1773.768098936092
 31
0.0
  0
LINE
  5
7C05
  8
1
 10
2922.1805951205229
 20
1771.5992989360921
 30
0.0
 11
2922.1805951205229
 21
1761.5992989360921
 31
0.0
  0
LINE
  5
7C06
  8
1
 10
2912.1805951205229
 20
1771.5992989360921
 30
0.0
 11
2912.1805951205229
 21
1761.5992989360921
 31
0.0
  0
LINE
  5
7C07
  8
1
 10
2932.180595120522
 20
1798.1341989360919
 30
0.0
 11
2932.1805951205229
 21
1767.5992989360921
 31
0.0
  0
LINE
  5
7C08
  8
1
 10
2941.1805951205229
 20
1764.5992989360921
 30
0.0
 11
2963.1805951205229
 21
1764.599298936093
 31
0.0
  0
LINE
  5
7C09
  8
1
 10
2941.1805951205229
 20
1764.5992989360921
 30
0.0
 11
2941.1805951205229
 21
1789.0426989360919
 31
0.0
  0
ARC
  5
7C0A
  8
1
 10
3012.1805951205229
 20
1767.5795989360929
 30
0.0
 40
1.0000999999999991
 50
271.15050000000048
 51
359.99650000000048
  0
LINE
  5
7C0B
  8
1
 10
3012.413995120522
 20
1936.7832989360929
 30
0.0
 11
2963.947195120521
 21
1948.415398936093
 31
0.0
  0
LINE
  5
7C0C
  8
1
 10
2923.180595120522
 20
1952.399398936092
 30
0.0
 11
2962.180595120521
 21
1952.399398936092
 31
0.0
  0
LINE
  5
7C0D
  8
1
 10
2923.2496951205221
 20
1938.2117989360929
 30
0.0
 11
2915.5203951205222
 21
1951.599398936092
 31
0.0
  0
ARC
  5
7C0E
  8
1
 10
2964.1806951205208
 20
1949.387398936092
 30
0.0
 40
1.0
 50
180.0000000000004
 51
256.49980000000039
  0
ARC
  5
7C0F
  8
1
 10
2962.180595120521
 20
1951.3993989360929
 30
0.0
 40
1.0000999999999991
 50
0.0035000000004913
 51
90.000000000000483
  0
ARC
  5
7C10
  8
1
 10
3012.180595120522
 20
1935.8108989360931
 30
0.0
 40
1.0
 50
0.0000000000004941
 51
76.499800000000491
  0
LINE
  5
7C11
  8
1
 10
2774.6805951205229
 20
1761.5992989360909
 30
0.0
 11
2774.6805951205229
 21
1738.5992989360909
 31
0.0
  0
LINE
  5
7C12
  8
1
 10
2934.6805951205229
 20
1761.5992989360921
 30
0.0
 11
2934.6805951205229
 21
1738.5992989360909
 31
0.0
  0
LINE
  5
7C13
  8
2
 10
746.11042152225116
 20
3763.713410176741
 30
0.0
 11
1620.3256014413939
 21
3763.7134101767392
 31
0.0
  0
LINE
  5
7C14
  8
1
 10
827.16068586143308
 20
3951.2134101767392
 30
0.0
 11
1155.160685861433
 21
3951.2134101767401
 31
0.0
  0
LINE
  5
7C15
  8
1
 10
1015.460685861433
 20
3317.413410176739
 30
0.0
 11
1294.8606858614339
 21
3317.4134101767399
 31
0.0
  0
LINE
  5
7C16
  8
1
 10
1015.460685861433
 20
3277.4134101767381
 30
0.0
 11
1294.8606858614339
 21
3277.4134101767409
 31
0.0
  0
LINE
  5
7C17
  8
1
 10
935.16068586143308
 20
3230.4731718272292
 30
0.0
 11
1918.1606858614371
 21
3230.4731718272328
 31
0.0
  0
LINE
  5
7C18
  8
1
 10
795.16068586143319
 20
3543.7134101767401
 30
0.0
 11
827.16068586143308
 21
3543.7134101767401
 31
0.0
  0
LINE
  5
7C19
  8
1
 10
827.16068586143308
 20
3576.2134101767379
 30
0.0
 11
1155.1606858614341
 21
3576.2134101767401
 31
0.0
  0
LINE
  5
7C1A
  8
2
 10
1805.160685861435
 20
3629.0004674915008
 30
0.0
 11
1805.1606858614371
 21
3293.0288674915009
 31
0.0
  0
LINE
  5
7C1B
  8
1
 10
1155.160685861433
 20
3626.9177133761641
 30
0.0
 11
1155.160685861433
 21
3466.4567355750132
 31
0.0
  0
LINE
  5
7C1C
  8
2
 10
1155.160685861433
 20
3237.9303742571478
 30
0.0
 11
1155.160685861433
 21
4007.5896700168551
 31
0.0
1001
ACAD
1000
ASC_BOUNDS
1002
{
1070
    19
1002
}
  0
LINE
  5
7C1D
  8
1
 10
1817.160685861438
 20
3348.0634674915009
 30
0.0
 11
1817.160685861438
 21
3298.0634674915009
 31
0.0
  0
LINE
  5
7C1E
  8
1
 10
1793.1606858614371
 20
3348.0634674915009
 30
0.0
 11
1793.1606858614371
 21
3298.0634674915009
 31
0.0
  0
LINE
  5
7C1F
  8
1
 10
1805.1606858614371
 20
3251.3781454766849
 30
0.0
 11
1805.1606858614371
 21
3361.651049985493
 31
0.0
  0
LINE
  5
7C20
  8
1
 10
1136.160685861433
 20
3317.4134101767399
 30
0.0
 11
1136.1606858614341
 21
3347.4134101767399
 31
0.0
1001
ACAD
1000
ASC_BOUNDS
1002
{
1070
    19
1002
}
  0
LINE
  5
7C21
  8
1
 10
1174.160685861433
 20
3317.4134101767399
 30
0.0
 11
1174.160685861433
 21
3347.4134101767399
 31
0.0
1001
ACAD
1000
ASC_BOUNDS
1002
{
1070
    19
1002
}
  0
LINE
  5
7C22
  8
1
 10
1918.1606858614371
 20
3230.4731718272328
 30
0.0
 11
1918.1606858614371
 21
3352.4731718272328
 31
0.0
  0
LINE
  5
7C23
  8
1
 10
1817.160685861438
 20
3298.0634674915009
 30
0.0
 11
1790.160685861438
 21
3298.0634674915009
 31
0.0
  0
LINE
  5
7C24
  8
1
 10
1294.8606858614339
 20
3277.4134101767409
 30
0.0
 11
1864.3106858614419
 21
3277.4134101767431
 31
0.0
  0
LINE
  5
7C25
  8
1
 10
1294.8606858614339
 20
3317.4134101767399
 30
0.0
 11
1864.3106858614419
 21
3317.4134101767422
 31
0.0
  0
LINE
  5
7C26
  8
1
 10
1864.3106858614419
 20
3277.4134101767449
 30
0.0
 11
1864.3106858614419
 21
3317.413410176744
 31
0.0
  0
LINE
  5
7C27
  8
1
 10
1750.0106858614431
 20
3277.4134101767449
 30
0.0
 11
1750.0106858614431
 21
3317.4134101767449
 31
0.0
  0
LINE
  5
7C28
  8
1
 10
1790.160685861438
 20
3338.0634674915009
 30
0.0
 11
1790.160685861438
 21
3298.0634674915009
 31
0.0
  0
LINE
  5
7C29
  8
1
 10
1793.1606858614371
 20
3338.0634674915009
 30
0.0
 11
1790.160685861438
 21
3338.0634674915009
 31
0.0
  0
LINE
  5
7C2A
  8
1
 10
1294.8606858614339
 20
3277.4134101767409
 30
0.0
 11
1294.8606858614339
 21
3317.4134101767399
 31
0.0
1001
ACAD
1000
ASC_BOUNDS
1002
{
1070
    19
1002
}
  0
LINE
  5
7C2B
  8
1
 10
1817.6606858614371
 20
3348.0634674915009
 30
0.0
 11
1792.6606858614371
 21
3348.0634674915009
 31
0.0
  0
LINE
  5
7C2C
  8
1
 10
1925.9606858614361
 20
3363.0634674915018
 30
0.0
 11
1684.360685861436
 21
3363.0634674914991
 31
0.0
  0
LINE
  5
7C2D
  8
1
 10
1768.6606858614371
 20
3353.0634674915
 30
0.0
 11
1841.6606858614371
 21
3353.0634674915
 31
0.0
  0
LINE
  5
7C2E
  8
1
 10
1898.1606858614371
 20
3352.4731718272328
 30
0.0
 11
1918.1606858614371
 21
3352.4731718272328
 31
0.0
  0
LINE
  5
7C2F
  8
1
 10
1842.6606858614371
 20
3354.0634674915009
 30
0.0
 11
1842.6606858614371
 21
3362.0634674915009
 31
0.0
  0
ARC
  5
7C30
  8
1
 10
1843.6606858614371
 20
3362.0634674915009
 30
0.0
 40
1.0000999999999991
 50
90.0035000000005
 51
180.00000000000051
  0
ARC
  5
7C31
  8
1
 10
1841.6605858614359
 20
3354.0634674915009
 30
0.0
 40
1.0000999999999991
 50
270.00350000000037
 51
0.0000000000004796
  0
LINE
  5
7C32
  8
1
 10
1817.6606858614371
 20
3353.0634674915
 30
0.0
 11
1817.6606858614371
 21
3348.0634674915009
 31
0.0
  0
LINE
  5
7C33
  8
1
 10
1132.660685861433
 20
3347.4134101767399
 30
0.0
 11
1132.660685861433
 21
3512.7065179572419
 31
0.0
1001
ACAD
1000
ASC_BOUNDS
1002
{
1070
    19
1002
}
  0
LINE
  5
7C34
  8
1
 10
1177.660685861433
 20
3347.4134101767399
 30
0.0
 11
1177.660685861433
 21
3574.2134101767401
 31
0.0
1001
ACAD
1000
ASC_BOUNDS
1002
{
1070
    19
1002
}
  0
LINE
  5
7C35
  8
1
 10
1767.6606858614371
 20
3354.0634674915
 30
0.0
 11
1767.6606858614371
 21
3362.0634674915
 31
0.0
  0
ARC
  5
7C36
  8
1
 10
1766.6606858614371
 20
3362.0634674915
 30
0.0
 40
1.0000999999999991
 50
0.0035000000004626
 51
90.000000000000483
  0
ARC
  5
7C37
  8
1
 10
1768.6606858614371
 20
3354.0635674915002
 30
0.0
 40
1.0000999999999991
 50
180.00350000000051
 51
270.00000000000051
  0
LINE
  5
7C38
  8
1
 10
1792.6606858614371
 20
3353.0634674915
 30
0.0
 11
1792.6606858614371
 21
3348.0634674915009
 31
0.0
  0
LINE
  5
7C39
  8
1
 10
1132.660685861433
 20
3347.4134101767399
 30
0.0
 11
1177.660685861433
 21
3347.4134101767399
 31
0.0
  0
LINE
  5
7C3A
  8
1
 10
1132.660685861433
 20
3472.7134101767401
 30
0.0
 11
1132.660685861433
 21
3574.2134101767401
 31
0.0
1001
ACAD
1000
ASC_BOUNDS
1002
{
1070
    19
1002
}
  0
LINE
  5
7C3B
  8
1
 10
1177.660685861433
 20
3476.841827538638
 30
0.0
 11
1177.660685861433
 21
3512.7065179572419
 31
0.0
1001
ACAD
1000
ASC_BOUNDS
1002
{
1070
    19
1002
}
  0
LINE
  5
7C3C
  8
1
 10
1925.960685861435
 20
3625.0634674915018
 30
0.0
 11
1684.3606858614351
 21
3625.0634674915
 31
0.0
  0
ARC
  5
7C3D
  8
1
 10
1889.1803858614339
 20
3624.0634674915018
 30
0.0
 40
1.0000999999999991
 50
1.1505000000005421
 51
89.996500000000495
  0
LINE
  5
7C3E
  8
1
 10
1155.160685861433
 20
3576.2134101767401
 30
0.0
 11
1590.160685861433
 21
3576.2134101767429
 31
0.0
  0
ARC
  5
7C3F
  8
1
 10
1720.9490858614349
 20
3624.0634674915
 30
0.0
 40
1.0
 50
90.000000000000483
 51
166.4998000000005
  0
LINE
  5
7C40
  8
1
 10
1155.160685861433
 20
3951.2134101767401
 30
0.0
 11
1590.160685861433
 21
3951.2134101767379
 31
0.0
  0
LINE
  5
7C41
  8
1
 10
1600.1606858614241
 20
3993.7134101767401
 30
0.0
 11
1675.1606858614241
 21
3993.7134101767401
 31
0.0
  0
LINE
  5
7C42
  8
1
 10
795.16068586143319
 20
3543.7134101767401
 30
0.0
 11
795.16068586143319
 21
3983.7134101767401
 31
0.0
1001
ACAD
1000
ASC_BOUNDS
1002
{
1070
    19
1002
}
  0
LINE
  5
7C43
  8
1
 10
935.16068586143308
 20
3352.4731718272292
 30
0.0
 11
935.16068586143308
 21
3230.4731718272292
 31
0.0
  0
LINE
  5
7C44
  8
1
 10
935.16068586143399
 20
3230.4731718272292
 30
0.0
 11
935.16068586143399
 21
3352.4731718272292
 31
0.0
  0
LINE
  5
7C45
  8
1
 10
1015.460685861433
 20
3277.4134101767381
 30
0.0
 11
1015.460685861433
 21
3317.413410176739
 31
0.0
1001
ACAD
1000
ASC_BOUNDS
1002
{
1070
    19
1002
}
  0
LINE
  5
7C46
  8
1
 10
955.16068586143331
 20
3352.4731718272292
 30
0.0
 11
935.16068586143308
 21
3352.4731718272292
 31
0.0
  0
LINE
  5
7C47
  8
1
 10
827.16068586143308
 20
3543.7134101767401
 30
0.0
 11
827.16068586143308
 21
3983.7134101767401
 31
0.0
1001
ACAD
1000
ASC_BOUNDS
1002
{
1070
    19
1002
}
  0
LINE
  5
7C48
  8
1
 10
795.16068586143319
 20
3983.7134101767401
 30
0.0
 11
827.16068586143308
 21
3983.7134101767401
 31
0.0
  0
LINE
  5
7C49
  8
1
 10
1590.160685861433
 20
3576.2134101767429
 30
0.0
 11
1590.160685861433
 21
3951.2134101767392
 31
0.0
1001
ACAD
1000
ASC_BOUNDS
1002
{
1070
    19
1002
}
  0
LINE
  5
7C4A
  8
1
 10
885.16068586143308
 20
3951.2134101767392
 30
0.0
 11
885.16068586143308
 21
3953.7134101767392
 31
0.0
  0
LINE
  5
7C4B
  8
1
 10
845.16068586143217
 20
3951.2134101767392
 30
0.0
 11
845.16068586143217
 21
3993.7134101767379
 31
0.0
  0
LINE
  5
7C4C
  8
1
 10
1684.360685861436
 20
3363.0634674915
 30
0.0
 11
1684.3606858614351
 21
3625.0634674915
 31
0.0
  0
LINE
  5
7C4D
  8
1
 10
1925.9606858614361
 20
3363.0634674915
 30
0.0
 11
1925.960685861435
 21
3625.0634674915009
 31
0.0
  0
LINE
  5
7C4E
  8
1
 10
1684.360685861436
 20
3408.7134101767451
 30
0.0
 11
1177.660685861433
 21
3408.7134101767419
 31
0.0
  0
LINE
  5
7C4F
  8
1
 10
1684.360685861436
 20
3368.7134101767451
 30
0.0
 11
1177.660685861433
 21
3368.713410176741
 31
0.0
  0
LINE
  5
7C50
  8
1
 10
1475.1606858614359
 20
3408.7134101767442
 30
0.0
 11
1475.160685861435
 21
3576.2134101767429
 31
0.0
  0
LINE
  5
7C51
  8
1
 10
835.16068586143399
 20
3408.7134101767419
 30
0.0
 11
835.16068586143308
 21
3576.213410176741
 31
0.0
  0
LINE
  5
7C52
  8
1
 10
1132.660685861433
 20
3408.7134101767401
 30
0.0
 11
835.16068586143399
 21
3408.7134101767392
 31
0.0
  0
LINE
  5
7C53
  8
1
 10
1132.660685861433
 20
3368.7134101767401
 30
0.0
 11
845.16068586143683
 21
3368.7134101767379
 31
0.0
  0
LINE
  5
7C55
  8
4
 10
3700.0
 20
1000.0
 30
0.0
 11
3700.0
 21
600.0
 31
0.0
  0
LINE
  5
7C56
  8
4
 10
2300.0
 20
1000.0
 30
0.0
 11
2300.0
 21
600.0
 31
0.0
  0
LINE
  5
7C57
  8
4
 10
1300.0
 20
1000.0
 30
0.0
 11
1300.0
 21
600.0
 31
0.0
  0
LINE
  5
7C5A
  8
4
 10
1300.0
 20
600.0
 30
0.0
 11
3700.0
 21
600.0
 31
0.0
  0
LINE
  5
7C5B
  8
4
 10
1300.0
 20
800.0
 30
0.0
 11
3700.0
 21
800.0
 31
0.0
  0
TEXT
  5
7C5C
  8
4
 10
1377.0041616938031
 20
863.08605173322564
 30
0.0
 40
100.0
  1
機器名称
  0
TEXT
  5
7C5D
  8
4
 10
1372.516212049595
 20
643.29031346402189
 30
0.0
 40
100.0
  1
機器型番
  0
TEXT
  5
7C5E
  8
4
 10
2355.3574909753288
 20
845.14353791513713
 30
0.0
 40
100.0
  1
ミツヤ厨房用ファン
  0
TEXT
  5
7C5F
  8
4
 10
2373.3089911709608
 20
634.31916855988675
 30
0.0
 40
100.0
  1
MFK#3-1
  0
TEXT
  5
7C61
  8
4
 10
1632.9945486076899
 20
4766.8576826650306
 30
0.0
 40
107.9999999999999
  1
床置防振ベット
  0
TEXT
  5
7C62
  8
4
 10
632.33518665889278
 20
5067.7619523985959
 30
0.0
 40
144.0
  1
ベルト駆動式片吸込片持多翼ファン
  0
LINE
  5
7C63
  8
4
 10
500.0
 20
4938.8175085296089
 30
0.0
 11
3700.0
 21
4938.8175085296089
 31
0.0
  0
LINE
  5
7C64
  8
4
 10
500.0
 20
5338.8175085296098
 30
0.0
 11
3700.0
 21
5338.8175085296098
 31
0.0
  0
LINE
  5
7C65
  8
4
 10
1300.0
 20
1000.0
 30
0.0
 11
3700.0
 21
1000.0
 31
0.0
  0
LINE
  5
7C66
  8
4
 10
500.0
 20
5338.8175085296098
 30
0.0
 11
500.0
 21
4938.8175085296089
 31
0.0
  0
TEXT
  5
7C67
  8
4
 10
761.27688412228599
 20
4764.638955092687
 30
0.0
 40
107.9999999999999
  1
左回転左横向
  0
TEXT
  5
7C68
  8
4
 10
2937.9391184985789
 20
5412.1221629906177
 30
0.0
 40
112.0
  1
No.
  0
TEXT
  5
7C69
  8
4
 10
2622.5921252000262
 20
4766.8576826650306
 30
0.0
 40
107.9999999999999
  1
縮尺：1/20
  0
LINE
  5
7C6A
  8
4
 10
3700.0
 20
5338.8175085296098
 30
0.0
 11
3700.0
 21
4938.8175085296089
 31
0.0
  0
LINE
  5
7C6B
  8
4
 10
4200.0
 20
5900.0
 30
0.0
 11
4200.0
 21
5900.0
 31
0.0
  0
LINE
  5
7C6C
  8
4
 10
2881.2348447197292
 20
5362.5271662508021
 30
0.0
 11
2881.2348447197292
 21
5573.3045230995049
 31
0.0
  0
LINE
  5
7C6D
  8
4
 10
2881.2348447197292
 20
5573.3045230995049
 30
0.0
 11
3700.0
 21
5573.3045230995049
 31
0.0
  0
LINE
  5
7C6E
  8
4
 10
3700.0
 20
5573.3045230995049
 30
0.0
 11
3700.0
 21
5362.5271662508021
 31
0.0
  0
LINE
  5
7C6F
  8
4
 10
3700.0
 20
5362.5271662508021
 30
0.0
 11
2881.2348447197292
 21
5362.5271662508021
 31
0.0
  0
LINE
  5
7C70
  8
4
 10
0.0
 20
0.0
 30
0.0
 11
0.0
 21
5900.0
 31
0.0
  0
LINE
  5
7C71
  8
4
 10
0.0
 20
5900.0
 30
0.0
 11
4200.0
 21
5900.0
 31
0.0
  0
LINE
  5
7C72
  8
4
 10
4200.0
 20
5900.0
 30
0.0
 11
4200.0
 21
0.0
 31
0.0
  0
LINE
  5
7C73
  8
4
 10
4200.0
 20
0.0
 30
0.0
 11
0.0
 21
0.0
 31
0.0
  0
DIMENSION
  5
7C80
  8
3
  2
*D1
 10
1155.1606858614459
 20
1419.648523111493
 30
0.0
 11
1023.7321144328751
 21
1419.648523111493
 31
0.0
 70
   128
 13
845.16068586144502
 23
1576.5992989360791
 33
0.0
 14
1155.1606858614459
 24
1534.793437407712
 34
0.0
1001
ACAD
1000
DSTYLE
1002
{
1070
   287
1070
     3
1070
   287
1070
     3
1070
    40
1040
20.0
1070
   143
1040
0.039
1070
   172
1070
     1
1070
   271
1070
     0
1070
   279
1070
     0
1070
   288
1070
     1
1002
}
  0
DIMENSION
  5
7C8C
  8
3
  2
*D2
 10
1965.1606858614441
 20
1419.648523111493
 30
0.0
 11
1560.1606858614459
 21
1469.648523111493
 31
0.0
 70
     0
 13
1155.1606858614459
 23
1534.793437407712
 33
0.0
 14
1965.1606858614441
 24
1576.599298936088
 34
0.0
1001
ACAD
1000
DSTYLE
1002
{
1070
   287
1070
     4
1070
   287
1070
     4
1070
    40
1040
20.0
1070
    75
1070
     1
1070
   143
1040
0.039
1070
   172
1070
     1
1070
   271
1070
     0
1070
   279
1070
     1
1070
   288
1070
     1
1002
}
  0
DIMENSION
  5
7C99
  8
3
  2
*D3
 10
3151.8305378057639
 20
1414.0623550760131
 30
0.0
 11
2973.5482993606452
 21
1414.0623550760131
 31
0.0
 70
   128
 13
2756.8305378057648
 23
1566.5992989360909
 33
0.0
 14
3151.8305378057639
 24
1542.3865061589629
 34
0.0
1001
ACAD
1000
DSTYLE
1002
{
1070
   287
1070
     3
1070
   287
1070
     3
1070
    40
1040
20.0
1070
   143
1040
0.039
1070
   172
1070
     1
1070
   271
1070
     0
1070
   279
1070
     0
1070
   288
1070
     1
1002
}
  0
DIMENSION
  5
7CA7
  8
3
  2
*D4
 10
3381.8305378057662
 20
1414.0623550760131
 30
0.0
 11
3266.8305378057639
 21
1469.923994219783
 31
0.0
 70
   128
 13
3151.8305378057639
 23
1542.3865061589629
 33
0.0
 14
3381.8305378057662
 24
1566.5992989360909
 34
0.0
1001
ACAD
1000
DSTYLE
1002
{
1070
   288
1070
     1
1070
   172
1070
     1
1070
    75
1070
     1
1070
    40
1040
20.0
1070
   271
1070
     0
1070
   143
1040
0.039
1002
}
  0
DIMENSION
  5
7CC8
  8
3
  2
*D5
 10
617.59566734086945
 20
2183.599298936077
 30
0.0
 11
617.59566734086911
 21
2436.3305011403991
 31
0.0
 70
   128
 13
795.16068586143774
 23
2721.599298936078
 33
0.0
 14
737.84648596150316
 24
2183.599298936077
 34
0.0
 50
90.0
1001
ACAD
1000
DSTYLE
1002
{
1070
   287
1070
     3
1070
   287
1070
     3
1070
    40
1040
20.0
1070
   143
1040
0.039
1070
   172
1070
     1
1070
   271
1070
     0
1070
   279
1070
     0
1070
   288
1070
     1
1002
}
  0
DIMENSION
  5
7CD5
  8
3
  2
*D6
 10
735.96224969263892
 20
2209.599298936078
 30
0.0
 11
735.96224969263858
 21
2461.9851053571142
 31
0.0
 70
   128
 13
795.16068586143786
 23
2721.599298936078
 33
0.0
 14
795.16068586144138
 24
2209.599298936078
 34
0.0
 50
90.0
1001
ACAD
1000
DSTYLE
1002
{
1070
   287
1070
     3
1070
   287
1070
     3
1070
    40
1040
20.0
1070
   143
1040
0.039
1070
   172
1070
     1
1070
   271
1070
     0
1070
   279
1070
     0
1070
   288
1070
     1
1002
}
  0
DIMENSION
  5
7CEC
  8
3
  2
*D7
 10
617.59566734086911
 20
1663.5992989360791
 30
0.0
 11
567.59566734086889
 21
1923.599298936078
 31
0.0
 70
     0
 13
737.84648596150316
 23
2183.599298936077
 33
0.0
 14
845.16068586144411
 24
1663.5992989360791
 34
0.0
 50
90.0
1001
ACAD
1000
DSTYLE
1002
{
1070
   287
1070
     4
1070
   287
1070
     4
1070
    40
1040
20.0
1070
    75
1070
     1
1070
   143
1040
0.039
1070
   172
1070
     1
1070
   271
1070
     0
1070
   279
1070
     1
1070
   288
1070
     1
1002
}
  0
DIMENSION
  5
7CFC
  8
3
  2
*D8
 10
617.59566734086911
 20
1641.599298936078
 30
0.0
 11
521.88138162658345
 21
1652.599298936078
 31
0.0
 70
     0
  1
(<>)
 13
845.16068586144411
 23
1663.5992989360791
 33
0.0
 14
845.16068586144411
 24
1641.599298936078
 34
0.0
 50
90.0
1001
ACAD
1000
DSTYLE
1002
{
1070
   288
1070
     1
1070
   172
1070
     1
1070
    75
1070
     1
1070
    40
1040
20.0
1070
   271
1070
     0
1070
     7
1000
_DOT
1070
   143
1040
0.039
1002
}
  0
DIMENSION
  5
7D0C
  8
3
  2
*D9
 10
617.59566734086911
 20
1576.5992989360791
 30
0.0
 11
567.59566734086889
 21
1428.02787036465
 31
0.0
 70
     0
 13
845.16068586144411
 23
1641.599298936078
 33
0.0
 14
845.16068586144502
 24
1576.5992989360791
 34
0.0
 50
90.0
1001
ACAD
1000
DSTYLE
1002
{
1070
   287
1070
     3
1070
   287
1070
     3
1070
    40
1040
20.0
1070
   143
1040
0.039
1070
   172
1070
     1
1070
   271
1070
     0
1070
   279
1070
     0
1070
   288
1070
     1
1070
     6
1000
DOT
1002
}
  0
DIMENSION
  5
7D73
  8
3
  2
*D11
 10
452.35475670458271
 20
1576.5992989360791
 30
0.0
 11
452.35475670458248
 21
2151.436096175044
 31
0.0
 70
   128
  1
(<>)
 13
795.16068586143683
 23
2753.2044818993809
 33
0.0
 14
845.16068586144502
 24
1576.5992989360791
 34
0.0
 50
90.0
1001
ACAD
1000
DSTYLE
1002
{
1070
   287
1070
     3
1070
   287
1070
     3
1070
    40
1040
20.0
1070
   143
1040
0.039
1070
   172
1070
     1
1070
   271
1070
     0
1070
   279
1070
     0
1070
   288
1070
     1
1002
}
  0
DIMENSION
  5
7D8B
  8
3
  2
*D12
 10
1155.1606858614359
 20
2888.8098510110831
 30
0.0
 11
977.83633775699127
 21
2888.8098510110831
 31
0.0
 70
   128
 13
795.16068586143683
 23
2753.2044818993809
 33
0.0
 14
1155.1606858614359
 24
2826.8920235358901
 34
0.0
1001
ACAD
1000
DSTYLE
1002
{
1070
   287
1070
     3
1070
   287
1070
     3
1070
    40
1040
20.0
1070
   143
1040
0.039
1070
   172
1070
     1
1070
   271
1070
     0
1070
   279
1070
     0
1070
   288
1070
     1
1002
}
  0
DIMENSION
  5
7D97
  8
3
  2
*D13
 10
1591.608676669302
 20
2888.8098510110831
 30
0.0
 11
1373.384681265369
 21
2938.8098510110831
 31
0.0
 70
     0
 13
1155.1606858614359
 23
2826.8920235358901
 33
0.0
 14
1591.608676669302
 24
2220.5992989360789
 34
0.0
1001
ACAD
1000
DSTYLE
1002
{
1070
   287
1070
     4
1070
   287
1070
     4
1070
    40
1040
20.0
1070
    75
1070
     1
1070
   143
1040
0.039
1070
   172
1070
     1
1070
   271
1070
     0
1070
   279
1070
     1
1070
   288
1070
     1
1002
}
  0
DIMENSION
  5
7DA4
  8
3
  2
*D14
 10
3339.3305378057639
 20
2855.292870272222
 30
0.0
 11
3152.4356551909332
 21
2855.292870272222
 31
0.0
 70
   128
 13
2964.3305378057639
 23
2721.599298936083
 33
0.0
 14
3339.3305378057639
 24
2721.599298936083
 34
0.0
1001
ACAD
1000
DSTYLE
1002
{
1070
   287
1070
     3
1070
   287
1070
     3
1070
    40
1040
20.0
1070
   143
1040
0.039
1070
   172
1070
     1
1070
   271
1070
     0
1070
   279
1070
     0
1070
   288
1070
     1
1002
}
  0
DIMENSION
  5
7DB3
  8
3
  2
*D15
 10
3343.630537805765
 20
2972.8685810210809
 30
0.0
 11
3247.7305378057649
 21
2972.8685810210809
 31
0.0
 70
   128
 13
3151.8305378057662
 23
2924.4992348544029
 33
0.0
 14
3343.630537805765
 24
2463.599298936083
 34
0.0
1001
ACAD
1000
DSTYLE
1002
{
1070
   287
1070
     3
1070
   287
1070
     3
1070
    40
1040
20.0
1070
   143
1040
0.039
1070
   172
1070
     1
1070
   271
1070
     0
1070
   279
1070
     0
1070
   288
1070
     1
1002
}
  0
DIMENSION
  5
7DCC
  8
3
  2
*D16
 10
2618.5902994562539
 20
2972.8685810210809
 30
0.0
 11
2885.2104186310098
 21
3072.8685810210809
 31
0.0
 70
     0
  1
MAX\P560
 13
3151.8305378057662
 23
2924.4992348544029
 33
0.0
 14
2618.5902994562539
 24
2403.5992989360821
 34
0.0
1001
ACAD
1000
DSTYLE
1002
{
1070
   287
1070
     4
1070
   287
1070
     4
1070
    40
1040
20.0
1070
    75
1070
     1
1070
   143
1040
0.039
1070
   172
1070
     1
1070
   271
1070
     0
1070
   279
1070
     1
1070
   288
1070
     1
1002
}
  0
DIMENSION
  5
7DE4
  8
3
  2
*D17
 10
3543.2867566744471
 20
1933.599298936083
 30
0.0
 11
3543.2867566744462
 21
2183.339885117799
 31
0.0
 70
   128
 13
3371.8305378057648
 23
2433.599298936083
 33
0.0
 14
3371.8305378057648
 24
1933.599298936083
 34
0.0
 50
90.0
1001
ACAD
1000
DSTYLE
1002
{
1070
   287
1070
     3
1070
   287
1070
     3
1070
     3
1000
φ<>
1070
    40
1040
20.0
1070
   143
1040
0.039
1070
   172
1070
     1
1070
   271
1070
     0
1070
   279
1070
     0
1070
   288
1070
     1
1002
}
  0
DIMENSION
  5
7DFC
  8
3
  2
*D18
 10
1965.1606858614321
 20
4197.0812807996599
 30
0.0
 11
1352.381722866699
 21
4197.0812807996599
 31
0.0
 70
   128
 13
845.16068586143217
 23
3993.7134101767379
 33
0.0
 14
1965.1606858614321
 24
3993.7134101767492
 34
0.0
1001
ACAD
1000
DSTYLE
1002
{
1070
   287
1070
     3
1070
   287
1070
     3
1070
    40
1040
20.0
1070
   143
1040
0.039
1070
   172
1070
     1
1070
   271
1070
     0
1070
   279
1070
     0
1070
   288
1070
     1
1002
}
  0
DIMENSION
  5
7E09
  8
3
  2
*D19
 10
2151.784558400348
 20
3368.7134101767469
 30
0.0
 11
2151.784558400348
 21
3688.7402780481989
 31
0.0
 70
   128
 13
1965.1606858614321
 23
3993.7134101767492
 33
0.0
 14
1965.1606858614359
 24
3368.7134101767469
 34
0.0
 50
90.0
1001
ACAD
1000
DSTYLE
1002
{
1070
   287
1070
     3
1070
   287
1070
     3
1070
    40
1040
20.0
1070
   143
1040
0.039
1070
   172
1070
     1
1070
   271
1070
     0
1070
   279
1070
     0
1070
   288
1070
     1
1002
}
  0
LINE
  5
7E2F
  8
1
 10
1103.4721068814649
 20
2631.8565752421068
 30
0.0
 11
1103.4721068814649
 21
2391.8565752421068
 31
0.0
  0
LINE
  5
7E30
  8
1
 10
1103.4721068814649
 20
2391.8565752421068
 30
0.0
 11
903.47210688146515
 21
2391.8565752421068
 31
0.0
  0
LINE
  5
7E31
  8
1
 10
903.47210688146515
 20
2391.8565752421068
 30
0.0
 11
903.47210688146515
 21
2631.8565752421068
 31
0.0
  0
LINE
  5
7E32
  8
1
 10
903.47210688146515
 20
2631.8565752421068
 30
0.0
 11
1103.4721068814649
 21
2631.8565752421068
 31
0.0
  0
DIMENSION
  5
7E3F
  8
3
  2
*D20
 10
1965.160685861443
 20
3038.2243059698699
 30
0.0
 11
1440.2060944282021
 21
3038.2243059698699
 31
0.0
 70
   128
 13
795.16068586143683
 23
2753.2044818993809
 33
0.0
 14
1965.160685861443
 24
1728.599298936088
 34
0.0
1001
ACAD
1000
DSTYLE
1002
{
1070
   287
1070
     3
1070
   287
1070
     3
1070
    40
1040
20.0
1070
   143
1040
0.039
1070
   172
1070
     1
1070
   271
1070
     0
1070
   279
1070
     0
1070
   288
1070
     1
1002
}
  0
ENDSEC
  0
EOF
