  0
SECTION
  2
HEADER
  9
$ACADVER
  1
AC1015
  9
$ACADMAINTVER
 70
    20
  9
$DWGCODEPAGE
  3
ANSI_932
  9
$INSBASE
 10
0.0
 20
0.0
 30
0.0
  9
$EXTMIN
 10
0.0
 20
0.0
 30
0.0
  9
$EXTMAX
 10
4200.0
 20
5900.0
 30
0.0
  9
$LIMMIN
 10
0.0
 20
0.0
  9
$LIMMAX
 10
297.0
 20
210.0
  9
$ORTHOMODE
 70
     0
  9
$REGENMODE
 70
     1
  9
$FILLMODE
 70
     0
  9
$QTEXTMODE
 70
     0
  9
$MIRRTEXT
 70
     1
  9
$LTSCALE
 40
100.0
  9
$ATTMODE
 70
     1
  9
$TEXTSIZE
 40
180.0
  9
$TRACEWID
 40
0.05
  9
$TEXTSTYLE
  7
STANDARD
  9
$CLAYER
  8
3
  9
$CELTYPE
  6
BYLAYER
  9
$CECOLOR
 62
   256
  9
$CELTSCALE
 40
1.0
  9
$DISPSILH
 70
     0
  9
$DIMSCALE
 40
20.0
  9
$DIMASZ
 40
2.0
  9
$DIMEXO
 40
0.5
  9
$DIMDLI
 40
10.0
  9
$DIMRND
 40
0.0
  9
$DIMDLE
 40
0.0
  9
$DIMEXE
 40
1.0
  9
$DIMTP
 40
1.0
  9
$DIMTM
 40
1.0
  9
$DIMTXT
 40
3.0
  9
$DIMCEN
 40
0.0
  9
$DIMTSZ
 40
0.0
  9
$DIMTOL
 70
     0
  9
$DIMLIM
 70
     0
  9
$DIMTIH
 70
     0
  9
$DIMTOH
 70
     0
  9
$DIMSE1
 70
     0
  9
$DIMSE2
 70
     0
  9
$DIMTAD
 70
     1
  9
$DIMZIN
 70
     8
  9
$DIMBLK
  1

  9
$DIMASO
 70
     1
  9
$DIMSHO
 70
     1
  9
$DIMPOST
  1

  9
$DIMAPOST
  1

  9
$DIMALT
 70
     0
  9
$DIMALTD
 70
     2
  9
$DIMALTF
 40
0.039
  9
$DIMLFAC
 40
1.0
  9
$DIMTOFL
 70
     1
  9
$DIMTVP
 40
0.0
  9
$DIMTIX
 70
     0
  9
$DIMSOXD
 70
     0
  9
$DIMSAH
 70
     1
  9
$DIMBLK1
  1
OPEN
  9
$DIMBLK2
  1
OPEN
  9
$DIMSTYLE
  2
IGA
  9
$DIMCLRD
 70
     0
  9
$DIMCLRE
 70
     0
  9
$DIMCLRT
 70
     0
  9
$DIMTFAC
 40
10.0
  9
$DIMGAP
 40
1.0
  9
$DIMJUST
 70
     0
  9
$DIMSD1
 70
     0
  9
$DIMSD2
 70
     0
  9
$DIMTOLJ
 70
     1
  9
$DIMTZIN
 70
     8
  9
$DIMALTZ
 70
     0
  9
$DIMALTTZ
 70
     0
  9
$DIMUPT
 70
     0
  9
$DIMDEC
 70
     0
  9
$DIMTDEC
 70
     0
  9
$DIMALTU
 70
     2
  9
$DIMALTTD
 70
     2
  9
$DIMTXSTY
  7
STANDARD
  9
$DIMAUNIT
 70
     0
  9
$DIMADEC
 70
     0
  9
$DIMALTRND
 40
0.0
  9
$DIMAZIN
 70
     0
  9
$DIMDSEP
 70
    46
  9
$DIMATFIT
 70
     3
  9
$DIMFRAC
 70
     0
  9
$DIMLDRBLK
  1
OPEN
  9
$DIMLUNIT
 70
     2
  9
$DIMLWD
 70
    -2
  9
$DIMLWE
 70
    -2
  9
$DIMTMOVE
 70
     0
  9
$LUNITS
 70
     2
  9
$LUPREC
 70
     3
  9
$SKETCHINC
 40
0.1
  9
$FILLETRAD
 40
50.0
  9
$AUNITS
 70
     0
  9
$AUPREC
 70
     0
  9
$MENU
  1
acad
  9
$ELEVATION
 40
0.0
  9
$PELEVATION
 40
0.0
  9
$THICKNESS
 40
0.0
  9
$LIMCHECK
 70
     0
  9
$CHAMFERA
 40
0.0
  9
$CHAMFERB
 40
0.0
  9
$CHAMFERC
 40
20.0
  9
$CHAMFERD
 40
0.0
  9
$SKPOLY
 70
     0
  9
$TDCREATE
 40
2452773.622829630
  9
$TDUCREATE
 40
2452773.247829630
  9
$TDUPDATE
 40
2458829.627666852
  9
$TDUUPDATE
 40
2458829.252666852
  9
$TDINDWG
 40
0.1748018634
  9
$TDUSRTIMER
 40
0.1748018634
  9
$USRTIMER
 70
     1
  9
$ANGBASE
 50
0.0
  9
$ANGDIR
 70
     0
  9
$PDMODE
 70
     0
  9
$PDSIZE
 40
0.0
  9
$PLINEWID
 40
0.0
  9
$SPLFRAME
 70
     0
  9
$SPLINETYPE
 70
     6
  9
$SPLINESEGS
 70
     8
  9
$HANDSEED
  5
87EF
  9
$SURFTAB1
 70
     6
  9
$SURFTAB2
 70
     6
  9
$SURFTYPE
 70
     6
  9
$SURFU
 70
     6
  9
$SURFV
 70
     6
  9
$UCSBASE
  2

  9
$UCSNAME
  2

  9
$UCSORG
 10
0.0
 20
0.0
 30
0.0
  9
$UCSXDIR
 10
1.0
 20
0.0
 30
0.0
  9
$UCSYDIR
 10
0.0
 20
1.0
 30
0.0
  9
$UCSORTHOREF
  2

  9
$UCSORTHOVIEW
 70
     0
  9
$UCSORGTOP
 10
0.0
 20
0.0
 30
0.0
  9
$UCSORGBOTTOM
 10
0.0
 20
0.0
 30
0.0
  9
$UCSORGLEFT
 10
0.0
 20
0.0
 30
0.0
  9
$UCSORGRIGHT
 10
0.0
 20
0.0
 30
0.0
  9
$UCSORGFRONT
 10
0.0
 20
0.0
 30
0.0
  9
$UCSORGBACK
 10
0.0
 20
0.0
 30
0.0
  9
$PUCSBASE
  2

  9
$PUCSNAME
  2

  9
$PUCSORG
 10
0.0
 20
0.0
 30
0.0
  9
$PUCSXDIR
 10
1.0
 20
0.0
 30
0.0
  9
$PUCSYDIR
 10
0.0
 20
1.0
 30
0.0
  9
$PUCSORTHOREF
  2

  9
$PUCSORTHOVIEW
 70
     0
  9
$PUCSORGTOP
 10
0.0
 20
0.0
 30
0.0
  9
$PUCSORGBOTTOM
 10
0.0
 20
0.0
 30
0.0
  9
$PUCSORGLEFT
 10
0.0
 20
0.0
 30
0.0
  9
$PUCSORGRIGHT
 10
0.0
 20
0.0
 30
0.0
  9
$PUCSORGFRONT
 10
0.0
 20
0.0
 30
0.0
  9
$PUCSORGBACK
 10
0.0
 20
0.0
 30
0.0
  9
$USERI1
 70
     0
  9
$USERI2
 70
     0
  9
$USERI3
 70
     0
  9
$USERI4
 70
     0
  9
$USERI5
 70
     0
  9
$USERR1
 40
0.0
  9
$USERR2
 40
0.0
  9
$USERR3
 40
0.0
  9
$USERR4
 40
0.0
  9
$USERR5
 40
0.0
  9
$WORLDVIEW
 70
     1
  9
$SHADEDGE
 70
     3
  9
$SHADEDIF
 70
    70
  9
$TILEMODE
 70
     1
  9
$MAXACTVP
 70
    16
  9
$PINSBASE
 10
0.0
 20
0.0
 30
0.0
  9
$PLIMCHECK
 70
     0
  9
$PEXTMIN
 10
1.000000000000000E+20
 20
1.000000000000000E+20
 30
1.000000000000000E+20
  9
$PEXTMAX
 10
-1.000000000000000E+20
 20
-1.000000000000000E+20
 30
-1.000000000000000E+20
  9
$PLIMMIN
 10
0.0
 20
0.0
  9
$PLIMMAX
 10
12.0
 20
9.0
  9
$UNITMODE
 70
     0
  9
$VISRETAIN
 70
     0
  9
$PLINEGEN
 70
     0
  9
$PSLTSCALE
 70
     1
  9
$TREEDEPTH
 70
  3020
  9
$CMLSTYLE
  2
STANDARD
  9
$CMLJUST
 70
     0
  9
$CMLSCALE
 40
20.0
  9
$PROXYGRAPHICS
 70
     1
  9
$MEASUREMENT
 70
     1
  9
$CELWEIGHT
370
    -1
  9
$ENDCAPS
280
     0
  9
$JOINSTYLE
280
     0
  9
$LWDISPLAY
290
     0
  9
$INSUNITS
 70
     0
  9
$HYPERLINKBASE
  1

  9
$STYLESHEET
  1
monochrome.ctb
  9
$XEDIT
290
     1
  9
$CEPSNTYPE
380
     0
  9
$PSTYLEMODE
290
     1
  9
$FINGERPRINTGUID
  2
{B4DA0A3E-0C63-468F-A6B9-EDD981EF3B75}
  9
$VERSIONGUID
  2
{3C181CD5-5F12-410C-AE23-7D30B75E5A76}
  9
$EXTNAMES
290
     1
  9
$PSVPSCALE
 40
0.0
  9
$OLESTARTUP
290
     0
  0
ENDSEC
  0
SECTION
  2
CLASSES
  0
CLASS
  1
ACDBDICTIONARYWDFLT
  2
AcDbDictionaryWithDefault
  3
ObjectDBX Classes
 90
        0
280
     0
281
     0
  0
CLASS
  1
ACDBPLACEHOLDER
  2
AcDbPlaceHolder
  3
ObjectDBX Classes
 90
        0
280
     0
281
     0
  0
CLASS
  1
LAYOUT
  2
AcDbLayout
  3
ObjectDBX Classes
 90
        0
280
     0
281
     0
  0
CLASS
  1
DICTIONARYVAR
  2
AcDbDictionaryVar
  3
ObjectDBX Classes
 90
        0
280
     0
281
     0
  0
CLASS
  1
MATERIAL
  2
AcDbMaterial
  3
ObjectDBX Classes
 90
     1153
280
     0
281
     0
  0
CLASS
  1
VISUALSTYLE
  2
AcDbVisualStyle
  3
ObjectDBX Classes
 90
     4095
280
     0
281
     0
  0
CLASS
  1
TABLESTYLE
  2
AcDbTableStyle
  3
ObjectDBX Classes
 90
     4095
280
     0
281
     0
  0
CLASS
  1
SCALE
  2
AcDbScale
  3
ObjectDBX Classes
 90
     1153
280
     0
281
     0
  0
CLASS
  1
MLEADERSTYLE
  2
AcDbMLeaderStyle
  3
ACDB_MLEADERSTYLE_CLASS
 90
     4095
280
     0
281
     0
  0
CLASS
  1
ACDBSECTIONVIEWSTYLE
  2
AcDbSectionViewStyle
  3
ObjectDBX Classes
 90
     1025
280
     0
281
     0
  0
CLASS
  1
ACDBDETAILVIEWSTYLE
  2
AcDbDetailViewStyle
  3
ObjectDBX Classes
 90
     1025
280
     0
281
     0
  0
CLASS
  1
SORTENTSTABLE
  2
AcDbSortentsTable
  3
ObjectDBX Classes
 90
        0
280
     0
281
     0
  0
CLASS
  1
CELLSTYLEMAP
  2
AcDbCellStyleMap
  3
ObjectDBX Classes
 90
     1152
280
     0
281
     0
  0
ENDSEC
  0
SECTION
  2
TABLES
  0
TABLE
  2
VPORT
  5
8
330
0
100
AcDbSymbolTable
 70
     1
  0
VPORT
  5
808B
330
8
100
AcDbSymbolTableRecord
100
AcDbViewportTableRecord
  2
*Active
 70
     0
 10
0.0
 20
0.0
 11
1.0
 21
1.0
 12
2100.000009778887
 22
2950.000013737006
 13
0.0
 23
0.0
 14
10.0
 24
10.0
 15
10.0
 25
10.0
 16
0.0
 26
0.0
 36
1.0
 17
0.0
 27
0.0
 37
0.0
 40
5947.128303146891
 41
1.915441176470588
 42
50.0
 43
0.0
 44
0.0
 50
0.0
 51
0.0
 71
     0
 72
   100
 73
     1
 74
     0
 75
     0
 76
     0
 77
     0
 78
     0
281
     0
 65
     1
110
0.0
120
0.0
130
0.0
111
1.0
121
0.0
131
0.0
112
0.0
122
1.0
132
0.0
 79
     0
146
0.0
1001
ACAD_NAV_VCDISPLAY
1070
     3
  0
ENDTAB
  0
TABLE
  2
LTYPE
  5
5
330
0
100
AcDbSymbolTable
 70
     2
  0
LTYPE
  5
13
330
5
100
AcDbSymbolTableRecord
100
AcDbLinetypeTableRecord
  2
BYBLOCK
 70
     0
  3

 72
    65
 73
     0
 40
0.0
  0
LTYPE
  5
14
330
5
100
AcDbSymbolTableRecord
100
AcDbLinetypeTableRecord
  2
BYLAYER
 70
     0
  3

 72
    65
 73
     0
 40
0.0
  0
LTYPE
  5
15
330
5
100
AcDbSymbolTableRecord
100
AcDbLinetypeTableRecord
  2
CONTINUOUS
 70
     0
  3
Solid line
 72
    65
 73
     0
 40
0.0
  0
LTYPE
  5
1F
330
5
100
AcDbSymbolTableRecord
100
AcDbLinetypeTableRecord
  2
CENTER
 70
     0
  3
____ _ ____ _ ____ _ ____ _ ____ _ ____ _ ____ 
 72
    65
 73
     4
 40
2.0
 49
1.25
 74
     0
 49
-0.25
 74
     0
 49
0.25
 74
     0
 49
-0.25
 74
     0
  0
ENDTAB
  0
TABLE
  2
LAYER
  5
2
102
{ACAD_XDICTIONARY
360
8584
102
}
330
0
100
AcDbSymbolTable
 70
     9
  0
LAYER
  5
F
102
{ACAD_XDICTIONARY
360
871C
102
}
330
2
100
AcDbSymbolTableRecord
100
AcDbLayerTableRecord
  2
0
 70
     0
 62
     7
  6
CONTINUOUS
370
    -3
390
7FC8
  0
LAYER
  5
31
102
{ACAD_XDICTIONARY
360
871E
102
}
330
2
100
AcDbSymbolTableRecord
100
AcDbLayerTableRecord
  2
3
 70
     0
 62
     2
  6
CONTINUOUS
370
    -3
390
7FC8
  0
LAYER
  5
76D0
102
{ACAD_XDICTIONARY
360
8720
102
}
330
2
100
AcDbSymbolTableRecord
100
AcDbLayerTableRecord
  2
2
 70
     0
 62
     3
  6
CENTER
370
    -3
390
7FC8
  0
LAYER
  5
76D1
102
{ACAD_XDICTIONARY
360
8722
102
}
330
2
100
AcDbSymbolTableRecord
100
AcDbLayerTableRecord
  2
1
 70
     0
 62
     4
  6
CONTINUOUS
370
    -3
390
7FC8
  0
LAYER
  5
76D2
102
{ACAD_XDICTIONARY
360
8724
102
}
330
2
100
AcDbSymbolTableRecord
100
AcDbLayerTableRecord
  2
4
 70
     0
 62
     7
  6
CONTINUOUS
370
    -3
390
7FC8
  0
LAYER
  5
7A08
330
2
100
AcDbSymbolTableRecord
100
AcDbLayerTableRecord
  2
DEFPOINTS
 70
     0
 62
     7
  6
CONTINUOUS
290
     0
370
    -3
390
7FC8
  0
LAYER
  5
857B
102
{ACAD_XDICTIONARY
360
857C
102
}
330
2
100
AcDbSymbolTableRecord
100
AcDbLayerTableRecord
  2
CT
 70
     0
 62
     7
  6
CENTER
370
    -3
390
7FC8
  0
LAYER
  5
857D
102
{ACAD_XDICTIONARY
360
857E
102
}
330
2
100
AcDbSymbolTableRecord
100
AcDbLayerTableRecord
  2
FUTO
 70
     0
 62
     7
  6
CONTINUOUS
370
    -3
390
7FC8
  0
LAYER
  5
857F
102
{ACAD_XDICTIONARY
360
8580
102
}
330
2
100
AcDbSymbolTableRecord
100
AcDbLayerTableRecord
  2
SP
 70
     0
 62
     7
  6
CONTINUOUS
370
    -3
390
7FC8
  0
ENDTAB
  0
TABLE
  2
STYLE
  5
3
330
0
100
AcDbSymbolTable
 70
     1
  0
STYLE
  5
10
330
3
100
AcDbSymbolTableRecord
100
AcDbTextStyleTableRecord
  2
STANDARD
 70
     0
 40
0.0
 41
1.0
 50
0.0
 71
     0
 42
180.0
  3
simplex.shx
  4
extfont.shx
  0
ENDTAB
  0
TABLE
  2
VIEW
  5
6
330
0
100
AcDbSymbolTable
 70
     0
  0
ENDTAB
  0
TABLE
  2
UCS
  5
7
330
0
100
AcDbSymbolTable
 70
     0
  0
ENDTAB
  0
TABLE
  2
APPID
  5
9
330
0
100
AcDbSymbolTable
 70
     6
  0
APPID
  5
11
330
9
100
AcDbSymbolTableRecord
100
AcDbRegAppTableRecord
  2
ACAD
 70
     0
  0
APPID
  5
84A1
330
9
100
AcDbSymbolTableRecord
100
AcDbRegAppTableRecord
  2
ACAD_EXEMPT_FROM_CAD_STANDARDS
 70
     0
  0
APPID
  5
8582
330
9
100
AcDbSymbolTableRecord
100
AcDbRegAppTableRecord
  2
ACAD_NAV_VCDISPLAY
 70
     0
  0
APPID
  5
8583
330
9
100
AcDbSymbolTableRecord
100
AcDbRegAppTableRecord
  2
ACAD_PSEXT
 70
     0
  0
APPID
  5
86F8
330
9
100
AcDbSymbolTableRecord
100
AcDbRegAppTableRecord
  2
AcadAnnoMonitorAlertIconDisabled
 70
     0
  0
APPID
  5
87E8
330
9
100
AcDbSymbolTableRecord
100
AcDbRegAppTableRecord
  2
ACAD_MLEADERVER
 70
     0
  0
ENDTAB
  0
TABLE
  2
DIMSTYLE
  5
A
330
0
100
AcDbSymbolTable
 70
     2
100
AcDbDimStyleTable
 71
     1
340
1D
  0
DIMSTYLE
105
1D
102
{ACAD_REACTORS
330
7CC8
330
7CD5
330
7CEC
330
7DA4
330
7DB3
330
7DCC
330
7DE4
330
7E6E
330
7E7A
330
7F93
330
7FA0
330
7FAD
330
7FBC
330
8328
330
8329
102
}
330
A
100
AcDbSymbolTableRecord
100
AcDbDimStyleTableRecord
  2
IGA
 70
     0
 40
2.0
 41
2.0
 42
0.5
 43
10.0
 44
1.0
 47
1.0
 48
1.0
 73
     0
 74
     0
 77
     1
 78
     8
140
3.0
141
0.0
143
0.03937
146
10.0
147
1.0
173
     1
271
     1
272
     0
279
     2
284
     8
340
10
341
79FC
343
79FC
344
79FC
  0
DIMSTYLE
105
8581
330
A
100
AcDbSymbolTableRecord
100
AcDbDimStyleTableRecord
  2
MATSU
 70
     0
 41
2.0
 42
1.0
 43
10.0
 44
1.0
 73
     0
 74
     0
 77
     1
 78
     8
140
3.0
141
0.0
143
0.03937
147
0.5
172
     1
173
     1
176
   256
177
   256
178
   256
284
     8
289
     0
340
10
341
79FC
343
79FC
344
79FC
  0
ENDTAB
  0
TABLE
  2
BLOCK_RECORD
  5
1
330
0
100
AcDbSymbolTable
 70
    67
  0
BLOCK_RECORD
  5
19
102
{ACAD_XDICTIONARY
360
7FF6
102
}
330
1
100
AcDbSymbolTableRecord
100
AcDbBlockTableRecord
  2
*MODEL_SPACE
340
7FCB
  0
BLOCK_RECORD
  5
16
102
{ACAD_XDICTIONARY
360
7FF4
102
}
330
1
100
AcDbSymbolTableRecord
100
AcDbBlockTableRecord
  2
*PAPER_SPACE
340
7FCC
  0
BLOCK_RECORD
  5
79FC
330
1
100
AcDbSymbolTableRecord
100
AcDbBlockTableRecord
  2
_OPEN
340
0
102
{BLKREFS
331
7FFF
331
8000
331
8008
331
8009
331
8011
331
8012
331
801A
331
801B
331
8023
331
8024
331
8034
331
8035
331
804E
331
804F
331
8056
331
8057
331
8062
331
8063
331
806B
331
806C
331
8074
331
8075
331
807D
331
807E
331
8704
331
8705
331
870D
331
870E
331
8716
331
8717
102
}
  0
BLOCK_RECORD
  5
7CBC
330
1
100
AcDbSymbolTableRecord
100
AcDbBlockTableRecord
  2
*D1
340
0
  0
BLOCK_RECORD
  5
7CC9
330
1
100
AcDbSymbolTableRecord
100
AcDbBlockTableRecord
  2
*D2
340
0
  0
BLOCK_RECORD
  5
7CE1
330
1
100
AcDbSymbolTableRecord
100
AcDbBlockTableRecord
  2
*D3
340
0
  0
BLOCK_RECORD
  5
7D46
330
1
100
AcDbSymbolTableRecord
100
AcDbBlockTableRecord
  2
_DOT
340
0
  0
BLOCK_RECORD
  5
7D98
330
1
100
AcDbSymbolTableRecord
100
AcDbBlockTableRecord
  2
*D5
340
0
  0
BLOCK_RECORD
  5
7DA5
330
1
100
AcDbSymbolTableRecord
100
AcDbBlockTableRecord
  2
*D6
340
0
  0
BLOCK_RECORD
  5
7DC1
330
1
100
AcDbSymbolTableRecord
100
AcDbBlockTableRecord
  2
*D7
340
0
  0
BLOCK_RECORD
  5
7DD8
330
1
100
AcDbSymbolTableRecord
100
AcDbBlockTableRecord
  2
*D8
340
0
  0
BLOCK_RECORD
  5
7E63
330
1
100
AcDbSymbolTableRecord
100
AcDbBlockTableRecord
  2
*D11
340
0
  0
BLOCK_RECORD
  5
7E6F
330
1
100
AcDbSymbolTableRecord
100
AcDbBlockTableRecord
  2
*D12
340
0
  0
BLOCK_RECORD
  5
7F87
330
1
100
AcDbSymbolTableRecord
100
AcDbBlockTableRecord
  2
*D13
340
0
  0
BLOCK_RECORD
  5
7F94
330
1
100
AcDbSymbolTableRecord
100
AcDbBlockTableRecord
  2
*D14
340
0
  0
BLOCK_RECORD
  5
7FA1
330
1
100
AcDbSymbolTableRecord
100
AcDbBlockTableRecord
  2
*D15
340
0
  0
BLOCK_RECORD
  5
7FAE
330
1
100
AcDbSymbolTableRecord
100
AcDbBlockTableRecord
  2
*D16
340
0
  0
BLOCK_RECORD
  5
83BA
330
1
100
AcDbSymbolTableRecord
100
AcDbBlockTableRecord
  2
*D37
340
0
  0
BLOCK_RECORD
  5
83C6
330
1
100
AcDbSymbolTableRecord
100
AcDbBlockTableRecord
  2
*D38
340
0
  0
BLOCK_RECORD
  5
84E3
330
1
100
AcDbSymbolTableRecord
100
AcDbBlockTableRecord
  2
_DotSmall
340
0
102
{BLKREFS
102
}
  0
BLOCK_RECORD
  5
84E7
330
1
100
AcDbSymbolTableRecord
100
AcDbBlockTableRecord
  2
_NONE
340
0
  0
ENDTAB
  0
ENDSEC
  0
SECTION
  2
BLOCKS
  0
BLOCK
  5
1A
330
19
100
AcDbEntity
  8
0
100
AcDbBlockBegin
  2
*MODEL_SPACE
 70
     0
 10
0.0
 20
0.0
 30
0.0
  3
*MODEL_SPACE
  1

  0
ENDBLK
  5
1B
330
19
100
AcDbEntity
  8
0
100
AcDbBlockEnd
  0
BLOCK
  5
17
330
16
100
AcDbEntity
 67
     1
  8
0
100
AcDbBlockBegin
  2
*PAPER_SPACE
 70
     0
 10
0.0
 20
0.0
 30
0.0
  3
*PAPER_SPACE
  1

  0
ENDBLK
  5
18
330
16
100
AcDbEntity
 67
     1
  8
0
100
AcDbBlockEnd
  0
BLOCK
  5
7A00
330
79FC
100
AcDbEntity
  8
0
100
AcDbBlockBegin
  2
_OPEN
 70
     0
 10
0.0
 20
0.0
 30
0.0
  3
_OPEN
  1

  0
LINE
  5
79FD
330
79FC
100
AcDbEntity
  8
0
  6
ByBlock
 62
     0
100
AcDbLine
 10
-1.0
 20
0.1666666666666666
 30
0.0
 11
0.0
 21
0.0
 31
0.0
  0
LINE
  5
79FE
330
79FC
100
AcDbEntity
  8
0
  6
ByBlock
 62
     0
100
AcDbLine
 10
0.0
 20
0.0
 30
0.0
 11
-1.0
 21
-0.1666666666666666
 31
0.0
  0
LINE
  5
79FF
330
79FC
100
AcDbEntity
  8
0
  6
ByBlock
 62
     0
100
AcDbLine
 10
0.0
 20
0.0
 30
0.0
 11
-1.0
 21
0.0
 31
0.0
  0
ENDBLK
  5
7A01
330
79FC
100
AcDbEntity
  8
0
100
AcDbBlockEnd
  0
BLOCK
  5
7F27
330
7CBC
100
AcDbEntity
  8
0
100
AcDbBlockBegin
  2
*D1
 70
     1
 10
0.0
 20
0.0
 30
0.0
  3
*D1
  1

  0
LINE
  5
7FFC
330
7CBC
100
AcDbEntity
  8
3
 62
     0
100
AcDbLine
 10
745.8090247007576
 20
2553.599298936085
 30
0.0
 11
745.8090247007576
 21
2741.164317456654
 31
0.0
  0
LINE
  5
7FFD
330
7CBC
100
AcDbEntity
  8
3
 62
     0
100
AcDbLine
 10
1283.809024700758
 20
2610.91349883602
 30
0.0
 11
1283.809024700758
 21
2741.164317456654
 31
0.0
  0
LINE
  5
7FFE
330
7CBC
100
AcDbEntity
  8
3
 62
     0
100
AcDbLine
 10
785.8090247007575
 20
2721.164317456654
 30
0.0
 11
1243.809024700758
 21
2721.164317456654
 31
0.0
  0
INSERT
  5
7FFF
330
7CBC
100
AcDbEntity
  8
3
 62
     0
100
AcDbBlockReference
  2
_OPEN
 10
745.8090247007576
 20
2721.164317456654
 30
0.0
 41
40.0
 42
40.0
 43
40.0
 50
180.0
  0
INSERT
  5
8000
330
7CBC
100
AcDbEntity
  8
3
 62
     0
100
AcDbBlockReference
  2
_OPEN
 10
1283.809024700758
 20
2721.164317456654
 30
0.0
 41
40.0
 42
40.0
 43
40.0
  0
MTEXT
  5
8001
330
7CBC
100
AcDbEntity
  8
3
 62
     0
100
AcDbMText
 10
1031.077822496437
 20
2771.164317456654
 30
0.0
 40
60.0
 41
0.0
 71
     5
 72
     5
  1
\A1;538
 73
     1
 44
1.0
1001
ACAD
1000
MTEXTBEGIN
1070
    73
1070
     1
1070
    44
1040
1.0
1070
    74
1070
     0
1000
MTEXTEND
  0
POINT
  5
8002
330
7CBC
100
AcDbEntity
  8
DEFPOINTS
 62
     0
100
AcDbPoint
 10
745.8090247007576
 20
2543.599298936085
 30
0.0
  0
POINT
  5
8003
330
7CBC
100
AcDbEntity
  8
DEFPOINTS
 62
     0
100
AcDbPoint
 10
1283.809024700758
 20
2600.913498836019
 30
0.0
  0
POINT
  5
8004
330
7CBC
100
AcDbEntity
  8
DEFPOINTS
 62
     0
100
AcDbPoint
 10
1283.809024700758
 20
2721.164317456654
 30
0.0
  0
ENDBLK
  5
7F31
330
7CBC
100
AcDbEntity
  8
0
100
AcDbBlockEnd
  0
BLOCK
  5
7F1C
330
7CC9
100
AcDbEntity
  8
0
100
AcDbBlockBegin
  2
*D2
 70
     1
 10
0.0
 20
0.0
 30
0.0
  3
*D2
  1

  0
LINE
  5
8005
330
7CC9
100
AcDbEntity
  8
3
 62
     0
100
AcDbLine
 10
745.8090247007576
 20
2553.599298936085
 30
0.0
 11
745.8090247007576
 21
2622.797735104884
 31
0.0
  0
LINE
  5
8006
330
7CC9
100
AcDbEntity
  8
3
 62
     0
100
AcDbLine
 10
1257.809024700758
 20
2553.599298936081
 30
0.0
 11
1257.809024700758
 21
2622.797735104884
 31
0.0
  0
LINE
  5
8007
330
7CC9
100
AcDbEntity
  8
3
 62
     0
100
AcDbLine
 10
785.8090247007575
 20
2602.797735104884
 30
0.0
 11
1217.809024700758
 21
2602.797735104884
 31
0.0
  0
INSERT
  5
8008
330
7CC9
100
AcDbEntity
  8
3
 62
     0
100
AcDbBlockReference
  2
_OPEN
 10
745.8090247007576
 20
2602.797735104884
 30
0.0
 41
40.0
 42
40.0
 43
40.0
 50
180.0
  0
INSERT
  5
8009
330
7CC9
100
AcDbEntity
  8
3
 62
     0
100
AcDbBlockReference
  2
_OPEN
 10
1257.809024700758
 20
2602.797735104884
 30
0.0
 41
40.0
 42
40.0
 43
40.0
  0
MTEXT
  5
800A
330
7CC9
100
AcDbEntity
  8
3
 62
     0
100
AcDbMText
 10
1005.423218279721
 20
2652.797735104884
 30
0.0
 40
60.0
 41
0.0
 71
     5
 72
     5
  1
\A1;512
 73
     1
 44
1.0
1001
ACAD
1000
MTEXTBEGIN
1070
    73
1070
     1
1070
    44
1040
1.0
1070
    74
1070
     0
1000
MTEXTEND
  0
POINT
  5
800B
330
7CC9
100
AcDbEntity
  8
DEFPOINTS
 62
     0
100
AcDbPoint
 10
745.8090247007576
 20
2543.599298936085
 30
0.0
  0
POINT
  5
800C
330
7CC9
100
AcDbEntity
  8
DEFPOINTS
 62
     0
100
AcDbPoint
 10
1257.809024700758
 20
2543.599298936082
 30
0.0
  0
POINT
  5
800D
330
7CC9
100
AcDbEntity
  8
DEFPOINTS
 62
     0
100
AcDbPoint
 10
1257.809024700758
 20
2602.797735104884
 30
0.0
  0
ENDBLK
  5
7F26
330
7CC9
100
AcDbEntity
  8
0
100
AcDbBlockEnd
  0
BLOCK
  5
7F11
330
7CE1
100
AcDbEntity
  8
0
100
AcDbBlockBegin
  2
*D3
 70
     1
 10
0.0
 20
0.0
 30
0.0
  3
*D3
  1

  0
LINE
  5
800E
330
7CE1
100
AcDbEntity
  8
3
 62
     0
100
AcDbLine
 10
1711.123224600693
 20
2183.599298936078
 30
0.0
 11
1841.374043221327
 21
2183.599298936078
 31
0.0
  0
LINE
  5
800F
330
7CE1
100
AcDbEntity
  8
3
 62
     0
100
AcDbLine
 10
1603.809024700752
 20
1663.599298936079
 30
0.0
 11
1841.374043221327
 21
1663.599298936079
 31
0.0
  0
LINE
  5
8010
330
7CE1
100
AcDbEntity
  8
3
 62
     0
100
AcDbLine
 10
1821.374043221327
 20
2143.599298936078
 30
0.0
 11
1821.374043221327
 21
1703.599298936079
 31
0.0
  0
INSERT
  5
8011
330
7CE1
100
AcDbEntity
  8
3
 62
     0
100
AcDbBlockReference
  2
_OPEN
 10
1821.374043221327
 20
2183.599298936078
 30
0.0
 41
40.0
 42
40.0
 43
40.0
 50
90.0
  0
INSERT
  5
8012
330
7CE1
100
AcDbEntity
  8
3
 62
     0
100
AcDbBlockReference
  2
_OPEN
 10
1821.374043221327
 20
1663.599298936079
 30
0.0
 41
40.0
 42
40.0
 43
40.0
 50
270.0
  0
MTEXT
  5
8013
330
7CE1
100
AcDbEntity
  8
3
 62
     0
100
AcDbMText
 10
1771.374043221327
 20
1923.599298936079
 30
0.0
 40
60.0
 41
0.0
 71
     5
 72
     5
  1
\A1;520
 11
0.0000000000000001
 21
1.0
 31
0.0
 73
     1
 44
1.0
1001
ACAD
1000
MTEXTBEGIN
1070
    73
1070
     1
1070
    44
1040
1.0
1070
    74
1070
     0
1000
MTEXTEND
  0
POINT
  5
8014
330
7CE1
100
AcDbEntity
  8
DEFPOINTS
 62
     0
100
AcDbPoint
 10
1701.123224600693
 20
2183.599298936078
 30
0.0
  0
POINT
  5
8015
330
7CE1
100
AcDbEntity
  8
DEFPOINTS
 62
     0
100
AcDbPoint
 10
1593.809024700752
 20
1663.599298936079
 30
0.0
  0
POINT
  5
8016
330
7CE1
100
AcDbEntity
  8
DEFPOINTS
 62
     0
100
AcDbPoint
 10
1821.374043221327
 20
1663.599298936079
 30
0.0
  0
ENDBLK
  5
7F1B
330
7CE1
100
AcDbEntity
  8
0
100
AcDbBlockEnd
  0
BLOCK
  5
7D47
330
7D46
100
AcDbEntity
  8
0
100
AcDbBlockBegin
  2
_DOT
 70
     0
 10
0.0
 20
0.0
 30
0.0
  3
_DOT
  1

  0
LINE
  5
7EC4
330
7D46
100
AcDbEntity
  8
0
  6
ByBlock
 62
     0
100
AcDbLine
 10
0.0
 20
0.0
 30
0.0
 11
-1.0
 21
-0.0000000000000284
 31
0.0
  0
LWPOLYLINE
  5
7EC5
330
7D46
100
AcDbEntity
  8
0
  6
ByBlock
 62
     0
100
AcDbPolyline
 90
        2
 70
     1
 43
0.1666666666666666
 10
-0.0833333333333286
 20
-0.0000000000000284
 42
1.0
 10
0.0833333333333286
 20
-0.0000000000000284
 42
1.0
  0
ENDBLK
  5
7D4D
330
7D46
100
AcDbEntity
  8
0
100
AcDbBlockEnd
  0
BLOCK
  5
7D99
330
7D98
100
AcDbEntity
  8
0
100
AcDbBlockBegin
  2
*D5
 70
     1
 10
0.0
 20
0.0
 30
0.0
  3
*D5
  1

  0
LINE
  5
8017
330
7D98
100
AcDbEntity
  8
3
 62
     0
100
AcDbLine
 10
2964.330537805764
 20
2520.845516482221
 30
0.0
 11
2964.330537805764
 21
2664.53908781836
 31
0.0
  0
LINE
  5
8018
330
7D98
100
AcDbEntity
  8
3
 62
     0
100
AcDbLine
 10
3339.330537805765
 20
2520.845516482221
 30
0.0
 11
3339.330537805765
 21
2664.53908781836
 31
0.0
  0
LINE
  5
8019
330
7D98
100
AcDbEntity
  8
3
 62
     0
100
AcDbLine
 10
3004.330537805764
 20
2644.53908781836
 30
0.0
 11
3299.330537805765
 21
2644.53908781836
 31
0.0
  0
INSERT
  5
801A
330
7D98
100
AcDbEntity
  8
3
 62
     0
100
AcDbBlockReference
  2
_OPEN
 10
2964.330537805764
 20
2644.53908781836
 30
0.0
 41
40.0
 42
40.0
 43
40.0
 50
180.0
  0
INSERT
  5
801B
330
7D98
100
AcDbEntity
  8
3
 62
     0
100
AcDbBlockReference
  2
_OPEN
 10
3339.330537805765
 20
2644.53908781836
 30
0.0
 41
40.0
 42
40.0
 43
40.0
  0
MTEXT
  5
801C
330
7D98
100
AcDbEntity
  8
3
 62
     0
100
AcDbMText
 10
3152.435655190933
 20
2694.539087818359
 30
0.0
 40
60.0
 41
0.0
 71
     5
 72
     5
  1
\A1;375
 73
     1
 44
1.0
1001
ACAD
1000
MTEXTBEGIN
1070
    73
1070
     1
1070
    44
1040
1.0
1070
    74
1070
     0
1000
MTEXTEND
  0
POINT
  5
801D
330
7D98
100
AcDbEntity
  8
DEFPOINTS
 62
     0
100
AcDbPoint
 10
2964.330537805764
 20
2510.845516482221
 30
0.0
  0
POINT
  5
801E
330
7D98
100
AcDbEntity
  8
DEFPOINTS
 62
     0
100
AcDbPoint
 10
3339.330537805765
 20
2510.845516482221
 30
0.0
  0
POINT
  5
801F
330
7D98
100
AcDbEntity
  8
DEFPOINTS
 62
     0
100
AcDbPoint
 10
3339.330537805765
 20
2644.53908781836
 30
0.0
  0
ENDBLK
  5
7DA3
330
7D98
100
AcDbEntity
  8
0
100
AcDbBlockEnd
  0
BLOCK
  5
7EAF
330
7DA5
100
AcDbEntity
  8
0
100
AcDbBlockBegin
  2
*D6
 70
     1
 10
0.0
 20
0.0
 30
0.0
  3
*D6
  1

  0
LINE
  5
8020
330
7DA5
100
AcDbEntity
  8
3
 62
     0
100
AcDbLine
 10
3151.830537805766
 20
2723.745452400541
 30
0.0
 11
3151.830537805766
 21
2782.114798567218
 31
0.0
  0
LINE
  5
8021
330
7DA5
100
AcDbEntity
  8
3
 62
     0
100
AcDbLine
 10
3343.630537805765
 20
2473.599298936083
 30
0.0
 11
3343.630537805765
 21
2782.114798567218
 31
0.0
  0
LINE
  5
8022
330
7DA5
100
AcDbEntity
  8
3
 62
     0
100
AcDbLine
 10
3191.830537805766
 20
2762.114798567218
 30
0.0
 11
3303.630537805766
 21
2762.114798567218
 31
0.0
  0
INSERT
  5
8023
330
7DA5
100
AcDbEntity
  8
3
 62
     0
100
AcDbBlockReference
  2
_OPEN
 10
3151.830537805766
 20
2762.114798567218
 30
0.0
 41
40.0
 42
40.0
 43
40.0
 50
180.0
  0
INSERT
  5
8024
330
7DA5
100
AcDbEntity
  8
3
 62
     0
100
AcDbBlockReference
  2
_OPEN
 10
3343.630537805765
 20
2762.114798567218
 30
0.0
 41
40.0
 42
40.0
 43
40.0
  0
MTEXT
  5
8025
330
7DA5
100
AcDbEntity
  8
3
 62
     0
100
AcDbMText
 10
3247.730537805766
 20
2812.114798567219
 30
0.0
 40
60.0
 41
0.0
 71
     5
 72
     5
  1
\A1;192
 73
     1
 44
1.0
1001
ACAD
1000
MTEXTBEGIN
1070
    73
1070
     1
1070
    44
1040
1.0
1070
    74
1070
     0
1000
MTEXTEND
  0
POINT
  5
8026
330
7DA5
100
AcDbEntity
  8
DEFPOINTS
 62
     0
100
AcDbPoint
 10
3151.830537805766
 20
2713.74545240054
 30
0.0
  0
POINT
  5
8027
330
7DA5
100
AcDbEntity
  8
DEFPOINTS
 62
     0
100
AcDbPoint
 10
3343.630537805765
 20
2463.599298936083
 30
0.0
  0
POINT
  5
8028
330
7DA5
100
AcDbEntity
  8
DEFPOINTS
 62
     0
100
AcDbPoint
 10
3343.630537805765
 20
2762.114798567218
 30
0.0
  0
ENDBLK
  5
7EBB
330
7DA5
100
AcDbEntity
  8
0
100
AcDbBlockEnd
  0
BLOCK
  5
7EA5
330
7DC1
100
AcDbEntity
  8
0
100
AcDbBlockBegin
  2
*D7
 70
     1
 10
0.0
 20
0.0
 30
0.0
  3
*D7
  1

  0
LINE
  5
8702
330
7DC1
100
AcDbEntity
  8
3
 62
     0
370
    -2
100
AcDbLine
 10
2618.590299456254
 20
2413.599298936083
 30
0.0
 11
2618.590299456254
 21
2782.114798567218
 31
0.0
  0
LINE
  5
8703
330
7DC1
100
AcDbEntity
  8
3
 62
     0
370
    -2
100
AcDbLine
 10
3111.830537805766
 20
2762.114798567218
 30
0.0
 11
2658.590299456254
 21
2762.114798567218
 31
0.0
  0
INSERT
  5
8704
330
7DC1
100
AcDbEntity
  8
3
 62
     0
370
    -2
100
AcDbBlockReference
  2
_OPEN
 10
3151.830537805766
 20
2762.114798567218
 30
0.0
 41
40.0
 42
40.0
 43
40.0
  0
INSERT
  5
8705
330
7DC1
100
AcDbEntity
  8
3
 62
     0
370
    -2
100
AcDbBlockReference
  2
_OPEN
 10
2618.590299456254
 20
2762.114798567218
 30
0.0
 41
40.0
 42
40.0
 43
40.0
 50
180.0
  0
MTEXT
  5
8706
330
7DC1
100
AcDbEntity
  8
3
 62
     0
100
AcDbMText
 10
2885.21041863101
 20
2827.829084281504
 30
0.0
 40
60.0
 41
0.0
 71
     5
 72
     1
  1
\A1;(560)
 73
     1
 44
1.0
1001
ACAD
1000
MTEXTBEGIN
1070
    73
1070
     1
1070
    44
1040
1.0
1070
    74
1070
     0
1000
MTEXTEND
  0
POINT
  5
8707
330
7DC1
100
AcDbEntity
  8
DEFPOINTS
 62
     0
100
AcDbPoint
 10
3151.830537805766
 20
2713.74545240054
 30
0.0
  0
POINT
  5
8708
330
7DC1
100
AcDbEntity
  8
DEFPOINTS
 62
     0
100
AcDbPoint
 10
2618.590299456254
 20
2403.599298936082
 30
0.0
  0
POINT
  5
8709
330
7DC1
100
AcDbEntity
  8
DEFPOINTS
 62
     0
100
AcDbPoint
 10
2618.590299456254
 20
2762.114798567218
 30
0.0
  0
ENDBLK
  5
7EAE
330
7DC1
100
AcDbEntity
  8
0
100
AcDbBlockEnd
  0
BLOCK
  5
7DE5
330
7DD8
100
AcDbEntity
  8
0
100
AcDbBlockBegin
  2
*D8
 70
     1
 10
0.0
 20
0.0
 30
0.0
  3
*D8
  1

  0
LINE
  5
8031
330
7DD8
100
AcDbEntity
  8
3
 62
     0
100
AcDbLine
 10
3381.830537805765
 20
2433.599298936083
 30
0.0
 11
3563.286756674447
 21
2433.599298936083
 31
0.0
  0
LINE
  5
8032
330
7DD8
100
AcDbEntity
  8
3
 62
     0
100
AcDbLine
 10
3381.830537805765
 20
1933.599298936083
 30
0.0
 11
3563.286756674447
 21
1933.599298936083
 31
0.0
  0
LINE
  5
8033
330
7DD8
100
AcDbEntity
  8
3
 62
     0
100
AcDbLine
 10
3543.286756674447
 20
2393.599298936083
 30
0.0
 11
3543.286756674447
 21
1973.599298936083
 31
0.0
  0
INSERT
  5
8034
330
7DD8
100
AcDbEntity
  8
3
 62
     0
100
AcDbBlockReference
  2
_OPEN
 10
3543.286756674447
 20
2433.599298936083
 30
0.0
 41
40.0
 42
40.0
 43
40.0
 50
90.0
  0
INSERT
  5
8035
330
7DD8
100
AcDbEntity
  8
3
 62
     0
100
AcDbBlockReference
  2
_OPEN
 10
3543.286756674447
 20
1933.599298936083
 30
0.0
 41
40.0
 42
40.0
 43
40.0
 50
270.0
  0
MTEXT
  5
8036
330
7DD8
100
AcDbEntity
  8
3
 62
     0
100
AcDbMText
 10
3493.286756674446
 20
2183.339885117799
 30
0.0
 40
60.0
 41
0.0
 71
     5
 72
     5
  1
\A1;\U+03C6500
 11
0.0000000000000001
 21
1.0
 31
0.0
 73
     1
 44
1.0
1001
ACAD
1000
MTEXTBEGIN
1070
    73
1070
     1
1070
    44
1040
1.0
1070
    74
1070
     0
1000
MTEXTEND
  0
POINT
  5
8037
330
7DD8
100
AcDbEntity
  8
DEFPOINTS
 62
     0
100
AcDbPoint
 10
3371.830537805765
 20
2433.599298936083
 30
0.0
  0
POINT
  5
8038
330
7DD8
100
AcDbEntity
  8
DEFPOINTS
 62
     0
100
AcDbPoint
 10
3371.830537805765
 20
1933.599298936083
 30
0.0
  0
POINT
  5
8039
330
7DD8
100
AcDbEntity
  8
DEFPOINTS
 62
     0
100
AcDbPoint
 10
3543.286756674447
 20
1933.599298936083
 30
0.0
  0
ENDBLK
  5
7DEF
330
7DD8
100
AcDbEntity
  8
0
100
AcDbBlockEnd
  0
BLOCK
  5
7EEE
330
7E63
100
AcDbEntity
  8
0
100
AcDbBlockBegin
  2
*D11
 70
     1
 10
0.0
 20
0.0
 30
0.0
  3
*D11
  1

  0
LINE
  5
804C
330
7E63
100
AcDbEntity
  8
3
 62
     0
100
AcDbLine
 10
1299.409024700758
 20
2543.599298936082
 30
0.0
 11
1841.374043221327
 21
2543.599298936082
 31
0.0
  0
LINE
  5
804D
330
7E63
100
AcDbEntity
  8
3
 62
     0
100
AcDbLine
 10
1821.374043221327
 20
2223.599298936077
 30
0.0
 11
1821.374043221327
 21
2503.599298936081
 31
0.0
  0
INSERT
  5
804E
330
7E63
100
AcDbEntity
  8
3
 62
     0
100
AcDbBlockReference
  2
_OPEN
 10
1821.374043221327
 20
2183.599298936078
 30
0.0
 41
40.0
 42
40.0
 43
40.0
 50
270.0
  0
INSERT
  5
804F
330
7E63
100
AcDbEntity
  8
3
 62
     0
100
AcDbBlockReference
  2
_OPEN
 10
1821.374043221327
 20
2543.599298936082
 30
0.0
 41
40.0
 42
40.0
 43
40.0
 50
90.0
  0
MTEXT
  5
8050
330
7E63
100
AcDbEntity
  8
3
 62
     0
100
AcDbMText
 10
1771.374043221327
 20
2363.59929893608
 30
0.0
 40
60.0
 41
0.0
 71
     5
 72
     5
  1
\A1;360
 11
0.0000000000000001
 21
1.0
 31
0.0
 73
     1
 44
1.0
1001
ACAD
1000
MTEXTBEGIN
1070
    73
1070
     1
1070
    44
1040
1.0
1070
    74
1070
     0
1000
MTEXTEND
  0
POINT
  5
8051
330
7E63
100
AcDbEntity
  8
DEFPOINTS
 62
     0
100
AcDbPoint
 10
1701.123224600693
 20
2183.599298936078
 30
0.0
  0
POINT
  5
8052
330
7E63
100
AcDbEntity
  8
DEFPOINTS
 62
     0
100
AcDbPoint
 10
1289.409024700758
 20
2543.599298936082
 30
0.0
  0
POINT
  5
8053
330
7E63
100
AcDbEntity
  8
DEFPOINTS
 62
     0
100
AcDbPoint
 10
1821.374043221327
 20
2543.599298936082
 30
0.0
  0
ENDBLK
  5
7EF7
330
7E63
100
AcDbEntity
  8
0
100
AcDbBlockEnd
  0
BLOCK
  5
7F47
330
7E6F
100
AcDbEntity
  8
0
100
AcDbBlockBegin
  2
*D12
 70
     1
 10
0.0
 20
0.0
 30
0.0
  3
*D12
  1

  0
LINE
  5
8054
330
7E6F
100
AcDbEntity
  8
3
 62
     0
100
AcDbLine
 10
1646.257015508615
 20
2156.599298936081
 30
0.0
 11
1646.257015508615
 21
2741.164317456654
 31
0.0
  0
LINE
  5
8055
330
7E6F
100
AcDbEntity
  8
3
 62
     0
100
AcDbLine
 10
1323.809024700758
 20
2721.164317456654
 30
0.0
 11
1606.257015508615
 21
2721.164317456654
 31
0.0
  0
INSERT
  5
8056
330
7E6F
100
AcDbEntity
  8
3
 62
     0
100
AcDbBlockReference
  2
_OPEN
 10
1283.809024700758
 20
2721.164317456654
 30
0.0
 41
40.0
 42
40.0
 43
40.0
 50
180.0
  0
INSERT
  5
8057
330
7E6F
100
AcDbEntity
  8
3
 62
     0
100
AcDbBlockReference
  2
_OPEN
 10
1646.257015508615
 20
2721.164317456654
 30
0.0
 41
40.0
 42
40.0
 43
40.0
  0
MTEXT
  5
8058
330
7E6F
100
AcDbEntity
  8
3
 62
     0
100
AcDbMText
 10
1465.033020104687
 20
2771.164317456654
 30
0.0
 40
60.0
 41
0.0
 71
     5
 72
     5
  1
\A1;362
 73
     1
 44
1.0
1001
ACAD
1000
MTEXTBEGIN
1070
    73
1070
     1
1070
    44
1040
1.0
1070
    74
1070
     0
1000
MTEXTEND
  0
POINT
  5
8059
330
7E6F
100
AcDbEntity
  8
DEFPOINTS
 62
     0
100
AcDbPoint
 10
1283.809024700758
 20
2600.913498836019
 30
0.0
  0
POINT
  5
805A
330
7E6F
100
AcDbEntity
  8
DEFPOINTS
 62
     0
100
AcDbPoint
 10
1646.257015508615
 20
2146.599298936081
 30
0.0
  0
POINT
  5
805B
330
7E6F
100
AcDbEntity
  8
DEFPOINTS
 62
     0
100
AcDbPoint
 10
1646.257015508615
 20
2721.164317456654
 30
0.0
  0
ENDBLK
  5
7F50
330
7E6F
100
AcDbEntity
  8
0
100
AcDbBlockEnd
  0
BLOCK
  5
7F88
330
7F87
100
AcDbEntity
  8
0
100
AcDbBlockBegin
  2
*D13
 70
     1
 10
0.0
 20
0.0
 30
0.0
  3
*D13
  1

  0
LINE
  5
805F
330
7F87
100
AcDbEntity
  8
3
 62
     0
100
AcDbLine
 10
473.8090247007521
 20
1653.599298936088
 30
0.0
 11
473.8090247007521
 21
1495.57947601245
 31
0.0
  0
LINE
  5
8060
330
7F87
100
AcDbEntity
  8
3
 62
     0
100
AcDbLine
 10
1283.80902470075
 20
1653.599298936081
 30
0.0
 11
1283.80902470075
 21
1495.57947601245
 31
0.0
  0
LINE
  5
8061
330
7F87
100
AcDbEntity
  8
3
 62
     0
100
AcDbLine
 10
513.8090247007522
 20
1515.57947601245
 30
0.0
 11
1243.80902470075
 21
1515.57947601245
 31
0.0
  0
INSERT
  5
8062
330
7F87
100
AcDbEntity
  8
3
 62
     0
100
AcDbBlockReference
  2
_OPEN
 10
473.8090247007521
 20
1515.57947601245
 30
0.0
 41
40.0
 42
40.0
 43
40.0
 50
180.0
  0
INSERT
  5
8063
330
7F87
100
AcDbEntity
  8
3
 62
     0
100
AcDbBlockReference
  2
_OPEN
 10
1283.80902470075
 20
1515.57947601245
 30
0.0
 41
40.0
 42
40.0
 43
40.0
  0
MTEXT
  5
8064
330
7F87
100
AcDbEntity
  8
3
 62
     0
100
AcDbMText
 10
878.8090247007511
 20
1565.57947601245
 30
0.0
 40
60.0
 41
0.0
 71
     5
 72
     5
  1
\A1;810
 73
     1
 44
1.0
1001
ACAD
1000
MTEXTBEGIN
1070
    73
1070
     1
1070
    44
1040
1.0
1070
    74
1070
     0
1000
MTEXTEND
  0
POINT
  5
8065
330
7F87
100
AcDbEntity
  8
DEFPOINTS
 62
     0
100
AcDbPoint
 10
473.8090247007521
 20
1663.599298936088
 30
0.0
  0
POINT
  5
8066
330
7F87
100
AcDbEntity
  8
DEFPOINTS
 62
     0
100
AcDbPoint
 10
1283.80902470075
 20
1663.599298936081
 30
0.0
  0
POINT
  5
8067
330
7F87
100
AcDbEntity
  8
DEFPOINTS
 62
     0
100
AcDbPoint
 10
1283.80902470075
 20
1515.57947601245
 30
0.0
  0
ENDBLK
  5
7F92
330
7F87
100
AcDbEntity
  8
0
100
AcDbBlockEnd
  0
BLOCK
  5
7F95
330
7F94
100
AcDbEntity
  8
0
100
AcDbBlockBegin
  2
*D14
 70
     1
 10
0.0
 20
0.0
 30
0.0
  3
*D14
  1

  0
LINE
  5
8068
330
7F94
100
AcDbEntity
  8
3
 62
     0
100
AcDbLine
 10
1283.80902470075
 20
1653.599298936081
 30
0.0
 11
1283.80902470075
 21
1495.57947601245
 31
0.0
  0
LINE
  5
8069
330
7F94
100
AcDbEntity
  8
3
 62
     0
100
AcDbLine
 10
1593.809024700752
 20
1653.599298936079
 30
0.0
 11
1593.809024700752
 21
1495.57947601245
 31
0.0
  0
LINE
  5
806A
330
7F94
100
AcDbEntity
  8
3
 62
     0
100
AcDbLine
 10
1323.80902470075
 20
1515.57947601245
 30
0.0
 11
1553.809024700752
 21
1515.57947601245
 31
0.0
  0
INSERT
  5
806B
330
7F94
100
AcDbEntity
  8
3
 62
     0
100
AcDbBlockReference
  2
_OPEN
 10
1283.80902470075
 20
1515.57947601245
 30
0.0
 41
40.0
 42
40.0
 43
40.0
 50
180.0
  0
INSERT
  5
806C
330
7F94
100
AcDbEntity
  8
3
 62
     0
100
AcDbBlockReference
  2
_OPEN
 10
1593.809024700752
 20
1515.57947601245
 30
0.0
 41
40.0
 42
40.0
 43
40.0
  0
MTEXT
  5
806D
330
7F94
100
AcDbEntity
  8
3
 62
     0
100
AcDbMText
 10
1438.809024700751
 20
1565.57947601245
 30
0.0
 40
60.0
 41
0.0
 71
     5
 72
     5
  1
\A1;310
 73
     1
 44
1.0
1001
ACAD
1000
MTEXTBEGIN
1070
    73
1070
     1
1070
    44
1040
1.0
1070
    74
1070
     0
1000
MTEXTEND
  0
POINT
  5
806E
330
7F94
100
AcDbEntity
  8
DEFPOINTS
 62
     0
100
AcDbPoint
 10
1283.80902470075
 20
1663.599298936081
 30
0.0
  0
POINT
  5
806F
330
7F94
100
AcDbEntity
  8
DEFPOINTS
 62
     0
100
AcDbPoint
 10
1593.809024700752
 20
1663.599298936079
 30
0.0
  0
POINT
  5
8070
330
7F94
100
AcDbEntity
  8
DEFPOINTS
 62
     0
100
AcDbPoint
 10
1593.809024700752
 20
1515.57947601245
 30
0.0
  0
ENDBLK
  5
7F9F
330
7F94
100
AcDbEntity
  8
0
100
AcDbBlockEnd
  0
BLOCK
  5
7FA2
330
7FA1
100
AcDbEntity
  8
0
100
AcDbBlockBegin
  2
*D15
 70
     1
 10
0.0
 20
0.0
 30
0.0
  3
*D15
  1

  0
LINE
  5
8071
330
7FA1
100
AcDbEntity
  8
3
 62
     0
100
AcDbLine
 10
2756.830537805764
 20
1653.599298936091
 30
0.0
 11
2756.830537805764
 21
1495.57947601245
 31
0.0
  0
LINE
  5
8072
330
7FA1
100
AcDbEntity
  8
3
 62
     0
100
AcDbLine
 10
3151.830537805765
 20
1653.599298936092
 30
0.0
 11
3151.830537805765
 21
1495.57947601245
 31
0.0
  0
LINE
  5
8073
330
7FA1
100
AcDbEntity
  8
3
 62
     0
100
AcDbLine
 10
2796.830537805764
 20
1515.57947601245
 30
0.0
 11
3111.830537805765
 21
1515.57947601245
 31
0.0
  0
INSERT
  5
8074
330
7FA1
100
AcDbEntity
  8
3
 62
     0
100
AcDbBlockReference
  2
_OPEN
 10
2756.830537805764
 20
1515.57947601245
 30
0.0
 41
40.0
 42
40.0
 43
40.0
 50
180.0
  0
INSERT
  5
8075
330
7FA1
100
AcDbEntity
  8
3
 62
     0
100
AcDbBlockReference
  2
_OPEN
 10
3151.830537805765
 20
1515.57947601245
 30
0.0
 41
40.0
 42
40.0
 43
40.0
  0
MTEXT
  5
8076
330
7FA1
100
AcDbEntity
  8
3
 62
     0
100
AcDbMText
 10
2954.330537805764
 20
1565.57947601245
 30
0.0
 40
60.0
 41
0.0
 71
     5
 72
     5
  1
\A1;395
 73
     1
 44
1.0
1001
ACAD
1000
MTEXTBEGIN
1070
    73
1070
     1
1070
    44
1040
1.0
1070
    74
1070
     0
1000
MTEXTEND
  0
POINT
  5
8077
330
7FA1
100
AcDbEntity
  8
DEFPOINTS
 62
     0
100
AcDbPoint
 10
2756.830537805764
 20
1663.599298936091
 30
0.0
  0
POINT
  5
8078
330
7FA1
100
AcDbEntity
  8
DEFPOINTS
 62
     0
100
AcDbPoint
 10
3151.830537805765
 20
1663.599298936092
 30
0.0
  0
POINT
  5
8079
330
7FA1
100
AcDbEntity
  8
DEFPOINTS
 62
     0
100
AcDbPoint
 10
3151.830537805765
 20
1515.57947601245
 30
0.0
  0
ENDBLK
  5
7FAC
330
7FA1
100
AcDbEntity
  8
0
100
AcDbBlockEnd
  0
BLOCK
  5
7FAF
330
7FAE
100
AcDbEntity
  8
0
100
AcDbBlockBegin
  2
*D16
 70
     1
 10
0.0
 20
0.0
 30
0.0
  3
*D16
  1

  0
LINE
  5
807A
330
7FAE
100
AcDbEntity
  8
3
 62
     0
100
AcDbLine
 10
3151.830537805765
 20
1653.599298936092
 30
0.0
 11
3151.830537805765
 21
1495.57947601245
 31
0.0
  0
LINE
  5
807B
330
7FAE
100
AcDbEntity
  8
3
 62
     0
100
AcDbLine
 10
3381.830537805765
 20
1653.599298936092
 30
0.0
 11
3381.830537805765
 21
1495.57947601245
 31
0.0
  0
LINE
  5
807C
330
7FAE
100
AcDbEntity
  8
3
 62
     0
100
AcDbLine
 10
3191.830537805765
 20
1515.57947601245
 30
0.0
 11
3341.830537805765
 21
1515.57947601245
 31
0.0
  0
INSERT
  5
807D
330
7FAE
100
AcDbEntity
  8
3
 62
     0
100
AcDbBlockReference
  2
_OPEN
 10
3151.830537805765
 20
1515.57947601245
 30
0.0
 41
40.0
 42
40.0
 43
40.0
 50
180.0
  0
INSERT
  5
807E
330
7FAE
100
AcDbEntity
  8
3
 62
     0
100
AcDbBlockReference
  2
_OPEN
 10
3381.830537805765
 20
1515.57947601245
 30
0.0
 41
40.0
 42
40.0
 43
40.0
  0
MTEXT
  5
807F
330
7FAE
100
AcDbEntity
  8
3
 62
     0
100
AcDbMText
 10
3266.830537805765
 20
1565.57947601245
 30
0.0
 40
60.0
 41
0.0
 71
     5
 72
     5
  1
\A1;230
 73
     1
 44
1.0
1001
ACAD
1000
MTEXTBEGIN
1070
    73
1070
     1
1070
    44
1040
1.0
1070
    74
1070
     0
1000
MTEXTEND
  0
POINT
  5
8080
330
7FAE
100
AcDbEntity
  8
DEFPOINTS
 62
     0
100
AcDbPoint
 10
3151.830537805765
 20
1663.599298936092
 30
0.0
  0
POINT
  5
8081
330
7FAE
100
AcDbEntity
  8
DEFPOINTS
 62
     0
100
AcDbPoint
 10
3381.830537805765
 20
1663.599298936092
 30
0.0
  0
POINT
  5
8082
330
7FAE
100
AcDbEntity
  8
DEFPOINTS
 62
     0
100
AcDbPoint
 10
3381.830537805765
 20
1515.57947601245
 30
0.0
  0
ENDBLK
  5
7FBB
330
7FAE
100
AcDbEntity
  8
0
100
AcDbBlockEnd
  0
BLOCK
  5
83BB
330
83BA
100
AcDbEntity
  8
0
100
AcDbBlockBegin
  2
*D37
 70
     1
 10
0.0
 20
0.0
 30
0.0
  3
*D37
  1

  0
LINE
  5
870A
330
83BA
100
AcDbEntity
  8
3
 62
     0
370
    -2
100
AcDbLine
 10
1593.809024700764
 20
4003.713410176738
 30
0.0
 11
1593.809024700764
 21
4217.081280799661
 31
0.0
  0
LINE
  5
870B
330
83BA
100
AcDbEntity
  8
3
 62
     0
370
    -2
100
AcDbLine
 10
473.8090247007639
 20
4003.713410176748
 30
0.0
 11
473.8090247007639
 21
4217.081280799661
 31
0.0
  0
LINE
  5
870C
330
83BA
100
AcDbEntity
  8
3
 62
     0
370
    -2
100
AcDbLine
 10
1553.809024700764
 20
4197.08128079966
 30
0.0
 11
513.809024700764
 21
4197.08128079966
 31
0.0
  0
INSERT
  5
870D
330
83BA
100
AcDbEntity
  8
3
 62
     0
370
    -2
100
AcDbBlockReference
  2
_OPEN
 10
1593.809024700764
 20
4197.08128079966
 30
0.0
 41
40.0
 42
40.0
 43
40.0
  0
INSERT
  5
870E
330
83BA
100
AcDbEntity
  8
3
 62
     0
370
    -2
100
AcDbBlockReference
  2
_OPEN
 10
473.8090247007639
 20
4197.08128079966
 30
0.0
 41
40.0
 42
40.0
 43
40.0
 50
180.0
  0
MTEXT
  5
870F
330
83BA
100
AcDbEntity
  8
3
 62
     0
100
AcDbMText
 10
1086.587987695497
 20
4247.081280799661
 30
0.0
 40
60.0
 41
0.0
 71
     5
 72
     1
  1
\A1;1120
 73
     1
 44
1.0
1001
ACAD
1000
MTEXTBEGIN
1070
    73
1070
     1
1070
    44
1040
1.0
1070
    74
1070
     0
1000
MTEXTEND
  0
POINT
  5
8710
330
83BA
100
AcDbEntity
  8
DEFPOINTS
 62
     0
100
AcDbPoint
 10
1593.809024700764
 20
3993.713410176738
 30
0.0
  0
POINT
  5
8711
330
83BA
100
AcDbEntity
  8
DEFPOINTS
 62
     0
100
AcDbPoint
 10
473.8090247007639
 20
3993.713410176749
 30
0.0
  0
POINT
  5
8712
330
83BA
100
AcDbEntity
  8
DEFPOINTS
 62
     0
100
AcDbPoint
 10
473.8090247007639
 20
4197.08128079966
 30
0.0
  0
ENDBLK
  5
83BC
330
83BA
100
AcDbEntity
  8
0
100
AcDbBlockEnd
  0
BLOCK
  5
83C7
330
83C6
100
AcDbEntity
  8
0
100
AcDbBlockBegin
  2
*D38
 70
     1
 10
0.0
 20
0.0
 30
0.0
  3
*D38
  1

  0
LINE
  5
8713
330
83C6
100
AcDbEntity
  8
3
 62
     0
370
    -2
100
AcDbLine
 10
463.809024700764
 20
3993.713410176749
 30
0.0
 11
267.1851521618489
 21
3993.713410176749
 31
0.0
  0
LINE
  5
8714
330
83C6
100
AcDbEntity
  8
3
 62
     0
370
    -2
100
AcDbLine
 10
463.8090247007594
 20
3368.713410176748
 30
0.0
 11
267.1851521618488
 21
3368.713410176748
 31
0.0
  0
LINE
  5
8715
330
83C6
100
AcDbEntity
  8
3
 62
     0
370
    -2
100
AcDbLine
 10
287.1851521618489
 20
3953.713410176749
 30
0.0
 11
287.1851521618487
 21
3408.713410176748
 31
0.0
  0
INSERT
  5
8716
330
83C6
100
AcDbEntity
  8
3
 62
     0
370
    -2
100
AcDbBlockReference
  2
_OPEN
 10
287.1851521618489
 20
3993.713410176749
 30
0.0
 41
40.0
 42
40.0
 43
40.0
 50
90.0
  0
INSERT
  5
8717
330
83C6
100
AcDbEntity
  8
3
 62
     0
370
    -2
100
AcDbBlockReference
  2
_OPEN
 10
287.1851521618487
 20
3368.713410176748
 30
0.0
 41
40.0
 42
40.0
 43
40.0
 50
270.0
  0
MTEXT
  5
8718
330
83C6
100
AcDbEntity
  8
3
 62
     0
100
AcDbMText
 10
237.1851521618483
 20
3688.740278048199
 30
0.0
 40
60.0
 41
0.0
 71
     5
 72
     1
  1
\A1;625
 11
0.0000000000000001
 21
1.0
 31
0.0
 73
     1
 44
1.0
1001
ACAD
1000
MTEXTBEGIN
1070
    73
1070
     1
1070
    44
1040
1.0
1070
    74
1070
     0
1000
MTEXTEND
  0
POINT
  5
8719
330
83C6
100
AcDbEntity
  8
DEFPOINTS
 62
     0
100
AcDbPoint
 10
473.8090247007639
 20
3993.713410176749
 30
0.0
  0
POINT
  5
871A
330
83C6
100
AcDbEntity
  8
DEFPOINTS
 62
     0
100
AcDbPoint
 10
473.8090247007594
 20
3368.713410176748
 30
0.0
  0
POINT
  5
871B
330
83C6
100
AcDbEntity
  8
DEFPOINTS
 62
     0
100
AcDbPoint
 10
287.1851521618487
 20
3368.713410176748
 30
0.0
  0
ENDBLK
  5
83C8
330
83C6
100
AcDbEntity
  8
0
100
AcDbBlockEnd
  0
BLOCK
  5
84E4
330
84E3
100
AcDbEntity
  8
0
100
AcDbBlockBegin
  2
_DotSmall
 70
     0
 10
0.0
 20
0.0
 30
0.0
  3
_DotSmall
  1

  0
LWPOLYLINE
  5
84E5
330
84E3
100
AcDbEntity
  8
0
  6
ByBlock
 62
     0
100
AcDbPolyline
 90
        2
 70
     1
 43
0.5
 10
-0.0625
 20
0.0
 42
1.0
 10
0.0625
 20
0.0
 42
1.0
  0
ENDBLK
  5
84E6
330
84E3
100
AcDbEntity
  8
0
100
AcDbBlockEnd
  0
BLOCK
  5
84E8
330
84E7
100
AcDbEntity
  8
0
100
AcDbBlockBegin
  2
_NONE
 70
     0
 10
0.0
 20
0.0
 30
0.0
  3
_NONE
  1

  0
CIRCLE
  5
84E9
330
84E7
100
AcDbEntity
  8
0
  6
ByBlock
 62
     0
100
AcDbCircle
 10
0.0
 20
0.0
 30
0.0
 40
0.25
  0
ENDBLK
  5
84EA
330
84E7
100
AcDbEntity
  8
0
100
AcDbBlockEnd
  0
ENDSEC
  0
SECTION
  2
ENTITIES
  0
LINE
  5
7B33
330
19
100
AcDbEntity
  8
1
100
AcDbLine
 10
2757.330537805765
 20
2123.599298936083
 30
0.0
 11
2962.330537805766
 21
2123.599298936083
 31
0.0
  0
LINE
  5
7B34
330
19
100
AcDbEntity
  8
1
100
AcDbLine
 10
2756.830537805765
 20
1738.599298936091
 30
0.0
 11
3381.830537805765
 21
1738.599298936092
 31
0.0
  0
LINE
  5
7B35
330
19
100
AcDbEntity
  8
1
100
AcDbLine
 10
2756.830537805764
 20
1663.599298936091
 30
0.0
 11
3381.830537805765
 21
1663.599298936092
 31
0.0
  0
LINE
  5
7B36
330
19
100
AcDbEntity
  8
1
100
AcDbLine
 10
2757.330537805765
 20
2120.399298936082
 30
0.0
 11
2962.330537805766
 21
2120.399298936085
 31
0.0
  0
LINE
  5
7B37
330
19
100
AcDbEntity
  8
2
100
AcDbLine
 10
2581.252396568955
 20
2183.599298936083
 30
0.0
 11
3395.706797645881
 21
2183.599298936083
 31
0.0
1001
ACAD
1000
ASC_BOUNDS
1002
{
1070
    19
1002
}
  0
LINE
  5
7B38
330
19
100
AcDbEntity
  8
1
100
AcDbLine
 10
2791.830537805765
 20
1663.599298936091
 30
0.0
 11
3381.830537805765
 21
1663.599298936092
 31
0.0
  0
CIRCLE
  5
7B39
330
19
100
AcDbEntity
  8
1
100
AcDbCircle
 10
1283.809024700755
 20
2183.599298936081
 30
0.0
 40
139.7
  0
ARC
  5
7B3A
330
19
100
AcDbEntity
  8
1
100
AcDbCircle
 10
1314.809024700754
 20
2152.599298936081
 30
0.0
 40
331.1837981443563
100
AcDbArc
 50
5.042451069170437
 51
86.4511704959227
  0
LINE
  5
7B3B
330
19
100
AcDbEntity
  8
1
100
AcDbLine
 10
745.8090247007576
 20
2543.599298936085
 30
0.0
 11
774.8090247007549
 21
2183.599298936085
 31
0.0
  0
LINE
  5
7B3C
330
19
100
AcDbEntity
  8
1
100
AcDbLine
 10
2665.530537805764
 20
2323.299298936083
 30
0.0
 11
2665.530537805766
 21
2043.899298936082
 31
0.0
  0
LINE
  5
7B3D
330
19
100
AcDbEntity
  8
1
100
AcDbLine
 10
2705.530537805764
 20
2323.299298936083
 30
0.0
 11
2705.530537805766
 21
2043.899298936082
 31
0.0
  0
LINE
  5
7B3E
330
19
100
AcDbEntity
  8
1
100
AcDbLine
 10
2618.590299456254
 20
2403.599298936083
 30
0.0
 11
2618.590299456255
 21
1738.59929893609
 31
0.0
  0
LINE
  5
7B3F
330
19
100
AcDbEntity
  8
2
100
AcDbLine
 10
1701.123224600693
 20
2183.599298936078
 30
0.0
 11
751.1742264284075
 21
2183.599298936085
 31
0.0
  0
ARC
  5
7B40
330
19
100
AcDbEntity
  8
1
100
AcDbCircle
 10
1246.809024700756
 20
2220.599298936081
 30
0.0
 40
473.4479908078608
100
AcDbArc
 50
184.4822403704245
 51
269.9999999999995
  0
LINE
  5
7B41
330
19
100
AcDbEntity
  8
1
100
AcDbLine
 10
1593.809024700753
 20
1728.599298936079
 30
0.0
 11
473.809024700753
 21
1728.599298936088
 31
0.0
  0
LINE
  5
7B42
330
19
100
AcDbEntity
  8
1
100
AcDbLine
 10
1593.809024700752
 20
1663.599298936079
 30
0.0
 11
473.8090247007521
 21
1663.599298936088
 31
0.0
  0
CIRCLE
  5
7B43
330
19
100
AcDbEntity
  8
1
100
AcDbCircle
 10
633.8090247007539
 20
1851.599298936086
 30
0.0
 40
57.14999999999999
  0
LINE
  5
7B44
330
19
100
AcDbEntity
  8
1
100
AcDbLine
 10
633.8090247007531
 20
1782.615198936086
 30
0.0
 11
633.8090247007548
 21
1960.060398936087
 31
0.0
  0
LINE
  5
7B45
330
19
100
AcDbEntity
  8
1
100
AcDbLine
 10
510.0931301759392
 20
1728.599298936087
 30
0.0
 11
757.524919225565
 21
1728.599298936085
 31
0.0
  0
LINE
  5
7B46
330
19
100
AcDbEntity
  8
1
100
AcDbLine
 10
473.8090247007521
 20
1663.599298936088
 30
0.0
 11
473.809024700753
 21
1728.599298936088
 31
0.0
  0
ARC
  5
7B47
330
19
100
AcDbEntity
  8
1
100
AcDbCircle
 10
1246.809024700754
 20
2146.599298936081
 30
0.0
 40
399.4479908078606
100
AcDbArc
 50
269.9999999999995
 51
5.042451069170437
  0
LINE
  5
7B48
330
19
100
AcDbEntity
  8
2
100
AcDbLine
 10
1283.809024700757
 20
2570.697355126677
 30
0.0
 11
1283.80902470075
 21
1663.599298936081
 31
0.0
  0
LINE
  5
7B49
330
19
100
AcDbEntity
  8
1
100
AcDbLine
 10
1593.809024700752
 20
1663.599298936079
 30
0.0
 11
1593.809024700753
 21
1728.599298936079
 31
0.0
  0
LINE
  5
7B4A
330
19
100
AcDbEntity
  8
1
100
AcDbLine
 10
2665.530537805766
 20
2043.899298936082
 30
0.0
 11
2665.530537805766
 21
1792.449298936085
 31
0.0
  0
LINE
  5
7B4B
330
19
100
AcDbEntity
  8
1
100
AcDbLine
 10
2705.530537805766
 20
2043.899298936082
 30
0.0
 11
2705.530537805766
 21
1792.449298936085
 31
0.0
  0
LINE
  5
7B4C
330
19
100
AcDbEntity
  8
1
100
AcDbLine
 10
2757.330537805765
 20
2123.599298936083
 30
0.0
 11
2757.330537805767
 21
1738.599298936092
 31
0.0
  0
LINE
  5
7B4D
330
19
100
AcDbEntity
  8
1
100
AcDbLine
 10
2760.530537805765
 20
2120.399298936082
 30
0.0
 11
2760.530537805766
 21
1738.599298936091
 31
0.0
  0
LINE
  5
7B4E
330
19
100
AcDbEntity
  8
1
100
AcDbLine
 10
2665.530537805767
 20
1792.449298936085
 30
0.0
 11
2705.530537805766
 21
1792.449298936085
 31
0.0
  0
LINE
  5
7B4F
330
19
100
AcDbEntity
  8
1
100
AcDbLine
 10
2618.590299456255
 20
1738.59929893609
 30
0.0
 11
2740.590299456255
 21
1738.59929893609
 31
0.0
  0
LINE
  5
7B50
330
19
100
AcDbEntity
  8
1
100
AcDbLine
 10
2740.590299456255
 20
1758.599298936091
 30
0.0
 11
2740.590299456255
 21
1738.59929893609
 31
0.0
  0
LINE
  5
7B51
330
19
100
AcDbEntity
  8
1
100
AcDbLine
 10
2665.530537805766
 20
2043.899298936082
 30
0.0
 11
2705.530537805766
 21
2043.899298936082
 31
0.0
1001
ACAD
1000
ASC_BOUNDS
1002
{
1070
    19
1002
}
  0
LINE
  5
7B52
330
19
100
AcDbEntity
  8
1
100
AcDbLine
 10
2665.530537805767
 20
1906.749298936085
 30
0.0
 11
2705.530537805767
 21
1906.749298936085
 31
0.0
  0
LINE
  5
7B53
330
19
100
AcDbEntity
  8
1
100
AcDbLine
 10
2705.530537805765
 20
2202.599298936083
 30
0.0
 11
2735.530537805765
 21
2202.599298936082
 31
0.0
1001
ACAD
1000
ASC_BOUNDS
1002
{
1070
    19
1002
}
  0
LINE
  5
7B54
330
19
100
AcDbEntity
  8
1
100
AcDbLine
 10
2705.530537805766
 20
2164.599298936083
 30
0.0
 11
2735.530537805765
 21
2164.599298936083
 31
0.0
1001
ACAD
1000
ASC_BOUNDS
1002
{
1070
    19
1002
}
  0
LINE
  5
7B55
330
19
100
AcDbEntity
  8
1
100
AcDbLine
 10
2735.530537805765
 20
2206.099298936083
 30
0.0
 11
2735.530537805766
 21
2161.099298936083
 31
0.0
  0
LINE
  5
7B5A
330
19
100
AcDbEntity
  8
1
100
AcDbLine
 10
714.2038417374561
 20
2540.599298936086
 30
0.0
 11
1289.409024700758
 21
2540.599298936081
 31
0.0
  0
LINE
  5
7B5B
330
19
100
AcDbEntity
  8
1
100
AcDbLine
 10
745.8090247007576
 20
2543.599298936085
 30
0.0
 11
1257.809024700758
 21
2543.599298936082
 31
0.0
  0
LINE
  5
7B5C
330
19
100
AcDbEntity
  8
1
100
AcDbLine
 10
1267.809024700757
 20
2543.599298936082
 30
0.0
 11
735.7766311801124
 21
2543.599298936085
 31
0.0
  0
LINE
  5
7B5D
330
19
100
AcDbEntity
  8
1
100
AcDbLine
 10
714.2038417374542
 20
2513.599298936086
 30
0.0
 11
1289.409024700758
 21
2513.599298936081
 31
0.0
  0
LINE
  5
7B5E
330
19
100
AcDbEntity
  8
1
100
AcDbLine
 10
1289.409024700758
 20
2543.599298936082
 30
0.0
 11
714.2038417374542
 21
2543.599298936086
 31
0.0
  0
POINT
  5
7B61
330
19
100
AcDbEntity
  8
1
100
AcDbPoint
 10
744.2038417374542
 20
2543.599298936085
 30
0.0
  0
POINT
  5
7B62
330
19
100
AcDbEntity
  8
1
100
AcDbPoint
 10
745.8090247007576
 20
2543.599298936085
 30
0.0
  0
POINT
  5
7B63
330
19
100
AcDbEntity
  8
1
100
AcDbPoint
 10
745.8090247007576
 20
2543.599298936085
 30
0.0
  0
POINT
  5
7B64
330
19
100
AcDbEntity
  8
1
100
AcDbPoint
 10
745.8090247007576
 20
2543.599298936085
 30
0.0
  0
LINE
  5
7B65
330
19
100
AcDbEntity
  8
1
100
AcDbLine
 10
714.2038417374542
 20
2543.599298936086
 30
0.0
 11
714.2038417374542
 21
2513.599298936086
 31
0.0
  0
ARC
  5
7B69
330
19
100
AcDbEntity
  8
1
100
AcDbCircle
 10
1314.809024700754
 20
2214.599298936079
 30
0.0
 40
269.1837981443569
100
AcDbArc
 50
93.08781993650359
 51
102.2249984889334
  0
LINE
  5
7B6A
330
19
100
AcDbEntity
  8
1
100
AcDbLine
 10
1257.809024700757
 20
2477.67897732919
 30
0.0
 11
1257.809024700758
 21
2543.599298936082
 31
0.0
  0
POINT
  5
7B6B
330
19
100
AcDbEntity
  8
1
100
AcDbPoint
 10
1257.809024700758
 20
2543.599298936082
 30
0.0
  0
LINE
  5
7B6C
330
19
100
AcDbEntity
  8
1
100
AcDbLine
 10
1289.409024700758
 20
2513.599298936081
 30
0.0
 11
1289.409024700758
 21
2543.599298936082
 31
0.0
  0
LINE
  5
7B6D
330
19
100
AcDbEntity
  8
1
100
AcDbLine
 10
2740.590299456254
 20
2403.599298936083
 30
0.0
 11
2618.590299456254
 21
2403.599298936083
 31
0.0
  0
LINE
  5
7B6E
330
19
100
AcDbEntity
  8
1
100
AcDbLine
 10
2618.590299456254
 20
2403.599298936082
 30
0.0
 11
2740.590299456254
 21
2403.599298936082
 31
0.0
  0
LINE
  5
7B6F
330
19
100
AcDbEntity
  8
1
100
AcDbLine
 10
2665.530537805764
 20
2323.299298936083
 30
0.0
 11
2705.530537805764
 21
2323.299298936083
 31
0.0
1001
ACAD
1000
ASC_BOUNDS
1002
{
1070
    19
1002
}
  0
LINE
  5
7B70
330
19
100
AcDbEntity
  8
1
100
AcDbLine
 10
2740.590299456254
 20
2383.599298936083
 30
0.0
 11
2740.590299456254
 21
2403.599298936083
 31
0.0
  0
LINE
  5
7B71
330
19
100
AcDbEntity
  8
1
100
AcDbLine
 10
2964.330537805764
 20
2513.145516482221
 30
0.0
 11
2964.330537805766
 21
2183.599298936083
 31
0.0
  0
LINE
  5
7B72
330
19
100
AcDbEntity
  8
1
100
AcDbLine
 10
3339.330537805765
 20
2513.145516482221
 30
0.0
 11
3339.330537805766
 21
2183.599298936083
 31
0.0
  0
LINE
  5
7B73
330
19
100
AcDbEntity
  8
1
100
AcDbLine
 10
3343.630537805765
 20
2177.599298936083
 30
0.0
 11
3343.630537805765
 21
2433.599298936084
 31
0.0
  0
LINE
  5
7B74
330
19
100
AcDbEntity
  8
1
100
AcDbLine
 10
3373.630537805766
 20
1968.299298936083
 30
0.0
 11
3373.630537805766
 21
2433.599298936084
 31
0.0
  0
LINE
  5
7B76
330
19
100
AcDbEntity
  8
1
100
AcDbLine
 10
2964.330537805766
 20
2183.599298936083
 30
0.0
 11
2964.330537805767
 21
1738.599298936092
 31
0.0
  0
LINE
  5
7B77
330
19
100
AcDbEntity
  8
1
100
AcDbLine
 10
2860.830537805766
 20
2206.099298936083
 30
0.0
 11
2962.330537805766
 21
2206.099298936083
 31
0.0
1001
ACAD
1000
ASC_BOUNDS
1002
{
1070
    19
1002
}
  0
LINE
  5
7B78
330
19
100
AcDbEntity
  8
1
100
AcDbLine
 10
2735.530537805766
 20
2161.099298936083
 30
0.0
 11
2962.330537805766
 21
2161.099298936083
 31
0.0
1001
ACAD
1000
ASC_BOUNDS
1002
{
1070
    19
1002
}
  0
LINE
  5
7B79
330
19
100
AcDbEntity
  8
1
100
AcDbLine
 10
2864.958955167663
 20
2161.099298936083
 30
0.0
 11
2900.823645586267
 21
2161.099298936083
 31
0.0
1001
ACAD
1000
ASC_BOUNDS
1002
{
1070
    19
1002
}
  0
LINE
  5
7B7A
330
19
100
AcDbEntity
  8
1
100
AcDbLine
 10
2735.530537805765
 20
2206.099298936083
 30
0.0
 11
2900.823645586267
 21
2206.099298936083
 31
0.0
1001
ACAD
1000
ASC_BOUNDS
1002
{
1070
    19
1002
}
  0
LINE
  5
7B7B
330
19
100
AcDbEntity
  8
1
100
AcDbLine
 10
3343.630537805765
 20
1933.599298936083
 30
0.0
 11
3343.630537805765
 21
2177.599298936083
 31
0.0
  0
LINE
  5
7B7C
330
19
100
AcDbEntity
  8
1
100
AcDbLine
 10
3339.330537805766
 20
2183.599298936083
 30
0.0
 11
3339.330537805765
 21
1738.599298936092
 31
0.0
  0
LINE
  5
7B7D
330
19
100
AcDbEntity
  8
1
100
AcDbLine
 10
3381.830537805765
 20
1738.599298936092
 30
0.0
 11
3381.830537805765
 21
1663.599298936092
 31
0.0
  0
LINE
  5
7B7E
330
19
100
AcDbEntity
  8
1
100
AcDbLine
 10
3343.630537805765
 20
1903.599298936083
 30
0.0
 11
3339.330537805765
 21
1903.599298936083
 31
0.0
  0
LINE
  5
7B7F
330
19
100
AcDbEntity
  8
1
100
AcDbLine
 10
3343.630537805765
 20
1903.599298936083
 30
0.0
 11
3343.630537805765
 21
1933.599298936083
 31
0.0
  0
LINE
  5
7B80
330
19
100
AcDbEntity
  8
1
100
AcDbLine
 10
3343.630537805765
 20
2463.599298936083
 30
0.0
 11
3343.630537805765
 21
2433.599298936084
 31
0.0
  0
LINE
  5
7B81
330
19
100
AcDbEntity
  8
1
100
AcDbLine
 10
3343.630537805765
 20
2433.599298936084
 30
0.0
 11
3373.630537805766
 21
2433.599298936084
 31
0.0
  0
LINE
  5
7B82
330
19
100
AcDbEntity
  8
1
100
AcDbLine
 10
3343.630537805765
 20
2463.599298936083
 30
0.0
 11
3339.330537805765
 21
2463.599298936083
 31
0.0
  0
POINT
  5
7B83
330
19
100
AcDbEntity
  8
1
100
AcDbPoint
 10
3343.630537805765
 20
2458.599298936084
 30
0.0
  0
LINE
  5
7B84
330
19
100
AcDbEntity
  8
1
100
AcDbLine
 10
2964.330537805767
 20
1821.151308128229
 30
0.0
 11
3339.330537805764
 21
1821.15130812823
 31
0.0
  0
LINE
  5
7B85
330
19
100
AcDbEntity
  8
1
100
AcDbLine
 10
633.8090247007531
 20
1749.099298936086
 30
0.0
 11
633.8090247007548
 21
1926.659770243487
 31
0.0
  0
LINE
  5
7B86
330
19
100
AcDbEntity
  8
1
100
AcDbLine
 10
1224.172131585277
 20
2309.930336213281
 30
0.0
 11
604.9832055994766
 21
1900.184709955715
 31
0.0
  0
LINE
  5
7B87
330
19
100
AcDbEntity
  8
1
100
AcDbLine
 10
1283.809024700756
 20
2447.18211009213
 30
0.0
 11
533.8090247007531
 21
1931.428706083865
 31
0.0
  0
LINE
  5
7B88
330
19
100
AcDbEntity
  8
1
100
AcDbLine
 10
1312.510139026381
 20
2046.879380721992
 30
0.0
 11
657.3231722304345
 21
1799.510841808308
 31
0.0
  0
LINE
  5
7B89
330
19
100
AcDbEntity
  8
1
100
AcDbLine
 10
2931.830537805766
 20
2510.845516482221
 30
0.0
 11
3371.830537805767
 21
2510.845516482221
 31
0.0
1001
ACAD
1000
ASC_BOUNDS
1002
{
1070
    19
1002
}
  0
LINE
  5
7B8A
330
19
100
AcDbEntity
  8
1
100
AcDbLine
 10
2931.830537805766
 20
2542.845516482221
 30
0.0
 11
3371.830537805766
 21
2542.845516482221
 31
0.0
1001
ACAD
1000
ASC_BOUNDS
1002
{
1070
    19
1002
}
  0
LINE
  5
7B8B
330
19
100
AcDbEntity
  8
1
100
AcDbLine
 10
2931.830537805766
 20
2542.845516482221
 30
0.0
 11
2931.830537805766
 21
2510.845516482221
 31
0.0
  0
LINE
  5
7B8C
330
19
100
AcDbEntity
  8
1
100
AcDbLine
 10
3371.830537805766
 20
2542.845516482221
 30
0.0
 11
3371.830537805766
 21
2510.84551648222
 31
0.0
  0
LINE
  5
7B8D
330
19
100
AcDbEntity
  8
2
100
AcDbLine
 10
3151.830537805766
 20
2627.096673032211
 30
0.0
 11
3151.830537805765
 21
1663.599298936092
 31
0.0
  0
LINE
  5
7B92
330
19
100
AcDbEntity
  8
1
100
AcDbLine
 10
1051.809024700754
 20
2132.099298936083
 30
0.0
 11
1051.809024700751
 21
1728.599298936083
 31
0.0
  0
LINE
  5
7B93
330
19
100
AcDbEntity
  8
1
100
AcDbLine
 10
1515.809024700754
 20
2132.099298936079
 30
0.0
 11
1515.809024700751
 21
1728.599298936079
 31
0.0
  0
LINE
  5
7B94
330
19
100
AcDbEntity
  8
1
100
AcDbLine
 10
1603.809024700754
 20
2132.099298936078
 30
0.0
 11
963.8090247007539
 21
2132.099298936084
 31
0.0
  0
LINE
  5
7B95
330
19
100
AcDbEntity
  8
1
100
AcDbLine
 10
963.8090247007548
 20
2167.099298936083
 30
0.0
 11
963.8090247007539
 21
2132.099298936084
 31
0.0
  0
LINE
  5
7B96
330
19
100
AcDbEntity
  8
1
100
AcDbLine
 10
1603.809024700755
 20
2167.099298936078
 30
0.0
 11
1603.809024700754
 21
2132.099298936078
 31
0.0
  0
LINE
  5
7B97
330
19
100
AcDbEntity
  8
1
100
AcDbLine
 10
1603.809024700754
 20
2167.099298936078
 30
0.0
 11
963.8090247007548
 21
2167.099298936083
 31
0.0
  0
LINE
  5
7B98
330
19
100
AcDbEntity
  8
1
100
AcDbLine
 10
1475.809024700754
 20
2132.09929893608
 30
0.0
 11
1475.809024700751
 21
1728.59929893608
 31
0.0
  0
LINE
  5
7B99
330
19
100
AcDbEntity
  8
1
100
AcDbLine
 10
1091.809024700754
 20
2132.099298936083
 30
0.0
 11
1091.809024700751
 21
1728.599298936083
 31
0.0
  0
LINE
  5
7B9A
330
19
100
AcDbEntity
  8
1
100
AcDbLine
 10
1523.809024700756
 20
2308.125332163859
 30
0.0
 11
1523.809024700751
 21
1728.599298936079
 31
0.0
  0
LINE
  5
7B9B
330
19
100
AcDbEntity
  8
1
100
AcDbLine
 10
1283.809024700756
 20
2447.18211009213
 30
0.0
 11
1523.809024700756
 21
2308.125332163859
 31
0.0
  0
LINE
  5
7B9C
330
19
100
AcDbEntity
  8
1
100
AcDbLine
 10
3381.330537805766
 20
1960.599298936083
 30
0.0
 11
3381.330537805764
 21
1738.599298936092
 31
0.0
  0
LINE
  5
7B9D
330
19
100
AcDbEntity
  8
1
100
AcDbLine
 10
3339.330537805765
 20
1968.599298936083
 30
0.0
 11
3373.330537805766
 21
1968.599298936083
 31
0.0
  0
LINE
  5
7B9E
330
19
100
AcDbEntity
  8
1
100
AcDbLine
 10
3373.330537805766
 20
1968.599298936083
 30
0.0
 11
3381.330537805766
 21
1960.599298936083
 31
0.0
  0
LINE
  5
7B9F
330
19
100
AcDbEntity
  8
1
100
AcDbLine
 10
2756.830537805765
 20
1738.599298936091
 30
0.0
 11
2756.830537805764
 21
1663.599298936091
 31
0.0
  0
ARC
  5
7BA4
330
19
100
AcDbEntity
  8
1
100
AcDbCircle
 10
633.8090247007539
 20
1851.599298936086
 30
0.0
 40
100.8
100
AcDbArc
 50
180.0
 51
239.6067
  0
ARC
  5
7BA5
330
19
100
AcDbEntity
  8
1
100
AcDbCircle
 10
633.8090247007539
 20
1851.599298936086
 30
0.0
 40
100.8
100
AcDbArc
 50
300.3007
 51
180.0
  0
LINE
  5
7BA6
330
19
100
AcDbEntity
  8
1
100
AcDbLine
 10
568.8090247007539
 20
1771.599298936086
 30
0.0
 11
568.8090247007539
 21
1761.599298936086
 31
0.0
  0
LINE
  5
7BA7
330
19
100
AcDbEntity
  8
1
100
AcDbLine
 10
558.8090247007539
 20
1771.599298936086
 30
0.0
 11
558.8090247007539
 21
1761.599298936086
 31
0.0
  0
LINE
  5
7BA8
330
19
100
AcDbEntity
  8
1
100
AcDbLine
 10
563.8090247007539
 20
1757.232798936086
 30
0.0
 11
563.8090247007539
 21
1774.136198936087
 31
0.0
  0
LINE
  5
7BA9
330
19
100
AcDbEntity
  8
1
100
AcDbLine
 10
545.809024700754
 20
1761.599298936086
 30
0.0
 11
545.809024700754
 21
1769.599298936087
 31
0.0
  0
LINE
  5
7BAA
330
19
100
AcDbEntity
  8
1
100
AcDbLine
 10
698.809024700754
 20
1771.599298936086
 30
0.0
 11
698.809024700754
 21
1761.599298936086
 31
0.0
  0
LINE
  5
7BAB
330
19
100
AcDbEntity
  8
1
100
AcDbLine
 10
708.8090247007539
 20
1771.599298936086
 30
0.0
 11
708.8090247007539
 21
1761.599298936086
 31
0.0
  0
LINE
  5
7BAC
330
19
100
AcDbEntity
  8
1
100
AcDbLine
 10
703.809024700754
 20
1757.232798936086
 30
0.0
 11
703.809024700754
 21
1774.136198936087
 31
0.0
  0
LINE
  5
7BAD
330
19
100
AcDbEntity
  8
2
100
AcDbLine
 10
633.8090247007539
 20
1755.615198936087
 30
0.0
 11
633.8090247007539
 21
1960.060398936087
 31
0.0
  0
LINE
  5
7BAE
330
19
100
AcDbEntity
  8
1
100
AcDbLine
 10
721.8090247007539
 20
1761.599298936086
 30
0.0
 11
721.8090247007539
 21
1769.599298936087
 31
0.0
  0
ARC
  5
7BAF
330
19
100
AcDbEntity
  8
1
100
AcDbCircle
 10
633.8090247007539
 20
1851.599298936086
 30
0.0
 40
100.8
100
AcDbArc
 50
180.0
 51
239.6067
  0
LINE
  5
7BB0
330
19
100
AcDbEntity
  8
1
100
AcDbLine
 10
678.639524700754
 20
1765.599298936086
 30
0.0
 11
588.6851247007544
 21
1765.599298936086
 31
0.0
  0
LINE
  5
7BB1
330
19
100
AcDbEntity
  8
1
100
AcDbLine
 10
684.7331247007542
 20
1764.599298936087
 30
0.0
 11
582.778024700754
 21
1764.599298936087
 31
0.0
  0
LINE
  5
7BB2
330
19
100
AcDbEntity
  8
1
100
AcDbLine
 10
684.7331247007542
 20
1764.599298936087
 30
0.0
 11
582.778024700754
 21
1764.599298936087
 31
0.0
  0
LINE
  5
7BB3
330
19
100
AcDbEntity
  8
1
100
AcDbLine
 10
721.8090247007539
 20
1761.599298936086
 30
0.0
 11
681.8090247007539
 21
1761.599298936086
 31
0.0
  0
LINE
  5
7BB4
330
19
100
AcDbEntity
  8
1
100
AcDbLine
 10
681.8090247007539
 20
1764.572098936087
 30
0.0
 11
681.8090247007539
 21
1761.599298936086
 31
0.0
  0
LINE
  5
7BB5
330
19
100
AcDbEntity
  8
1
100
AcDbLine
 10
545.809024700754
 20
1761.599298936086
 30
0.0
 11
585.8090247007539
 21
1761.599298936086
 31
0.0
  0
LINE
  5
7BB6
330
19
100
AcDbEntity
  8
1
100
AcDbLine
 10
585.8090247007539
 20
1764.530298936087
 30
0.0
 11
585.8090247007539
 21
1761.599298936086
 31
0.0
  0
LINE
  5
7BB7
330
19
100
AcDbEntity
  8
2
100
AcDbLine
 10
738.2742247007536
 20
1851.599298936086
 30
0.0
 11
527.7062247007543
 21
1851.599298936086
 31
0.0
  0
LINE
  5
7BB8
330
19
100
AcDbEntity
  8
1
100
AcDbLine
 10
695.1330247007535
 20
1771.599298936086
 30
0.0
 11
719.809024700754
 21
1771.599298936086
 31
0.0
  0
LINE
  5
7BB9
330
19
100
AcDbEntity
  8
1
100
AcDbLine
 10
715.9555247007538
 20
1793.181998936086
 30
0.0
 11
721.8090247007539
 21
1769.599298936087
 31
0.0
  0
ARC
  5
7BBA
330
19
100
AcDbEntity
  8
1
100
AcDbCircle
 10
719.809024700754
 20
1769.599298936087
 30
0.0
 40
2.0
100
AcDbArc
 50
0.0
 51
90.0
  0
LINE
  5
7BBB
330
19
100
AcDbEntity
  8
1
100
AcDbLine
 10
572.5201247007535
 20
1771.599298936086
 30
0.0
 11
547.8090247007539
 21
1771.599298936086
 31
0.0
  0
LINE
  5
7BBC
330
19
100
AcDbEntity
  8
1
100
AcDbLine
 10
551.6624247007539
 20
1793.181998936086
 30
0.0
 11
545.809024700754
 21
1769.599298936087
 31
0.0
  0
ARC
  5
7BBD
330
19
100
AcDbEntity
  8
1
100
AcDbCircle
 10
547.8090247007539
 20
1769.599298936087
 30
0.0
 40
2.0
100
AcDbArc
 50
90.0
 51
180.0
  0
LINE
  5
7BBE
330
19
100
AcDbEntity
  8
1
100
AcDbLine
 10
510.0931301759401
 20
1728.599298936088
 30
0.0
 11
521.3090247007531
 21
1763.599298936088
 31
0.0
  0
LINE
  5
7BBF
330
19
100
AcDbEntity
  8
1
100
AcDbLine
 10
605.4062727842665
 20
1763.599298936087
 30
0.0
 11
605.4062727842665
 21
1757.302627301176
 31
0.0
  0
LINE
  5
7BC0
330
19
100
AcDbEntity
  8
1
100
AcDbLine
 10
662.2117766172387
 20
1757.302627301176
 30
0.0
 11
662.2117766172396
 21
1763.599298936086
 31
0.0
  0
LINE
  5
7BC1
330
19
100
AcDbEntity
  8
1
100
AcDbLine
 10
746.3090247007531
 20
1763.599298936085
 30
0.0
 11
757.524919225565
 21
1728.599298936085
 31
0.0
  0
LINE
  5
7BC2
330
19
100
AcDbEntity
  8
1
100
AcDbLine
 10
757.524919225565
 20
1728.599298936085
 30
0.0
 11
662.2117766172387
 21
1728.599298936086
 31
0.0
  0
LINE
  5
7BC3
330
19
100
AcDbEntity
  8
1
100
AcDbLine
 10
605.4062727842665
 20
1728.599298936087
 30
0.0
 11
510.0931301759401
 21
1728.599298936088
 31
0.0
  0
LINE
  5
7BC4
330
19
100
AcDbEntity
  8
1
100
AcDbLine
 10
662.2117766172387
 20
1735.739933712421
 30
0.0
 11
605.4062727842665
 21
1735.739933712421
 31
0.0
  0
LINE
  5
7BC5
330
19
100
AcDbEntity
  8
1
100
AcDbLine
 10
605.4062727842665
 20
1757.302627301176
 30
0.0
 11
662.2117766172387
 21
1757.302627301176
 31
0.0
  0
LINE
  5
7BC6
330
19
100
AcDbEntity
  8
1
100
AcDbLine
 10
662.2117766172387
 20
1728.599298936086
 30
0.0
 11
662.2117766172387
 21
1735.739933712421
 31
0.0
  0
LINE
  5
7BC7
330
19
100
AcDbEntity
  8
1
100
AcDbLine
 10
605.4062727842665
 20
1735.739933712421
 30
0.0
 11
605.4062727842665
 21
1728.599298936087
 31
0.0
  0
LINE
  5
7BC8
330
19
100
AcDbEntity
  8
1
100
AcDbLine
 10
662.2117766172396
 20
1763.599298936086
 30
0.0
 11
746.3090247007531
 21
1763.599298936085
 31
0.0
  0
LINE
  5
7BC9
330
19
100
AcDbEntity
  8
1
100
AcDbLine
 10
521.3090247007531
 20
1763.599298936088
 30
0.0
 11
605.4062727842665
 21
1763.599298936087
 31
0.0
  0
LINE
  5
7BCA
330
19
100
AcDbEntity
  8
1
100
AcDbLine
 10
533.8090247007531
 20
1931.428706083865
 30
0.0
 11
533.8090247007503
 21
1728.599298936087
 31
0.0
  0
LINE
  5
7BCB
330
19
100
AcDbEntity
  8
2
100
AcDbLine
 10
2581.252396568955
 20
1851.59929893609
 30
0.0
 11
2775.076048775758
 21
1851.59929893609
 31
0.0
  0
LINE
  5
7BD1
330
19
100
AcDbEntity
  8
1
100
AcDbLine
 10
2741.180595120523
 20
1888.099298936091
 30
0.0
 11
2741.180595120523
 21
1815.099298936091
 31
0.0
  0
LINE
  5
7BD2
330
19
100
AcDbEntity
  8
1
100
AcDbLine
 10
2751.180595120523
 20
1769.599398936091
 30
0.0
 11
2751.180595120521
 21
1933.599298936091
 31
0.0
  0
LINE
  5
7BD3
330
19
100
AcDbEntity
  8
1
100
AcDbLine
 10
2736.180595120523
 20
1863.59929893609
 30
0.0
 11
2686.180595120522
 21
1863.59929893609
 31
0.0
  0
LINE
  5
7BD4
330
19
100
AcDbEntity
  8
1
100
AcDbLine
 10
2736.180595120523
 20
1839.59929893609
 30
0.0
 11
2686.180595120522
 21
1839.59929893609
 31
0.0
  0
LINE
  5
7BD5
330
19
100
AcDbEntity
  8
1
100
AcDbLine
 10
2726.180595120523
 20
1866.599298936091
 30
0.0
 11
2686.180595120522
 21
1866.59929893609
 31
0.0
  0
LINE
  5
7BD6
330
19
100
AcDbEntity
  8
1
100
AcDbLine
 10
2686.180595120522
 20
1839.59929893609
 30
0.0
 11
2686.180595120522
 21
1866.59929893609
 31
0.0
  0
LINE
  5
7BD7
330
19
100
AcDbEntity
  8
1
100
AcDbLine
 10
2726.180595120523
 20
1863.59929893609
 30
0.0
 11
2726.180595120523
 21
1866.599298936091
 31
0.0
  0
LINE
  5
7BD8
330
19
100
AcDbEntity
  8
1
100
AcDbLine
 10
2757.330537805767
 20
1767.599298936091
 30
0.0
 11
2753.180595120523
 21
1767.599298936091
 31
0.0
  0
ARC
  5
7BD9
330
19
100
AcDbEntity
  8
1
100
AcDbCircle
 10
2753.180795120524
 20
1769.599398936091
 30
0.0
 40
2.0001
100
AcDbArc
 50
180.0035000000004
 51
269.9965000000005
  0
LINE
  5
7BDE
330
19
100
AcDbEntity
  8
1
100
AcDbLine
 10
2741.180595120523
 20
1864.099298936091
 30
0.0
 11
2736.180595120523
 21
1864.099298936091
 31
0.0
  0
LINE
  5
7BDF
330
19
100
AcDbEntity
  8
1
100
AcDbLine
 10
2741.180595120523
 20
1839.099298936091
 30
0.0
 11
2736.180595120523
 21
1839.099298936091
 31
0.0
  0
ARC
  5
7BE0
330
19
100
AcDbEntity
  8
1
100
AcDbCircle
 10
2742.180595120523
 20
1815.099398936091
 30
0.0
 40
1.000099999999999
100
AcDbArc
 50
180.0035000000004
 51
270.0000000000005
  0
ARC
  5
7BE1
330
19
100
AcDbEntity
  8
1
100
AcDbCircle
 10
2750.180595120523
 20
1813.099298936091
 30
0.0
 40
1.000099999999999
100
AcDbArc
 50
0.0035000000004913
 51
90.00000000000049
  0
LINE
  5
7BE2
330
19
100
AcDbEntity
  8
1
100
AcDbLine
 10
2742.180595120523
 20
1814.099298936091
 30
0.0
 11
2750.180595120523
 21
1814.099298936091
 31
0.0
  0
LINE
  5
7BE3
330
19
100
AcDbEntity
  8
1
100
AcDbLine
 10
2736.180595120523
 20
1839.099298936091
 30
0.0
 11
2736.180595120523
 21
1864.099298936091
 31
0.0
  0
LINE
  5
7BE4
330
19
100
AcDbEntity
  8
1
100
AcDbLine
 10
2757.330537805766
 20
1935.599298936091
 30
0.0
 11
2753.180595120522
 21
1935.599298936091
 31
0.0
  0
ARC
  5
7BE5
330
19
100
AcDbEntity
  8
1
100
AcDbCircle
 10
2753.180795120522
 20
1933.599198936091
 30
0.0
 40
2.0001
100
AcDbArc
 50
90.0035000000005
 51
179.9965000000005
  0
ARC
  5
7BE6
330
19
100
AcDbEntity
  8
1
100
AcDbCircle
 10
2742.180695120523
 20
1888.099298936091
 30
0.0
 40
1.000099999999999
100
AcDbArc
 50
90.0035000000005
 51
180.0000000000005
  0
ARC
  5
7BE7
330
19
100
AcDbEntity
  8
1
100
AcDbCircle
 10
2750.180595120522
 20
1890.099298936091
 30
0.0
 40
1.000099999999999
100
AcDbArc
 50
270.0035000000004
 51
0.0000000000004941
  0
LINE
  5
7BE8
330
19
100
AcDbEntity
  8
1
100
AcDbLine
 10
2742.180595120523
 20
1889.099298936091
 30
0.0
 11
2750.180595120522
 21
1889.099298936091
 31
0.0
  0
LINE
  5
7C13
330
19
100
AcDbEntity
  8
2
100
AcDbLine
 10
1692.859289039945
 20
3763.713410176741
 30
0.0
 11
818.6441091208017
 21
3763.71341017674
 31
0.0
  0
LINE
  5
7C1C
330
19
100
AcDbEntity
  8
2
100
AcDbLine
 10
1283.809024700763
 20
3237.930374257149
 30
0.0
 11
1283.809024700763
 21
4007.589670016855
 31
0.0
1001
ACAD
1000
ASC_BOUNDS
1002
{
1070
    19
1002
}
  0
LINE
  5
7C55
330
19
100
AcDbEntity
  8
4
100
AcDbLine
 10
3700.0
 20
1000.0
 30
0.0
 11
3700.0
 21
600.0
 31
0.0
  0
LINE
  5
7C56
330
19
100
AcDbEntity
  8
4
100
AcDbLine
 10
2300.0
 20
1000.0
 30
0.0
 11
2300.0
 21
600.0
 31
0.0
  0
LINE
  5
7C57
330
19
100
AcDbEntity
  8
4
100
AcDbLine
 10
1300.0
 20
1000.0
 30
0.0
 11
1300.0
 21
600.0
 31
0.0
  0
LINE
  5
7C5A
330
19
100
AcDbEntity
  8
4
100
AcDbLine
 10
1300.0
 20
600.0
 30
0.0
 11
3700.0
 21
600.0
 31
0.0
  0
LINE
  5
7C5B
330
19
100
AcDbEntity
  8
4
100
AcDbLine
 10
1300.0
 20
800.0
 30
0.0
 11
3700.0
 21
800.0
 31
0.0
  0
TEXT
  5
7C5C
330
19
100
AcDbEntity
  8
4
100
AcDbText
 10
1377.004161693803
 20
863.0860517332257
 30
0.0
 40
100.0
  1
機器名称
100
AcDbText
  0
TEXT
  5
7C5D
330
19
100
AcDbEntity
  8
4
100
AcDbText
 10
1372.516212049595
 20
643.2903134640219
 30
0.0
 40
100.0
  1
機器型番
100
AcDbText
  0
TEXT
  5
7C5E
330
19
100
AcDbEntity
  8
4
100
AcDbText
 10
2355.35749097533
 20
845.1435379151371
 30
0.0
 40
100.0
  1
ミツヤ厨房用ファン
100
AcDbText
  0
TEXT
  5
7C5F
330
19
100
AcDbEntity
  8
4
100
AcDbText
 10
2373.308991170961
 20
634.3191685598867
 30
0.0
 40
100.0
  1
MFK#3-1
100
AcDbText
  0
TEXT
  5
7C61
330
19
100
AcDbEntity
  8
4
100
AcDbText
 10
1632.99454860769
 20
4766.857682665031
 30
0.0
 40
108.0
  1
床置ベット
100
AcDbText
  0
TEXT
  5
7C62
330
19
100
AcDbEntity
  8
4
100
AcDbText
 10
632.3351866588928
 20
5067.761952398596
 30
0.0
 40
144.0
  1
ベルト駆動式片吸込片持多翼ファン
100
AcDbText
  0
LINE
  5
7C63
330
19
100
AcDbEntity
  8
4
100
AcDbLine
 10
500.0
 20
4938.817508529609
 30
0.0
 11
3700.0
 21
4938.817508529609
 31
0.0
  0
LINE
  5
7C64
330
19
100
AcDbEntity
  8
4
100
AcDbLine
 10
500.0
 20
5338.81750852961
 30
0.0
 11
3700.0
 21
5338.81750852961
 31
0.0
  0
LINE
  5
7C65
330
19
100
AcDbEntity
  8
4
100
AcDbLine
 10
1300.0
 20
1000.0
 30
0.0
 11
3700.0
 21
1000.0
 31
0.0
  0
LINE
  5
7C66
330
19
100
AcDbEntity
  8
4
100
AcDbLine
 10
500.0
 20
5338.81750852961
 30
0.0
 11
500.0
 21
4938.817508529609
 31
0.0
  0
TEXT
  5
7C67
330
19
100
AcDbEntity
  8
4
100
AcDbText
 10
761.276884122286
 20
4764.638955092687
 30
0.0
 40
108.0
  1
右回転上向
100
AcDbText
  0
TEXT
  5
7C68
330
19
100
AcDbEntity
  8
4
100
AcDbText
 10
2937.93911849858
 20
5412.122162990618
 30
0.0
 40
112.0
  1
No.
100
AcDbText
  0
TEXT
  5
7C69
330
19
100
AcDbEntity
  8
4
100
AcDbText
 10
2622.592125200026
 20
4766.857682665031
 30
0.0
 40
108.0
  1
縮尺：1/20
100
AcDbText
  0
LINE
  5
7C6A
330
19
100
AcDbEntity
  8
4
100
AcDbLine
 10
3700.0
 20
5338.81750852961
 30
0.0
 11
3700.0
 21
4938.817508529609
 31
0.0
  0
LINE
  5
7C6B
330
19
100
AcDbEntity
  8
4
100
AcDbLine
 10
4200.0
 20
5900.0
 30
0.0
 11
4200.0
 21
5900.0
 31
0.0
  0
LINE
  5
7C6C
330
19
100
AcDbEntity
  8
4
100
AcDbLine
 10
2881.234844719729
 20
5362.527166250802
 30
0.0
 11
2881.234844719729
 21
5573.304523099505
 31
0.0
  0
LINE
  5
7C6D
330
19
100
AcDbEntity
  8
4
100
AcDbLine
 10
2881.234844719729
 20
5573.304523099505
 30
0.0
 11
3700.0
 21
5573.304523099505
 31
0.0
  0
LINE
  5
7C6E
330
19
100
AcDbEntity
  8
4
100
AcDbLine
 10
3700.0
 20
5573.304523099505
 30
0.0
 11
3700.0
 21
5362.527166250802
 31
0.0
  0
LINE
  5
7C6F
330
19
100
AcDbEntity
  8
4
100
AcDbLine
 10
3700.0
 20
5362.527166250802
 30
0.0
 11
2881.234844719729
 21
5362.527166250802
 31
0.0
  0
LINE
  5
7C70
330
19
100
AcDbEntity
  8
4
100
AcDbLine
 10
0.0
 20
0.0
 30
0.0
 11
0.0
 21
5900.0
 31
0.0
  0
LINE
  5
7C71
330
19
100
AcDbEntity
  8
4
100
AcDbLine
 10
0.0
 20
5900.0
 30
0.0
 11
4200.0
 21
5900.0
 31
0.0
  0
LINE
  5
7C72
330
19
100
AcDbEntity
  8
4
100
AcDbLine
 10
4200.0
 20
5900.0
 30
0.0
 11
4200.0
 21
0.0
 31
0.0
  0
LINE
  5
7C73
330
19
100
AcDbEntity
  8
4
100
AcDbLine
 10
4200.0
 20
0.0
 30
0.0
 11
0.0
 21
0.0
 31
0.0
  0
DIMENSION
  5
7CC8
330
19
100
AcDbEntity
  8
3
100
AcDbDimension
  2
*D1
 10
1283.809024700758
 20
2721.164317456654
 30
0.0
 11
1031.077822496437
 21
2721.164317456654
 31
0.0
 70
   160
 71
     5
 42
-1.0
  3
IGA
100
AcDbAlignedDimension
 13
745.8090247007576
 23
2543.599298936085
 33
0.0
 14
1283.809024700758
 24
2600.913498836019
 34
0.0
100
AcDbRotatedDimension
1001
ACAD
1000
DSTYLE
1002
{
1070
   287
1070
     3
1070
    40
1040
20.0
1070
   143
1040
0.039
1070
   172
1070
     1
1070
   271
1070
     0
1070
   279
1070
     0
1070
   288
1070
     1
1002
}
  0
DIMENSION
  5
7CD5
330
19
100
AcDbEntity
  8
3
100
AcDbDimension
  2
*D2
 10
1257.809024700758
 20
2602.797735104884
 30
0.0
 11
1005.423218279721
 21
2602.797735104884
 31
0.0
 70
   160
 71
     5
 42
-1.0
  3
IGA
100
AcDbAlignedDimension
 13
745.8090247007576
 23
2543.599298936085
 33
0.0
 14
1257.809024700758
 24
2543.599298936082
 34
0.0
100
AcDbRotatedDimension
1001
ACAD
1000
DSTYLE
1002
{
1070
   287
1070
     3
1070
    40
1040
20.0
1070
   143
1040
0.039
1070
   172
1070
     1
1070
   271
1070
     0
1070
   279
1070
     0
1070
   288
1070
     1
1002
}
  0
DIMENSION
  5
7CEC
330
19
100
AcDbEntity
  8
3
100
AcDbDimension
  2
*D3
 10
1821.374043221327
 20
1663.599298936079
 30
0.0
 11
1771.374043221327
 21
1923.599298936079
 31
0.0
 70
    32
 71
     5
 42
-1.0
  3
IGA
100
AcDbAlignedDimension
 13
1701.123224600693
 23
2183.599298936078
 33
0.0
 14
1593.809024700752
 24
1663.599298936079
 34
0.0
 50
270.0
100
AcDbRotatedDimension
1001
ACAD
1000
DSTYLE
1002
{
1070
   287
1070
     3
1070
    40
1040
20.0
1070
   143
1040
0.039
1070
   172
1070
     1
1070
   271
1070
     0
1070
   279
1070
     0
1070
   288
1070
     1
1002
}
  0
DIMENSION
  5
7DA4
330
19
100
AcDbEntity
  8
3
100
AcDbDimension
  2
*D5
 10
3339.330537805765
 20
2644.53908781836
 30
0.0
 11
3152.435655190933
 21
2644.53908781836
 31
0.0
 70
   160
 71
     5
 42
-1.0
  3
IGA
100
AcDbAlignedDimension
 13
2964.330537805764
 23
2510.845516482221
 33
0.0
 14
3339.330537805765
 24
2510.845516482221
 34
0.0
100
AcDbRotatedDimension
1001
ACAD
1000
DSTYLE
1002
{
1070
   287
1070
     3
1070
    40
1040
20.0
1070
   143
1040
0.039
1070
   172
1070
     1
1070
   271
1070
     0
1070
   279
1070
     0
1070
   288
1070
     1
1002
}
  0
DIMENSION
  5
7DB3
330
19
100
AcDbEntity
  8
3
100
AcDbDimension
  2
*D6
 10
3343.630537805765
 20
2762.114798567218
 30
0.0
 11
3247.730537805766
 21
2762.114798567218
 31
0.0
 70
   160
 71
     5
 42
-1.0
  3
IGA
100
AcDbAlignedDimension
 13
3151.830537805766
 23
2713.74545240054
 33
0.0
 14
3343.630537805765
 24
2463.599298936083
 34
0.0
100
AcDbRotatedDimension
1001
ACAD
1000
DSTYLE
1002
{
1070
   287
1070
     3
1070
    40
1040
20.0
1070
   143
1040
0.039
1070
   172
1070
     1
1070
   271
1070
     0
1070
   279
1070
     0
1070
   288
1070
     1
1002
}
  0
DIMENSION
  5
7DCC
330
19
100
AcDbEntity
  8
3
100
AcDbDimension
  2
*D7
 10
2618.590299456254
 20
2762.114798567218
 30
0.0
 11
2885.21041863101
 21
2827.829084281504
 31
0.0
 70
    32
  1
(560)
 71
     5
 42
533.2402383495118
  3
IGA
100
AcDbAlignedDimension
 13
3151.830537805766
 23
2713.74545240054
 33
0.0
 14
2618.590299456254
 24
2403.599298936082
 34
0.0
100
AcDbRotatedDimension
1001
ACAD
1000
DSTYLE
1002
{
1070
   287
1070
     4
1070
    40
1040
20.0
1070
    75
1070
     1
1070
   143
1040
0.039
1070
   172
1070
     1
1070
   271
1070
     0
1070
   279
1070
     1
1070
   288
1070
     1
1002
}
  0
DIMENSION
  5
7DE4
330
19
100
AcDbEntity
  8
3
100
AcDbDimension
  2
*D8
 10
3543.286756674447
 20
1933.599298936083
 30
0.0
 11
3543.286756674446
 21
2183.339885117799
 31
0.0
 70
   160
 71
     5
 42
-1.0
  3
IGA
100
AcDbAlignedDimension
 13
3371.830537805765
 23
2433.599298936083
 33
0.0
 14
3371.830537805765
 24
1933.599298936083
 34
0.0
 50
90.0
100
AcDbRotatedDimension
1001
ACAD
1000
DSTYLE
1002
{
1070
   287
1070
     3
1070
     3
1000
\U+03C6<>
1070
    40
1040
20.0
1070
   143
1040
0.039
1070
   172
1070
     1
1070
   271
1070
     0
1070
   279
1070
     0
1070
   288
1070
     1
1002
}
  0
DIMENSION
  5
7E6E
330
19
100
AcDbEntity
  8
3
100
AcDbDimension
  2
*D11
 10
1821.374043221327
 20
2543.599298936082
 30
0.0
 11
1771.374043221327
 21
2363.59929893608
 31
0.0
 70
    32
 71
     5
 42
-1.0
  3
IGA
100
AcDbAlignedDimension
 13
1701.123224600693
 23
2183.599298936078
 33
0.0
 14
1289.409024700758
 24
2543.599298936082
 34
0.0
 50
270.0
100
AcDbRotatedDimension
1001
ACAD
1000
DSTYLE
1002
{
1070
   287
1070
     4
1070
    40
1040
20.0
1070
    75
1070
     1
1070
   143
1040
0.039
1070
   172
1070
     1
1070
   271
1070
     0
1070
   279
1070
     1
1070
   288
1070
     1
1002
}
  0
DIMENSION
  5
7E7A
330
19
100
AcDbEntity
  8
3
100
AcDbDimension
  2
*D12
 10
1646.257015508615
 20
2721.164317456654
 30
0.0
 11
1465.033020104687
 21
2771.164317456654
 31
0.0
 70
    32
 71
     5
 42
-1.0
  3
IGA
100
AcDbAlignedDimension
 13
1283.809024700758
 23
2600.913498836019
 33
0.0
 14
1646.257015508615
 24
2146.599298936081
 34
0.0
100
AcDbRotatedDimension
1001
ACAD
1000
DSTYLE
1002
{
1070
   287
1070
     4
1070
    40
1040
20.0
1070
    75
1070
     1
1070
   143
1040
0.039
1070
   172
1070
     1
1070
   271
1070
     0
1070
   279
1070
     1
1070
   288
1070
     1
1002
}
  0
LINE
  5
7E7B
330
19
100
AcDbEntity
  8
1
100
AcDbLine
 10
802.9292386085616
 20
2223.242033224775
 30
0.0
 11
1042.929238608562
 21
2223.242033224775
 31
0.0
  0
LINE
  5
7E7C
330
19
100
AcDbEntity
  8
1
100
AcDbLine
 10
1042.929238608562
 20
2223.242033224775
 30
0.0
 11
1042.929238608562
 21
2423.242033224775
 31
0.0
  0
LINE
  5
7E7D
330
19
100
AcDbEntity
  8
1
100
AcDbLine
 10
1042.929238608562
 20
2423.242033224775
 30
0.0
 11
802.9292386085616
 21
2423.242033224775
 31
0.0
  0
LINE
  5
7E7E
330
19
100
AcDbEntity
  8
1
100
AcDbLine
 10
802.9292386085616
 20
2423.242033224775
 30
0.0
 11
802.9292386085616
 21
2223.242033224775
 31
0.0
  0
DIMENSION
  5
7F93
330
19
100
AcDbEntity
  8
3
100
AcDbDimension
  2
*D13
 10
1283.80902470075
 20
1515.57947601245
 30
0.0
 11
878.8090247007511
 21
1565.57947601245
 31
0.0
 70
    32
 71
     5
 42
-1.0
  3
IGA
100
AcDbAlignedDimension
 13
473.8090247007521
 23
1663.599298936088
 33
0.0
 14
1283.80902470075
 24
1663.599298936081
 34
0.0
100
AcDbRotatedDimension
1001
ACAD
1000
DSTYLE
1002
{
1070
   287
1070
     3
1070
    40
1040
20.0
1070
   143
1040
0.039
1070
   172
1070
     1
1070
   271
1070
     0
1070
   279
1070
     0
1002
}
  0
DIMENSION
  5
7FA0
330
19
100
AcDbEntity
  8
3
100
AcDbDimension
  2
*D14
 10
1593.809024700752
 20
1515.57947601245
 30
0.0
 11
1438.809024700751
 21
1565.57947601245
 31
0.0
 70
    32
 71
     5
 42
-1.0
  3
IGA
100
AcDbAlignedDimension
 13
1283.80902470075
 23
1663.599298936081
 33
0.0
 14
1593.809024700752
 24
1663.599298936079
 34
0.0
100
AcDbRotatedDimension
1001
ACAD
1000
DSTYLE
1002
{
1070
   287
1070
     3
1070
    40
1040
20.0
1070
   143
1040
0.039
1070
   172
1070
     1
1070
   271
1070
     0
1070
   279
1070
     0
1002
}
  0
DIMENSION
  5
7FAD
330
19
100
AcDbEntity
  8
3
100
AcDbDimension
  2
*D15
 10
3151.830537805765
 20
1515.57947601245
 30
0.0
 11
2954.330537805764
 21
1565.57947601245
 31
0.0
 70
    32
 71
     5
 42
-1.0
  3
IGA
100
AcDbAlignedDimension
 13
2756.830537805764
 23
1663.599298936091
 33
0.0
 14
3151.830537805765
 24
1663.599298936092
 34
0.0
100
AcDbRotatedDimension
1001
ACAD
1000
DSTYLE
1002
{
1070
   287
1070
     3
1070
    40
1040
20.0
1070
   143
1040
0.039
1070
   172
1070
     1
1070
   271
1070
     0
1070
   279
1070
     0
1002
}
  0
DIMENSION
  5
7FBC
330
19
100
AcDbEntity
  8
3
100
AcDbDimension
  2
*D16
 10
3381.830537805765
 20
1515.57947601245
 30
0.0
 11
3266.830537805765
 21
1565.57947601245
 31
0.0
 70
    32
 71
     5
 42
-1.0
  3
IGA
100
AcDbAlignedDimension
 13
3151.830537805765
 23
1663.599298936092
 33
0.0
 14
3381.830537805765
 24
1663.599298936092
 34
0.0
100
AcDbRotatedDimension
1001
ACAD
1000
DSTYLE
1002
{
1070
   287
1070
     3
1070
    40
1040
20.0
1070
   143
1040
0.039
1070
   172
1070
     1
1070
   271
1070
     0
1070
   279
1070
     0
1002
}
  0
LINE
  5
8262
330
19
100
AcDbEntity
  8
1
100
AcDbLine
 10
473.8090247007639
 20
3993.713410176749
 30
0.0
 11
1593.809024700764
 21
3993.713410176738
 31
0.0
  0
LINE
  5
8263
330
19
100
AcDbEntity
  8
1
100
AcDbLine
 10
473.8090247007639
 20
3953.713410176749
 30
0.0
 11
714.2038417374542
 21
3953.713410176746
 31
0.0
  0
LINE
  5
8264
330
19
100
AcDbEntity
  8
1
100
AcDbLine
 10
473.8090247007594
 20
3368.713410176748
 30
0.0
 11
513.0090247007601
 21
3368.713410176748
 31
0.0
  0
LINE
  5
8265
330
19
100
AcDbEntity
  8
1
100
AcDbLine
 10
473.8090247007594
 20
3408.713410176748
 30
0.0
 11
513.0090247007601
 21
3408.713410176748
 31
0.0
  0
LINE
  5
826B
330
19
100
AcDbEntity
  8
1
100
AcDbLine
 10
513.809024700764
 20
3953.713410176749
 30
0.0
 11
513.8090247007612
 21
3625.063467491501
 31
0.0
  0
LINE
  5
826C
330
19
100
AcDbEntity
  8
1
100
AcDbLine
 10
473.8090247007639
 20
3953.713410176749
 30
0.0
 11
473.8090247007594
 21
3408.713410176748
 31
0.0
  0
LINE
  5
8272
330
19
100
AcDbEntity
  8
1
100
AcDbLine
 10
473.8090247007594
 20
3368.713410176748
 30
0.0
 11
473.8090247007594
 21
3408.713410176748
 31
0.0
  0
LINE
  5
8273
330
19
100
AcDbEntity
  8
1
100
AcDbLine
 10
473.8090247007639
 20
3953.713410176749
 30
0.0
 11
473.8090247007639
 21
3993.713410176749
 31
0.0
  0
LINE
  5
8274
330
19
100
AcDbEntity
  8
1
100
AcDbLine
 10
1593.809024700759
 20
3368.713410176738
 30
0.0
 11
1593.809024700759
 21
3408.713410176738
 31
0.0
  0
LINE
  5
82E4
330
19
100
AcDbEntity
  8
1
100
AcDbLine
 10
1645.809024700763
 20
3951.21341017674
 30
0.0
 11
1290.203841737456
 21
3951.213410176741
 31
0.0
  0
LINE
  5
82E5
330
19
100
AcDbEntity
  8
1
100
AcDbLine
 10
1423.509024700763
 20
3317.413410176739
 30
0.0
 11
1144.109024700762
 21
3317.413410176741
 31
0.0
  0
LINE
  5
82E6
330
19
100
AcDbEntity
  8
1
100
AcDbLine
 10
1423.509024700763
 20
3277.413410176739
 30
0.0
 11
1144.109024700762
 21
3277.413410176742
 31
0.0
  0
LINE
  5
82E7
330
19
100
AcDbEntity
  8
1
100
AcDbLine
 10
1503.809024700763
 20
3230.47317182723
 30
0.0
 11
520.8090247007585
 21
3230.473171827233
 31
0.0
  0
LINE
  5
82E9
330
19
100
AcDbEntity
  8
1
100
AcDbLine
 10
1645.809024700763
 20
3576.213410176739
 30
0.0
 11
1290.203841737453
 21
3576.21341017674
 31
0.0
  0
LINE
  5
82EA
330
19
100
AcDbEntity
  8
2
100
AcDbLine
 10
633.8090247007603
 20
3629.000467491501
 30
0.0
 11
633.8090247007585
 21
3293.028867491501
 31
0.0
  0
LINE
  5
82ED
330
19
100
AcDbEntity
  8
1
100
AcDbLine
 10
621.8090247007585
 20
3348.063467491501
 30
0.0
 11
621.8090247007585
 21
3298.063467491501
 31
0.0
  0
LINE
  5
82EE
330
19
100
AcDbEntity
  8
1
100
AcDbLine
 10
645.8090247007585
 20
3348.063467491501
 30
0.0
 11
645.8090247007585
 21
3298.063467491501
 31
0.0
  0
LINE
  5
82EF
330
19
100
AcDbEntity
  8
1
100
AcDbLine
 10
633.8090247007585
 20
3251.378145476686
 30
0.0
 11
633.8090247007585
 21
3361.651049985493
 31
0.0
  0
LINE
  5
82F0
330
19
100
AcDbEntity
  8
1
100
AcDbLine
 10
1302.809024700763
 20
3317.41341017674
 30
0.0
 11
1302.809024700762
 21
3347.41341017674
 31
0.0
1001
ACAD
1000
ASC_BOUNDS
1002
{
1070
    19
1002
}
  0
LINE
  5
82F1
330
19
100
AcDbEntity
  8
1
100
AcDbLine
 10
1264.809024700763
 20
3317.413410176741
 30
0.0
 11
1264.809024700763
 21
3347.41341017674
 31
0.0
1001
ACAD
1000
ASC_BOUNDS
1002
{
1070
    19
1002
}
  0
LINE
  5
82F2
330
19
100
AcDbEntity
  8
1
100
AcDbLine
 10
520.8090247007585
 20
3230.473171827234
 30
0.0
 11
520.8090247007585
 21
3352.473171827234
 31
0.0
  0
LINE
  5
82F3
330
19
100
AcDbEntity
  8
1
100
AcDbLine
 10
621.8090247007585
 20
3298.063467491501
 30
0.0
 11
648.8090247007585
 21
3298.063467491501
 31
0.0
  0
LINE
  5
82F4
330
19
100
AcDbEntity
  8
1
100
AcDbLine
 10
1144.109024700762
 20
3277.413410176742
 30
0.0
 11
574.6590247007534
 21
3277.413410176744
 31
0.0
  0
LINE
  5
82F5
330
19
100
AcDbEntity
  8
1
100
AcDbLine
 10
1144.109024700762
 20
3317.413410176741
 30
0.0
 11
574.6590247007534
 21
3317.413410176743
 31
0.0
  0
LINE
  5
82F6
330
19
100
AcDbEntity
  8
1
100
AcDbLine
 10
574.6590247007534
 20
3277.413410176745
 30
0.0
 11
574.6590247007534
 21
3317.413410176744
 31
0.0
  0
LINE
  5
82F7
330
19
100
AcDbEntity
  8
1
100
AcDbLine
 10
688.9590247007527
 20
3277.413410176745
 30
0.0
 11
688.9590247007527
 21
3317.413410176745
 31
0.0
  0
LINE
  5
82F8
330
19
100
AcDbEntity
  8
1
100
AcDbLine
 10
648.8090247007585
 20
3338.063467491501
 30
0.0
 11
648.8090247007585
 21
3298.063467491501
 31
0.0
  0
LINE
  5
82F9
330
19
100
AcDbEntity
  8
1
100
AcDbLine
 10
645.8090247007585
 20
3338.063467491501
 30
0.0
 11
648.8090247007585
 21
3338.063467491501
 31
0.0
  0
LINE
  5
82FA
330
19
100
AcDbEntity
  8
1
100
AcDbLine
 10
1144.109024700762
 20
3277.413410176742
 30
0.0
 11
1144.109024700762
 21
3317.413410176741
 31
0.0
1001
ACAD
1000
ASC_BOUNDS
1002
{
1070
    19
1002
}
  0
LINE
  5
82FB
330
19
100
AcDbEntity
  8
1
100
AcDbLine
 10
621.3090247007585
 20
3348.063467491501
 30
0.0
 11
646.3090247007585
 21
3348.063467491501
 31
0.0
  0
LINE
  5
82FC
330
19
100
AcDbEntity
  8
1
100
AcDbLine
 10
513.0090247007601
 20
3363.063467491502
 30
0.0
 11
754.6090247007596
 21
3363.0634674915
 31
0.0
  0
LINE
  5
82FD
330
19
100
AcDbEntity
  8
1
100
AcDbLine
 10
670.3090247007585
 20
3353.063467491501
 30
0.0
 11
597.3090247007585
 21
3353.063467491501
 31
0.0
  0
LINE
  5
82FE
330
19
100
AcDbEntity
  8
1
100
AcDbLine
 10
540.8090247007585
 20
3352.473171827234
 30
0.0
 11
520.8090247007585
 21
3352.473171827234
 31
0.0
  0
LINE
  5
82FF
330
19
100
AcDbEntity
  8
1
100
AcDbLine
 10
596.3090247007585
 20
3354.063467491501
 30
0.0
 11
596.3090247007585
 21
3362.063467491501
 31
0.0
  0
ARC
  5
8300
330
19
100
AcDbEntity
  8
1
100
AcDbCircle
 10
595.3090247007585
 20
3362.063467491501
 30
0.0
 40
1.000099999999999
100
AcDbArc
 50
359.9999999999995
 51
89.99650000001034
  0
ARC
  5
8301
330
19
100
AcDbEntity
  8
1
100
AcDbCircle
 10
597.3091247007596
 20
3354.063467491501
 30
0.0
 40
1.000099999999999
100
AcDbArc
 50
179.9999999999995
 51
269.9965000000103
  0
LINE
  5
8302
330
19
100
AcDbEntity
  8
1
100
AcDbLine
 10
621.3090247007585
 20
3353.063467491501
 30
0.0
 11
621.3090247007585
 21
3348.063467491501
 31
0.0
  0
LINE
  5
8303
330
19
100
AcDbEntity
  8
1
100
AcDbLine
 10
1306.309024700763
 20
3347.41341017674
 30
0.0
 11
1306.309024700763
 21
3512.706517957243
 31
0.0
1001
ACAD
1000
ASC_BOUNDS
1002
{
1070
    19
1002
}
  0
LINE
  5
8304
330
19
100
AcDbEntity
  8
1
100
AcDbLine
 10
1261.309024700763
 20
3347.41341017674
 30
0.0
 11
1261.309024700763
 21
3543.713410176739
 31
0.0
1001
ACAD
1000
ASC_BOUNDS
1002
{
1070
    19
1002
}
  0
LINE
  5
8305
330
19
100
AcDbEntity
  8
1
100
AcDbLine
 10
671.3090247007585
 20
3354.063467491501
 30
0.0
 11
671.3090247007585
 21
3362.063467491501
 31
0.0
  0
ARC
  5
8306
330
19
100
AcDbEntity
  8
1
100
AcDbCircle
 10
672.3090247007585
 20
3362.063467491501
 30
0.0
 40
1.000099999999999
100
AcDbArc
 50
90.0
 51
179.9964999999995
  0
ARC
  5
8307
330
19
100
AcDbEntity
  8
1
100
AcDbCircle
 10
670.3090247007585
 20
3354.063567491501
 30
0.0
 40
1.000099999999999
100
AcDbArc
 50
270.0
 51
359.9964999999995
  0
LINE
  5
8308
330
19
100
AcDbEntity
  8
1
100
AcDbLine
 10
646.3090247007585
 20
3353.063467491501
 30
0.0
 11
646.3090247007585
 21
3348.063467491501
 31
0.0
  0
LINE
  5
8309
330
19
100
AcDbEntity
  8
1
100
AcDbLine
 10
1306.309024700763
 20
3347.41341017674
 30
0.0
 11
1261.309024700763
 21
3347.41341017674
 31
0.0
  0
LINE
  5
830A
330
19
100
AcDbEntity
  8
1
100
AcDbLine
 10
1306.309024700763
 20
3472.713410176741
 30
0.0
 11
1306.309024700763
 21
3574.213410176741
 31
0.0
1001
ACAD
1000
ASC_BOUNDS
1002
{
1070
    19
1002
}
  0
LINE
  5
830B
330
19
100
AcDbEntity
  8
1
100
AcDbLine
 10
1261.309024700763
 20
3476.841827538638
 30
0.0
 11
1261.309024700763
 21
3512.706517957243
 31
0.0
1001
ACAD
1000
ASC_BOUNDS
1002
{
1070
    19
1002
}
  0
LINE
  5
830C
330
19
100
AcDbEntity
  8
1
100
AcDbLine
 10
513.009024700761
 20
3625.063467491503
 30
0.0
 11
714.2038417374542
 21
3625.0634674915
 31
0.0
  0
ARC
  5
830D
330
19
100
AcDbEntity
  8
1
100
AcDbCircle
 10
549.7893247007614
 20
3624.063467491502
 30
0.0
 40
1.000099999999999
100
AcDbArc
 50
90.00349999998965
 51
178.8494999999986
  0
LINE
  5
8311
330
19
100
AcDbEntity
  8
1
100
AcDbLine
 10
838.809024700772
 20
3993.713410176741
 30
0.0
 11
763.8090247007721
 21
3993.713410176741
 31
0.0
  0
LINE
  5
8312
330
19
100
AcDbEntity
  8
1
100
AcDbLine
 10
1503.809024700763
 20
3352.47317182723
 30
0.0
 11
1503.809024700763
 21
3230.47317182723
 31
0.0
  0
LINE
  5
8313
330
19
100
AcDbEntity
  8
1
100
AcDbLine
 10
1503.809024700762
 20
3230.47317182723
 30
0.0
 11
1503.809024700762
 21
3352.47317182723
 31
0.0
  0
LINE
  5
8314
330
19
100
AcDbEntity
  8
1
100
AcDbLine
 10
1423.509024700763
 20
3277.413410176739
 30
0.0
 11
1423.509024700763
 21
3317.413410176739
 31
0.0
1001
ACAD
1000
ASC_BOUNDS
1002
{
1070
    19
1002
}
  0
LINE
  5
8315
330
19
100
AcDbEntity
  8
1
100
AcDbLine
 10
1483.809024700763
 20
3352.47317182723
 30
0.0
 11
1503.809024700763
 21
3352.47317182723
 31
0.0
  0
LINE
  5
8317
330
19
100
AcDbEntity
  8
1
100
AcDbLine
 10
1553.809024700763
 20
3951.21341017674
 30
0.0
 11
1553.809024700763
 21
3953.713410176739
 31
0.0
  0
LINE
  5
8318
330
19
100
AcDbEntity
  8
1
100
AcDbLine
 10
1593.809024700764
 20
3951.21341017674
 30
0.0
 11
1593.809024700764
 21
3993.713410176738
 31
0.0
  0
LINE
  5
8319
330
19
100
AcDbEntity
  8
1
100
AcDbLine
 10
754.6090247007596
 20
3363.0634674915
 30
0.0
 11
754.6090247007605
 21
3543.713410176739
 31
0.0
  0
LINE
  5
831A
330
19
100
AcDbEntity
  8
1
100
AcDbLine
 10
513.0090247007601
 20
3363.063467491501
 30
0.0
 11
513.009024700761
 21
3625.063467491501
 31
0.0
  0
LINE
  5
831B
330
19
100
AcDbEntity
  8
1
100
AcDbLine
 10
754.6090247007596
 20
3408.713410176746
 30
0.0
 11
1261.309024700763
 21
3408.713410176742
 31
0.0
  0
LINE
  5
831C
330
19
100
AcDbEntity
  8
1
100
AcDbLine
 10
754.6090247007596
 20
3368.713410176745
 30
0.0
 11
1261.309024700763
 21
3368.713410176741
 31
0.0
  0
LINE
  5
831D
330
19
100
AcDbEntity
  8
1
100
AcDbLine
 10
963.8090247007594
 20
3408.713410176744
 30
0.0
 11
963.8090247007612
 21
3543.713410176739
 31
0.0
  0
LINE
  5
831E
330
19
100
AcDbEntity
  8
1
100
AcDbLine
 10
1603.809024700762
 20
3408.713410176742
 30
0.0
 11
1603.809024700763
 21
3576.213410176741
 31
0.0
  0
LINE
  5
831F
330
19
100
AcDbEntity
  8
1
100
AcDbLine
 10
1306.309024700763
 20
3408.713410176741
 30
0.0
 11
1603.809024700762
 21
3408.713410176739
 31
0.0
  0
LINE
  5
8320
330
19
100
AcDbEntity
  8
1
100
AcDbLine
 10
1306.309024700763
 20
3368.713410176741
 30
0.0
 11
1593.809024700759
 21
3368.713410176738
 31
0.0
  0
DIMENSION
  5
8328
330
19
100
AcDbEntity
  8
3
100
AcDbDimension
  2
*D37
 10
473.8090247007639
 20
4197.08128079966
 30
0.0
 11
1086.587987695497
 21
4197.08128079966
 31
0.0
 70
   160
 71
     5
 42
1120.0
  3
IGA
100
AcDbAlignedDimension
 13
1593.809024700764
 23
3993.713410176738
 33
0.0
 14
473.8090247007639
 24
3993.713410176749
 34
0.0
100
AcDbRotatedDimension
1001
ACAD
1000
DSTYLE
1002
{
1070
   287
1070
     3
1070
    40
1040
20.0
1070
   143
1040
0.039
1070
   172
1070
     1
1070
   271
1070
     0
1070
   279
1070
     0
1070
   288
1070
     1
1002
}
  0
DIMENSION
  5
8329
330
19
100
AcDbEntity
  8
3
100
AcDbDimension
  2
*D38
 10
287.1851521618487
 20
3368.713410176748
 30
0.0
 11
287.1851521618483
 21
3688.740278048199
 31
0.0
 70
   160
 71
     5
 42
625.0000000000008
  3
IGA
100
AcDbAlignedDimension
 13
473.8090247007639
 23
3993.713410176749
 33
0.0
 14
473.8090247007594
 24
3368.713410176748
 34
0.0
 50
270.0
100
AcDbRotatedDimension
1001
ACAD
1000
DSTYLE
1002
{
1070
   287
1070
     3
1070
    40
1040
20.0
1070
   143
1040
0.039
1070
   172
1070
     1
1070
   271
1070
     0
1070
   279
1070
     0
1070
   288
1070
     1
1002
}
  0
LINE
  5
8331
330
19
100
AcDbEntity
  8
1
100
AcDbLine
 10
1645.809024700763
 20
3576.213410176739
 30
0.0
 11
1645.809024700763
 21
3951.21341017674
 31
0.0
1001
ACAD
1000
ASC_BOUNDS
1002
{
1070
    19
1002
}
  0
LINE
  5
84DD
330
19
100
AcDbEntity
  8
1
100
AcDbLine
 10
714.2038417374542
 20
3983.713410176739
 30
0.0
 11
714.2038417374542
 21
3543.713410176739
 31
0.0
  0
LINE
  5
85BD
330
19
100
AcDbEntity
  8
1
100
AcDbLine
 10
1290.203841737454
 20
3543.713410176739
 30
0.0
 11
714.2038417374542
 21
3543.713410176739
 31
0.0
  0
LINE
  5
85BF
330
19
100
AcDbEntity
  8
1
100
AcDbLine
 10
1290.203841737454
 20
3983.713410176739
 30
0.0
 11
714.2038417374542
 21
3983.713410176739
 31
0.0
  0
LINE
  5
85C2
330
19
100
AcDbEntity
  8
1
100
AcDbLine
 10
1290.203841737454
 20
3543.713410176739
 30
0.0
 11
1290.203841737456
 21
3983.713410176739
 31
0.0
  0
LINE
  5
85C3
330
19
100
AcDbEntity
  8
1
100
AcDbLine
 10
744.2038417374542
 20
3573.713410176739
 30
0.0
 11
744.2038417374542
 21
3953.713410176739
 31
0.0
  0
LINE
  5
85C6
330
19
100
AcDbEntity
  8
1
100
AcDbLine
 10
1260.203841737454
 20
3573.713410176739
 30
0.0
 11
1260.203841737456
 21
3953.713410176739
 31
0.0
  0
LINE
  5
85C8
330
19
100
AcDbEntity
  8
1
100
AcDbLine
 10
1260.203841737454
 20
3573.713410176739
 30
0.0
 11
744.2038417374542
 21
3573.713410176739
 31
0.0
  0
LINE
  5
85D2
330
19
100
AcDbEntity
  8
1
100
AcDbLine
 10
1260.203841737454
 20
3953.713410176739
 30
0.0
 11
744.2038417374542
 21
3953.713410176739
 31
0.0
  0
LINE
  5
86F6
330
19
100
AcDbEntity
  8
1
100
AcDbLine
 10
1290.203841737455
 20
3953.713410176741
 30
0.0
 11
1593.809024700764
 21
3953.713410176739
 31
0.0
  0
LINE
  5
875E
330
19
100
AcDbEntity
  8
1
100
AcDbLine
 10
744.2038417374542
 20
3953.713410176739
 30
0.0
 11
1260.203841737454
 21
3573.713410176739
 31
0.0
  0
LINE
  5
875F
330
19
100
AcDbEntity
  8
1
100
AcDbLine
 10
744.2038417374542
 20
3573.713410176739
 30
0.0
 11
1260.203841737456
 21
3953.713410176739
 31
0.0
  0
ENDSEC
  0
SECTION
  2
OBJECTS
  0
DICTIONARY
  5
C
330
0
100
AcDbDictionary
281
     1
  3
ACAD_CIP_PREVIOUS_PRODUCT_INFO
350
80DC
  3
ACAD_COLOR
350
80BF
  3
ACAD_DETAILVIEWSTYLE
350
80D8
  3
ACAD_GROUP
350
D
  3
ACAD_LAYOUT
350
7FC9
  3
ACAD_MATERIAL
350
808D
  3
ACAD_MLEADERSTYLE
350
80D4
  3
ACAD_MLINESTYLE
350
E
  3
ACAD_PLOTSETTINGS
350
7FCA
  3
ACAD_PLOTSTYLENAME
350
7FC7
  3
ACAD_SCALELIST
350
80C2
  3
ACAD_SECTIONVIEWSTYLE
350
80D6
  3
ACAD_TABLESTYLE
350
80C0
  3
ACAD_VISUALSTYLE
350
80A6
  3
ACDB_RECOMPOSE_DATA
350
87A6
  3
AcDbVariableDictionary
350
8085
  3
AcDsDecomposeData
350
87AD
  3
DWGPROPS
350
87A7
  0
DICTIONARY
  5
8584
330
2
100
AcDbDictionary
280
     1
281
     1
  3
ACAD_LAYERSTATES
360
8585
  0
DICTIONARY
  5
871C
330
F
100
AcDbDictionary
280
     1
281
     1
  3
ADSK_XREC_LAYER_RECONCILED
360
871D
  0
DICTIONARY
  5
871E
330
31
100
AcDbDictionary
280
     1
281
     1
  3
ADSK_XREC_LAYER_RECONCILED
360
871F
  0
DICTIONARY
  5
8720
330
76D0
100
AcDbDictionary
280
     1
281
     1
  3
ADSK_XREC_LAYER_RECONCILED
360
8721
  0
DICTIONARY
  5
8722
330
76D1
100
AcDbDictionary
280
     1
281
     1
  3
ADSK_XREC_LAYER_RECONCILED
360
8723
  0
DICTIONARY
  5
8724
330
76D2
100
AcDbDictionary
280
     1
281
     1
  3
ADSK_XREC_LAYER_RECONCILED
360
8725
  0
DICTIONARY
  5
857C
330
857B
100
AcDbDictionary
280
     1
281
     1
  3
ADSK_XREC_LAYER_RECONCILED
360
8726
  0
DICTIONARY
  5
857E
330
857D
100
AcDbDictionary
280
     1
281
     1
  3
ADSK_XREC_LAYER_RECONCILED
360
8727
  0
DICTIONARY
  5
8580
330
857F
100
AcDbDictionary
280
     1
281
     1
  3
ADSK_XREC_LAYER_RECONCILED
360
8728
  0
DICTIONARY
  5
7FF6
330
19
100
AcDbDictionary
280
     1
281
     1
  3
ACAD_LAYOUTSELFREF
360
7FF7
  3
ACAD_SORTENTS
360
86F7
  0
DICTIONARY
  5
7FF4
330
16
100
AcDbDictionary
280
     1
281
     1
  3
ACAD_LAYOUTSELFREF
360
7FF5
  0
XRECORD
  5
80DC
102
{ACAD_REACTORS
330
C
102
}
330
C
100
AcDbXrecord
280
     1
300
ACDLT
300
2015
300
INVLTS_F_S
  0
DICTIONARY
  5
80BF
102
{ACAD_REACTORS
330
C
102
}
330
C
100
AcDbDictionary
281
     1
  0
DICTIONARY
  5
80D8
102
{ACAD_REACTORS
330
C
102
}
330
C
100
AcDbDictionary
281
     1
  3
Imperial24
350
8587
  3
Metric50
350
80D9
  0
DICTIONARY
  5
D
102
{ACAD_REACTORS
330
C
102
}
330
C
100
AcDbDictionary
281
     1
  0
DICTIONARY
  5
7FC9
102
{ACAD_REACTORS
330
C
102
}
330
C
100
AcDbDictionary
281
     1
  3
Model
350
7FCB
  3
ﾚｲｱｳﾄ1
350
7FCC
  0
DICTIONARY
  5
808D
102
{ACAD_REACTORS
330
C
102
}
330
C
100
AcDbDictionary
281
     1
  3
ByBlock
350
8096
  3
ByLayer
350
808E
  3
Global
350
809E
  0
DICTIONARY
  5
80D4
102
{ACAD_REACTORS
330
C
102
}
330
C
100
AcDbDictionary
281
     1
  3
Standard
350
80D5
  0
DICTIONARY
  5
E
102
{ACAD_REACTORS
330
C
102
}
330
C
100
AcDbDictionary
281
     1
  3
STANDARD
350
1C
  0
DICTIONARY
  5
7FCA
102
{ACAD_REACTORS
330
C
102
}
330
C
100
AcDbDictionary
281
     1
  0
ACDBDICTIONARYWDFLT
  5
7FC7
102
{ACAD_REACTORS
330
C
102
}
330
C
100
AcDbDictionary
281
     1
  3
Normal
350
7FC8
100
AcDbDictionaryWithDefault
340
7FC8
  0
DICTIONARY
  5
80C2
102
{ACAD_REACTORS
330
C
102
}
330
C
100
AcDbDictionary
281
     1
  3
A0
350
80C3
  3
A1
350
80C4
  3
A2
350
80C5
  3
A3
350
80C6
  3
A4
350
80C7
  3
A5
350
80C8
  3
A6
350
80C9
  3
A7
350
80CA
  3
A8
350
80CB
  3
A9
350
80CC
  3
B0
350
80CD
  3
B1
350
80CE
  3
B2
350
80CF
  3
B3
350
80D0
  3
B4
350
80D1
  3
B5
350
80D2
  3
B6
350
80D3
  0
DICTIONARY
  5
80D6
102
{ACAD_REACTORS
330
C
102
}
330
C
100
AcDbDictionary
281
     1
  3
Imperial24
350
8586
  3
Metric50
350
80D7
  0
DICTIONARY
  5
80C0
102
{ACAD_REACTORS
330
C
102
}
330
C
100
AcDbDictionary
281
     1
  3
Standard
350
80C1
  0
DICTIONARY
  5
80A6
102
{ACAD_REACTORS
330
C
102
}
330
C
100
AcDbDictionary
281
     1
  3
2dWireframe
350
80AC
  3
Basic
350
80AB
  3
Brighten
350
80B2
  3
ColorChange
350
80B6
  3
Conceptual
350
80AF
  3
Dim
350
80B1
  3
EdgeColorOff
350
80BE
  3
Facepattern
350
80B5
  3
Flat
350
80A7
  3
FlatWithEdges
350
80A8
  3
Gouraud
350
80A9
  3
GouraudWithEdges
350
80AA
  3
Hidden
350
80AE
  3
JitterOff
350
80BC
  3
Linepattern
350
80B4
  3
OverhangOff
350
80BD
  3
Realistic
350
80B0
  3
Shaded
350
80BB
  3
Shaded with edges
350
80BA
  3
Shades of Gray
350
80B7
  3
Sketchy
350
80B8
  3
Thicken
350
80B3
  3
Wireframe
350
80AD
  3
X-Ray
350
80B9
  0
XRECORD
  5
87A6
102
{ACAD_REACTORS
330
C
102
}
330
C
100
AcDbXrecord
280
     1
 90
        1
330
80C1
  0
DICTIONARY
  5
8085
102
{ACAD_REACTORS
330
C
102
}
330
C
100
AcDbDictionary
281
     1
  3
CANNOSCALE
350
8799
  3
CMLEADERSTYLE
350
8795
  3
CTABLESTYLE
350
8794
  3
CVIEWDETAILSTYLE
350
8796
  3
CVIEWSECTIONSTYLE
350
8797
  3
DIMASSOC
350
8086
  3
INDEXCTL
350
87A2
  3
LAYEREVAL
350
879B
  3
LAYERNOTIFY
350
879C
  3
LIGHTINGUNITS
350
879A
  3
MSLTSCALE
350
8798
  3
SORTENTS
350
87A1
  3
XCLIPFRAME
350
87A3
  0
DICTIONARY
  5
87AD
102
{ACAD_REACTORS
330
C
102
}
330
C
100
AcDbDictionary
281
     1
  3
AcDsRecords
350
87AF
  3
AcDsSchemas
350
87AE
1001
ACAD
1070
     2
  0
XRECORD
  5
87A7
102
{ACAD_REACTORS
330
C
102
}
330
C
100
AcDbXrecord
280
     1
  1
DWGPROPS COOKIE
  2

  3

  4

  6

  7

  8
reiko.miyawaki
  9

300
=
301
=
302
=
303
=
304
=
305
=
306
=
307
=
308
=
309
=
 40
0.1748006944444444
 41
2452773.62282963
 42
2458829.627666852
  1

 90
        0
  0
DICTIONARY
  5
8585
102
{ACAD_REACTORS
330
8584
102
}
330
8584
100
AcDbDictionary
281
     1
  0
XRECORD
  5
871D
102
{ACAD_REACTORS
330
871C
102
}
330
871C
100
AcDbXrecord
280
     1
290
     1
  0
XRECORD
  5
871F
102
{ACAD_REACTORS
330
871E
102
}
330
871E
100
AcDbXrecord
280
     1
290
     1
  0
XRECORD
  5
8721
102
{ACAD_REACTORS
330
8720
102
}
330
8720
100
AcDbXrecord
280
     1
290
     1
  0
XRECORD
  5
8723
102
{ACAD_REACTORS
330
8722
102
}
330
8722
100
AcDbXrecord
280
     1
290
     1
  0
XRECORD
  5
8725
102
{ACAD_REACTORS
330
8724
102
}
330
8724
100
AcDbXrecord
280
     1
290
     1
  0
XRECORD
  5
8726
102
{ACAD_REACTORS
330
857C
102
}
330
857C
100
AcDbXrecord
280
     1
290
     1
  0
XRECORD
  5
8727
102
{ACAD_REACTORS
330
857E
102
}
330
857E
100
AcDbXrecord
280
     1
290
     1
  0
XRECORD
  5
8728
102
{ACAD_REACTORS
330
8580
102
}
330
8580
100
AcDbXrecord
280
     1
290
     1
  0
XRECORD
  5
7FF7
102
{ACAD_REACTORS
330
7FF6
102
}
330
7FF6
100
AcDbXrecord
280
     1
340
19
  0
SORTENTSTABLE
  5
86F7
102
{ACAD_REACTORS
330
7FF6
102
}
330
7FF6
100
AcDbSortentsTable
330
19
331
8274
  5
8275
331
7C5A
  5
7C5A
331
7B94
  5
7B94
331
7BD3
  5
7BD3
331
831B
  5
831C
331
85D2
  5
86F6
331
82E4
  5
82E5
331
7B9C
  5
7B9C
331
7C62
  5
7C62
331
7FBC
  5
7FBC
331
82F4
  5
82F5
331
7B36
  5
7B36
331
7B65
  5
7B65
331
7BA4
  5
7BA4
331
7C6A
  5
7C6A
331
7BE3
  5
7BE3
331
7C72
  5
7C72
331
7B3E
  5
7B3E
331
7B6D
  5
7B6D
331
7BAC
  5
7BAC
331
7BB4
  5
7BB4
331
82FC
  5
82FD
331
7B46
  5
7B46
331
8304
  5
8305
331
7B7D
  5
7B7D
331
7BBC
  5
7BBC
331
7C13
  5
7C13
331
8265
  5
8266
331
830C
  5
830D
331
8314
  5
8315
331
85C3
  5
85C6
331
7B4E
  5
7B4E
331
7B85
  5
7B85
331
7BC4
  5
7BC4
331
7B5E
  5
7B5E
331
7B8D
  5
7B8D
331
7FAD
  5
7FAD
331
831C
  5
831D
331
7BD4
  5
7BD4
331
7B95
  5
7B95
331
7C5B
  5
7C5B
331
7C63
  5
7C63
331
82E5
  5
82E6
331
7B9D
  5
7B9D
331
82ED
  5
82EE
331
82F5
  5
82F6
331
7BA5
  5
7BA5
331
7C6B
  5
7C6B
331
7B37
  5
7B37
331
7B6E
  5
7B6E
331
7BAD
  5
7BAD
331
7BE4
  5
7BE4
331
7C73
  5
7C73
331
7B3F
  5
7B3F
331
7B47
  5
7B47
331
7B76
  5
7B76
331
7BB5
  5
7BB5
331
82FD
  5
82FE
331
8305
  5
8306
331
7B7E
  5
7B7E
331
7BBD
  5
7BBD
331
830D
  5
830E
331
8315
  5
8317
331
7B4F
  5
7B4F
331
7BC5
  5
7BC5
331
7C1C
  5
7C1C
331
7B86
  5
7B86
331
7C5C
  5
7C5C
331
7B96
  5
7B96
331
7BD5
  5
7BD5
331
831D
  5
831E
331
7B9E
  5
7B9E
331
7C64
  5
7C64
331
82E6
  5
82E7
331
82EE
  5
82EF
331
82F6
  5
82F7
331
7B38
  5
7B38
331
7BA6
  5
7BA6
331
7C6C
  5
7C6C
331
7BE5
  5
7BE5
331
7B40
  5
7B40
331
7B6F
  5
7B6F
331
7BAE
  5
7BAE
331
7BB6
  5
7BB6
331
82FE
  5
82FF
331
7B77
  5
7B77
331
7B7F
  5
7B7F
331
7BBE
  5
7BBE
331
8306
  5
8307
331
85BD
  5
85BF
331
7B48
  5
7B48
331
7B50
  5
7B50
331
7DB3
  5
7DB3
331
7B87
  5
7B87
331
7BC6
  5
7BC6
331
7C55
  5
7C55
331
831E
  5
831F
331
7E7A
  5
7E7A
331
7CEC
  5
7CEC
331
7BD6
  5
7BD6
331
7B97
  5
7B97
331
7C5D
  5
7C5D
331
7B9F
  5
7B9F
331
7C65
  5
7C65
331
82E7
  5
82E9
331
82EF
  5
82F0
331
82F7
  5
82F8
331
7C6D
  5
7C6D
331
7BA7
  5
7BA7
331
7BDE
  5
7BDE
331
7B39
  5
7B39
331
7B70
  5
7B70
331
7BAF
  5
7BAF
331
7BE6
  5
7BE6
331
7B41
  5
7B41
331
7B78
  5
7B78
331
7BB7
  5
7BB7
331
82FF
  5
8300
331
8307
  5
8308
331
7DA4
  5
7DA4
331
7BBF
  5
7BBF
331
85C6
  5
85C8
331
8317
  5
8318
331
7B49
  5
7B49
331
7B51
  5
7B51
331
7B80
  5
7B80
331
7FA0
  5
7FA0
331
7BC7
  5
7BC7
331
7CD5
  5
7CD5
331
7B88
  5
7B88
331
7C56
  5
7C56
331
831F
  5
8320
331
7DCC
  5
7DCC
331
7C5E
  5
7C5E
331
7B98
  5
7B98
331
7BD7
  5
7BD7
331
7E7B
  5
7E7B
331
7C66
  5
7C66
331
82F0
  5
82F1
331
7B61
  5
7B61
331
7DE4
  5
7DE4
331
7BDF
  5
7BDF
331
7B3A
  5
7B3A
331
7B69
  5
7B69
331
7BA8
  5
7BA8
331
7C6E
  5
7C6E
331
82F8
  5
82F9
331
7BB0
  5
7BB0
331
7BE7
  5
7BE7
331
7B42
  5
7B42
331
7B71
  5
7B71
331
7BB8
  5
7BB8
331
8300
  5
8301
331
7B79
  5
7B79
331
8308
  5
8309
331
85BF
  5
85C2
331
7B4A
  5
7B4A
331
7B81
  5
7B81
331
7BC0
  5
7BC0
331
7B52
  5
7B52
331
7B5A
  5
7B5A
331
7B89
  5
7B89
331
7BC8
  5
7BC8
331
8318
  5
8319
331
7C57
  5
7C57
331
8320
  5
8321
331
7E7C
  5
7E7C
331
7B99
  5
7B99
331
7C5F
  5
7C5F
331
7C67
  5
7C67
331
82E9
  5
82EA
331
8328
  5
8329
331
82F1
  5
82F2
331
7BD8
  5
7BD8
331
7B33
  5
7B33
331
7B62
  5
7B62
331
7C6F
  5
7C6F
331
7BA9
  5
7BA9
331
7BE0
  5
7BE0
331
7B3B
  5
7B3B
331
7B6A
  5
7B6A
331
82F9
  5
82FA
331
7B72
  5
7B72
331
7BB1
  5
7BB1
331
7BE8
  5
7BE8
331
7B43
  5
7B43
331
8301
  5
8302
331
7B7A
  5
7B7A
331
7BB9
  5
7BB9
331
8309
  5
830A
331
8262
  5
8262
331
8311
  5
8312
331
85C8
  5
85D2
331
7B4B
  5
7B4B
331
7BC1
  5
7BC1
331
7B53
  5
7B53
331
7B82
  5
7B82
331
7BC9
  5
7BC9
331
7B5B
  5
7B5B
331
7B8A
  5
7B8A
331
8272
  5
8273
331
7B92
  5
7B92
331
7BD1
  5
7BD1
331
8319
  5
831A
331
7E7D
  5
7E7D
331
7B9A
  5
7B9A
331
8329
  5
832A
331
82EA
  5
82EB
331
82F2
  5
82F3
331
7C68
  5
7C68
331
7B34
  5
7B34
331
7B63
  5
7B63
331
7BD9
  5
7BD9
331
7BE1
  5
7BE1
331
7C70
  5
7C70
331
7B3C
  5
7B3C
331
7B6B
  5
7B6B
331
7BAA
  5
7BAA
331
7BB2
  5
7BB2
331
82FA
  5
82FB
331
7B44
  5
7B44
331
7B73
  5
7B73
331
8331
  5
8333
331
7F93
  5
7F93
331
8302
  5
8303
331
7BBA
  5
7BBA
331
7CC8
  5
7CC8
331
7B7B
  5
7B7B
331
8263
  5
8263
331
830A
  5
830B
331
8312
  5
8313
331
826B
  5
826C
331
7B4C
  5
7B4C
331
7B83
  5
7B83
331
7BC2
  5
7BC2
331
7B54
  5
7B54
331
7B5C
  5
7B5C
331
7B8B
  5
7B8B
331
7BCA
  5
7BCA
331
831A
  5
831B
331
7BD2
  5
7BD2
331
7E6E
  5
7E6E
331
8273
  5
8274
331
7B93
  5
7B93
331
7C61
  5
7C61
331
7E7E
  5
7E7E
331
7B9B
  5
7B9B
331
82F3
  5
82F4
331
7C69
  5
7C69
331
7B35
  5
7B35
331
7B64
  5
7B64
331
7B6C
  5
7B6C
331
7BAB
  5
7BAB
331
7BE2
  5
7BE2
331
7C71
  5
7C71
331
7B3D
  5
7B3D
331
7B45
  5
7B45
331
7B74
  5
7B74
331
7BB3
  5
7BB3
331
82FB
  5
82FC
331
8303
  5
8304
331
7B7C
  5
7B7C
331
7BBB
  5
7BBB
331
84DD
  5
85BD
331
830B
  5
830C
331
8264
  5
8265
331
8313
  5
8314
331
826C
  5
826D
331
85C2
  5
85C3
331
86F6
  5
8264
331
7B4D
  5
7B4D
331
7BC3
  5
7BC3
331
7B55
  5
7B55
331
7B84
  5
7B84
331
7BCB
  5
7BCB
331
7B5D
  5
7B5D
331
7B8C
  5
7B8C
  0
XRECORD
  5
7FF5
102
{ACAD_REACTORS
330
7FF4
102
}
330
7FF4
100
AcDbXrecord
280
     1
340
16
  0
ACDBDETAILVIEWSTYLE
  5
8587
102
{ACAD_XDICTIONARY
360
8791
102
}
102
{ACAD_REACTORS
330
80D8
102
}
330
80D8
100
AcDbModelDocViewStyle
 70
     0
  3
Imperial24
290
     0
100
AcDbDetailViewStyle
 70
     0
 71
     0
 90
        3
 71
     1
340
10
 40
0.24
340
0
 40
0.24
300

 40
0.36
280
     3
 71
     2
340
15
 90
       25
 71
     3
340
10
 40
0.24
 90
        1
 40
0.75
 90
        1
300
%<\AcVar ViewType \f "%tc1">% %<\AcVar ViewDetailId>%\PSCALE %<\AcVar ViewScale \f "%sn">%
 71
     4
340
15
 90
       25
340
15
 90
       25
280
     0
  0
ACDBDETAILVIEWSTYLE
  5
80D9
102
{ACAD_XDICTIONARY
360
878D
102
}
102
{ACAD_REACTORS
330
80D8
102
}
330
80D8
100
AcDbModelDocViewStyle
 70
     0
  3
Metric50
290
     0
100
AcDbDetailViewStyle
 70
     0
 71
     0
 90
        3
 71
     1
340
10
 40
5.0
340
0
 40
5.0
300

 40
0.0
280
     1
 71
     2
340
15
 90
       25
 71
     3
340
10
 40
5.0
 90
        0
 40
15.0
 90
        1
300
%<\AcVar ViewDetailId>% (%<\AcVar ViewScale \f "%sn">%)
 71
     4
340
15
 90
       25
340
15
 90
       25
280
     0
  0
LAYOUT
  5
7FCB
102
{ACAD_XDICTIONARY
360
87B0
102
}
102
{ACAD_REACTORS
330
7FC9
102
}
330
7FC9
100
AcDbPlotSettings
  1

  2
none_device
  4
ISO_A4_(210.00_x_297.00_MM)
  6

 40
7.5
 41
20.0
 42
7.5
 43
20.0
 44
210.0
 45
297.0
 46
0.0
 47
0.0
 48
0.0
 49
0.0
140
0.0
141
0.0
142
1.0
143
44.29880314161315
 70
 11952
 72
     1
 73
     1
 74
     0
  7
monochrome.ctb
 75
     0
147
0.0225739733148823
148
3592.396193918403
149
21.84598896100351
100
AcDbLayout
  1
Model
 70
     1
 71
     0
 10
0.0
 20
0.0
 11
12.0
 21
9.0
 12
0.0
 22
0.0
 32
0.0
 14
0.0
 24
0.0
 34
0.0
 15
0.0
 25
0.0
 35
0.0
146
0.0
 13
0.0
 23
0.0
 33
0.0
 16
1.0
 26
0.0
 36
0.0
 17
0.0
 27
1.0
 37
0.0
 76
     0
330
19
331
808B
1001
ACAD_PSEXT
1000
なし
1000
なし
1000
適切ではありません
1000
新しいプロッタ環境設定名を選択しない限り、レイアウトは印刷されません。
1070
     0
  0
LAYOUT
  5
7FCC
102
{ACAD_XDICTIONARY
360
87B2
102
}
102
{ACAD_REACTORS
330
7FC9
102
}
330
7FC9
100
AcDbPlotSettings
  1

  2
\\Txbo34x8944cqyd\EPSON LP-6100
  4

  6

 40
0.0
 41
0.0
 42
0.0
 43
0.0
 44
0.0
 45
0.0
 46
0.0
 47
0.0
 48
0.0
 49
0.0
140
0.0
141
0.0
142
1.0
143
1.0
 70
   688
 72
     0
 73
     0
 74
     5
  7
monochrome.ctb
 75
    16
147
1.0
148
0.0
149
0.0
100
AcDbLayout
  1
ﾚｲｱｳﾄ1
 70
     1
 71
     1
 10
0.0
 20
0.0
 11
12.0
 21
9.0
 12
0.0
 22
0.0
 32
0.0
 14
1.000000000000000E+20
 24
1.000000000000000E+20
 34
1.000000000000000E+20
 15
-1.000000000000000E+20
 25
-1.000000000000000E+20
 35
-1.000000000000000E+20
146
0.0
 13
0.0
 23
0.0
 33
0.0
 16
1.0
 26
0.0
 36
0.0
 17
0.0
 27
1.0
 37
0.0
 76
     0
330
16
  0
MATERIAL
  5
8096
102
{ACAD_XDICTIONARY
360
8097
102
}
102
{ACAD_REACTORS
330
808D
102
}
330
808D
100
AcDbMaterial
  1
ByBlock
 72
     0
 43
0.0208333333333333
 43
0.0
 43
0.0
 43
0.0
 43
0.0
 43
0.0208333333333333
 43
0.0
 43
0.0
 43
0.0
 43
0.0
 43
1.0
 43
0.0
 43
0.0
 43
0.0
 43
0.0
 43
1.0
 77
     0
 47
0.0208333333333333
 47
0.0
 47
0.0
 47
0.0
 47
0.0
 47
0.0208333333333333
 47
0.0
 47
0.0
 47
0.0
 47
0.0
 47
1.0
 47
0.0
 47
0.0
 47
0.0
 47
0.0
 47
1.0
171
     0
 49
0.0208333333333333
 49
0.0
 49
0.0
 49
0.0
 49
0.0
 49
0.0208333333333333
 49
0.0
 49
0.0
 49
0.0
 49
0.0
 49
1.0
 49
0.0
 49
0.0
 49
0.0
 49
0.0
 49
1.0
175
     0
142
0.0208333333333333
142
0.0
142
0.0
142
0.0
142
0.0
142
0.0208333333333333
142
0.0
142
0.0
142
0.0
142
0.0
142
1.0
142
0.0
142
0.0
142
0.0
142
0.0
142
1.0
179
     0
144
0.0208333333333333
144
0.0
144
0.0
144
0.0
144
0.0
144
0.0208333333333333
144
0.0
144
0.0
144
0.0
144
0.0
144
1.0
144
0.0
144
0.0
144
0.0
144
0.0
144
1.0
147
0.0208333333333333
147
0.0
147
0.0
147
0.0
147
0.0
147
0.0208333333333333
147
0.0
147
0.0
147
0.0
147
0.0
147
1.0
147
0.0
147
0.0
147
0.0
147
0.0
147
1.0
  0
MATERIAL
  5
808E
102
{ACAD_XDICTIONARY
360
808F
102
}
102
{ACAD_REACTORS
330
808D
102
}
330
808D
100
AcDbMaterial
  1
ByLayer
 72
     0
 43
0.0208333333333333
 43
0.0
 43
0.0
 43
0.0
 43
0.0
 43
0.0208333333333333
 43
0.0
 43
0.0
 43
0.0
 43
0.0
 43
1.0
 43
0.0
 43
0.0
 43
0.0
 43
0.0
 43
1.0
 77
     0
 47
0.0208333333333333
 47
0.0
 47
0.0
 47
0.0
 47
0.0
 47
0.0208333333333333
 47
0.0
 47
0.0
 47
0.0
 47
0.0
 47
1.0
 47
0.0
 47
0.0
 47
0.0
 47
0.0
 47
1.0
171
     0
 49
0.0208333333333333
 49
0.0
 49
0.0
 49
0.0
 49
0.0
 49
0.0208333333333333
 49
0.0
 49
0.0
 49
0.0
 49
0.0
 49
1.0
 49
0.0
 49
0.0
 49
0.0
 49
0.0
 49
1.0
175
     0
142
0.0208333333333333
142
0.0
142
0.0
142
0.0
142
0.0
142
0.0208333333333333
142
0.0
142
0.0
142
0.0
142
0.0
142
1.0
142
0.0
142
0.0
142
0.0
142
0.0
142
1.0
179
     0
144
0.0208333333333333
144
0.0
144
0.0
144
0.0
144
0.0
144
0.0208333333333333
144
0.0
144
0.0
144
0.0
144
0.0
144
1.0
144
0.0
144
0.0
144
0.0
144
0.0
144
1.0
147
0.0208333333333333
147
0.0
147
0.0
147
0.0
147
0.0
147
0.0208333333333333
147
0.0
147
0.0
147
0.0
147
0.0
147
1.0
147
0.0
147
0.0
147
0.0
147
0.0
147
1.0
  0
MATERIAL
  5
809E
102
{ACAD_XDICTIONARY
360
809F
102
}
102
{ACAD_REACTORS
330
808D
102
}
330
808D
100
AcDbMaterial
  1
Global
 72
     0
 43
0.0208333333333333
 43
0.0
 43
0.0
 43
0.0
 43
0.0
 43
0.0208333333333333
 43
0.0
 43
0.0
 43
0.0
 43
0.0
 43
1.0
 43
0.0
 43
0.0
 43
0.0
 43
0.0
 43
1.0
 77
     0
 47
0.0208333333333333
 47
0.0
 47
0.0
 47
0.0
 47
0.0
 47
0.0208333333333333
 47
0.0
 47
0.0
 47
0.0
 47
0.0
 47
1.0
 47
0.0
 47
0.0
 47
0.0
 47
0.0
 47
1.0
171
     0
 49
0.0208333333333333
 49
0.0
 49
0.0
 49
0.0
 49
0.0
 49
0.0208333333333333
 49
0.0
 49
0.0
 49
0.0
 49
0.0
 49
1.0
 49
0.0
 49
0.0
 49
0.0
 49
0.0
 49
1.0
175
     0
142
0.0208333333333333
142
0.0
142
0.0
142
0.0
142
0.0
142
0.0208333333333333
142
0.0
142
0.0
142
0.0
142
0.0
142
1.0
142
0.0
142
0.0
142
0.0
142
0.0
142
1.0
179
     0
144
0.0208333333333333
144
0.0
144
0.0
144
0.0
144
0.0
144
0.0208333333333333
144
0.0
144
0.0
144
0.0
144
0.0
144
1.0
144
0.0
144
0.0
144
0.0
144
0.0
144
1.0
147
0.0208333333333333
147
0.0
147
0.0
147
0.0
147
0.0
147
0.0208333333333333
147
0.0
147
0.0
147
0.0
147
0.0
147
1.0
147
0.0
147
0.0
147
0.0
147
0.0
147
1.0
  0
MLEADERSTYLE
  5
80D5
102
{ACAD_XDICTIONARY
360
87E9
102
}
102
{ACAD_REACTORS
330
80D4
102
}
330
80D4
100
AcDbMLeaderStyle
170
     2
171
     1
172
     0
 90
        2
 40
0.0
 41
0.0
173
     1
 91
-1056964608
340
13
 92
       -2
290
     1
 42
2.0
291
     1
 43
0.36
  3
Standard
 44
4.0
300

342
10
174
     1
178
     6
175
     1
176
     0
 93
-1056964608
 45
4.0
292
     0
297
     0
 46
4.0
 94
-1056964608
 47
1.0
 49
1.0
140
1.0
293
     1
141
0.0
294
     1
177
     0
142
1.0
295
     0
296
     0
143
0.125
1001
ACAD_MLEADERVER
1070
     2
  0
MLINESTYLE
  5
1C
102
{ACAD_REACTORS
330
E
102
}
330
E
100
AcDbMlineStyle
  2
STANDARD
 70
     0
  3

 62
     0
 51
90.0
 52
90.0
 71
     2
 49
0.5
 62
   256
  6
BYLAYER
 49
-0.5
 62
   256
  6
BYLAYER
  0
ACDBPLACEHOLDER
  5
7FC8
102
{ACAD_REACTORS
330
7FC7
102
}
330
7FC7
  0
SCALE
  5
80C3
102
{ACAD_REACTORS
330
80C2
102
}
330
80C2
100
AcDbScale
 70
     0
300
1:1
140
1.0
141
1.0
290
     1
  0
SCALE
  5
80C4
102
{ACAD_REACTORS
330
80C2
102
}
330
80C2
100
AcDbScale
 70
     0
300
1:2
140
1.0
141
2.0
290
     0
  0
SCALE
  5
80C5
102
{ACAD_REACTORS
330
80C2
102
}
330
80C2
100
AcDbScale
 70
     0
300
1:4
140
1.0
141
4.0
290
     0
  0
SCALE
  5
80C6
102
{ACAD_REACTORS
330
80C2
102
}
330
80C2
100
AcDbScale
 70
     0
300
1:5
140
1.0
141
5.0
290
     0
  0
SCALE
  5
80C7
102
{ACAD_REACTORS
330
80C2
102
}
330
80C2
100
AcDbScale
 70
     0
300
1:8
140
1.0
141
8.0
290
     0
  0
SCALE
  5
80C8
102
{ACAD_REACTORS
330
80C2
102
}
330
80C2
100
AcDbScale
 70
     0
300
1:10
140
1.0
141
10.0
290
     0
  0
SCALE
  5
80C9
102
{ACAD_REACTORS
330
80C2
102
}
330
80C2
100
AcDbScale
 70
     0
300
1:16
140
1.0
141
16.0
290
     0
  0
SCALE
  5
80CA
102
{ACAD_REACTORS
330
80C2
102
}
330
80C2
100
AcDbScale
 70
     0
300
1:20
140
1.0
141
20.0
290
     0
  0
SCALE
  5
80CB
102
{ACAD_REACTORS
330
80C2
102
}
330
80C2
100
AcDbScale
 70
     0
300
1:30
140
1.0
141
30.0
290
     0
  0
SCALE
  5
80CC
102
{ACAD_REACTORS
330
80C2
102
}
330
80C2
100
AcDbScale
 70
     0
300
1:40
140
1.0
141
40.0
290
     0
  0
SCALE
  5
80CD
102
{ACAD_REACTORS
330
80C2
102
}
330
80C2
100
AcDbScale
 70
     0
300
1:50
140
1.0
141
50.0
290
     0
  0
SCALE
  5
80CE
102
{ACAD_REACTORS
330
80C2
102
}
330
80C2
100
AcDbScale
 70
     0
300
1:100
140
1.0
141
100.0
290
     0
  0
SCALE
  5
80CF
102
{ACAD_REACTORS
330
80C2
102
}
330
80C2
100
AcDbScale
 70
     0
300
2:1
140
2.0
141
1.0
290
     0
  0
SCALE
  5
80D0
102
{ACAD_REACTORS
330
80C2
102
}
330
80C2
100
AcDbScale
 70
     0
300
4:1
140
4.0
141
1.0
290
     0
  0
SCALE
  5
80D1
102
{ACAD_REACTORS
330
80C2
102
}
330
80C2
100
AcDbScale
 70
     0
300
8:1
140
8.0
141
1.0
290
     0
  0
SCALE
  5
80D2
102
{ACAD_REACTORS
330
80C2
102
}
330
80C2
100
AcDbScale
 70
     0
300
10:1
140
10.0
141
1.0
290
     0
  0
SCALE
  5
80D3
102
{ACAD_REACTORS
330
80C2
102
}
330
80C2
100
AcDbScale
 70
     0
300
100:1
140
100.0
141
1.0
290
     0
  0
ACDBSECTIONVIEWSTYLE
  5
8586
102
{ACAD_XDICTIONARY
360
878F
102
}
102
{ACAD_REACTORS
330
80D6
102
}
330
80D6
100
AcDbModelDocViewStyle
 70
     0
  3
Imperial24
290
     0
100
AcDbSectionViewStyle
 70
     0
 71
     0
 90
       78
 71
     1
340
10
 40
0.24
340
0
340
0
 40
0.24
300
I, O, Q, S, X, Z
 40
0.48
 90
        3
 40
0.18
 90
        1
 71
     2
340
15
 90
       25
340
15
 90
       50
 40
0.24
 40
0.0
 40
0.24
 71
     3
340
10
 40
0.24
 90
        1
 40
0.75
 90
        1
300
%<\AcVar ViewType \f "%tc1">% %<\AcVar ViewSectionStartId>%-%<\AcVar ViewSectionEndId>%\PSCALE %<\AcVar ViewScale \f "%sn">%
 71
     4
300
ANSI31
 40
1.0
 90
        0
290
     0
290
     0
 90
        6
 40
0.0
 40
1.570796326794896
 40
0.2617993877991494
 40
1.308996938995747
 40
-0.2617993877991494
 40
1.832595714594046
  0
ACDBSECTIONVIEWSTYLE
  5
80D7
102
{ACAD_XDICTIONARY
360
878B
102
}
102
{ACAD_REACTORS
330
80D6
102
}
330
80D6
100
AcDbModelDocViewStyle
 70
     0
  3
Metric50
290
     0
100
AcDbSectionViewStyle
 70
     0
 71
     0
 90
      102
 71
     1
340
10
 40
5.0
340
0
340
0
 40
5.0
300
I, O, Q, S, X, Z
 40
10.0
 90
        0
 40
2.5
 90
        0
 71
     2
340
15
 90
       25
340
15
 90
       50
 40
5.0
 40
2.5
 40
5.0
 71
     3
340
10
 40
5.0
 90
        0
 40
15.0
 90
        1
300
%<\AcVar ViewSectionStartId>%-%<\AcVar ViewSectionEndId>% (%<\AcVar ViewScale \f "%sn">%)
 71
     4
300
ANSI31
 40
1.0
 90
        0
290
     0
290
     0
 90
        6
 40
0.0
 40
1.570796326794896
 40
0.2617993877991494
 40
1.308996938995747
 40
-0.2617993877991494
 40
1.832595714594046
  0
TABLESTYLE
  5
80C1
102
{ACAD_XDICTIONARY
360
87A4
102
}
102
{ACAD_REACTORS
330
80C0
102
}
330
80C0
100
AcDbTableStyle
  3
Standard
 70
     0
 71
     0
 40
1.5
 41
1.5
280
     0
281
     0
  7
STANDARD
140
4.5
170
     2
 62
     0
 63
     7
283
     0
274
    -2
284
     1
 64
     0
275
    -2
285
     1
 65
     0
276
    -2
286
     1
 66
     0
277
    -2
287
     1
 67
     0
278
    -2
288
     1
 68
     0
279
    -2
289
     1
 69
     0
  7
STANDARD
140
6.0
170
     5
 62
     0
 63
     7
283
     0
274
    -2
284
     1
 64
     0
275
    -2
285
     1
 65
     0
276
    -2
286
     1
 66
     0
277
    -2
287
     1
 67
     0
278
    -2
288
     1
 68
     0
279
    -2
289
     1
 69
     0
  7
STANDARD
140
4.5
170
     5
 62
     0
 63
     7
283
     0
274
    -2
284
     1
 64
     0
275
    -2
285
     1
 65
     0
276
    -2
286
     1
 66
     0
277
    -2
287
     1
 67
     0
278
    -2
288
     1
 68
     0
279
    -2
289
     1
 69
     0
  0
VISUALSTYLE
  5
80AC
102
{ACAD_XDICTIONARY
360
87C1
102
}
102
{ACAD_REACTORS
330
80A6
102
}
330
80A6
100
AcDbVisualStyle
  2
2dWireframe
 70
     4
 71
     0
 72
     2
 73
     0
 90
        0
 40
-0.6
 41
-30.0
 62
     5
 63
     7
 74
     1
 91
        4
 64
     7
 65
   257
 75
     1
175
     1
 42
1.0
 92
        0
 66
   257
 43
1.0
 76
     1
 77
     6
 78
     2
 67
     7
 79
     5
170
     0
171
     0
290
     0
174
     0
 93
        1
 44
0.0
173
     0
291
     0
 45
0.0
1001
ACAD
1000
AcDbSavedByObjectVersion
1070
     0
  0
VISUALSTYLE
  5
80AB
102
{ACAD_XDICTIONARY
360
87BF
102
}
102
{ACAD_REACTORS
330
80A6
102
}
330
80A6
100
AcDbVisualStyle
  2
Basic
 70
     7
 71
     1
 72
     0
 73
     1
 90
        0
 40
-0.6
 41
-30.0
 62
     5
 63
     7
 74
     0
 91
        4
 64
     7
 65
   257
 75
     1
175
     1
 42
1.0
 92
        8
 66
     7
 43
1.0
 76
     1
 77
     6
 78
     2
 67
     7
 79
     5
170
     0
171
     0
290
     0
174
     0
 93
        1
 44
0.0
173
     0
291
     1
 45
0.0
1001
ACAD
1000
AcDbSavedByObjectVersion
1070
     0
  0
VISUALSTYLE
  5
80B2
102
{ACAD_XDICTIONARY
360
87CD
102
}
102
{ACAD_REACTORS
330
80A6
102
}
330
80A6
100
AcDbVisualStyle
  2
Brighten
 70
    12
 71
     2
 72
     2
 73
     0
 90
        0
 40
-0.6
 41
-30.0
 62
     5
 63
     7
 74
     1
 91
        4
 64
     7
 65
   257
 75
     1
175
     1
 42
1.0
 92
        8
 66
     7
 43
1.0
 76
     1
 77
     6
 78
     2
 67
     7
 79
     5
170
     0
171
     0
290
     0
174
     0
 93
        1
 44
50.0
173
     0
291
     1
 45
0.0
1001
ACAD
1000
AcDbSavedByObjectVersion
1070
     0
  0
VISUALSTYLE
  5
80B6
102
{ACAD_XDICTIONARY
360
87D5
102
}
102
{ACAD_REACTORS
330
80A6
102
}
330
80A6
100
AcDbVisualStyle
  2
ColorChange
 70
    16
 71
     2
 72
     2
 73
     3
 90
        0
 40
-0.6
 41
-30.0
 62
     5
 63
     8
 74
     1
 91
        4
 64
     7
 65
   257
 75
     1
175
     1
 42
1.0
 92
        8
 66
     8
 43
1.0
 76
     1
 77
     6
 78
     2
 67
     7
 79
     5
170
     0
171
     0
290
     0
174
     0
 93
        1
 44
0.0
173
     0
291
     1
 45
0.0
1001
ACAD
1000
AcDbSavedByObjectVersion
1070
     0
  0
VISUALSTYLE
  5
80AF
102
{ACAD_XDICTIONARY
360
87C7
102
}
102
{ACAD_REACTORS
330
80A6
102
}
330
80A6
100
AcDbVisualStyle
  2
Conceptual
 70
     9
 71
     3
 72
     2
 73
     0
 90
        0
 40
-0.6
 41
-30.0
 62
     5
 63
     7
 74
     2
 91
        2
 64
     7
 65
   257
 75
     1
175
     1
 42
179.0
 92
        8
 66
     7
 43
1.0
 76
     1
 77
     6
 78
     2
 67
     7
 79
     3
170
     0
171
     0
290
     0
174
     0
 93
        1
 44
0.0
173
     0
291
     0
 45
0.0
1001
ACAD
1000
AcDbSavedByObjectVersion
1070
     0
  0
VISUALSTYLE
  5
80B1
102
{ACAD_XDICTIONARY
360
87CB
102
}
102
{ACAD_REACTORS
330
80A6
102
}
330
80A6
100
AcDbVisualStyle
  2
Dim
 70
    11
 71
     2
 72
     2
 73
     0
 90
        0
 40
-0.6
 41
-30.0
 62
     5
 63
     7
 74
     1
 91
        4
 64
     7
 65
   257
 75
     1
175
     1
 42
1.0
 92
        8
 66
     7
 43
1.0
 76
     1
 77
     6
 78
     2
 67
     7
 79
     5
170
     0
171
     0
290
     0
174
     0
 93
        1
 44
-50.0
173
     0
291
     1
 45
0.0
1001
ACAD
1000
AcDbSavedByObjectVersion
1070
     0
  0
VISUALSTYLE
  5
80BE
102
{ACAD_XDICTIONARY
360
87E5
102
}
102
{ACAD_REACTORS
330
80A6
102
}
330
80A6
100
AcDbVisualStyle
  2
EdgeColorOff
 70
    22
 71
     2
 72
     2
 73
     0
 90
        0
 40
-0.6
 41
-30.0
 62
     5
 63
     7
 74
     1
 91
        4
 64
     7
 65
   257
 75
     1
175
     1
 42
1.0
 92
        8
 66
     7
 43
1.0
 76
     1
 77
     6
 78
     2
 67
     7
 79
     5
170
     0
171
     0
290
     0
174
     0
 93
        1
 44
0.0
173
     0
291
     1
 45
0.0
1001
ACAD
1000
AcDbSavedByObjectVersion
1070
     0
  0
VISUALSTYLE
  5
80B5
102
{ACAD_XDICTIONARY
360
87D3
102
}
102
{ACAD_REACTORS
330
80A6
102
}
330
80A6
100
AcDbVisualStyle
  2
Facepattern
 70
    15
 71
     2
 72
     2
 73
     0
 90
        0
 40
-0.6
 41
-30.0
 62
     5
 63
     7
 74
     1
 91
        4
 64
     7
 65
   257
 75
     1
175
     1
 42
1.0
 92
        8
 66
     7
 43
1.0
 76
     1
 77
     6
 78
     2
 67
     7
 79
     5
170
     0
171
     0
290
     0
174
     0
 93
        1
 44
0.0
173
     0
291
     1
 45
0.0
1001
ACAD
1000
AcDbSavedByObjectVersion
1070
     0
  0
VISUALSTYLE
  5
80A7
102
{ACAD_XDICTIONARY
360
87B7
102
}
102
{ACAD_REACTORS
330
80A6
102
}
330
80A6
100
AcDbVisualStyle
  2
Flat
 70
     0
 71
     2
 72
     1
 73
     1
 90
        2
 40
-0.6
 41
30.0
 62
     5
 63
     7
 74
     0
 91
        0
 64
     7
 65
   257
 75
     1
175
     1
 42
1.0
 92
        8
 66
     7
 43
1.0
 76
     1
 77
     6
 78
     2
 67
     7
 79
     5
170
     0
171
     0
290
     0
174
     0
 93
       13
 44
0.0
173
     0
291
     1
 45
0.0
1001
ACAD
1000
AcDbSavedByObjectVersion
1070
     0
  0
VISUALSTYLE
  5
80A8
102
{ACAD_XDICTIONARY
360
87B9
102
}
102
{ACAD_REACTORS
330
80A6
102
}
330
80A6
100
AcDbVisualStyle
  2
FlatWithEdges
 70
     1
 71
     2
 72
     1
 73
     1
 90
        2
 40
-0.6
 41
30.0
 62
     5
 63
     7
 74
     1
 91
        0
 64
     7
 65
   257
 75
     1
175
     1
 42
1.0
 92
        0
 66
   257
 43
1.0
 76
     1
 77
     6
 78
     2
 67
     7
 79
     5
170
     0
171
     0
290
     0
174
     0
 93
       13
 44
0.0
173
     0
291
     1
 45
0.0
1001
ACAD
1000
AcDbSavedByObjectVersion
1070
     0
  0
VISUALSTYLE
  5
80A9
102
{ACAD_XDICTIONARY
360
87BB
102
}
102
{ACAD_REACTORS
330
80A6
102
}
330
80A6
100
AcDbVisualStyle
  2
Gouraud
 70
     2
 71
     2
 72
     2
 73
     1
 90
        2
 40
-0.6
 41
30.0
 62
     5
 63
     7
 74
     0
 91
        0
 64
     7
 65
   257
 75
     1
175
     1
 42
1.0
 92
        0
 66
     7
 43
1.0
 76
     1
 77
     6
 78
     2
 67
     7
 79
     5
170
     0
171
     0
290
     0
174
     0
 93
       13
 44
0.0
173
     0
291
     1
 45
0.0
1001
ACAD
1000
AcDbSavedByObjectVersion
1070
     0
  0
VISUALSTYLE
  5
80AA
102
{ACAD_XDICTIONARY
360
87BD
102
}
102
{ACAD_REACTORS
330
80A6
102
}
330
80A6
100
AcDbVisualStyle
  2
GouraudWithEdges
 70
     3
 71
     2
 72
     2
 73
     1
 90
        2
 40
-0.6
 41
30.0
 62
     5
 63
     7
 74
     1
 91
        0
 64
     7
 65
   257
 75
     1
175
     1
 42
1.0
 92
        0
 66
   257
 43
1.0
 76
     1
 77
     6
 78
     2
 67
     7
 79
     5
170
     0
171
     0
290
     0
174
     0
 93
       13
 44
0.0
173
     0
291
     1
 45
0.0
1001
ACAD
1000
AcDbSavedByObjectVersion
1070
     0
  0
VISUALSTYLE
  5
80AE
102
{ACAD_XDICTIONARY
360
87C5
102
}
102
{ACAD_REACTORS
330
80A6
102
}
330
80A6
100
AcDbVisualStyle
  2
Hidden
 70
     6
 71
     1
 72
     2
 73
     2
 90
        0
 40
-0.6
 41
-30.0
 62
     5
 63
     7
 74
     2
 91
        2
 64
     7
 65
   257
 75
     2
175
     1
 42
40.0
 92
        0
 66
   257
 43
1.0
 76
     1
 77
     6
 78
     2
 67
     7
 79
     3
170
     0
171
     0
290
     0
174
     0
 93
        1
 44
0.0
173
     0
291
     0
 45
0.0
1001
ACAD
1000
AcDbSavedByObjectVersion
1070
     0
  0
VISUALSTYLE
  5
80BC
102
{ACAD_XDICTIONARY
360
87E1
102
}
102
{ACAD_REACTORS
330
80A6
102
}
330
80A6
100
AcDbVisualStyle
  2
JitterOff
 70
    20
 71
     2
 72
     2
 73
     0
 90
        0
 40
-0.6
 41
-30.0
 62
     5
 63
     7
 74
     1
 91
        4
 64
     7
 65
   257
 75
     1
175
     1
 42
1.0
 92
       10
 66
     7
 43
1.0
 76
     1
 77
     6
 78
     2
 67
     7
 79
     5
170
     0
171
     0
290
     0
174
     0
 93
        1
 44
0.0
173
     0
291
     1
 45
0.0
1001
ACAD
1000
AcDbSavedByObjectVersion
1070
     0
  0
VISUALSTYLE
  5
80B4
102
{ACAD_XDICTIONARY
360
87D1
102
}
102
{ACAD_REACTORS
330
80A6
102
}
330
80A6
100
AcDbVisualStyle
  2
Linepattern
 70
    14
 71
     2
 72
     2
 73
     0
 90
        0
 40
-0.6
 41
-30.0
 62
     5
 63
     7
 74
     1
 91
        4
 64
     7
 65
   257
 75
     7
175
     7
 42
1.0
 92
        8
 66
     7
 43
1.0
 76
     1
 77
     6
 78
     2
 67
     7
 79
     5
170
     0
171
     0
290
     0
174
     0
 93
        1
 44
0.0
173
     0
291
     1
 45
0.0
1001
ACAD
1000
AcDbSavedByObjectVersion
1070
     0
  0
VISUALSTYLE
  5
80BD
102
{ACAD_XDICTIONARY
360
87E3
102
}
102
{ACAD_REACTORS
330
80A6
102
}
330
80A6
100
AcDbVisualStyle
  2
OverhangOff
 70
    21
 71
     2
 72
     2
 73
     0
 90
        0
 40
-0.6
 41
-30.0
 62
     5
 63
     7
 74
     1
 91
        4
 64
     7
 65
   257
 75
     1
175
     1
 42
1.0
 92
        9
 66
     7
 43
1.0
 76
     1
 77
     6
 78
     2
 67
     7
 79
     5
170
     0
171
     0
290
     0
174
     0
 93
        1
 44
0.0
173
     0
291
     1
 45
0.0
1001
ACAD
1000
AcDbSavedByObjectVersion
1070
     0
  0
VISUALSTYLE
  5
80B0
102
{ACAD_XDICTIONARY
360
87C9
102
}
102
{ACAD_REACTORS
330
80A6
102
}
330
80A6
100
AcDbVisualStyle
  2
Realistic
 70
     8
 71
     2
 72
     3
 73
     0
 90
        2
 40
-0.6
 41
30.0
 62
     5
 63
     7
 74
     0
 91
        0
 64
     7
 65
   257
 75
     1
175
     1
 42
1.0
 92
        8
 66
   257
 43
1.0
 76
     1
 77
     6
 78
     2
 67
     7
 79
     3
170
     0
171
     0
290
     0
174
     0
 93
       13
 44
0.0
173
     0
291
     0
 45
0.0
1001
ACAD
1000
AcDbSavedByObjectVersion
1070
     0
  0
VISUALSTYLE
  5
80BB
102
{ACAD_XDICTIONARY
360
87DF
102
}
102
{ACAD_REACTORS
330
80A6
102
}
330
80A6
100
AcDbVisualStyle
  2
Shaded
 70
    27
 71
     2
 72
     2
 73
     1
 90
        2
 40
-0.6
 41
30.0
 62
     5
 63
     7
 74
     0
 91
        4
 64
     7
 65
   257
 75
     1
175
     1
 42
1.0
 92
        8
 66
   257
 43
1.0
 76
     1
 77
     6
 78
     2
 67
     8
 79
     3
170
     0
171
     0
290
     0
174
     0
 93
        5
 44
0.0
173
     0
291
     0
 45
0.0
1001
ACAD
1000
AcDbSavedByObjectVersion
1070
     0
  0
VISUALSTYLE
  5
80BA
102
{ACAD_XDICTIONARY
360
87DD
102
}
102
{ACAD_REACTORS
330
80A6
102
}
330
80A6
100
AcDbVisualStyle
  2
Shaded with edges
 70
    26
 71
     2
 72
     2
 73
     1
 90
        2
 40
-0.6
 41
30.0
 62
     5
 63
     7
 74
     1
 91
       10
 64
     7
 65
   257
 75
     2
175
     1
 42
1.0
 92
        8
 66
   257
 43
1.0
 76
     1
 77
     6
 78
     2
 67
     7
 79
     3
170
     0
171
     0
290
     0
174
     0
 93
        5
 44
0.0
173
     0
291
     0
 45
0.0
1001
ACAD
1000
AcDbSavedByObjectVersion
1070
     0
  0
VISUALSTYLE
  5
80B7
102
{ACAD_XDICTIONARY
360
87D7
102
}
102
{ACAD_REACTORS
330
80A6
102
}
330
80A6
100
AcDbVisualStyle
  2
Shades of Gray
 70
    23
 71
     2
 72
     2
 73
     3
 90
        0
 40
-0.6
 41
-30.0
 62
     5
 63
     7
 74
     2
 91
        2
 64
     7
 65
     7
 75
     1
175
     1
 42
40.0
 92
        8
 66
     7
 43
1.0
 76
     1
 77
     6
 78
     2
 67
     7
 79
     3
170
     0
171
     0
290
     0
174
     0
 93
        1
 44
0.0
173
     0
291
     0
 45
0.0
1001
ACAD
1000
AcDbSavedByObjectVersion
1070
     0
  0
VISUALSTYLE
  5
80B8
102
{ACAD_XDICTIONARY
360
87D9
102
}
102
{ACAD_REACTORS
330
80A6
102
}
330
80A6
100
AcDbVisualStyle
  2
Sketchy
 70
    24
 71
     1
 72
     2
 73
     2
 90
        0
 40
-0.6
 41
-30.0
 62
     5
 63
     7
 74
     2
 91
        2
 64
     7
 65
     7
 75
     1
175
     1
 42
40.0
 92
       11
 66
     7
 43
1.0
 76
     1
 77
     6
 78
     2
 67
     7
 79
     6
170
     0
171
     0
290
     0
174
     0
 93
        1
 44
0.0
173
     0
291
     0
 45
0.0
1001
ACAD
1000
AcDbSavedByObjectVersion
1070
     0
  0
VISUALSTYLE
  5
80B3
102
{ACAD_XDICTIONARY
360
87CF
102
}
102
{ACAD_REACTORS
330
80A6
102
}
330
80A6
100
AcDbVisualStyle
  2
Thicken
 70
    13
 71
     2
 72
     2
 73
     0
 90
        0
 40
-0.6
 41
-30.0
 62
     5
 63
     7
 74
     1
 91
        4
 64
     7
 65
   257
 75
     1
175
     1
 42
1.0
 92
       12
 66
     7
 43
1.0
 76
     1
 77
     6
 78
     2
 67
     7
 79
     5
170
     0
171
     0
290
     0
174
     0
 93
        1
 44
0.0
173
     0
291
     1
 45
0.0
1001
ACAD
1000
AcDbSavedByObjectVersion
1070
     0
  0
VISUALSTYLE
  5
80AD
102
{ACAD_XDICTIONARY
360
87C3
102
}
102
{ACAD_REACTORS
330
80A6
102
}
330
80A6
100
AcDbVisualStyle
  2
Wireframe
 70
     5
 71
     0
 72
     2
 73
     0
 90
        0
 40
-0.6
 41
-30.0
 62
     5
 63
     7
 74
     1
 91
        4
 64
     7
 65
   257
 75
     1
175
     1
 42
1.0
 92
        0
 66
   257
 43
1.0
 76
     1
 77
     6
 78
     2
 67
     7
 79
     3
170
     0
171
     0
290
     0
174
     0
 93
        1
 44
0.0
173
     0
291
     0
 45
0.0
1001
ACAD
1000
AcDbSavedByObjectVersion
1070
     0
  0
VISUALSTYLE
  5
80B9
102
{ACAD_XDICTIONARY
360
87DB
102
}
102
{ACAD_REACTORS
330
80A6
102
}
330
80A6
100
AcDbVisualStyle
  2
X-Ray
 70
    25
 71
     2
 72
     2
 73
     1
 90
        1
 40
0.5
 41
-30.0
 62
     5
 63
     7
 74
     1
 91
        0
 64
     7
 65
   257
 75
     1
175
     1
 42
1.0
 92
        8
 66
     7
 43
1.0
 76
     1
 77
     6
 78
     2
 67
     7
 79
     3
170
     0
171
     0
290
     0
174
     0
 93
       13
 44
0.0
173
     0
291
     0
 45
0.0
1001
ACAD
1000
AcDbSavedByObjectVersion
1070
     0
  0
DICTIONARYVAR
  5
8799
102
{ACAD_REACTORS
330
8085
102
}
330
8085
100
DictionaryVariables
280
     0
  1
1:1
  0
DICTIONARYVAR
  5
8795
102
{ACAD_REACTORS
330
8085
102
}
330
8085
100
DictionaryVariables
280
     0
  1
STANDARD
  0
DICTIONARYVAR
  5
8794
102
{ACAD_REACTORS
330
8085
102
}
330
8085
100
DictionaryVariables
280
     0
  1
STANDARD
  0
DICTIONARYVAR
  5
8796
102
{ACAD_REACTORS
330
8085
102
}
330
8085
100
DictionaryVariables
280
     0
  1
Metric50
  0
DICTIONARYVAR
  5
8797
102
{ACAD_REACTORS
330
8085
102
}
330
8085
100
DictionaryVariables
280
     0
  1
Metric50
  0
DICTIONARYVAR
  5
8086
102
{ACAD_REACTORS
330
8085
102
}
330
8085
100
DictionaryVariables
280
     0
  1
1
  0
DICTIONARYVAR
  5
87A2
102
{ACAD_REACTORS
330
8085
102
}
330
8085
100
DictionaryVariables
280
     0
  1
0
  0
DICTIONARYVAR
  5
879B
102
{ACAD_REACTORS
330
8085
102
}
330
8085
100
DictionaryVariables
280
     0
  1
1
  0
DICTIONARYVAR
  5
879C
102
{ACAD_REACTORS
330
8085
102
}
330
8085
100
DictionaryVariables
280
     0
  1
15
  0
DICTIONARYVAR
  5
879A
102
{ACAD_REACTORS
330
8085
102
}
330
8085
100
DictionaryVariables
280
     0
  1
0
  0
DICTIONARYVAR
  5
8798
102
{ACAD_REACTORS
330
8085
102
}
330
8085
100
DictionaryVariables
280
     0
  1
0
  0
DICTIONARYVAR
  5
87A1
102
{ACAD_REACTORS
330
8085
102
}
330
8085
100
DictionaryVariables
280
     0
  1
127
  0
DICTIONARYVAR
  5
87A3
102
{ACAD_REACTORS
330
8085
102
}
330
8085
100
DictionaryVariables
280
     0
  1
2
  0
DICTIONARY
  5
87AF
102
{ACAD_REACTORS
330
87AD
102
}
330
87AD
100
AcDbDictionary
281
     1
  0
DICTIONARY
  5
87AE
102
{ACAD_REACTORS
330
87AD
102
}
330
87AD
100
AcDbDictionary
281
     1
  3
2129752320
350
87A8
  3
2129752328
350
87A9
  3
2129752336
350
87AA
  3
2129752344
350
87AB
  3
2129752352
350
87AC
  0
DICTIONARY
  5
8791
330
8587
100
AcDbDictionary
280
     1
281
     1
  3
ACAD_XREC_ROUNDTRIP
360
87EE
  0
DICTIONARY
  5
878D
330
80D9
100
AcDbDictionary
280
     1
281
     1
  3
ACAD_XREC_ROUNDTRIP
360
87EC
  0
DICTIONARY
  5
87B0
330
7FCB
100
AcDbDictionary
280
     1
281
     1
  3
ACAD_XREC_ROUNDTRIP
360
87B1
  0
DICTIONARY
  5
87B2
330
7FCC
100
AcDbDictionary
280
     1
281
     1
  3
ACAD_XREC_ROUNDTRIP
360
87B3
  0
DICTIONARY
  5
8097
330
8096
100
AcDbDictionary
280
     1
281
     1
  3
ACAD_XREC_ROUNDTRIP
360
87B5
  3
BUMPTILE
360
8099
  3
DIFFUSETILE
360
8098
  3
OPACITYTILE
360
809C
  3
REFLECTIONTILE
360
809B
  3
REFRACTIONTILE
360
809D
  3
SPECULARTILE
360
809A
  0
DICTIONARY
  5
808F
330
808E
100
AcDbDictionary
280
     1
281
     1
  3
ACAD_XREC_ROUNDTRIP
360
87B4
  3
BUMPTILE
360
8091
  3
DIFFUSETILE
360
8090
  3
OPACITYTILE
360
8094
  3
REFLECTIONTILE
360
8093
  3
REFRACTIONTILE
360
8095
  3
SPECULARTILE
360
8092
  0
DICTIONARY
  5
809F
330
809E
100
AcDbDictionary
280
     1
281
     1
  3
ACAD_XREC_ROUNDTRIP
360
87B6
  3
BUMPTILE
360
80A1
  3
DIFFUSETILE
360
80A0
  3
FBXASSET
360
874B
  3
OPACITYTILE
360
80A4
  3
REFLECTIONTILE
360
80A3
  3
REFRACTIONTILE
360
80A5
  3
SPECULARTILE
360
80A2
  0
DICTIONARY
  5
87E9
330
80D5
100
AcDbDictionary
280
     1
281
     1
  3
ACAD_XREC_ROUNDTRIP
360
87EA
  0
DICTIONARY
  5
878F
330
8586
100
AcDbDictionary
280
     1
281
     1
  3
ACAD_XREC_ROUNDTRIP
360
87ED
  0
DICTIONARY
  5
878B
330
80D7
100
AcDbDictionary
280
     1
281
     1
  3
ACAD_XREC_ROUNDTRIP
360
87EB
  0
DICTIONARY
  5
87A4
330
80C1
100
AcDbDictionary
280
     1
281
     1
  3
ACAD_ROUNDTRIP_2008_TABLESTYLE_CELLSTYLEMAP
360
87A5
  3
ACAD_XREC_ROUNDTRIP
360
87E7
  0
DICTIONARY
  5
87C1
330
80AC
100
AcDbDictionary
280
     1
281
     1
  3
ACAD_XREC_ROUNDTRIP
360
87C2
  0
DICTIONARY
  5
87BF
330
80AB
100
AcDbDictionary
280
     1
281
     1
  3
ACAD_XREC_ROUNDTRIP
360
87C0
  0
DICTIONARY
  5
87CD
330
80B2
100
AcDbDictionary
280
     1
281
     1
  3
ACAD_XREC_ROUNDTRIP
360
87CE
  0
DICTIONARY
  5
87D5
330
80B6
100
AcDbDictionary
280
     1
281
     1
  3
ACAD_XREC_ROUNDTRIP
360
87D6
  0
DICTIONARY
  5
87C7
330
80AF
100
AcDbDictionary
280
     1
281
     1
  3
ACAD_XREC_ROUNDTRIP
360
87C8
  0
DICTIONARY
  5
87CB
330
80B1
100
AcDbDictionary
280
     1
281
     1
  3
ACAD_XREC_ROUNDTRIP
360
87CC
  0
DICTIONARY
  5
87E5
330
80BE
100
AcDbDictionary
280
     1
281
     1
  3
ACAD_XREC_ROUNDTRIP
360
87E6
  0
DICTIONARY
  5
87D3
330
80B5
100
AcDbDictionary
280
     1
281
     1
  3
ACAD_XREC_ROUNDTRIP
360
87D4
  0
DICTIONARY
  5
87B7
330
80A7
100
AcDbDictionary
280
     1
281
     1
  3
ACAD_XREC_ROUNDTRIP
360
87B8
  0
DICTIONARY
  5
87B9
330
80A8
100
AcDbDictionary
280
     1
281
     1
  3
ACAD_XREC_ROUNDTRIP
360
87BA
  0
DICTIONARY
  5
87BB
330
80A9
100
AcDbDictionary
280
     1
281
     1
  3
ACAD_XREC_ROUNDTRIP
360
87BC
  0
DICTIONARY
  5
87BD
330
80AA
100
AcDbDictionary
280
     1
281
     1
  3
ACAD_XREC_ROUNDTRIP
360
87BE
  0
DICTIONARY
  5
87C5
330
80AE
100
AcDbDictionary
280
     1
281
     1
  3
ACAD_XREC_ROUNDTRIP
360
87C6
  0
DICTIONARY
  5
87E1
330
80BC
100
AcDbDictionary
280
     1
281
     1
  3
ACAD_XREC_ROUNDTRIP
360
87E2
  0
DICTIONARY
  5
87D1
330
80B4
100
AcDbDictionary
280
     1
281
     1
  3
ACAD_XREC_ROUNDTRIP
360
87D2
  0
DICTIONARY
  5
87E3
330
80BD
100
AcDbDictionary
280
     1
281
     1
  3
ACAD_XREC_ROUNDTRIP
360
87E4
  0
DICTIONARY
  5
87C9
330
80B0
100
AcDbDictionary
280
     1
281
     1
  3
ACAD_XREC_ROUNDTRIP
360
87CA
  0
DICTIONARY
  5
87DF
330
80BB
100
AcDbDictionary
280
     1
281
     1
  3
ACAD_XREC_ROUNDTRIP
360
87E0
  0
DICTIONARY
  5
87DD
330
80BA
100
AcDbDictionary
280
     1
281
     1
  3
ACAD_XREC_ROUNDTRIP
360
87DE
  0
DICTIONARY
  5
87D7
330
80B7
100
AcDbDictionary
280
     1
281
     1
  3
ACAD_XREC_ROUNDTRIP
360
87D8
  0
DICTIONARY
  5
87D9
330
80B8
100
AcDbDictionary
280
     1
281
     1
  3
ACAD_XREC_ROUNDTRIP
360
87DA
  0
DICTIONARY
  5
87CF
330
80B3
100
AcDbDictionary
280
     1
281
     1
  3
ACAD_XREC_ROUNDTRIP
360
87D0
  0
DICTIONARY
  5
87C3
330
80AD
100
AcDbDictionary
280
     1
281
     1
  3
ACAD_XREC_ROUNDTRIP
360
87C4
  0
DICTIONARY
  5
87DB
330
80B9
100
AcDbDictionary
280
     1
281
     1
  3
ACAD_XREC_ROUNDTRIP
360
87DC
  0
XRECORD
  5
87A8
102
{ACAD_REACTORS
330
87AE
102
}
330
87AE
100
AcDbXrecord
280
     1
  1
AcDb_Thumbnail_Schema
102
{ATTRRECORD
341
87A9
  2
AcDbDs::TreatedAsObjectData
280
     1
291
     1
102
ATTRRECORD}
102
{ATTRRECORD
341
87AA
  2
AcDbDs::Legacy
280
     1
291
     1
102
ATTRRECORD}
  2
AcDbDs::ID
280
    10
 91
        8
102
{ATTRRECORD
341
87AB
  2
AcDs:Indexable
280
     1
291
     1
102
ATTRRECORD}
102
{ATTRRECORD
341
87AC
  2
AcDbDs::HandleAttribute
280
     7
282
     1
102
ATTRRECORD}
  2
Thumbnail_Data
280
    15
 91
        0
  0
XRECORD
  5
87A9
102
{ACAD_REACTORS
330
87AE
102
}
330
87AE
100
AcDbXrecord
280
     1
  1
AcDbDs::TreatedAsObjectDataSchema
  2
AcDbDs::TreatedAsObjectData
280
     1
 91
        0
  0
XRECORD
  5
87AA
102
{ACAD_REACTORS
330
87AE
102
}
330
87AE
100
AcDbXrecord
280
     1
  1
AcDbDs::LegacySchema
  2
AcDbDs::Legacy
280
     1
 91
        0
  0
XRECORD
  5
87AB
102
{ACAD_REACTORS
330
87AE
102
}
330
87AE
100
AcDbXrecord
280
     1
  1
AcDbDs::IndexedPropertySchema
  2
AcDs:Indexable
280
     1
 91
        0
  0
XRECORD
  5
87AC
102
{ACAD_REACTORS
330
87AE
102
}
330
87AE
100
AcDbXrecord
280
     1
  1
AcDbDs::HandleAttributeSchema
  2
AcDbDs::HandleAttribute
280
     7
 91
        1
284
     1
  0
XRECORD
  5
87EE
102
{ACAD_REACTORS
330
8791
102
}
330
8791
100
AcDbXrecord
280
     1
102
DISPLAYNAME
  1
Imperial24
102
FLAGS
 90
        0
  0
XRECORD
  5
87EC
102
{ACAD_REACTORS
330
878D
102
}
330
878D
100
AcDbXrecord
280
     1
102
DISPLAYNAME
  1
Metric50
102
FLAGS
 90
        0
  0
XRECORD
  5
87B1
102
{ACAD_REACTORS
330
87B0
102
}
330
87B0
100
AcDbXrecord
280
     1
102
SHADEPLOT
 70
     0
102
SHADEPLOTRESLEVEL
 70
     2
102
SHADEPLOTCUSTOMDPI
 70
   300
  0
XRECORD
  5
87B3
102
{ACAD_REACTORS
330
87B2
102
}
330
87B2
100
AcDbXrecord
280
     1
102
SHADEPLOT
 70
     0
102
SHADEPLOTRESLEVEL
 70
     2
102
SHADEPLOTCUSTOMDPI
 70
   300
  0
XRECORD
  5
87B5
102
{ACAD_REACTORS
330
8097
102
}
330
8097
100
AcDbXrecord
280
     1
102
MATERIAL
148
0.0
149
0.0
149
0.0
 93
        0
 94
      127
282
     0
 72
     0
 77
     0
171
     0
175
     0
179
     0
273
     0
  0
XRECORD
  5
8099
102
{ACAD_REACTORS
330
8097
102
}
330
8097
100
AcDbXrecord
280
     1
270
     1
271
     1
  0
XRECORD
  5
8098
102
{ACAD_REACTORS
330
8097
102
}
330
8097
100
AcDbXrecord
280
     1
270
     1
271
     1
  0
XRECORD
  5
809C
102
{ACAD_REACTORS
330
8097
102
}
330
8097
100
AcDbXrecord
280
     1
270
     1
271
     1
  0
XRECORD
  5
809B
102
{ACAD_REACTORS
330
8097
102
}
330
8097
100
AcDbXrecord
280
     1
270
     1
271
     1
  0
XRECORD
  5
809D
102
{ACAD_REACTORS
330
8097
102
}
330
8097
100
AcDbXrecord
280
     1
270
     1
271
     1
  0
XRECORD
  5
809A
102
{ACAD_REACTORS
330
8097
102
}
330
8097
100
AcDbXrecord
280
     1
270
     1
271
     1
  0
XRECORD
  5
87B4
102
{ACAD_REACTORS
330
808F
102
}
330
808F
100
AcDbXrecord
280
     1
102
MATERIAL
148
0.0
149
0.0
149
0.0
 93
        0
 94
      127
282
     0
 72
     0
 77
     0
171
     0
175
     0
179
     0
273
     0
  0
XRECORD
  5
8091
102
{ACAD_REACTORS
330
808F
102
}
330
808F
100
AcDbXrecord
280
     1
270
     1
271
     1
  0
XRECORD
  5
8090
102
{ACAD_REACTORS
330
808F
102
}
330
808F
100
AcDbXrecord
280
     1
270
     1
271
     1
  0
XRECORD
  5
8094
102
{ACAD_REACTORS
330
808F
102
}
330
808F
100
AcDbXrecord
280
     1
270
     1
271
     1
  0
XRECORD
  5
8093
102
{ACAD_REACTORS
330
808F
102
}
330
808F
100
AcDbXrecord
280
     1
270
     1
271
     1
  0
XRECORD
  5
8095
102
{ACAD_REACTORS
330
808F
102
}
330
808F
100
AcDbXrecord
280
     1
270
     1
271
     1
  0
XRECORD
  5
8092
102
{ACAD_REACTORS
330
808F
102
}
330
808F
100
AcDbXrecord
280
     1
270
     1
271
     1
  0
XRECORD
  5
87B6
102
{ACAD_REACTORS
330
809F
102
}
330
809F
100
AcDbXrecord
280
     1
102
MATERIAL
148
0.0
149
0.0
149
0.0
 93
        0
 94
      127
282
     0
 72
     0
 77
     0
171
     0
175
     0
179
     0
273
     0
  0
XRECORD
  5
80A1
102
{ACAD_REACTORS
330
809F
102
}
330
809F
100
AcDbXrecord
280
     1
270
     1
271
     1
  0
XRECORD
  5
80A0
102
{ACAD_REACTORS
330
809F
102
}
330
809F
100
AcDbXrecord
280
     1
270
     1
271
     1
  0
XRECORD
  5
874B
102
{ACAD_REACTORS
330
809F
102
}
330
809F
100
AcDbXrecord
280
     1
 70
     1
 90
1959938040
 71
     1
  1
2AE0CF1B-2FAB-4F5D-9C42-60E4503B9A44
311
504B0304140006080800D5688B4F3197274FD9000000200100004F00000045454241424343462D353941352D344531432D393444392D3938443336423630383733422F4173736574446174612F446566696E6974696F6E4974657261746F7250726F706572746965732E62696E454E3D4FC3301075195A3130F00FAAEEC6B1
311
1325256A8B509232C102134B7575AF2192E354B6233132F2AFE12C8A7AD2BB779FEFEE9B31F673360AD984F045FE86F8092DBA4EBFEA0FEC814D63C50C7B30B34BEF8AC298D67884D184B8F5DC798DC680C561F4B797D1790F81E4C0DCC5A56BC27FC14785F6EF58BCFF42882F4586C3A97C00EF31ACC571FF296A5515B992
311
924BB9AC78966D1BFE98E6296F8AB4A9A4AC6BD514C2A11F46A7D10B2592DD597977B22DAE17DA21FD71586C5422EFB95424F426D332C9CB4CBDAF44E87ADCAC7C709D6DE716FA5F504B0304140006080800D5688B4F14410EA141010000300200004500000045454241424343462D353941352D344531432D393444392D39
311
38443336423630383733422F4173736574446174612F496E7374616E636550726F706572746965732E62696EEB606060F80F0540260323103700495E20ED9E9A975A94991C9C9C919A9BA802143072743570763374D235727374D235713375D1B5743631D23533703531353076B2743431614768046931363471713532B5D4
311
35353131D635313332D475727372D13534373670367376B67474B5042A03DBCBA019D37FE8ABC6157B20CD04146B0062181F4C03F940F0C11EA29A8141C08141002C0426541C106CAC2CA046088033B02A030AC2157C6006F21A8018AAF50194E6010A610250382264E08660284CD9E98021862280A91564B406929A0FF62C
311
401E28B6F88038B83CB1243943D7A928312F2535052453C6C4C5E0C3A1C0A0C4C2C610C126CC20C22AC0A0C32ACC20C524C450C4C2CF10C521C310C022CE10C526C6E0C721C5308B4D80218C4382C18E439841804986218F8993C1808593A10268CE0E261E860C766986132C220C00504B0304140006080800D5688B4F28BB
311
58AF800100009E0500003D00000045454241424343462D353941352D344531432D393444392D3938443336423630383733422F536368656D61732F436F6D6D6F6E536368656D612E786D6CBD544D4FC23018BEFB2B96DE15493C78601010A34B880709DEDFB52FD0D8B54BD70DF6EFED3AC0B12E6442E2716BFB3CEFF3D18E
311
26FB440405EA8C2B1992E1C323095052C5B8DC842437EBFB673219DF8DA659866649B798C078B48AE6410122242F2A4994AC7F93815DF85C049C8564CA0A901499DD886B2EB9B1E02448F358701A9235880C49A0119892A20C89D1B9FD768815CAD268CB5E0355B40B1E47F3E37A2020464BED06AA57CE8FCC20C3C3446D46
311
761A2632A8C1283D07031EFF2AE7CCB1BFEEE916E406DFAC8E36FFD99A9D60A6944090EEDC3B670C7DC13DE86B6B2C5C240D6E503BB85ACD579D513F1B9F9A69DC9CC22AFA80C426D40AF0B21EA168559156B6276F0F726A6BFF04DCD513A87A62CAD41FB24FCB2858B3952E3D852084DA25B9303C15687973CC8E8AAE11DF
311
2836C38C6A9E765E8C1BA1BFB1DC29CDFE518C8B5A7655A4ED7E77291ABEB80DBD82EC866ADE1B8D05AF9E35CF09D7A061F38A986D9EC412B8F0F65E5D81534D9B231D1E5A8FE577A241F3A5FD01504B0304140006080800D5688B4F2CCEBD668A040000E01200003E00000045454241424343462D353941352D344531432D
311
393444392D3938443336423630383733422F536368656D61732F47656E65726963536368656D612E786D6CD5586D6FDB380CFE7EBF42F0F7A649B70E1B90744856B4970F450FCD7A5F05459613EDE4174872DADCAF3F522F8ED3B88D2F1D06AC4050DBA2493EE4438AF2F8EB73AEC8466823CB62928C06C384888297A92C56
311
93A4B6D9D9E7E4EBD51FE3A931C22EF85AE4EC6AFC38BF261BA626C9AD288496DC3F4FCEAFC63366845F7A10452AF41DB320C0D44EC26EAB20918735565582695670811A6A49643A49A6E9069FA4604A64B29016DC4B48552F95E4932463CA888468C1D2B250DB4962750DF7CE273069CE8363F1FF4EDB00E0A21999574AE4
311
A2B00C353B93F3BD4777B8A61ED8F604ABFEDD79CE56A2B7BDFBDBC50996E0ADDE16FED26223C5D30956C29BDF4A55EA686E5E58B112DA45CE67F76F4FA27EFA3FB672FD7372FC388FAECDCA5209E693CAD167BADCD272F943701B3812F8A3D852008B1D2E32DB927B2F833C6EA95879925356D254582695095A3CE9829247
311
20BE5774A3CB9CDCDB350427D2DF20DA1B5532EBE2D5D6288D75D4F7E4FD9890A0EF8E3D93EBB8F8BA4758158EF6FB90A6F9520281C93DE7AAC6D24607DA296BB96018123F821A7D6A5C5884050C475DA4865442732C8B95684A50165CBB3A32F25F783A4A480ED59AD7F924B968AEA50131F46303223E6A397B0E52976030
311
DC1DCA81D7E7C1EDEEA42C19FF27635C505E2BD5198A599020DF50A2330FCB3AAF28CB0124108429553EF1B228802E2265D8F7CC2401042B155BCC7070F1E5C55F13B4A9577362CCCE46C32174E010C3C378C44841A4BDA00FE3A12006CE11EE6AEC59894D3526DDE1CD59D503ECC324017F8061B7F162162FA62EDD81AE33
311
08617770796DCBDAD2B2625C5AE8A63DE20B2C8AA5E95E76E5730823955956E33E705425A2187C185D36489A1B44D3DCEC2172F6BA2105C3546287A7194B2331768EBBE64F6E70A9930ABE0ADEA89E9E2C38523B810287AD67A54A039C1606EAFE68F8304610BB9093DBDDABC0B2AE4E290DCDA15376D7E39F72B556F0B32E
311
AB5D3D498B4C41ABADEC3A1434C422D87E8025A84BDCB2B1417ED750FAE4DA8976863974C577C7F902D3F156AD354DEA3540DE6BEAE2BEA52F7A2EB4CA43802ECE5BF2CE2EDC9347179FFB023CE412E60BE16DA0BE29B374988A553F561DC04615DD35F7D2C8979F60E5955CE93DF29DED8AFA1EE6642D53418086C03C47C3
311
77910F75F7E8F5EF665F70B60FFB22AEDF897D119E8423C773E819A3C1E55E550599EE6EDCA34D0C86FD72057DF2CD46F16A470682471C164E4346D5306BF12D7D12D82CFF673D41636C347443FEB51B50D72EA171A8E4A58623A4A16E0FA2B8B10A0D23268D87C33896EE8FB73305A74BF224EDBADFA0BD674AB354D63DB7
311
BD5D83426761C077DE767728235446A552754EB93B755891C3C4CC6CADE37CF0E912A7BB38DBA010F9DE1282EDF470CA69A9CDA482E334C4A6EA4107987980B17E72F31730EBF88BBD39E7C629F56797A3C0009C2C5AE7951D9A05A02773440F02EEB4DE396A3B6A570C72CCFBCD823B0B8ED3F1D5CEDDFED772FA70236C83
311
FB7D86C385D570B87107535572A60A96035F8F7C6A7192F13007246BBE0521855E6AC46F3E27689CEE7D186A6FD679D98CDCAD13333E04EBE7ED6F55FF01504B0304140006080800D5688B4F6180134D5F0100006B0300004500000045454241424343462D353941352D344531432D393444392D3938443336423630383733
311
422F536368656D61732F52656E6465724D6174657269616C536368656D612E786D6CA5934D6FC2300C86EFFB1551EEE343DBA41D1A103009551ADAD40EAE28A4A68D9426284961FCFBE5A340113B2071746D3F765EBF4DC6BFB5407BD0862B49F0B037C0082453059725C18DDD3EBFE3F1E829991803366715D474942CD30F
311
B4A782E00C64017A412D684E454CE3FE28995203B162A6EA5AC94B66997D225E109CD63B0135484BAD1B3C07E9080CA35DB3119C11BCA5C200461A68A1A438126C75E3E230D40FF81FB3F03C91D1E3A3A0AF79FE28E25BC39EC3E17E4C2A2D94A0833A51AF55BCCA7D88572FCBAC529C4140B020FC3AAFA886621DCED7EAD7
311
664CC86024E806DC297DA1BB393E4156543457A4537DB8817349A70F8ACBF09B3EEE2CB2F33E91B65D60786E4E3B39B77E3FEEEF5650424525DA657FB8B46BE6BF064646F0A0F7327C0BC1BC1B4CBBC1C419FA3CCB23500007872A2580CAAE5461865565294E4EDB4617B62FF579DF9A5B2F54E834076A597573A020912FED
311
777F9B3F504B0304140006080800D5688B4FF658C3CD51000000570000004700000045454241424343462D353941352D344531432D393444392D3938443336423630383733422F4173736574446174612F41737365745461626C654F66436F6E74656E74732E62696E536160603072743570763374D235727374D235713375
311
D1B5743631D23533703531353076B27434311102AACB4D2C492DCA4CCC492C28484D2C4ACC4B4E050A82012F90744FCD03CA26072767A4E6260200504B0304140006080800D5688B4FF865834058000000680000004500000045454241424343462D353941352D344531432D393444392D3938443336423630383733422F41
311
73736574446174612F53747265616D56657273696F6E5461626C652E696E66558CBD0A80300C06F73E4B117FB66E451741D041DC5BF98480A492E4FDD18EAEC7DD4555D89EF28DF51A0B1BD8340C4DE7DD848B988C0ACF0649566493F2408C508DDEBB99D5129FF8F1AF8CF5B9503E20FAE5A16B5AF702504B030414000608
311
0800D5688B4F904FC550340100009A0400003600000045454241424343462D353941352D344531432D393444392D3938443336423630383733422F4173736574446174612F636E782E786D6CCD94314FC3301085FF4AE43D765C1082CA718560E904121503DBD5B914AB8E1DD91704FF1EBBCD002A62EAD0F5FCEEFCFCC9EF
311
D4EA7370D507C664836F99E40DABD09BD059BF6BD9447D7DCBAA95563104FA21639587015B56CA4CAB5D0CD338973AEC6172A5EAACDFCFC5FB949036B075F8D43F044FE829B1CA3848A965C9BCE3001C260A1DA63DEF80804B1E3185291ACC93C80E384F321181B0637AD1C8BB5A2E6A2937F26AD9DC2CAF176F4A14A556DB
311
10DCACB7F9B218C6CA1C6F65BA51A21C6B35453B6BCA5B98FECB23DF5AAF44566A9528662673077D8DB903C6D1590394D1896008A9CE22844189A3582B5118FC22F188BDF5B6B4ACB331A0109FB33D8C64F1E288FCE7F5FC64D63E11788397CBE3D4E1F929BC1C7ED0EB319087C45C5A4E4E1D72EBFB33A4441CD6480E4DD9
311
2AFA1B504B0304140006080800D5688B4F6E2F4B9F070100004F0300003400000045454241424343462D353941352D344531432D393444392D3938443336423630383733422F536368656D61732F636E782E786D6CCD93BD4E042114855F6542BF308CC6E886610B0B2B1BB5B243B8BB9205EE841FA36F2F8C14BB899D16DB
311
C1E10B39E77011BB4FEF860F88C9629809A72319206834361C6652F27E734B869D1411319F606408CAC34C9A4CA438442C4B970CEC55714D75361CBB788FDE6378D6EFE01519B45329CD24AD5BAA4A4603E9488DCA8A721A2161891AEA0DD97AE837E8082A8321721AF9DD864F1BCE5FF8D576BCD95E4FAF8235528A3744D7
311
791B32445C068D7511AA9D51B0762C4589B6332D0391A7DE686D43B04A489172AC1D74327F2D9554CBE2AC56B956C556F0879182B5A867811F2040B4FA32139F99FBB7C84F100CC4C7FA4AD12A7799C97FF3F8B702D83AFB7504DA5790DF504B0304140006080800D5688B4F410A3D5871000000A40000002C000000454542
311
41424343462D353941352D344531432D393444392D3938443336423630383733422F636E782E786D6C55CC4D0E82301086E1AB34B31774E7A22D31F1069E60020334B633A63FC6E34B0909B07DDE2F9FEE7EC1AB2FC5E4840DDC9A2B28E25E06C7938192C7CB1D54677514C9871928C640062A83D55394F2D968A0118BAFEA
311
1DBF377CA444F98919176EAB9FEAAB9F2960DA5BBB1E2ED3FA6FFF504B0304140006080800D5688B4F6E9AA9677F000000A300000007000000636E782E786D6C4D8CDF0A83201C465F457EF76E457FA660469A7B8F581692E97039F6F8D3D1C5AE3E387CE7B0FEB35BF4D6E165BCEBA0BC1480B47BF8D9B8B583782C9800EA
311
390BDE1F7F37406EDA75071903676BF0F179A2592F53B4995AE3B6132A250621E51D37746870AD4A89693D524CC958B5A22DC8AD12C9B86625CDAF9736E7F917504B0304140006080800D5688B4F16E99B5DA600000035010000130000005B436F6E74656E745F54797065735D2E786D6C9590410E82301045AFD2740F4517
311
C6180A0BF5065E60AC53688469D30E066F6F91AD9AB89CF9FFFD3F99BA9DC7413C3026E749CB4D59498164FCCD51A7E5C4B6D84BD136F5E5193089ECA5A465CF1C0E4A25D3E308A9F401292BD6C711388FB15301CC1D3A54DBAADA29E38991B8E0254336F5092D4C038BF39CD76B6FC6A538AEBEA54A4B08617006389FA516
311
557DE4AE8E7E70DE30729138228C5F021CD93F02D4FB0DCD0B504B0304140006080800D5688B4F3DEE336E64000000790000001B0000006175746F6465736B2D64657369676E2D7061636B6167652E786D6C35CBC10E83200C00D05F21DCA56CA76D41FC96062B120735B69A7DBE268BB7777961F8D5AF396893C2ADB70FE7
311
ADA196782C2DF776D7A97B5933C430F15651E5469C55D70F80A4992A3ADC954792C525AE70A1E4D6AD9816CC044FEFDF01FE3FDE907802504B0304140006080800D5688B4F4FA8034DF8000000960100003700000045454241424343462D353941352D344531432D393444392D3938443336423630383733422F4173736574
311
446174612F636F72652E786D6C8550CB6E833010FC15B47703362481C838AA027FD0536F96ED102BC1467E54FDFCDA814AEDA9A75DCDCECCEE0EBD7C2DCFE25339AFAD1900973514CA082BB5990788E1863A282E8C3A6BC32F1A14862F6A800C03A3B3B371DD21614D5026A3C64AB583DC7B15A010CFD40CE0C55D2DBCE431
311
24867F942B170F3EAB12971B8FD118B5DCA55A26377DD3CA01EB0ED3A93D4C1DC24D7345ED9160D49FC609F5D7A9230DC1638B3B5A6531A3412F3FDB85533C28098CD4B84798208CDF7173AE8FE7967CD02A3319F5C1A59FF7A5F93B606FF9EA91074EAB6DFAC735AEF27FD7A84D68C8EEBA293C309C8E7C0D18AD724AA9BC
311
224C3527CABE01504B0304140006080800D5688B4F8F9A08A7F6000000940100003500000045454241424343462D353941352D344531432D393444392D3938443336423630383733422F536368656D61732F636F72652E786D6C8550CB6E833010FC15B47703362481C83887842F684FBD59B643AC041BF951F5F36B0395DA
311
534FBB9A9D99DD1D7AF99A5FC5A7725E5B33002E6B289411566A330D10C31D75505C1875D6865F34280C9FD5001906462767E3B243C29AA04C468D956A07B9F72A40215EA919C08B879A79C963480CFF2C172E9E7C52252E371EA3316AB94BB54C6EFAAE9503D61DC6537B183B849BE68ADA23C1A83FDD46D45FC78E3404DF
311
5ADCD12A8B190D7AFED92E9CE2414960A4C63DC20461FC8E9B737D3CB7E4835699C9A80F2EFDBC2FCDDF017B5BEFF4B4DA667F3CE322FFF78CDA8486EC9E9BC203C3E9C475C06895334A650D30D59C27FB06504B0304140006080800D5688B4F09EE571003010000D70100002D00000045454241424343462D353941352D34
311
4531432D393444392D3938443336423630383733422F636F72652E786D6C95914D7284201085AF62F51E15FF324E2153A3634E905576447A0C35235880A91C3F184D25D9252BA8C7F7BA79DDECF43EDDA337B44E19DD008D5388500F462A3D36B0F82B394074E2CC1AE37F601069316103AB0C9C8DD62CF32E0D467BD4ABAA
311
8DC45D14CEA18768B8874B036E78C549C462F18170B77816C34D8C18D378E338F36AFAB20E168547093C4B694D6846287DA2F931AD8E45F6CC9295E46C51DAE7D9DE0CA7179491997D8804BC64C9F61AA845C99D5132FC515D155AE07DDF9EDBAE7B24657D2E49D1D38ED4C5A526F5E192576D951E1EF236140966CE9CB761
311
327B9175067FB56FC65FC99659FE33D9E670C0E977A8641D3367C9E70EC2B9AE847F00504B0304140006080800D5688B4F7BE3568D06010000B201000008000000636F72652E786D6C8D50416EC32010FC0ADA3BB6C14EE244981C12FFA0A7DEA8210E8A0D16E0A8FD7D21A6527BEB69D1CCECCE30ECFC394FE8A99CD7D674
311
408A0A90328395DA8C1DACE1865B4067CE9CB5E1970C9011B3EA20C1C0D9E8ECBA6468B02628935063A5CAA0F05E0540C3141F1DF8E1AE6651883544857F148B181E62540529361D6741CF3FAB83532228099C56E48809C584BC91FA54ED4F0D7D67655272B6AE5A662B2DA3BBBE69E580B7BBFED0ECFA1693BABEE0664F09
311
3E1EAE3D3E5EFA96D6945C1BD2B2322D73E6838B7FCE4762CE80BC78265F566E14671FD64E5910434964CDF405BC626522FE845E17F98FD0DA849AE683DB86074E62A017118D538371BCEA8D33B5CDBF01504B01021400140006080800D5688B4F3197274FD9000000200100004F0000000000000000000000000000000000
311
45454241424343462D353941352D344531432D393444392D3938443336423630383733422F4173736574446174612F446566696E6974696F6E4974657261746F7250726F706572746965732E62696E504B01021400140006080800D5688B4F14410EA141010000300200004500000000000000000000000000460100004545
311
4241424343462D353941352D344531432D393444392D3938443336423630383733422F4173736574446174612F496E7374616E636550726F706572746965732E62696E504B01021400140006080800D5688B4F28BB58AF800100009E0500003D00000000000000000000000000EA02000045454241424343462D353941352D
311
344531432D393444392D3938443336423630383733422F536368656D61732F436F6D6D6F6E536368656D612E786D6C504B01021400140006080800D5688B4F2CCEBD668A040000E01200003E00000000000000000000000000C504000045454241424343462D353941352D344531432D393444392D39384433364236303837
311
33422F536368656D61732F47656E65726963536368656D612E786D6C504B01021400140006080800D5688B4F6180134D5F0100006B0300004500000000000000000000000000AB09000045454241424343462D353941352D344531432D393444392D3938443336423630383733422F536368656D61732F52656E6465724D61
311
74657269616C536368656D612E786D6C504B01021400140006080800D5688B4FF658C3CD510000005700000047000000000000000000000000006D0B000045454241424343462D353941352D344531432D393444392D3938443336423630383733422F4173736574446174612F41737365745461626C654F66436F6E74656E
311
74732E62696E504B01021400140006080800D5688B4FF865834058000000680000004500000000000000000000000000230C000045454241424343462D353941352D344531432D393444392D3938443336423630383733422F4173736574446174612F53747265616D56657273696F6E5461626C652E696E66504B01021400
311
140006080800D5688B4F904FC550340100009A0400003600000000000000000000000000DE0C000045454241424343462D353941352D344531432D393444392D3938443336423630383733422F4173736574446174612F636E782E786D6C504B01021400140006080800D5688B4F6E2F4B9F070100004F0300003400000000
311
000000000000000000660E000045454241424343462D353941352D344531432D393444392D3938443336423630383733422F536368656D61732F636E782E786D6C504B01021400140006080800D5688B4F410A3D5871000000A40000002C00000000000000000000000000BF0F000045454241424343462D353941352D3445
311
31432D393444392D3938443336423630383733422F636E782E786D6C504B01021400140006080800D5688B4F6E9AA9677F000000A300000007000000000000000000000000007A100000636E782E786D6C504B01021400140006080800D5688B4F16E99B5DA60000003501000013000000000000000000000000001E110000
311
5B436F6E74656E745F54797065735D2E786D6C504B01021400140006080800D5688B4F3DEE336E64000000790000001B00000000000000000000000000F51100006175746F6465736B2D64657369676E2D7061636B6167652E786D6C504B01021400140006080800D5688B4F4FA8034DF80000009601000037000000000000
311
000000000000009212000045454241424343462D353941352D344531432D393444392D3938443336423630383733422F4173736574446174612F636F72652E786D6C504B01021400140006080800D5688B4F8F9A08A7F6000000940100003500000000000000000000000000DF13000045454241424343462D353941352D34
311
4531432D393444392D3938443336423630383733422F536368656D61732F636F72652E786D6C504B01021400140006080800D5688B4F09EE571003010000D70100002D000000000000000000000000002815000045454241424343462D353941352D344531432D393444392D3938443336423630383733422F636F72652E78
311
6D6C504B01021400140006080800D5688B4F7BE3568D06010000B2010000080000000000000000000000000076160000636F72652E786D6C504B050600000000110011005A060000A21700000000
310
504B0304140006080800D5688B4F000000000000000000000000370000006662782F39373338433846352D363546382D344637382D394341362D4134313344374333354244422F617474726962757465732E62696E504B0304140006080800D5688B4F000000000000000000000000350000006662782F3937333843384635
310
2D363546382D344637382D394341362D4134313344374333354244422F76657274696365732E62696E504B0304140006080800D5688B4FF270F1330600000004000000360000006662782F39373338433846352D363546382D344637382D394341362D4134313344374333354244422F747269616E676C65732E62696E6366
310
60600000504B0304140006080800D5688B4F51464CB48900000043010000360000006662782F39373338433846352D363546382D344637382D394341362D4134313344374333354244422F6469726563746F72792E786D6C9D8F310EC2300C45AF127987122606C71DD918B841D4B851A43646695A717C52A85029031293A5
310
A76FBF6FACEF7DA7264E43906840EF0FA03836E242F406C6DCEE4EA06AC22492573150D1F66C60C640E8938CB705396EEDD86DE9B5042FE27813D640EA63BB001C722AF6E55CB61E4863F58284D5D3F53DD715CE1C3985E63FD7F1B7EBDD617E9F1E504B0304140006080800D5688B4F734A388D360700001A1C0000340000
310
006662782F39373338433846352D363546382D344637382D394341362D4134313344374333354244422F6F626A656374732E786D6CDD59596FDB3810FE2B84F659978F242E1C178E8FC058A42D6A74B16F022DD30E37D4014ACAB1BF7E8714298BB26C2B3D806213C096296A38F3CD3D1A7F7C8D187A263CA3497C6BF98E67
310
211287C996C6FB5BABC877F68D853E4ED09827495EDB67A11847E4D612CBD664BCE74991AAA52DD9E182355797777FA32C2431B150C87096DD5A59F84822ECE0224FB6247B72B638C7CE7EF7EAF84EB9D124BBE7387D6C1C95624EE21C5885F518A8280E7CF32788E44EC6AED8606CEB77DBD63BB3CD95829B8CD238CB711C
310
1E71D538AE7782ABC6717D7F305FF486237B3818F4EDC155CFB7EF967773DBBFEE7BB3ABD96C345D8C2C34196F9284550A4849BC052DBE59137FEC8A3B95F80A8536BEC3248E49A8D06CDBB0258A2E2559131303585F8A565348296B6DA1DF51F813DB3A8162B064A0AD85D3DF75EB4D36FF000859172BE51911569EE51C74
310
ADB02FFDC11BBBE5AAA1179AA108E78453CC10A31B8E392808B6960A32C8086F11A490C04C6A51D3ABF30A867DD997DAB8DC158C09FFB526D2D302F04792679233FA2FE107EEEBA7014F206D41E3FC46099BBFA540623476E56279AFDF53374B20D18EE13D580B882936F57B0DBC662216ACE6D6E4CFE5E6752DE243FBE129
310
4F52C2736179D29995DF690DD64C0B8CAF032825AEA6EE0EA87C05E83F01F2152F680C9AE3F475F03AD0B2731C67BB8447A01DE421DB830F0F89CBA3ABB15B3D3C41C88895A73005B7FD49981A621867D7209D8C9FC1E813DE57C2AD43CCC0A61F682CFC1C0C05B1049620DEEF36AFD66405C11416E129CC407AF81FBBE212
310
C1574907E24D43436DE1B783A2B4C334FDECA0AB7BB0194EC34A55868CA7F01DFE147CA7F3F59FEB82EF70481E9463CFC98EC6348764DACE9001BAE1F2DF569FA447DEB36483D9E169635308C7EC1311375AD4B2566A41522FC08948C3A566E4CA03056F670CC7242932B5DE16A7C284253CD8BC05A50BB79EF597B681F230
310
6500ADB10C927BC8692A30B1264A5B5520746A82828561AE2C705F6A35D814511AE0282962116A8F4DB1C907C4196189405552D386ADBD5693DDD2DDAEC82078B5929C19402A7FD6844B0B1F401C6BE397931DC790449338A09083C1595A4F300EA8C03BCF7346D82EA08C1551B0A30CF24810E1F404FD8E12D433D713797B
310
49F8B695A06959DA27B50D09C015B01A249DADCA98AF74CAC9331565A6CC673A1B183B541D6A4D0627D285C8142D806A639466DE9B2EBCD9D2BFB37BCBE99D3D580EE7F66836E8D957DE6230F4FA77A3E900C82B2B91081CA2553DDF812A459963F85FFE58449B185306370405BC4D3F7C94D9F3D685D0E8CE7BB36B28D17C
310
DBF76F66F660B05CD8D3FE55DF5E5CF71733DF9FCF7B8B6B97932C29784832B7E77A8136C934DE9FE2AA8AA5226B81FCF0A92085B2E672B2D3FA6A0AF33F8EA1CD9C6028F1770DA255EC6A2908BB0651F1683384E2F049A4A82084AAAFD57D1A41B4C9475B9C7B675CF69CBE27FF7C7FD4F346BD9BD15565EC6703B53CE787
310
E35C9B0421F49D451E24290E69DE9E501BB8748CD3EFCA2D4EDF1F2240A7FAAC0E399F67D421018DF09E043B2CBA8496C0784982D61CB6674996D19864B2CB3BAAFE1A343D078A2933E7B61821CD8288E4F87BEC4FB60D0D9B86D8CC02E847733111B858155406AD3A90531445F70B895BCAFF1664384A59D9E95EC2C0EF69
310
08748FD36671826971C433D85B80F3C0DB1239B8B844BD625FD707AD5A6B521F7D37F913F0E8BAE617C2A38FE85E3A39437F24FE6E20A85C0DFDFEB556C425ACF451B9E8E358019D67F816BC10BA7FEC546876D349AD642B8BEA9C44D0C6E2BCE09DFCF56AE81D1DA4E242C3216A27BDB33894FD9BEEE0003DD9C09D2A6F6B
310
C7401D4A6398737512E4488A561396BA90333D31BA7A875F9F55769DEA0FC7CB5F5E31D79D2F8242AF0B0E5539ABA28F5153B756DD463D94BDE03C8440BA96DFF61D78C4966C0F8D9941AEAD44D7F5E9A5EA7925026A04135B2CE2EC83B8605F31A81ABAE7CCBD2F8B36B75C5F89C4E6C070FAC087C1B449EBF3FDBA410556
310
3A3FFD4560445E1A14D4EA4C74C367487D5B1D7AFE060525D1B7D599C77F8B8E422BB0D659C034384B1885A13CD9A23D49207BC3D8A143B7C12392C9AC7CE852F41B810E4F3F9733D51C6F98EE71C2470C8369A67AB12284A12864CC5B4BADA33F600C2A26917238E53C411BA66298850A4E6F2DB0D89C42B7E56C609C2587
310
87927A635C098E8DE3BDC8F7E553D5EFC36347DD57B5A70B2E4A32C399A0B04DE57B02A8FACA1B93F1F78BAED9413887CB4D9157C21C160ED22810F40B81523898FA3D29785FA1A0382F97EFC83D4643DA69327FD60E4AAA768EF95E8ED76B36399D7F71C5647CF519A5ACD80B759EEB7E0D4AB6E8BA59514EA1C660184ACC
310
148B1A72F6C1FDC21378C514A12505237067491425B1FA3155AFA8D0FA115E386D5D3DEC8306DEF387AEECFFD5403FD8E08C38789B3DC10228955331152DC135545FC5D19AEAB52E8416E03163FF6A8E5455549B8DD403AE00464EF311B890788B231CA6BEA1367A042F00AEE4CDC3855E18BB1CC6DF93FF00504B03041400
310
06080800D5688B4FA2DEA4F33E01000046050000300000006662782F39373338433846352D363546382D344637382D394341362D4134313344374333354244422F636E782E786D6CCD94CF4A033110C65F65C97DFFA48A68C9A6E0C127F020DEB2D9E91A9BCD2CC944ECDB9BD46D55A4E2A1D0DEC2E41BF87E331F2356EFA3
310
2DDEC00783AE65BC6A58014E636FDCD0B248EBF296152B293C227D93B1C2A9115A96CB4C8AC1639CE6520F6B156DAE5AE33673511179D34582C00A6D55082D0BFA054655A948D843D854BD2255F1CA43C0E835A47E3223CCFDDA8322E8995C34FCAEE48B92F3477EB56C6E96D78B675167A5141DA29DF5C611789C0A8DE9E1
310
929946D4F95B8AE8CDACC9044C7E39AB3AE3449DFEA508C9AD1B661D6DA7AC9B266BB4A234A61A35019549046A14F5A7588A3AF3FEA07EB87FDA3B287AE34113FAED9906C08F0DE060AC4A49F81FFF4EF8373676AF09F75CDB3E0A3BDB3A19EA3EAD21C5F5F7FE538A941BECE585FE60ECF4994FA7848CBE3CE4BDAF1311D7
310
BB9397969E2FA0FC00504B0304140006080800D5688B4FBB99A7A67E000000A30000000B0000006662782F636E782E786D6C4D8CD10A832018465F45FE7BB78599066A94E17BC4B290950E97638F3F1D5DECEA83C3778EE83EFB86DE36BE5CF012AACB0D90F5F7303BBF4A48C78239A04E8918C2F17703E4A7DD4A28189458
310
6348CF13CD7699D256E8E6FCE3842D235C734371430DC7B5611CB7BA6F705F5764649AD0611CB2712D4A9E5F2F6FC9AB2F504B0304140006080800D5688B4FA6D797065F0000008200000007000000636E782E786D6C4DCB3B0E80201045D1AD90E9FD7516806B51190811670C8A61F982B1B0BAC9C97B72CA7B1037C6D333
310
2918DA1E04D2CAC69353902EDB8C20262D23F3F59B81A079470595414B17391D1F19B4730A5583A7ED43BBE4025D9592775E5ADFFA01504B0304140006080800D5688B4F4FEB6A7CA0000000F4000000130000005B436F6E74656E745F54797065735D2E786D6C7D8F4B0EC2300C44AF1279DFA6B0400835ED02B8011730C1
310
6D239A8F121795DB93D02D6269CFBC19BBED573B8B17C564BC53B0AB1B10E4B47F18372A5878A88E20FAAEBDBD032591BD2E299898C349CAA427B2986A1FC86565F0D122E7318E32A07EE24872DF3407A9BD63725C71C980AEBDD080CBCCE2BAE6F5D69B7110E7CD57AA146008B3D1C8F92C5954F993BB1BF787F39A89ABC4
310
91D09600F9FDA2FB00504B0304140006080800D5688B4F3DEE336E64000000790000001B0000006175746F6465736B2D64657369676E2D7061636B6167652E786D6C35CBC10E83200C00D05F21DCA56CA76D41FC96062B120735B69A7DBE268BB7777961F8D5AF396893C2ADB70FE7ADA196782C2DF776D7A97B5933C430F1
310
5651E5469C55D70F80A4992A3ADC954792C525AE70A1E4D6AD9816CC044FEFDF01FE3FDE907802504B0304140006080800D5688B4FE8269C5BF9000000960100003B0000006662782F39373338433846352D363546382D344637382D394341362D4134313344374333354244422F7265736F75726365732F636F72652E786D
310
6C8550CB6E833010FC15B477436C120A9171A492E40B7AEACD321B6A25D8C88FAA9F5F3B50A93DF5B4ABD999D9DDE1A7AFF9517CA2F3DA9A1E68B983028DB2A336530F31DC480BC54970676DF84583C2C8197BC830083E391B970D52D60434193576C40D94DE6380423D52D383571F38CB52C69018FE5E2E52DDE584252D57
310
9EE031EA7193EA31B9E99B4607E27C604DDB361D19866B43F66D5B93AEA3949C6BF67A182E2FD7B6BBF02A8B050F7AFED9AE1CCA802308B6A31DA18C50FA46EBE3AE39EED93BAF3253701F5CFA795B9ABF03E1D0DBE8147A5EADD33FAE7119FF778DDA849A6DAEABC283A0E9C8E740F02AA794CA33C25473A2E21B504B0304
310
140006080800D5688B4F3F77E8A3F2000000B1010000310000006662782F39373338433846352D363546382D344637382D394341362D4134313344374333354244422F636F72652E786D6C8D50CB6EC32010FC156BEFD8C6EF44982871E42FE8A9378489831283C5A3EAE71762576A6F392D9A9D6166879CBE9767F2258C95
310
5AF580D31C12A1B89EA49A7BF0EE863A484E9418ADDD1F1A248A2DA287080325B3D17EDD21AE95132AA24A4F620799B5C241C29FE1D183E577B1B094791718F691AE8C3FD82C529C6E3C4A9C5C7EA5DC08E6C404B4C8F101E10261FC81CB63DE1CABE29364914989F772DAADE414DCE54D0A03F4D096DDD08D356AEAB143D5
310
D876E8309C1B74AE70796D87B2BE5C2F248B624AAC33E1E6FD9378DDBBF24DF82FB35FA737324BE5CA6237DC1416280E795E0B4AB2586018AF76C38C65D31F504B0304140006080800D5688B4F7C75ED5454010000DD0200000C0000006662782F636F72652E786D6C8D52DB8E832014FC15C33B2ADABADA204DB6972FD8A7
310
7DA3485D52058360FAF90B5EE2FAB0DD8D099239E7CC9C99808FCFB60906AE7BA16409501883804BA62A21EB1258738739088E046BA5CC8F361048DAF2127818105C6B65BB19624A1A2E3D2A55C56790F63D3720608DBB94A0675FBCA521B5C675F48FB0A3EC416B1EA270EA23D85A51CDA3A2726CE22EB806E4BC4FB23CCF
310
0A783A5D33B8CBF314160542F09C26EFFBD3E5ED9A17171CF961828D681775A63935BC0224895101510211FA40E921CE0EBBE41347BE93E0DE68E77916F5EE00B9DF9E389AF00D9FEDAABFF9AC90264D66BE69A20704B9F5C602C191CFC7FDC6F0B6193A61979FA1B766B1F070D0C099517AE72A95B26B69A08DE58E3A0EC6
310
0F4753D5318F04BFF1242F785E73B8A0A8ACDD6AD4B8EBCD1AAFBEDDA9E31A0EE61948A55BDAACCB4D2BAEE72AB4B1B48C33D528FD9FE9C5EA1266E41F26F906504B0304140006080800D5688B4FC9FAD78608010000B201000008000000636F72652E786D6C8D50416EC32010FC0ADA3BB6B113D78E3091EA242FE8A9376A
310
8883628365206A7F5F88A9D4DE7A5A3433BB330C3D7ECE137AC8D52AA33B20590148EAC108A5C70EBCBBE206D091D1D518F74B0648F35976106160745C8D5F123418EDA48EA8364226905B2B1DA0610A8F0EEC709333CFB8774161EFD9C2873B1F6546B24DC7A853F3CFEAB04AEEA4005616A4C5A4C484BC91EA50D4875DF9
310
4EF3A864D47B25929512C15D5D955C819DF665DD34758BFBFE52E35DD354B86D09C1A7AA7CDDF7E7974BD39E691E9719B56E0D7F4E47424E872C7F445F9A6F14A31FC64C4910420964F4F405ACA07924FE84F68BF84768A55D55A683DB86054642A027118C6383613CEB0D33B6CDBE01504B01021400140006080800D5688B
310
4F0000000000000000000000003700000000000000000000000000000000006662782F39373338433846352D363546382D344637382D394341362D4134313344374333354244422F617474726962757465732E62696E504B01021400140006080800D5688B4F00000000000000000000000035000000000000000000000000
310
00550000006662782F39373338433846352D363546382D344637382D394341362D4134313344374333354244422F76657274696365732E62696E504B01021400140006080800D5688B4FF270F13306000000040000003600000000000000000000000000A80000006662782F39373338433846352D363546382D344637382D
310
394341362D4134313344374333354244422F747269616E676C65732E62696E504B01021400140006080800D5688B4F51464CB489000000430100003600000000000000000000000000020100006662782F39373338433846352D363546382D344637382D394341362D4134313344374333354244422F6469726563746F7279
310
2E786D6C504B01021400140006080800D5688B4F734A388D360700001A1C00003400000000000000000000000000DF0100006662782F39373338433846352D363546382D344637382D394341362D4134313344374333354244422F6F626A656374732E786D6C504B01021400140006080800D5688B4FA2DEA4F33E01000046
310
0500003000000000000000000000000000670900006662782F39373338433846352D363546382D344637382D394341362D4134313344374333354244422F636E782E786D6C504B01021400140006080800D5688B4FBB99A7A67E000000A30000000B00000000000000000000000000F30A00006662782F636E782E786D6C50
310
4B01021400140006080800D5688B4FA6D797065F0000008200000007000000000000000000000000009A0B0000636E782E786D6C504B01021400140006080800D5688B4F4FEB6A7CA0000000F400000013000000000000000000000000001E0C00005B436F6E74656E745F54797065735D2E786D6C504B0102140014000608
310
0800D5688B4F3DEE336E64000000790000001B00000000000000000000000000EF0C00006175746F6465736B2D64657369676E2D7061636B6167652E786D6C504B01021400140006080800D5688B4FE8269C5BF9000000960100003B000000000000000000000000008C0D00006662782F39373338433846352D363546382D
310
344637382D394341362D4134313344374333354244422F7265736F75726365732F636F72652E786D6C504B01021400140006080800D5688B4F3F77E8A3F2000000B10100003100000000000000000000000000DE0E00006662782F39373338433846352D363546382D344637382D394341362D413431334437433335424442
310
2F636F72652E786D6C504B01021400140006080800D5688B4F7C75ED5454010000DD0200000C000000000000000000000000001F1000006662782F636F72652E786D6C504B01021400140006080800D5688B4FC9FAD78608010000B201000008000000000000000000000000009D110000636F72652E786D6C504B05060000
310
00000E000E0080040000CB1200000000
  0
XRECORD
  5
80A4
102
{ACAD_REACTORS
330
809F
102
}
330
809F
100
AcDbXrecord
280
     1
270
     1
271
     1
  0
XRECORD
  5
80A3
102
{ACAD_REACTORS
330
809F
102
}
330
809F
100
AcDbXrecord
280
     1
270
     1
271
     1
  0
XRECORD
  5
80A5
102
{ACAD_REACTORS
330
809F
102
}
330
809F
100
AcDbXrecord
280
     1
270
     1
271
     1
  0
XRECORD
  5
80A2
102
{ACAD_REACTORS
330
809F
102
}
330
809F
100
AcDbXrecord
280
     1
270
     1
271
     1
  0
XRECORD
  5
87EA
102
{ACAD_REACTORS
330
87E9
102
}
330
87E9
100
AcDbXrecord
280
     1
102
ACAD_ROUNDTRIP_2012_MLEADER_STYLE
298
     1
  0
XRECORD
  5
87ED
102
{ACAD_REACTORS
330
878F
102
}
330
878F
100
AcDbXrecord
280
     1
102
DISPLAYNAME
  1
Imperial24
102
FLAGS
 90
        0
  0
XRECORD
  5
87EB
102
{ACAD_REACTORS
330
878B
102
}
330
878B
100
AcDbXrecord
280
     1
102
DISPLAYNAME
  1
Metric50
102
FLAGS
 90
        0
  0
CELLSTYLEMAP
  5
87A5
102
{ACAD_REACTORS
330
87A4
102
}
330
87A4
100
AcDbCellStyleMap
 90
        3
300
CELLSTYLE
  1
TABLEFORMAT_BEGIN
 90
        5
170
     1
 91
        0
 92
    32768
 62
   257
 93
        1
300
CONTENTFORMAT
  1
CONTENTFORMAT_BEGIN
 90
        0
 91
        0
 92
      512
 93
        0
300

 40
0.0
140
1.0
 94
        5
 62
     0
340
10
144
6.0
309
CONTENTFORMAT_END
171
     1
301
MARGIN
  1
CELLMARGIN_BEGIN
 40
1.5
 40
1.5
 40
1.5
 40
1.5
 40
4.5
 40
4.5
309
CELLMARGIN_END
 94
        6
 95
        1
302
GRIDFORMAT
  1
GRIDFORMAT_BEGIN
 90
        0
 91
        1
 62
     0
 92
       -2
340
0
 93
        0
 40
1.125
309
GRIDFORMAT_END
 95
        2
302
GRIDFORMAT
  1
GRIDFORMAT_BEGIN
 90
        0
 91
        1
 62
     0
 92
       -2
340
0
 93
        0
 40
1.125
309
GRIDFORMAT_END
 95
        4
302
GRIDFORMAT
  1
GRIDFORMAT_BEGIN
 90
        0
 91
        1
 62
     0
 92
       -2
340
0
 93
        0
 40
1.125
309
GRIDFORMAT_END
 95
        8
302
GRIDFORMAT
  1
GRIDFORMAT_BEGIN
 90
        0
 91
        1
 62
     0
 92
       -2
340
0
 93
        0
 40
1.125
309
GRIDFORMAT_END
 95
       16
302
GRIDFORMAT
  1
GRIDFORMAT_BEGIN
 90
        0
 91
        1
 62
     0
 92
       -2
340
0
 93
        0
 40
1.125
309
GRIDFORMAT_END
 95
       32
302
GRIDFORMAT
  1
GRIDFORMAT_BEGIN
 90
        0
 91
        1
 62
     0
 92
       -2
340
0
 93
        0
 40
1.125
309
GRIDFORMAT_END
309
TABLEFORMAT_END
  1
CELLSTYLE_BEGIN
 90
        1
 91
        1
300
_TITLE
309
CELLSTYLE_END
300
CELLSTYLE
  1
TABLEFORMAT_BEGIN
 90
        5
170
     1
 91
        0
 92
        0
 62
   257
 93
        1
300
CONTENTFORMAT
  1
CONTENTFORMAT_BEGIN
 90
        0
 91
        0
 92
      512
 93
        0
300

 40
0.0
140
1.0
 94
        5
 62
     0
340
10
144
4.5
309
CONTENTFORMAT_END
171
     1
301
MARGIN
  1
CELLMARGIN_BEGIN
 40
1.5
 40
1.5
 40
1.5
 40
1.5
 40
4.5
 40
4.5
309
CELLMARGIN_END
 94
        6
 95
        1
302
GRIDFORMAT
  1
GRIDFORMAT_BEGIN
 90
        0
 91
        1
 62
     0
 92
       -2
340
0
 93
        0
 40
1.125
309
GRIDFORMAT_END
 95
        2
302
GRIDFORMAT
  1
GRIDFORMAT_BEGIN
 90
        0
 91
        1
 62
     0
 92
       -2
340
0
 93
        0
 40
1.125
309
GRIDFORMAT_END
 95
        4
302
GRIDFORMAT
  1
GRIDFORMAT_BEGIN
 90
        0
 91
        1
 62
     0
 92
       -2
340
0
 93
        0
 40
1.125
309
GRIDFORMAT_END
 95
        8
302
GRIDFORMAT
  1
GRIDFORMAT_BEGIN
 90
        0
 91
        1
 62
     0
 92
       -2
340
0
 93
        0
 40
1.125
309
GRIDFORMAT_END
 95
       16
302
GRIDFORMAT
  1
GRIDFORMAT_BEGIN
 90
        0
 91
        1
 62
     0
 92
       -2
340
0
 93
        0
 40
1.125
309
GRIDFORMAT_END
 95
       32
302
GRIDFORMAT
  1
GRIDFORMAT_BEGIN
 90
        0
 91
        1
 62
     0
 92
       -2
340
0
 93
        0
 40
1.125
309
GRIDFORMAT_END
309
TABLEFORMAT_END
  1
CELLSTYLE_BEGIN
 90
        2
 91
        1
300
_HEADER
309
CELLSTYLE_END
300
CELLSTYLE
  1
TABLEFORMAT_BEGIN
 90
        5
170
     1
 91
        0
 92
        0
 62
   257
 93
        1
300
CONTENTFORMAT
  1
CONTENTFORMAT_BEGIN
 90
        0
 91
        0
 92
      512
 93
        0
300

 40
0.0
140
1.0
 94
        2
 62
     0
340
10
144
4.5
309
CONTENTFORMAT_END
171
     1
301
MARGIN
  1
CELLMARGIN_BEGIN
 40
1.5
 40
1.5
 40
1.5
 40
1.5
 40
4.5
 40
4.5
309
CELLMARGIN_END
 94
        6
 95
        1
302
GRIDFORMAT
  1
GRIDFORMAT_BEGIN
 90
        0
 91
        1
 62
     0
 92
       -2
340
0
 93
        0
 40
1.125
309
GRIDFORMAT_END
 95
        2
302
GRIDFORMAT
  1
GRIDFORMAT_BEGIN
 90
        0
 91
        1
 62
     0
 92
       -2
340
0
 93
        0
 40
1.125
309
GRIDFORMAT_END
 95
        4
302
GRIDFORMAT
  1
GRIDFORMAT_BEGIN
 90
        0
 91
        1
 62
     0
 92
       -2
340
0
 93
        0
 40
1.125
309
GRIDFORMAT_END
 95
        8
302
GRIDFORMAT
  1
GRIDFORMAT_BEGIN
 90
        0
 91
        1
 62
     0
 92
       -2
340
0
 93
        0
 40
1.125
309
GRIDFORMAT_END
 95
       16
302
GRIDFORMAT
  1
GRIDFORMAT_BEGIN
 90
        0
 91
        1
 62
     0
 92
       -2
340
0
 93
        0
 40
1.125
309
GRIDFORMAT_END
 95
       32
302
GRIDFORMAT
  1
GRIDFORMAT_BEGIN
 90
        0
 91
        1
 62
     0
 92
       -2
340
0
 93
        0
 40
1.125
309
GRIDFORMAT_END
309
TABLEFORMAT_END
  1
CELLSTYLE_BEGIN
 90
        3
 91
        2
300
_DATA
309
CELLSTYLE_END
  0
XRECORD
  5
87E7
102
{ACAD_REACTORS
330
87A4
102
}
330
87A4
100
AcDbXrecord
280
     1
102
ACAD_ROUNDTRIP_PRE2007_TABLESTYLE
 90
      512
 91
        0
  1

 92
      512
 93
        0
  2

 94
      512
 95
        0
  3

  0
XRECORD
  5
87C2
102
{ACAD_REACTORS
330
87C1
102
}
330
87C1
100
AcDbXrecord
280
     1
102
RTVSPost2010Prop28
280
     1
102
RTVSPost2010PropOp28
 70
     1
102
RTVSPost2010Prop29
280
     1
102
RTVSPost2010PropOp29
 70
     1
102
RTVSPost2010Prop30
280
     0
102
RTVSPost2010PropOp30
 70
     1
102
RTVSPost2010Prop31
280
     0
102
RTVSPost2010PropOp31
 70
     1
102
RTVSPost2010Prop32
280
     0
102
RTVSPost2010PropOp32
 70
     1
102
RTVSPost2010Prop33
280
     0
102
RTVSPost2010PropOp33
 70
     1
102
RTVSPost2010Prop34
280
     0
102
RTVSPost2010PropOp34
 70
     1
102
RTVSPost2010Prop35
280
     0
102
RTVSPost2010PropOp35
 70
     1
102
RTVSPost2010Prop36
280
     0
102
RTVSPost2010PropOp36
 70
     1
102
RTVSPost2010Prop37
 90
       50
102
RTVSPost2010PropOp37
 70
     1
102
RTVSPost2010Prop38
140
0.0
102
RTVSPost2010PropOp38
 70
     1
102
RTVSPost2010Prop39
140
1.0
102
RTVSPost2010PropOp39
 70
     1
102
RTVSPost2010Prop40
 90
        0
102
RTVSPost2010PropOp40
 70
     1
102
RTVSPost2010Prop41ColorIndex
 90
       18
102
RTVSPost2010Prop41ColorRGB
 90
        0
102
RTVSPost2010PropOp41
 70
     1
102
RTVSPost2010Prop42
 90
       50
102
RTVSPost2010PropOp42
 70
     1
102
RTVSPost2010Prop43
 90
        3
102
RTVSPost2010PropOp43
 70
     1
102
RTVSPost2010Prop44ColorIndex
 90
        5
102
RTVSPost2010Prop44ColorRGB
 90
      255
102
RTVSPost2010PropOp44
 70
     1
102
RTVSPost2010Prop45
280
     0
102
RTVSPost2010PropOp45
 70
     1
102
RTVSPost2010Prop46
 90
       50
102
RTVSPost2010PropOp46
 70
     1
102
RTVSPost2010Prop47
 90
       50
102
RTVSPost2010PropOp47
 70
     1
102
RTVSPost2010Prop48
 90
       50
102
RTVSPost2010PropOp48
 70
     1
102
RTVSPost2010Prop49
280
     0
102
RTVSPost2010PropOp49
 70
     1
102
RTVSPost2010Prop50
 90
       50
102
RTVSPost2010PropOp50
 70
     1
102
RTVSPost2010Prop51ColorIndex
 90
      256
102
RTVSPost2010Prop51ColorRGB
 90
-16777216
102
RTVSPost2010PropOp51
 70
     0
102
RTVSPost2010Prop52
140
1.0
102
RTVSPost2010PropOp52
 70
     0
102
RTVSPost2010Prop53
 90
        2
102
RTVSPost2010PropOp53
 70
     1
102
RTVSPost2010Prop54
  1
strokes_ogs.tif
102
RTVSPost2010PropOp54
 70
     1
102
RTVSPost2010Prop55
280
     0
102
RTVSPost2010PropOp55
 70
     1
102
RTVSPost2010Prop56
140
1.0
102
RTVSPost2010PropOp56
 70
     1
102
RTVSPost2010Prop57
140
1.0
102
RTVSPost2010PropOp57
 70
     1
102
RTVSPropertyOp0
 70
     1
102
RTVSPropertyOp1
 70
     1
102
RTVSPropertyOp2
 70
     1
102
RTVSPropertyOp3
 70
     1
102
RTVSPropertyOp4
 70
     1
102
RTVSPropertyOp5
 70
     1
102
RTVSPropertyOp6
 70
     1
102
RTVSPropertyOp7
 70
     1
102
RTVSPropertyOp8
 70
     1
102
RTVSPropertyOp9
 70
     1
102
RTVSPropertyOp10
 70
     1
102
RTVSPropertyOp11
 70
     1
102
RTVSPropertyOp12
 70
     1
102
RTVSPropertyOp13
 70
     1
102
RTVSPropertyOp14
 70
     1
102
RTVSPropertyOp15
 70
     1
102
RTVSPropertyOp16
 70
     1
102
RTVSPropertyOp17
 70
     1
102
RTVSPropertyOp18
 70
     1
102
RTVSPropertyOp19
 70
     1
102
RTVSPropertyOp20
 70
     1
102
RTVSPropertyOp21
 70
     1
102
RTVSPropertyOp22
 70
     1
102
RTVSPropertyOp23
 70
     1
102
RTVSPropertyOp24
 70
     1
102
RTVSPropertyOp25
 70
     1
102
RTVSPropertyOp26
 70
     1
102
RTVSPropertyOp27
 70
     1
102
RTVSPropertyOp28
 70
     1
102
RTVSPropertyOp29
 70
     1
102
RTVSPropertyOp30
 70
     1
102
RTVSPropertyOp31
 70
     1
102
RTVSPropertyOp32
 70
     1
102
RTVSPropertyOp33
 70
     1
102
RTVSPropertyOp34
 70
     1
102
RTVSPropertyOp35
 70
     1
102
RTVSPropertyOp36
 70
     1
102
RTVSPropertyOp37
 70
     1
102
RTVSPropertyOp38
 70
     1
102
RTVSPropertyOp39
 70
     1
102
RTVSPropertyOp40
 70
     1
102
RTVSPropertyOp41
 70
     1
102
RTVSPropertyOp42
 70
     1
102
RTVSPropertyOp43
 70
     1
102
RTVSPropertyOp44
 70
     1
102
RTVSPropertyOp45
 70
     1
102
RTVSPropertyOp46
 70
     1
102
RTVSPropertyOp47
 70
     1
102
RTVSPropertyOp48
 70
     1
102
RTVSPropertyOp49
 70
     1
102
RTVSPropertyOp50
 70
     1
102
RTVSPropertyOp51
 70
     0
102
RTVSPropertyOp52
 70
     0
102
RTVSPropertyOp53
 70
     1
102
RTVSPropertyOp54
 70
     1
102
RTVSPropertyOp55
 70
     1
102
RTVSPropertyOp56
 70
     1
102
RTVSPropertyOp57
 70
     1
102
RTVSPropertyOp58
 70
     1
102
RTVSPropertyOp59
 70
     1
102
RTVSPropertyOp60
 70
     1
102
RTVSPropertyOp61
 70
     1
102
RTVSPropertyOp62
 70
     1
  0
XRECORD
  5
87C0
102
{ACAD_REACTORS
330
87BF
102
}
330
87BF
100
AcDbXrecord
280
     1
102
RTVSPost2010Prop28
280
     0
102
RTVSPost2010PropOp28
 70
     1
102
RTVSPost2010Prop29
280
     1
102
RTVSPost2010PropOp29
 70
     1
102
RTVSPost2010Prop30
280
     1
102
RTVSPost2010PropOp30
 70
     1
102
RTVSPost2010Prop31
280
     0
102
RTVSPost2010PropOp31
 70
     1
102
RTVSPost2010Prop32
280
     0
102
RTVSPost2010PropOp32
 70
     1
102
RTVSPost2010Prop33
280
     0
102
RTVSPost2010PropOp33
 70
     1
102
RTVSPost2010Prop34
280
     0
102
RTVSPost2010PropOp34
 70
     1
102
RTVSPost2010Prop35
280
     0
102
RTVSPost2010PropOp35
 70
     1
102
RTVSPost2010Prop36
280
     0
102
RTVSPost2010PropOp36
 70
     1
102
RTVSPost2010Prop37
 90
       50
102
RTVSPost2010PropOp37
 70
     1
102
RTVSPost2010Prop38
140
0.0
102
RTVSPost2010PropOp38
 70
     1
102
RTVSPost2010Prop39
140
1.0
102
RTVSPost2010PropOp39
 70
     1
102
RTVSPost2010Prop40
 90
        0
102
RTVSPost2010PropOp40
 70
     1
102
RTVSPost2010Prop41ColorIndex
 90
       18
102
RTVSPost2010Prop41ColorRGB
 90
        0
102
RTVSPost2010PropOp41
 70
     1
102
RTVSPost2010Prop42
 90
       50
102
RTVSPost2010PropOp42
 70
     1
102
RTVSPost2010Prop43
 90
        3
102
RTVSPost2010PropOp43
 70
     1
102
RTVSPost2010Prop44ColorIndex
 90
        5
102
RTVSPost2010Prop44ColorRGB
 90
      255
102
RTVSPost2010PropOp44
 70
     1
102
RTVSPost2010Prop45
280
     0
102
RTVSPost2010PropOp45
 70
     1
102
RTVSPost2010Prop46
 90
       50
102
RTVSPost2010PropOp46
 70
     1
102
RTVSPost2010Prop47
 90
       50
102
RTVSPost2010PropOp47
 70
     1
102
RTVSPost2010Prop48
 90
       50
102
RTVSPost2010PropOp48
 70
     1
102
RTVSPost2010Prop49
280
     0
102
RTVSPost2010PropOp49
 70
     1
102
RTVSPost2010Prop50
 90
       50
102
RTVSPost2010PropOp50
 70
     1
102
RTVSPost2010Prop51ColorIndex
 90
      256
102
RTVSPost2010Prop51ColorRGB
 90
-16777216
102
RTVSPost2010PropOp51
 70
     0
102
RTVSPost2010Prop52
140
1.0
102
RTVSPost2010PropOp52
 70
     0
102
RTVSPost2010Prop53
 90
        2
102
RTVSPost2010PropOp53
 70
     1
102
RTVSPost2010Prop54
  1
strokes_ogs.tif
102
RTVSPost2010PropOp54
 70
     1
102
RTVSPost2010Prop55
280
     0
102
RTVSPost2010PropOp55
 70
     1
102
RTVSPost2010Prop56
140
1.0
102
RTVSPost2010PropOp56
 70
     1
102
RTVSPost2010Prop57
140
1.0
102
RTVSPost2010PropOp57
 70
     1
102
RTVSPropertyOp0
 70
     1
102
RTVSPropertyOp1
 70
     1
102
RTVSPropertyOp2
 70
     1
102
RTVSPropertyOp3
 70
     1
102
RTVSPropertyOp4
 70
     1
102
RTVSPropertyOp5
 70
     1
102
RTVSPropertyOp6
 70
     1
102
RTVSPropertyOp7
 70
     1
102
RTVSPropertyOp8
 70
     1
102
RTVSPropertyOp9
 70
     1
102
RTVSPropertyOp10
 70
     1
102
RTVSPropertyOp11
 70
     1
102
RTVSPropertyOp12
 70
     1
102
RTVSPropertyOp13
 70
     1
102
RTVSPropertyOp14
 70
     1
102
RTVSPropertyOp15
 70
     1
102
RTVSPropertyOp16
 70
     1
102
RTVSPropertyOp17
 70
     1
102
RTVSPropertyOp18
 70
     1
102
RTVSPropertyOp19
 70
     1
102
RTVSPropertyOp20
 70
     1
102
RTVSPropertyOp21
 70
     1
102
RTVSPropertyOp22
 70
     1
102
RTVSPropertyOp23
 70
     1
102
RTVSPropertyOp24
 70
     1
102
RTVSPropertyOp25
 70
     1
102
RTVSPropertyOp26
 70
     1
102
RTVSPropertyOp27
 70
     1
102
RTVSPropertyOp28
 70
     1
102
RTVSPropertyOp29
 70
     1
102
RTVSPropertyOp30
 70
     1
102
RTVSPropertyOp31
 70
     1
102
RTVSPropertyOp32
 70
     1
102
RTVSPropertyOp33
 70
     1
102
RTVSPropertyOp34
 70
     1
102
RTVSPropertyOp35
 70
     1
102
RTVSPropertyOp36
 70
     1
102
RTVSPropertyOp37
 70
     1
102
RTVSPropertyOp38
 70
     1
102
RTVSPropertyOp39
 70
     1
102
RTVSPropertyOp40
 70
     1
102
RTVSPropertyOp41
 70
     1
102
RTVSPropertyOp42
 70
     1
102
RTVSPropertyOp43
 70
     1
102
RTVSPropertyOp44
 70
     1
102
RTVSPropertyOp45
 70
     1
102
RTVSPropertyOp46
 70
     1
102
RTVSPropertyOp47
 70
     1
102
RTVSPropertyOp48
 70
     1
102
RTVSPropertyOp49
 70
     1
102
RTVSPropertyOp50
 70
     1
102
RTVSPropertyOp51
 70
     0
102
RTVSPropertyOp52
 70
     0
102
RTVSPropertyOp53
 70
     1
102
RTVSPropertyOp54
 70
     1
102
RTVSPropertyOp55
 70
     1
102
RTVSPropertyOp56
 70
     1
102
RTVSPropertyOp57
 70
     1
102
RTVSPropertyOp58
 70
     1
102
RTVSPropertyOp59
 70
     1
102
RTVSPropertyOp60
 70
     1
102
RTVSPropertyOp61
 70
     1
102
RTVSPropertyOp62
 70
     1
  0
XRECORD
  5
87CE
102
{ACAD_REACTORS
330
87CD
102
}
330
87CD
100
AcDbXrecord
280
     1
102
RTVSPost2010Prop28
280
     0
102
RTVSPost2010PropOp28
 70
     1
102
RTVSPost2010Prop29
280
     1
102
RTVSPost2010PropOp29
 70
     1
102
RTVSPost2010Prop30
280
     1
102
RTVSPost2010PropOp30
 70
     1
102
RTVSPost2010Prop31
280
     0
102
RTVSPost2010PropOp31
 70
     1
102
RTVSPost2010Prop32
280
     0
102
RTVSPost2010PropOp32
 70
     1
102
RTVSPost2010Prop33
280
     0
102
RTVSPost2010PropOp33
 70
     1
102
RTVSPost2010Prop34
280
     0
102
RTVSPost2010PropOp34
 70
     1
102
RTVSPost2010Prop35
280
     0
102
RTVSPost2010PropOp35
 70
     1
102
RTVSPost2010Prop36
280
     0
102
RTVSPost2010PropOp36
 70
     1
102
RTVSPost2010Prop37
 90
       50
102
RTVSPost2010PropOp37
 70
     1
102
RTVSPost2010Prop38
140
0.0
102
RTVSPost2010PropOp38
 70
     1
102
RTVSPost2010Prop39
140
1.0
102
RTVSPost2010PropOp39
 70
     1
102
RTVSPost2010Prop40
 90
        0
102
RTVSPost2010PropOp40
 70
     1
102
RTVSPost2010Prop41ColorIndex
 90
       18
102
RTVSPost2010Prop41ColorRGB
 90
        0
102
RTVSPost2010PropOp41
 70
     1
102
RTVSPost2010Prop42
 90
       50
102
RTVSPost2010PropOp42
 70
     1
102
RTVSPost2010Prop43
 90
        3
102
RTVSPost2010PropOp43
 70
     1
102
RTVSPost2010Prop44ColorIndex
 90
        5
102
RTVSPost2010Prop44ColorRGB
 90
      255
102
RTVSPost2010PropOp44
 70
     1
102
RTVSPost2010Prop45
280
     0
102
RTVSPost2010PropOp45
 70
     1
102
RTVSPost2010Prop46
 90
       50
102
RTVSPost2010PropOp46
 70
     1
102
RTVSPost2010Prop47
 90
       50
102
RTVSPost2010PropOp47
 70
     1
102
RTVSPost2010Prop48
 90
       50
102
RTVSPost2010PropOp48
 70
     1
102
RTVSPost2010Prop49
280
     0
102
RTVSPost2010PropOp49
 70
     1
102
RTVSPost2010Prop50
 90
       50
102
RTVSPost2010PropOp50
 70
     1
102
RTVSPost2010Prop51ColorIndex
 90
      256
102
RTVSPost2010Prop51ColorRGB
 90
-16777216
102
RTVSPost2010PropOp51
 70
     0
102
RTVSPost2010Prop52
140
1.0
102
RTVSPost2010PropOp52
 70
     0
102
RTVSPost2010Prop53
 90
        2
102
RTVSPost2010PropOp53
 70
     1
102
RTVSPost2010Prop54
  1
strokes_ogs.tif
102
RTVSPost2010PropOp54
 70
     1
102
RTVSPost2010Prop55
280
     0
102
RTVSPost2010PropOp55
 70
     1
102
RTVSPost2010Prop56
140
1.0
102
RTVSPost2010PropOp56
 70
     1
102
RTVSPost2010Prop57
140
1.0
102
RTVSPost2010PropOp57
 70
     1
102
RTVSPropertyOp0
 70
     1
102
RTVSPropertyOp1
 70
     1
102
RTVSPropertyOp2
 70
     1
102
RTVSPropertyOp3
 70
     1
102
RTVSPropertyOp4
 70
     1
102
RTVSPropertyOp5
 70
     1
102
RTVSPropertyOp6
 70
     1
102
RTVSPropertyOp7
 70
     1
102
RTVSPropertyOp8
 70
     1
102
RTVSPropertyOp9
 70
     1
102
RTVSPropertyOp10
 70
     1
102
RTVSPropertyOp11
 70
     1
102
RTVSPropertyOp12
 70
     1
102
RTVSPropertyOp13
 70
     1
102
RTVSPropertyOp14
 70
     1
102
RTVSPropertyOp15
 70
     1
102
RTVSPropertyOp16
 70
     1
102
RTVSPropertyOp17
 70
     1
102
RTVSPropertyOp18
 70
     1
102
RTVSPropertyOp19
 70
     1
102
RTVSPropertyOp20
 70
     1
102
RTVSPropertyOp21
 70
     1
102
RTVSPropertyOp22
 70
     1
102
RTVSPropertyOp23
 70
     1
102
RTVSPropertyOp24
 70
     1
102
RTVSPropertyOp25
 70
     1
102
RTVSPropertyOp26
 70
     1
102
RTVSPropertyOp27
 70
     1
102
RTVSPropertyOp28
 70
     1
102
RTVSPropertyOp29
 70
     1
102
RTVSPropertyOp30
 70
     1
102
RTVSPropertyOp31
 70
     1
102
RTVSPropertyOp32
 70
     1
102
RTVSPropertyOp33
 70
     1
102
RTVSPropertyOp34
 70
     1
102
RTVSPropertyOp35
 70
     1
102
RTVSPropertyOp36
 70
     1
102
RTVSPropertyOp37
 70
     1
102
RTVSPropertyOp38
 70
     1
102
RTVSPropertyOp39
 70
     1
102
RTVSPropertyOp40
 70
     1
102
RTVSPropertyOp41
 70
     1
102
RTVSPropertyOp42
 70
     1
102
RTVSPropertyOp43
 70
     1
102
RTVSPropertyOp44
 70
     1
102
RTVSPropertyOp45
 70
     1
102
RTVSPropertyOp46
 70
     1
102
RTVSPropertyOp47
 70
     1
102
RTVSPropertyOp48
 70
     1
102
RTVSPropertyOp49
 70
     1
102
RTVSPropertyOp50
 70
     1
102
RTVSPropertyOp51
 70
     0
102
RTVSPropertyOp52
 70
     0
102
RTVSPropertyOp53
 70
     1
102
RTVSPropertyOp54
 70
     1
102
RTVSPropertyOp55
 70
     1
102
RTVSPropertyOp56
 70
     1
102
RTVSPropertyOp57
 70
     1
102
RTVSPropertyOp58
 70
     1
102
RTVSPropertyOp59
 70
     1
102
RTVSPropertyOp60
 70
     1
102
RTVSPropertyOp61
 70
     1
102
RTVSPropertyOp62
 70
     1
  0
XRECORD
  5
87D6
102
{ACAD_REACTORS
330
87D5
102
}
330
87D5
100
AcDbXrecord
280
     1
102
RTVSPost2010Prop28
280
     0
102
RTVSPost2010PropOp28
 70
     1
102
RTVSPost2010Prop29
280
     1
102
RTVSPost2010PropOp29
 70
     1
102
RTVSPost2010Prop30
280
     1
102
RTVSPost2010PropOp30
 70
     1
102
RTVSPost2010Prop31
280
     0
102
RTVSPost2010PropOp31
 70
     1
102
RTVSPost2010Prop32
280
     0
102
RTVSPost2010PropOp32
 70
     1
102
RTVSPost2010Prop33
280
     0
102
RTVSPost2010PropOp33
 70
     1
102
RTVSPost2010Prop34
280
     0
102
RTVSPost2010PropOp34
 70
     1
102
RTVSPost2010Prop35
280
     0
102
RTVSPost2010PropOp35
 70
     1
102
RTVSPost2010Prop36
280
     0
102
RTVSPost2010PropOp36
 70
     1
102
RTVSPost2010Prop37
 90
       50
102
RTVSPost2010PropOp37
 70
     1
102
RTVSPost2010Prop38
140
0.0
102
RTVSPost2010PropOp38
 70
     1
102
RTVSPost2010Prop39
140
1.0
102
RTVSPost2010PropOp39
 70
     1
102
RTVSPost2010Prop40
 90
        0
102
RTVSPost2010PropOp40
 70
     1
102
RTVSPost2010Prop41ColorIndex
 90
       18
102
RTVSPost2010Prop41ColorRGB
 90
        0
102
RTVSPost2010PropOp41
 70
     1
102
RTVSPost2010Prop42
 90
       50
102
RTVSPost2010PropOp42
 70
     1
102
RTVSPost2010Prop43
 90
        3
102
RTVSPost2010PropOp43
 70
     1
102
RTVSPost2010Prop44ColorIndex
 90
        5
102
RTVSPost2010Prop44ColorRGB
 90
      255
102
RTVSPost2010PropOp44
 70
     1
102
RTVSPost2010Prop45
280
     0
102
RTVSPost2010PropOp45
 70
     1
102
RTVSPost2010Prop46
 90
       50
102
RTVSPost2010PropOp46
 70
     1
102
RTVSPost2010Prop47
 90
       50
102
RTVSPost2010PropOp47
 70
     1
102
RTVSPost2010Prop48
 90
       50
102
RTVSPost2010PropOp48
 70
     1
102
RTVSPost2010Prop49
280
     0
102
RTVSPost2010PropOp49
 70
     1
102
RTVSPost2010Prop50
 90
       50
102
RTVSPost2010PropOp50
 70
     1
102
RTVSPost2010Prop51ColorIndex
 90
      256
102
RTVSPost2010Prop51ColorRGB
 90
-16777216
102
RTVSPost2010PropOp51
 70
     0
102
RTVSPost2010Prop52
140
1.0
102
RTVSPost2010PropOp52
 70
     0
102
RTVSPost2010Prop53
 90
        2
102
RTVSPost2010PropOp53
 70
     1
102
RTVSPost2010Prop54
  1
strokes_ogs.tif
102
RTVSPost2010PropOp54
 70
     1
102
RTVSPost2010Prop55
280
     0
102
RTVSPost2010PropOp55
 70
     1
102
RTVSPost2010Prop56
140
1.0
102
RTVSPost2010PropOp56
 70
     1
102
RTVSPost2010Prop57
140
1.0
102
RTVSPost2010PropOp57
 70
     1
102
RTVSPropertyOp0
 70
     1
102
RTVSPropertyOp1
 70
     1
102
RTVSPropertyOp2
 70
     1
102
RTVSPropertyOp3
 70
     1
102
RTVSPropertyOp4
 70
     1
102
RTVSPropertyOp5
 70
     1
102
RTVSPropertyOp6
 70
     1
102
RTVSPropertyOp7
 70
     1
102
RTVSPropertyOp8
 70
     1
102
RTVSPropertyOp9
 70
     1
102
RTVSPropertyOp10
 70
     1
102
RTVSPropertyOp11
 70
     1
102
RTVSPropertyOp12
 70
     1
102
RTVSPropertyOp13
 70
     1
102
RTVSPropertyOp14
 70
     1
102
RTVSPropertyOp15
 70
     1
102
RTVSPropertyOp16
 70
     1
102
RTVSPropertyOp17
 70
     1
102
RTVSPropertyOp18
 70
     1
102
RTVSPropertyOp19
 70
     1
102
RTVSPropertyOp20
 70
     1
102
RTVSPropertyOp21
 70
     1
102
RTVSPropertyOp22
 70
     1
102
RTVSPropertyOp23
 70
     1
102
RTVSPropertyOp24
 70
     1
102
RTVSPropertyOp25
 70
     1
102
RTVSPropertyOp26
 70
     1
102
RTVSPropertyOp27
 70
     1
102
RTVSPropertyOp28
 70
     1
102
RTVSPropertyOp29
 70
     1
102
RTVSPropertyOp30
 70
     1
102
RTVSPropertyOp31
 70
     1
102
RTVSPropertyOp32
 70
     1
102
RTVSPropertyOp33
 70
     1
102
RTVSPropertyOp34
 70
     1
102
RTVSPropertyOp35
 70
     1
102
RTVSPropertyOp36
 70
     1
102
RTVSPropertyOp37
 70
     1
102
RTVSPropertyOp38
 70
     1
102
RTVSPropertyOp39
 70
     1
102
RTVSPropertyOp40
 70
     1
102
RTVSPropertyOp41
 70
     1
102
RTVSPropertyOp42
 70
     1
102
RTVSPropertyOp43
 70
     1
102
RTVSPropertyOp44
 70
     1
102
RTVSPropertyOp45
 70
     1
102
RTVSPropertyOp46
 70
     1
102
RTVSPropertyOp47
 70
     1
102
RTVSPropertyOp48
 70
     1
102
RTVSPropertyOp49
 70
     1
102
RTVSPropertyOp50
 70
     1
102
RTVSPropertyOp51
 70
     0
102
RTVSPropertyOp52
 70
     0
102
RTVSPropertyOp53
 70
     1
102
RTVSPropertyOp54
 70
     1
102
RTVSPropertyOp55
 70
     1
102
RTVSPropertyOp56
 70
     1
102
RTVSPropertyOp57
 70
     1
102
RTVSPropertyOp58
 70
     1
102
RTVSPropertyOp59
 70
     1
102
RTVSPropertyOp60
 70
     1
102
RTVSPropertyOp61
 70
     1
102
RTVSPropertyOp62
 70
     1
  0
XRECORD
  5
87C8
102
{ACAD_REACTORS
330
87C7
102
}
330
87C7
100
AcDbXrecord
280
     1
102
RTVSPost2010Prop28
280
     0
102
RTVSPost2010PropOp28
 70
     1
102
RTVSPost2010Prop29
280
     1
102
RTVSPost2010PropOp29
 70
     1
102
RTVSPost2010Prop30
280
     1
102
RTVSPost2010PropOp30
 70
     1
102
RTVSPost2010Prop31
280
     0
102
RTVSPost2010PropOp31
 70
     1
102
RTVSPost2010Prop32
280
     0
102
RTVSPost2010PropOp32
 70
     1
102
RTVSPost2010Prop33
280
     0
102
RTVSPost2010PropOp33
 70
     1
102
RTVSPost2010Prop34
280
     0
102
RTVSPost2010PropOp34
 70
     1
102
RTVSPost2010Prop35
280
     0
102
RTVSPost2010PropOp35
 70
     1
102
RTVSPost2010Prop36
280
     0
102
RTVSPost2010PropOp36
 70
     1
102
RTVSPost2010Prop37
 90
       50
102
RTVSPost2010PropOp37
 70
     1
102
RTVSPost2010Prop38
140
0.0
102
RTVSPost2010PropOp38
 70
     1
102
RTVSPost2010Prop39
140
1.0
102
RTVSPost2010PropOp39
 70
     1
102
RTVSPost2010Prop40
 90
        0
102
RTVSPost2010PropOp40
 70
     1
102
RTVSPost2010Prop41ColorIndex
 90
       18
102
RTVSPost2010Prop41ColorRGB
 90
        0
102
RTVSPost2010PropOp41
 70
     1
102
RTVSPost2010Prop42
 90
       50
102
RTVSPost2010PropOp42
 70
     1
102
RTVSPost2010Prop43
 90
        3
102
RTVSPost2010PropOp43
 70
     1
102
RTVSPost2010Prop44ColorIndex
 90
        5
102
RTVSPost2010Prop44ColorRGB
 90
      255
102
RTVSPost2010PropOp44
 70
     1
102
RTVSPost2010Prop45
280
     0
102
RTVSPost2010PropOp45
 70
     1
102
RTVSPost2010Prop46
 90
       50
102
RTVSPost2010PropOp46
 70
     1
102
RTVSPost2010Prop47
 90
       50
102
RTVSPost2010PropOp47
 70
     1
102
RTVSPost2010Prop48
 90
       50
102
RTVSPost2010PropOp48
 70
     1
102
RTVSPost2010Prop49
280
     0
102
RTVSPost2010PropOp49
 70
     1
102
RTVSPost2010Prop50
 90
       50
102
RTVSPost2010PropOp50
 70
     1
102
RTVSPost2010Prop51ColorIndex
 90
      256
102
RTVSPost2010Prop51ColorRGB
 90
-16777216
102
RTVSPost2010PropOp51
 70
     0
102
RTVSPost2010Prop52
140
1.0
102
RTVSPost2010PropOp52
 70
     0
102
RTVSPost2010Prop53
 90
        2
102
RTVSPost2010PropOp53
 70
     1
102
RTVSPost2010Prop54
  1
strokes_ogs.tif
102
RTVSPost2010PropOp54
 70
     1
102
RTVSPost2010Prop55
280
     0
102
RTVSPost2010PropOp55
 70
     1
102
RTVSPost2010Prop56
140
1.0
102
RTVSPost2010PropOp56
 70
     1
102
RTVSPost2010Prop57
140
1.0
102
RTVSPost2010PropOp57
 70
     1
102
RTVSPropertyOp0
 70
     1
102
RTVSPropertyOp1
 70
     1
102
RTVSPropertyOp2
 70
     1
102
RTVSPropertyOp3
 70
     1
102
RTVSPropertyOp4
 70
     1
102
RTVSPropertyOp5
 70
     1
102
RTVSPropertyOp6
 70
     1
102
RTVSPropertyOp7
 70
     1
102
RTVSPropertyOp8
 70
     1
102
RTVSPropertyOp9
 70
     1
102
RTVSPropertyOp10
 70
     1
102
RTVSPropertyOp11
 70
     1
102
RTVSPropertyOp12
 70
     1
102
RTVSPropertyOp13
 70
     1
102
RTVSPropertyOp14
 70
     1
102
RTVSPropertyOp15
 70
     1
102
RTVSPropertyOp16
 70
     1
102
RTVSPropertyOp17
 70
     1
102
RTVSPropertyOp18
 70
     1
102
RTVSPropertyOp19
 70
     1
102
RTVSPropertyOp20
 70
     1
102
RTVSPropertyOp21
 70
     1
102
RTVSPropertyOp22
 70
     1
102
RTVSPropertyOp23
 70
     1
102
RTVSPropertyOp24
 70
     1
102
RTVSPropertyOp25
 70
     1
102
RTVSPropertyOp26
 70
     1
102
RTVSPropertyOp27
 70
     1
102
RTVSPropertyOp28
 70
     1
102
RTVSPropertyOp29
 70
     1
102
RTVSPropertyOp30
 70
     1
102
RTVSPropertyOp31
 70
     1
102
RTVSPropertyOp32
 70
     1
102
RTVSPropertyOp33
 70
     1
102
RTVSPropertyOp34
 70
     1
102
RTVSPropertyOp35
 70
     1
102
RTVSPropertyOp36
 70
     1
102
RTVSPropertyOp37
 70
     1
102
RTVSPropertyOp38
 70
     1
102
RTVSPropertyOp39
 70
     1
102
RTVSPropertyOp40
 70
     1
102
RTVSPropertyOp41
 70
     1
102
RTVSPropertyOp42
 70
     1
102
RTVSPropertyOp43
 70
     1
102
RTVSPropertyOp44
 70
     1
102
RTVSPropertyOp45
 70
     1
102
RTVSPropertyOp46
 70
     1
102
RTVSPropertyOp47
 70
     1
102
RTVSPropertyOp48
 70
     1
102
RTVSPropertyOp49
 70
     1
102
RTVSPropertyOp50
 70
     1
102
RTVSPropertyOp51
 70
     0
102
RTVSPropertyOp52
 70
     0
102
RTVSPropertyOp53
 70
     1
102
RTVSPropertyOp54
 70
     1
102
RTVSPropertyOp55
 70
     1
102
RTVSPropertyOp56
 70
     1
102
RTVSPropertyOp57
 70
     1
102
RTVSPropertyOp58
 70
     1
102
RTVSPropertyOp59
 70
     1
102
RTVSPropertyOp60
 70
     1
102
RTVSPropertyOp61
 70
     1
102
RTVSPropertyOp62
 70
     1
  0
XRECORD
  5
87CC
102
{ACAD_REACTORS
330
87CB
102
}
330
87CB
100
AcDbXrecord
280
     1
102
RTVSPost2010Prop28
280
     0
102
RTVSPost2010PropOp28
 70
     1
102
RTVSPost2010Prop29
280
     1
102
RTVSPost2010PropOp29
 70
     1
102
RTVSPost2010Prop30
280
     1
102
RTVSPost2010PropOp30
 70
     1
102
RTVSPost2010Prop31
280
     0
102
RTVSPost2010PropOp31
 70
     1
102
RTVSPost2010Prop32
280
     0
102
RTVSPost2010PropOp32
 70
     1
102
RTVSPost2010Prop33
280
     0
102
RTVSPost2010PropOp33
 70
     1
102
RTVSPost2010Prop34
280
     0
102
RTVSPost2010PropOp34
 70
     1
102
RTVSPost2010Prop35
280
     0
102
RTVSPost2010PropOp35
 70
     1
102
RTVSPost2010Prop36
280
     0
102
RTVSPost2010PropOp36
 70
     1
102
RTVSPost2010Prop37
 90
       50
102
RTVSPost2010PropOp37
 70
     1
102
RTVSPost2010Prop38
140
0.0
102
RTVSPost2010PropOp38
 70
     1
102
RTVSPost2010Prop39
140
1.0
102
RTVSPost2010PropOp39
 70
     1
102
RTVSPost2010Prop40
 90
        0
102
RTVSPost2010PropOp40
 70
     1
102
RTVSPost2010Prop41ColorIndex
 90
       18
102
RTVSPost2010Prop41ColorRGB
 90
        0
102
RTVSPost2010PropOp41
 70
     1
102
RTVSPost2010Prop42
 90
       50
102
RTVSPost2010PropOp42
 70
     1
102
RTVSPost2010Prop43
 90
        3
102
RTVSPost2010PropOp43
 70
     1
102
RTVSPost2010Prop44ColorIndex
 90
        5
102
RTVSPost2010Prop44ColorRGB
 90
      255
102
RTVSPost2010PropOp44
 70
     1
102
RTVSPost2010Prop45
280
     0
102
RTVSPost2010PropOp45
 70
     1
102
RTVSPost2010Prop46
 90
       50
102
RTVSPost2010PropOp46
 70
     1
102
RTVSPost2010Prop47
 90
       50
102
RTVSPost2010PropOp47
 70
     1
102
RTVSPost2010Prop48
 90
       50
102
RTVSPost2010PropOp48
 70
     1
102
RTVSPost2010Prop49
280
     0
102
RTVSPost2010PropOp49
 70
     1
102
RTVSPost2010Prop50
 90
       50
102
RTVSPost2010PropOp50
 70
     1
102
RTVSPost2010Prop51ColorIndex
 90
      256
102
RTVSPost2010Prop51ColorRGB
 90
-16777216
102
RTVSPost2010PropOp51
 70
     0
102
RTVSPost2010Prop52
140
1.0
102
RTVSPost2010PropOp52
 70
     0
102
RTVSPost2010Prop53
 90
        2
102
RTVSPost2010PropOp53
 70
     1
102
RTVSPost2010Prop54
  1
strokes_ogs.tif
102
RTVSPost2010PropOp54
 70
     1
102
RTVSPost2010Prop55
280
     0
102
RTVSPost2010PropOp55
 70
     1
102
RTVSPost2010Prop56
140
1.0
102
RTVSPost2010PropOp56
 70
     1
102
RTVSPost2010Prop57
140
1.0
102
RTVSPost2010PropOp57
 70
     1
102
RTVSPropertyOp0
 70
     1
102
RTVSPropertyOp1
 70
     1
102
RTVSPropertyOp2
 70
     1
102
RTVSPropertyOp3
 70
     1
102
RTVSPropertyOp4
 70
     1
102
RTVSPropertyOp5
 70
     1
102
RTVSPropertyOp6
 70
     1
102
RTVSPropertyOp7
 70
     1
102
RTVSPropertyOp8
 70
     1
102
RTVSPropertyOp9
 70
     1
102
RTVSPropertyOp10
 70
     1
102
RTVSPropertyOp11
 70
     1
102
RTVSPropertyOp12
 70
     1
102
RTVSPropertyOp13
 70
     1
102
RTVSPropertyOp14
 70
     1
102
RTVSPropertyOp15
 70
     1
102
RTVSPropertyOp16
 70
     1
102
RTVSPropertyOp17
 70
     1
102
RTVSPropertyOp18
 70
     1
102
RTVSPropertyOp19
 70
     1
102
RTVSPropertyOp20
 70
     1
102
RTVSPropertyOp21
 70
     1
102
RTVSPropertyOp22
 70
     1
102
RTVSPropertyOp23
 70
     1
102
RTVSPropertyOp24
 70
     1
102
RTVSPropertyOp25
 70
     1
102
RTVSPropertyOp26
 70
     1
102
RTVSPropertyOp27
 70
     1
102
RTVSPropertyOp28
 70
     1
102
RTVSPropertyOp29
 70
     1
102
RTVSPropertyOp30
 70
     1
102
RTVSPropertyOp31
 70
     1
102
RTVSPropertyOp32
 70
     1
102
RTVSPropertyOp33
 70
     1
102
RTVSPropertyOp34
 70
     1
102
RTVSPropertyOp35
 70
     1
102
RTVSPropertyOp36
 70
     1
102
RTVSPropertyOp37
 70
     1
102
RTVSPropertyOp38
 70
     1
102
RTVSPropertyOp39
 70
     1
102
RTVSPropertyOp40
 70
     1
102
RTVSPropertyOp41
 70
     1
102
RTVSPropertyOp42
 70
     1
102
RTVSPropertyOp43
 70
     1
102
RTVSPropertyOp44
 70
     1
102
RTVSPropertyOp45
 70
     1
102
RTVSPropertyOp46
 70
     1
102
RTVSPropertyOp47
 70
     1
102
RTVSPropertyOp48
 70
     1
102
RTVSPropertyOp49
 70
     1
102
RTVSPropertyOp50
 70
     1
102
RTVSPropertyOp51
 70
     0
102
RTVSPropertyOp52
 70
     0
102
RTVSPropertyOp53
 70
     1
102
RTVSPropertyOp54
 70
     1
102
RTVSPropertyOp55
 70
     1
102
RTVSPropertyOp56
 70
     1
102
RTVSPropertyOp57
 70
     1
102
RTVSPropertyOp58
 70
     1
102
RTVSPropertyOp59
 70
     1
102
RTVSPropertyOp60
 70
     1
102
RTVSPropertyOp61
 70
     1
102
RTVSPropertyOp62
 70
     1
  0
XRECORD
  5
87E6
102
{ACAD_REACTORS
330
87E5
102
}
330
87E5
100
AcDbXrecord
280
     1
102
RTVSPost2010Prop28
280
     0
102
RTVSPost2010PropOp28
 70
     0
102
RTVSPost2010Prop29
280
     1
102
RTVSPost2010PropOp29
 70
     0
102
RTVSPost2010Prop30
280
     1
102
RTVSPost2010PropOp30
 70
     0
102
RTVSPost2010Prop31
280
     0
102
RTVSPost2010PropOp31
 70
     0
102
RTVSPost2010Prop32
280
     0
102
RTVSPost2010PropOp32
 70
     0
102
RTVSPost2010Prop33
280
     0
102
RTVSPost2010PropOp33
 70
     0
102
RTVSPost2010Prop34
280
     0
102
RTVSPost2010PropOp34
 70
     0
102
RTVSPost2010Prop35
280
     0
102
RTVSPost2010PropOp35
 70
     0
102
RTVSPost2010Prop36
280
     0
102
RTVSPost2010PropOp36
 70
     0
102
RTVSPost2010Prop37
 90
       50
102
RTVSPost2010PropOp37
 70
     0
102
RTVSPost2010Prop38
140
0.0
102
RTVSPost2010PropOp38
 70
     0
102
RTVSPost2010Prop39
140
1.0
102
RTVSPost2010PropOp39
 70
     0
102
RTVSPost2010Prop40
 90
        0
102
RTVSPost2010PropOp40
 70
     0
102
RTVSPost2010Prop41ColorIndex
 90
       18
102
RTVSPost2010Prop41ColorRGB
 90
        0
102
RTVSPost2010PropOp41
 70
     0
102
RTVSPost2010Prop42
 90
       50
102
RTVSPost2010PropOp42
 70
     0
102
RTVSPost2010Prop43
 90
        3
102
RTVSPost2010PropOp43
 70
     0
102
RTVSPost2010Prop44ColorIndex
 90
        5
102
RTVSPost2010Prop44ColorRGB
 90
      255
102
RTVSPost2010PropOp44
 70
     0
102
RTVSPost2010Prop45
280
     0
102
RTVSPost2010PropOp45
 70
     0
102
RTVSPost2010Prop46
 90
       50
102
RTVSPost2010PropOp46
 70
     0
102
RTVSPost2010Prop47
 90
       50
102
RTVSPost2010PropOp47
 70
     0
102
RTVSPost2010Prop48
 90
       50
102
RTVSPost2010PropOp48
 70
     0
102
RTVSPost2010Prop49
280
     0
102
RTVSPost2010PropOp49
 70
     0
102
RTVSPost2010Prop50
 90
       50
102
RTVSPost2010PropOp50
 70
     0
102
RTVSPost2010Prop51ColorIndex
 90
      256
102
RTVSPost2010Prop51ColorRGB
 90
-16777216
102
RTVSPost2010PropOp51
 70
     0
102
RTVSPost2010Prop52
140
1.0
102
RTVSPost2010PropOp52
 70
     0
102
RTVSPost2010Prop53
 90
        2
102
RTVSPost2010PropOp53
 70
     0
102
RTVSPost2010Prop54
  1
strokes_ogs.tif
102
RTVSPost2010PropOp54
 70
     0
102
RTVSPost2010Prop55
280
     0
102
RTVSPost2010PropOp55
 70
     0
102
RTVSPost2010Prop56
140
1.0
102
RTVSPost2010PropOp56
 70
     0
102
RTVSPost2010Prop57
140
1.0
102
RTVSPost2010PropOp57
 70
     0
102
RTVSPropertyOp0
 70
     0
102
RTVSPropertyOp1
 70
     0
102
RTVSPropertyOp2
 70
     0
102
RTVSPropertyOp3
 70
     0
102
RTVSPropertyOp4
 70
     0
102
RTVSPropertyOp5
 70
     0
102
RTVSPropertyOp6
 70
     0
102
RTVSPropertyOp7
 70
     0
102
RTVSPropertyOp8
 70
     0
102
RTVSPropertyOp9
 70
     0
102
RTVSPropertyOp10
 70
     0
102
RTVSPropertyOp11
 70
     0
102
RTVSPropertyOp12
 70
     0
102
RTVSPropertyOp13
 70
     0
102
RTVSPropertyOp14
 70
     2
102
RTVSPropertyOp15
 70
     0
102
RTVSPropertyOp16
 70
     0
102
RTVSPropertyOp17
 70
     0
102
RTVSPropertyOp18
 70
     0
102
RTVSPropertyOp19
 70
     0
102
RTVSPropertyOp20
 70
     0
102
RTVSPropertyOp21
 70
     0
102
RTVSPropertyOp22
 70
     0
102
RTVSPropertyOp23
 70
     0
102
RTVSPropertyOp24
 70
     0
102
RTVSPropertyOp25
 70
     0
102
RTVSPropertyOp26
 70
     0
102
RTVSPropertyOp27
 70
     0
102
RTVSPropertyOp28
 70
     0
102
RTVSPropertyOp29
 70
     0
102
RTVSPropertyOp30
 70
     0
102
RTVSPropertyOp31
 70
     0
102
RTVSPropertyOp32
 70
     0
102
RTVSPropertyOp33
 70
     0
102
RTVSPropertyOp34
 70
     0
102
RTVSPropertyOp35
 70
     0
102
RTVSPropertyOp36
 70
     0
102
RTVSPropertyOp37
 70
     0
102
RTVSPropertyOp38
 70
     0
102
RTVSPropertyOp39
 70
     0
102
RTVSPropertyOp40
 70
     0
102
RTVSPropertyOp41
 70
     0
102
RTVSPropertyOp42
 70
     0
102
RTVSPropertyOp43
 70
     0
102
RTVSPropertyOp44
 70
     0
102
RTVSPropertyOp45
 70
     0
102
RTVSPropertyOp46
 70
     0
102
RTVSPropertyOp47
 70
     0
102
RTVSPropertyOp48
 70
     0
102
RTVSPropertyOp49
 70
     0
102
RTVSPropertyOp50
 70
     0
102
RTVSPropertyOp51
 70
     0
102
RTVSPropertyOp52
 70
     0
102
RTVSPropertyOp53
 70
     0
102
RTVSPropertyOp54
 70
     0
102
RTVSPropertyOp55
 70
     0
102
RTVSPropertyOp56
 70
     0
102
RTVSPropertyOp57
 70
     0
102
RTVSPropertyOp58
 70
     1
102
RTVSPropertyOp59
 70
     1
102
RTVSPropertyOp60
 70
     1
102
RTVSPropertyOp61
 70
     1
102
RTVSPropertyOp62
 70
     1
  0
XRECORD
  5
87D4
102
{ACAD_REACTORS
330
87D3
102
}
330
87D3
100
AcDbXrecord
280
     1
102
RTVSPost2010Prop28
280
     0
102
RTVSPost2010PropOp28
 70
     1
102
RTVSPost2010Prop29
280
     1
102
RTVSPost2010PropOp29
 70
     1
102
RTVSPost2010Prop30
280
     1
102
RTVSPost2010PropOp30
 70
     1
102
RTVSPost2010Prop31
280
     0
102
RTVSPost2010PropOp31
 70
     1
102
RTVSPost2010Prop32
280
     0
102
RTVSPost2010PropOp32
 70
     1
102
RTVSPost2010Prop33
280
     0
102
RTVSPost2010PropOp33
 70
     1
102
RTVSPost2010Prop34
280
     0
102
RTVSPost2010PropOp34
 70
     1
102
RTVSPost2010Prop35
280
     0
102
RTVSPost2010PropOp35
 70
     1
102
RTVSPost2010Prop36
280
     0
102
RTVSPost2010PropOp36
 70
     1
102
RTVSPost2010Prop37
 90
       50
102
RTVSPost2010PropOp37
 70
     1
102
RTVSPost2010Prop38
140
0.0
102
RTVSPost2010PropOp38
 70
     1
102
RTVSPost2010Prop39
140
1.0
102
RTVSPost2010PropOp39
 70
     1
102
RTVSPost2010Prop40
 90
        0
102
RTVSPost2010PropOp40
 70
     1
102
RTVSPost2010Prop41ColorIndex
 90
       18
102
RTVSPost2010Prop41ColorRGB
 90
        0
102
RTVSPost2010PropOp41
 70
     1
102
RTVSPost2010Prop42
 90
       50
102
RTVSPost2010PropOp42
 70
     1
102
RTVSPost2010Prop43
 90
        3
102
RTVSPost2010PropOp43
 70
     1
102
RTVSPost2010Prop44ColorIndex
 90
        5
102
RTVSPost2010Prop44ColorRGB
 90
      255
102
RTVSPost2010PropOp44
 70
     1
102
RTVSPost2010Prop45
280
     0
102
RTVSPost2010PropOp45
 70
     1
102
RTVSPost2010Prop46
 90
       50
102
RTVSPost2010PropOp46
 70
     1
102
RTVSPost2010Prop47
 90
       50
102
RTVSPost2010PropOp47
 70
     1
102
RTVSPost2010Prop48
 90
       50
102
RTVSPost2010PropOp48
 70
     1
102
RTVSPost2010Prop49
280
     0
102
RTVSPost2010PropOp49
 70
     1
102
RTVSPost2010Prop50
 90
       50
102
RTVSPost2010PropOp50
 70
     1
102
RTVSPost2010Prop51ColorIndex
 90
      256
102
RTVSPost2010Prop51ColorRGB
 90
-16777216
102
RTVSPost2010PropOp51
 70
     0
102
RTVSPost2010Prop52
140
1.0
102
RTVSPost2010PropOp52
 70
     0
102
RTVSPost2010Prop53
 90
        2
102
RTVSPost2010PropOp53
 70
     1
102
RTVSPost2010Prop54
  1
strokes_ogs.tif
102
RTVSPost2010PropOp54
 70
     1
102
RTVSPost2010Prop55
280
     0
102
RTVSPost2010PropOp55
 70
     1
102
RTVSPost2010Prop56
140
1.0
102
RTVSPost2010PropOp56
 70
     1
102
RTVSPost2010Prop57
140
1.0
102
RTVSPost2010PropOp57
 70
     1
102
RTVSPropertyOp0
 70
     1
102
RTVSPropertyOp1
 70
     1
102
RTVSPropertyOp2
 70
     1
102
RTVSPropertyOp3
 70
     1
102
RTVSPropertyOp4
 70
     1
102
RTVSPropertyOp5
 70
     1
102
RTVSPropertyOp6
 70
     1
102
RTVSPropertyOp7
 70
     1
102
RTVSPropertyOp8
 70
     1
102
RTVSPropertyOp9
 70
     1
102
RTVSPropertyOp10
 70
     1
102
RTVSPropertyOp11
 70
     1
102
RTVSPropertyOp12
 70
     1
102
RTVSPropertyOp13
 70
     1
102
RTVSPropertyOp14
 70
     1
102
RTVSPropertyOp15
 70
     1
102
RTVSPropertyOp16
 70
     1
102
RTVSPropertyOp17
 70
     1
102
RTVSPropertyOp18
 70
     1
102
RTVSPropertyOp19
 70
     1
102
RTVSPropertyOp20
 70
     1
102
RTVSPropertyOp21
 70
     1
102
RTVSPropertyOp22
 70
     1
102
RTVSPropertyOp23
 70
     1
102
RTVSPropertyOp24
 70
     1
102
RTVSPropertyOp25
 70
     1
102
RTVSPropertyOp26
 70
     1
102
RTVSPropertyOp27
 70
     1
102
RTVSPropertyOp28
 70
     1
102
RTVSPropertyOp29
 70
     1
102
RTVSPropertyOp30
 70
     1
102
RTVSPropertyOp31
 70
     1
102
RTVSPropertyOp32
 70
     1
102
RTVSPropertyOp33
 70
     1
102
RTVSPropertyOp34
 70
     1
102
RTVSPropertyOp35
 70
     1
102
RTVSPropertyOp36
 70
     1
102
RTVSPropertyOp37
 70
     1
102
RTVSPropertyOp38
 70
     1
102
RTVSPropertyOp39
 70
     1
102
RTVSPropertyOp40
 70
     1
102
RTVSPropertyOp41
 70
     1
102
RTVSPropertyOp42
 70
     1
102
RTVSPropertyOp43
 70
     1
102
RTVSPropertyOp44
 70
     1
102
RTVSPropertyOp45
 70
     1
102
RTVSPropertyOp46
 70
     1
102
RTVSPropertyOp47
 70
     1
102
RTVSPropertyOp48
 70
     1
102
RTVSPropertyOp49
 70
     1
102
RTVSPropertyOp50
 70
     1
102
RTVSPropertyOp51
 70
     0
102
RTVSPropertyOp52
 70
     0
102
RTVSPropertyOp53
 70
     1
102
RTVSPropertyOp54
 70
     1
102
RTVSPropertyOp55
 70
     1
102
RTVSPropertyOp56
 70
     1
102
RTVSPropertyOp57
 70
     1
102
RTVSPropertyOp58
 70
     1
102
RTVSPropertyOp59
 70
     1
102
RTVSPropertyOp60
 70
     1
102
RTVSPropertyOp61
 70
     1
102
RTVSPropertyOp62
 70
     1
  0
XRECORD
  5
87B8
102
{ACAD_REACTORS
330
87B7
102
}
330
87B7
100
AcDbXrecord
280
     1
102
RTVSPost2010Prop28
280
     0
102
RTVSPost2010PropOp28
 70
     1
102
RTVSPost2010Prop29
280
     1
102
RTVSPost2010PropOp29
 70
     1
102
RTVSPost2010Prop30
280
     1
102
RTVSPost2010PropOp30
 70
     1
102
RTVSPost2010Prop31
280
     0
102
RTVSPost2010PropOp31
 70
     1
102
RTVSPost2010Prop32
280
     0
102
RTVSPost2010PropOp32
 70
     1
102
RTVSPost2010Prop33
280
     0
102
RTVSPost2010PropOp33
 70
     1
102
RTVSPost2010Prop34
280
     0
102
RTVSPost2010PropOp34
 70
     1
102
RTVSPost2010Prop35
280
     0
102
RTVSPost2010PropOp35
 70
     1
102
RTVSPost2010Prop36
280
     0
102
RTVSPost2010PropOp36
 70
     1
102
RTVSPost2010Prop37
 90
       50
102
RTVSPost2010PropOp37
 70
     1
102
RTVSPost2010Prop38
140
0.0
102
RTVSPost2010PropOp38
 70
     1
102
RTVSPost2010Prop39
140
1.0
102
RTVSPost2010PropOp39
 70
     1
102
RTVSPost2010Prop40
 90
        0
102
RTVSPost2010PropOp40
 70
     1
102
RTVSPost2010Prop41ColorIndex
 90
       18
102
RTVSPost2010Prop41ColorRGB
 90
        0
102
RTVSPost2010PropOp41
 70
     1
102
RTVSPost2010Prop42
 90
       50
102
RTVSPost2010PropOp42
 70
     1
102
RTVSPost2010Prop43
 90
        3
102
RTVSPost2010PropOp43
 70
     1
102
RTVSPost2010Prop44ColorIndex
 90
        5
102
RTVSPost2010Prop44ColorRGB
 90
      255
102
RTVSPost2010PropOp44
 70
     1
102
RTVSPost2010Prop45
280
     0
102
RTVSPost2010PropOp45
 70
     1
102
RTVSPost2010Prop46
 90
       50
102
RTVSPost2010PropOp46
 70
     1
102
RTVSPost2010Prop47
 90
       50
102
RTVSPost2010PropOp47
 70
     1
102
RTVSPost2010Prop48
 90
       50
102
RTVSPost2010PropOp48
 70
     1
102
RTVSPost2010Prop49
280
     0
102
RTVSPost2010PropOp49
 70
     1
102
RTVSPost2010Prop50
 90
       50
102
RTVSPost2010PropOp50
 70
     1
102
RTVSPost2010Prop51ColorIndex
 90
      256
102
RTVSPost2010Prop51ColorRGB
 90
-16777216
102
RTVSPost2010PropOp51
 70
     0
102
RTVSPost2010Prop52
140
1.0
102
RTVSPost2010PropOp52
 70
     0
102
RTVSPost2010Prop53
 90
        2
102
RTVSPost2010PropOp53
 70
     1
102
RTVSPost2010Prop54
  1
strokes_ogs.tif
102
RTVSPost2010PropOp54
 70
     1
102
RTVSPost2010Prop55
280
     0
102
RTVSPost2010PropOp55
 70
     1
102
RTVSPost2010Prop56
140
1.0
102
RTVSPost2010PropOp56
 70
     1
102
RTVSPost2010Prop57
140
1.0
102
RTVSPost2010PropOp57
 70
     1
102
RTVSPropertyOp0
 70
     1
102
RTVSPropertyOp1
 70
     1
102
RTVSPropertyOp2
 70
     1
102
RTVSPropertyOp3
 70
     1
102
RTVSPropertyOp4
 70
     1
102
RTVSPropertyOp5
 70
     1
102
RTVSPropertyOp6
 70
     1
102
RTVSPropertyOp7
 70
     1
102
RTVSPropertyOp8
 70
     1
102
RTVSPropertyOp9
 70
     1
102
RTVSPropertyOp10
 70
     1
102
RTVSPropertyOp11
 70
     1
102
RTVSPropertyOp12
 70
     1
102
RTVSPropertyOp13
 70
     1
102
RTVSPropertyOp14
 70
     1
102
RTVSPropertyOp15
 70
     1
102
RTVSPropertyOp16
 70
     1
102
RTVSPropertyOp17
 70
     1
102
RTVSPropertyOp18
 70
     1
102
RTVSPropertyOp19
 70
     1
102
RTVSPropertyOp20
 70
     1
102
RTVSPropertyOp21
 70
     1
102
RTVSPropertyOp22
 70
     1
102
RTVSPropertyOp23
 70
     1
102
RTVSPropertyOp24
 70
     1
102
RTVSPropertyOp25
 70
     1
102
RTVSPropertyOp26
 70
     1
102
RTVSPropertyOp27
 70
     1
102
RTVSPropertyOp28
 70
     1
102
RTVSPropertyOp29
 70
     1
102
RTVSPropertyOp30
 70
     1
102
RTVSPropertyOp31
 70
     1
102
RTVSPropertyOp32
 70
     1
102
RTVSPropertyOp33
 70
     1
102
RTVSPropertyOp34
 70
     1
102
RTVSPropertyOp35
 70
     1
102
RTVSPropertyOp36
 70
     1
102
RTVSPropertyOp37
 70
     1
102
RTVSPropertyOp38
 70
     1
102
RTVSPropertyOp39
 70
     1
102
RTVSPropertyOp40
 70
     1
102
RTVSPropertyOp41
 70
     1
102
RTVSPropertyOp42
 70
     1
102
RTVSPropertyOp43
 70
     1
102
RTVSPropertyOp44
 70
     1
102
RTVSPropertyOp45
 70
     1
102
RTVSPropertyOp46
 70
     1
102
RTVSPropertyOp47
 70
     1
102
RTVSPropertyOp48
 70
     1
102
RTVSPropertyOp49
 70
     1
102
RTVSPropertyOp50
 70
     1
102
RTVSPropertyOp51
 70
     0
102
RTVSPropertyOp52
 70
     0
102
RTVSPropertyOp53
 70
     1
102
RTVSPropertyOp54
 70
     1
102
RTVSPropertyOp55
 70
     1
102
RTVSPropertyOp56
 70
     1
102
RTVSPropertyOp57
 70
     1
102
RTVSPropertyOp58
 70
     1
102
RTVSPropertyOp59
 70
     1
102
RTVSPropertyOp60
 70
     1
102
RTVSPropertyOp61
 70
     1
102
RTVSPropertyOp62
 70
     1
  0
XRECORD
  5
87BA
102
{ACAD_REACTORS
330
87B9
102
}
330
87B9
100
AcDbXrecord
280
     1
102
RTVSPost2010Prop28
280
     0
102
RTVSPost2010PropOp28
 70
     1
102
RTVSPost2010Prop29
280
     1
102
RTVSPost2010PropOp29
 70
     1
102
RTVSPost2010Prop30
280
     1
102
RTVSPost2010PropOp30
 70
     1
102
RTVSPost2010Prop31
280
     0
102
RTVSPost2010PropOp31
 70
     1
102
RTVSPost2010Prop32
280
     0
102
RTVSPost2010PropOp32
 70
     1
102
RTVSPost2010Prop33
280
     0
102
RTVSPost2010PropOp33
 70
     1
102
RTVSPost2010Prop34
280
     0
102
RTVSPost2010PropOp34
 70
     1
102
RTVSPost2010Prop35
280
     0
102
RTVSPost2010PropOp35
 70
     1
102
RTVSPost2010Prop36
280
     0
102
RTVSPost2010PropOp36
 70
     1
102
RTVSPost2010Prop37
 90
       50
102
RTVSPost2010PropOp37
 70
     1
102
RTVSPost2010Prop38
140
0.0
102
RTVSPost2010PropOp38
 70
     1
102
RTVSPost2010Prop39
140
1.0
102
RTVSPost2010PropOp39
 70
     1
102
RTVSPost2010Prop40
 90
        0
102
RTVSPost2010PropOp40
 70
     1
102
RTVSPost2010Prop41ColorIndex
 90
       18
102
RTVSPost2010Prop41ColorRGB
 90
        0
102
RTVSPost2010PropOp41
 70
     1
102
RTVSPost2010Prop42
 90
       50
102
RTVSPost2010PropOp42
 70
     1
102
RTVSPost2010Prop43
 90
        3
102
RTVSPost2010PropOp43
 70
     1
102
RTVSPost2010Prop44ColorIndex
 90
        5
102
RTVSPost2010Prop44ColorRGB
 90
      255
102
RTVSPost2010PropOp44
 70
     1
102
RTVSPost2010Prop45
280
     0
102
RTVSPost2010PropOp45
 70
     1
102
RTVSPost2010Prop46
 90
       50
102
RTVSPost2010PropOp46
 70
     1
102
RTVSPost2010Prop47
 90
       50
102
RTVSPost2010PropOp47
 70
     1
102
RTVSPost2010Prop48
 90
       50
102
RTVSPost2010PropOp48
 70
     1
102
RTVSPost2010Prop49
280
     0
102
RTVSPost2010PropOp49
 70
     1
102
RTVSPost2010Prop50
 90
       50
102
RTVSPost2010PropOp50
 70
     1
102
RTVSPost2010Prop51ColorIndex
 90
      256
102
RTVSPost2010Prop51ColorRGB
 90
-16777216
102
RTVSPost2010PropOp51
 70
     0
102
RTVSPost2010Prop52
140
1.0
102
RTVSPost2010PropOp52
 70
     0
102
RTVSPost2010Prop53
 90
        2
102
RTVSPost2010PropOp53
 70
     1
102
RTVSPost2010Prop54
  1
strokes_ogs.tif
102
RTVSPost2010PropOp54
 70
     1
102
RTVSPost2010Prop55
280
     0
102
RTVSPost2010PropOp55
 70
     1
102
RTVSPost2010Prop56
140
1.0
102
RTVSPost2010PropOp56
 70
     1
102
RTVSPost2010Prop57
140
1.0
102
RTVSPost2010PropOp57
 70
     1
102
RTVSPropertyOp0
 70
     1
102
RTVSPropertyOp1
 70
     1
102
RTVSPropertyOp2
 70
     1
102
RTVSPropertyOp3
 70
     1
102
RTVSPropertyOp4
 70
     1
102
RTVSPropertyOp5
 70
     1
102
RTVSPropertyOp6
 70
     1
102
RTVSPropertyOp7
 70
     1
102
RTVSPropertyOp8
 70
     1
102
RTVSPropertyOp9
 70
     1
102
RTVSPropertyOp10
 70
     1
102
RTVSPropertyOp11
 70
     1
102
RTVSPropertyOp12
 70
     1
102
RTVSPropertyOp13
 70
     1
102
RTVSPropertyOp14
 70
     1
102
RTVSPropertyOp15
 70
     1
102
RTVSPropertyOp16
 70
     1
102
RTVSPropertyOp17
 70
     1
102
RTVSPropertyOp18
 70
     1
102
RTVSPropertyOp19
 70
     1
102
RTVSPropertyOp20
 70
     1
102
RTVSPropertyOp21
 70
     1
102
RTVSPropertyOp22
 70
     1
102
RTVSPropertyOp23
 70
     1
102
RTVSPropertyOp24
 70
     1
102
RTVSPropertyOp25
 70
     1
102
RTVSPropertyOp26
 70
     1
102
RTVSPropertyOp27
 70
     1
102
RTVSPropertyOp28
 70
     1
102
RTVSPropertyOp29
 70
     1
102
RTVSPropertyOp30
 70
     1
102
RTVSPropertyOp31
 70
     1
102
RTVSPropertyOp32
 70
     1
102
RTVSPropertyOp33
 70
     1
102
RTVSPropertyOp34
 70
     1
102
RTVSPropertyOp35
 70
     1
102
RTVSPropertyOp36
 70
     1
102
RTVSPropertyOp37
 70
     1
102
RTVSPropertyOp38
 70
     1
102
RTVSPropertyOp39
 70
     1
102
RTVSPropertyOp40
 70
     1
102
RTVSPropertyOp41
 70
     1
102
RTVSPropertyOp42
 70
     1
102
RTVSPropertyOp43
 70
     1
102
RTVSPropertyOp44
 70
     1
102
RTVSPropertyOp45
 70
     1
102
RTVSPropertyOp46
 70
     1
102
RTVSPropertyOp47
 70
     1
102
RTVSPropertyOp48
 70
     1
102
RTVSPropertyOp49
 70
     1
102
RTVSPropertyOp50
 70
     1
102
RTVSPropertyOp51
 70
     0
102
RTVSPropertyOp52
 70
     0
102
RTVSPropertyOp53
 70
     1
102
RTVSPropertyOp54
 70
     1
102
RTVSPropertyOp55
 70
     1
102
RTVSPropertyOp56
 70
     1
102
RTVSPropertyOp57
 70
     1
102
RTVSPropertyOp58
 70
     1
102
RTVSPropertyOp59
 70
     1
102
RTVSPropertyOp60
 70
     1
102
RTVSPropertyOp61
 70
     1
102
RTVSPropertyOp62
 70
     1
  0
XRECORD
  5
87BC
102
{ACAD_REACTORS
330
87BB
102
}
330
87BB
100
AcDbXrecord
280
     1
102
RTVSPost2010Prop28
280
     0
102
RTVSPost2010PropOp28
 70
     1
102
RTVSPost2010Prop29
280
     1
102
RTVSPost2010PropOp29
 70
     1
102
RTVSPost2010Prop30
280
     1
102
RTVSPost2010PropOp30
 70
     1
102
RTVSPost2010Prop31
280
     0
102
RTVSPost2010PropOp31
 70
     1
102
RTVSPost2010Prop32
280
     0
102
RTVSPost2010PropOp32
 70
     1
102
RTVSPost2010Prop33
280
     0
102
RTVSPost2010PropOp33
 70
     1
102
RTVSPost2010Prop34
280
     0
102
RTVSPost2010PropOp34
 70
     1
102
RTVSPost2010Prop35
280
     0
102
RTVSPost2010PropOp35
 70
     1
102
RTVSPost2010Prop36
280
     0
102
RTVSPost2010PropOp36
 70
     1
102
RTVSPost2010Prop37
 90
       50
102
RTVSPost2010PropOp37
 70
     1
102
RTVSPost2010Prop38
140
0.0
102
RTVSPost2010PropOp38
 70
     1
102
RTVSPost2010Prop39
140
1.0
102
RTVSPost2010PropOp39
 70
     1
102
RTVSPost2010Prop40
 90
        0
102
RTVSPost2010PropOp40
 70
     1
102
RTVSPost2010Prop41ColorIndex
 90
       18
102
RTVSPost2010Prop41ColorRGB
 90
        0
102
RTVSPost2010PropOp41
 70
     1
102
RTVSPost2010Prop42
 90
       50
102
RTVSPost2010PropOp42
 70
     1
102
RTVSPost2010Prop43
 90
        3
102
RTVSPost2010PropOp43
 70
     1
102
RTVSPost2010Prop44ColorIndex
 90
        5
102
RTVSPost2010Prop44ColorRGB
 90
      255
102
RTVSPost2010PropOp44
 70
     1
102
RTVSPost2010Prop45
280
     0
102
RTVSPost2010PropOp45
 70
     1
102
RTVSPost2010Prop46
 90
       50
102
RTVSPost2010PropOp46
 70
     1
102
RTVSPost2010Prop47
 90
       50
102
RTVSPost2010PropOp47
 70
     1
102
RTVSPost2010Prop48
 90
       50
102
RTVSPost2010PropOp48
 70
     1
102
RTVSPost2010Prop49
280
     0
102
RTVSPost2010PropOp49
 70
     1
102
RTVSPost2010Prop50
 90
       50
102
RTVSPost2010PropOp50
 70
     1
102
RTVSPost2010Prop51ColorIndex
 90
      256
102
RTVSPost2010Prop51ColorRGB
 90
-16777216
102
RTVSPost2010PropOp51
 70
     0
102
RTVSPost2010Prop52
140
1.0
102
RTVSPost2010PropOp52
 70
     0
102
RTVSPost2010Prop53
 90
        2
102
RTVSPost2010PropOp53
 70
     1
102
RTVSPost2010Prop54
  1
strokes_ogs.tif
102
RTVSPost2010PropOp54
 70
     1
102
RTVSPost2010Prop55
280
     0
102
RTVSPost2010PropOp55
 70
     1
102
RTVSPost2010Prop56
140
1.0
102
RTVSPost2010PropOp56
 70
     1
102
RTVSPost2010Prop57
140
1.0
102
RTVSPost2010PropOp57
 70
     1
102
RTVSPropertyOp0
 70
     1
102
RTVSPropertyOp1
 70
     1
102
RTVSPropertyOp2
 70
     1
102
RTVSPropertyOp3
 70
     1
102
RTVSPropertyOp4
 70
     1
102
RTVSPropertyOp5
 70
     1
102
RTVSPropertyOp6
 70
     1
102
RTVSPropertyOp7
 70
     1
102
RTVSPropertyOp8
 70
     1
102
RTVSPropertyOp9
 70
     1
102
RTVSPropertyOp10
 70
     1
102
RTVSPropertyOp11
 70
     1
102
RTVSPropertyOp12
 70
     1
102
RTVSPropertyOp13
 70
     1
102
RTVSPropertyOp14
 70
     1
102
RTVSPropertyOp15
 70
     1
102
RTVSPropertyOp16
 70
     1
102
RTVSPropertyOp17
 70
     1
102
RTVSPropertyOp18
 70
     1
102
RTVSPropertyOp19
 70
     1
102
RTVSPropertyOp20
 70
     1
102
RTVSPropertyOp21
 70
     1
102
RTVSPropertyOp22
 70
     1
102
RTVSPropertyOp23
 70
     1
102
RTVSPropertyOp24
 70
     1
102
RTVSPropertyOp25
 70
     1
102
RTVSPropertyOp26
 70
     1
102
RTVSPropertyOp27
 70
     1
102
RTVSPropertyOp28
 70
     1
102
RTVSPropertyOp29
 70
     1
102
RTVSPropertyOp30
 70
     1
102
RTVSPropertyOp31
 70
     1
102
RTVSPropertyOp32
 70
     1
102
RTVSPropertyOp33
 70
     1
102
RTVSPropertyOp34
 70
     1
102
RTVSPropertyOp35
 70
     1
102
RTVSPropertyOp36
 70
     1
102
RTVSPropertyOp37
 70
     1
102
RTVSPropertyOp38
 70
     1
102
RTVSPropertyOp39
 70
     1
102
RTVSPropertyOp40
 70
     1
102
RTVSPropertyOp41
 70
     1
102
RTVSPropertyOp42
 70
     1
102
RTVSPropertyOp43
 70
     1
102
RTVSPropertyOp44
 70
     1
102
RTVSPropertyOp45
 70
     1
102
RTVSPropertyOp46
 70
     1
102
RTVSPropertyOp47
 70
     1
102
RTVSPropertyOp48
 70
     1
102
RTVSPropertyOp49
 70
     1
102
RTVSPropertyOp50
 70
     1
102
RTVSPropertyOp51
 70
     0
102
RTVSPropertyOp52
 70
     0
102
RTVSPropertyOp53
 70
     1
102
RTVSPropertyOp54
 70
     1
102
RTVSPropertyOp55
 70
     1
102
RTVSPropertyOp56
 70
     1
102
RTVSPropertyOp57
 70
     1
102
RTVSPropertyOp58
 70
     1
102
RTVSPropertyOp59
 70
     1
102
RTVSPropertyOp60
 70
     1
102
RTVSPropertyOp61
 70
     1
102
RTVSPropertyOp62
 70
     1
  0
XRECORD
  5
87BE
102
{ACAD_REACTORS
330
87BD
102
}
330
87BD
100
AcDbXrecord
280
     1
102
RTVSPost2010Prop28
280
     0
102
RTVSPost2010PropOp28
 70
     1
102
RTVSPost2010Prop29
280
     1
102
RTVSPost2010PropOp29
 70
     1
102
RTVSPost2010Prop30
280
     1
102
RTVSPost2010PropOp30
 70
     1
102
RTVSPost2010Prop31
280
     0
102
RTVSPost2010PropOp31
 70
     1
102
RTVSPost2010Prop32
280
     0
102
RTVSPost2010PropOp32
 70
     1
102
RTVSPost2010Prop33
280
     0
102
RTVSPost2010PropOp33
 70
     1
102
RTVSPost2010Prop34
280
     0
102
RTVSPost2010PropOp34
 70
     1
102
RTVSPost2010Prop35
280
     0
102
RTVSPost2010PropOp35
 70
     1
102
RTVSPost2010Prop36
280
     0
102
RTVSPost2010PropOp36
 70
     1
102
RTVSPost2010Prop37
 90
       50
102
RTVSPost2010PropOp37
 70
     1
102
RTVSPost2010Prop38
140
0.0
102
RTVSPost2010PropOp38
 70
     1
102
RTVSPost2010Prop39
140
1.0
102
RTVSPost2010PropOp39
 70
     1
102
RTVSPost2010Prop40
 90
        0
102
RTVSPost2010PropOp40
 70
     1
102
RTVSPost2010Prop41ColorIndex
 90
       18
102
RTVSPost2010Prop41ColorRGB
 90
        0
102
RTVSPost2010PropOp41
 70
     1
102
RTVSPost2010Prop42
 90
       50
102
RTVSPost2010PropOp42
 70
     1
102
RTVSPost2010Prop43
 90
        3
102
RTVSPost2010PropOp43
 70
     1
102
RTVSPost2010Prop44ColorIndex
 90
        5
102
RTVSPost2010Prop44ColorRGB
 90
      255
102
RTVSPost2010PropOp44
 70
     1
102
RTVSPost2010Prop45
280
     0
102
RTVSPost2010PropOp45
 70
     1
102
RTVSPost2010Prop46
 90
       50
102
RTVSPost2010PropOp46
 70
     1
102
RTVSPost2010Prop47
 90
       50
102
RTVSPost2010PropOp47
 70
     1
102
RTVSPost2010Prop48
 90
       50
102
RTVSPost2010PropOp48
 70
     1
102
RTVSPost2010Prop49
280
     0
102
RTVSPost2010PropOp49
 70
     1
102
RTVSPost2010Prop50
 90
       50
102
RTVSPost2010PropOp50
 70
     1
102
RTVSPost2010Prop51ColorIndex
 90
      256
102
RTVSPost2010Prop51ColorRGB
 90
-16777216
102
RTVSPost2010PropOp51
 70
     0
102
RTVSPost2010Prop52
140
1.0
102
RTVSPost2010PropOp52
 70
     0
102
RTVSPost2010Prop53
 90
        2
102
RTVSPost2010PropOp53
 70
     1
102
RTVSPost2010Prop54
  1
strokes_ogs.tif
102
RTVSPost2010PropOp54
 70
     1
102
RTVSPost2010Prop55
280
     0
102
RTVSPost2010PropOp55
 70
     1
102
RTVSPost2010Prop56
140
1.0
102
RTVSPost2010PropOp56
 70
     1
102
RTVSPost2010Prop57
140
1.0
102
RTVSPost2010PropOp57
 70
     1
102
RTVSPropertyOp0
 70
     1
102
RTVSPropertyOp1
 70
     1
102
RTVSPropertyOp2
 70
     1
102
RTVSPropertyOp3
 70
     1
102
RTVSPropertyOp4
 70
     1
102
RTVSPropertyOp5
 70
     1
102
RTVSPropertyOp6
 70
     1
102
RTVSPropertyOp7
 70
     1
102
RTVSPropertyOp8
 70
     1
102
RTVSPropertyOp9
 70
     1
102
RTVSPropertyOp10
 70
     1
102
RTVSPropertyOp11
 70
     1
102
RTVSPropertyOp12
 70
     1
102
RTVSPropertyOp13
 70
     1
102
RTVSPropertyOp14
 70
     1
102
RTVSPropertyOp15
 70
     1
102
RTVSPropertyOp16
 70
     1
102
RTVSPropertyOp17
 70
     1
102
RTVSPropertyOp18
 70
     1
102
RTVSPropertyOp19
 70
     1
102
RTVSPropertyOp20
 70
     1
102
RTVSPropertyOp21
 70
     1
102
RTVSPropertyOp22
 70
     1
102
RTVSPropertyOp23
 70
     1
102
RTVSPropertyOp24
 70
     1
102
RTVSPropertyOp25
 70
     1
102
RTVSPropertyOp26
 70
     1
102
RTVSPropertyOp27
 70
     1
102
RTVSPropertyOp28
 70
     1
102
RTVSPropertyOp29
 70
     1
102
RTVSPropertyOp30
 70
     1
102
RTVSPropertyOp31
 70
     1
102
RTVSPropertyOp32
 70
     1
102
RTVSPropertyOp33
 70
     1
102
RTVSPropertyOp34
 70
     1
102
RTVSPropertyOp35
 70
     1
102
RTVSPropertyOp36
 70
     1
102
RTVSPropertyOp37
 70
     1
102
RTVSPropertyOp38
 70
     1
102
RTVSPropertyOp39
 70
     1
102
RTVSPropertyOp40
 70
     1
102
RTVSPropertyOp41
 70
     1
102
RTVSPropertyOp42
 70
     1
102
RTVSPropertyOp43
 70
     1
102
RTVSPropertyOp44
 70
     1
102
RTVSPropertyOp45
 70
     1
102
RTVSPropertyOp46
 70
     1
102
RTVSPropertyOp47
 70
     1
102
RTVSPropertyOp48
 70
     1
102
RTVSPropertyOp49
 70
     1
102
RTVSPropertyOp50
 70
     1
102
RTVSPropertyOp51
 70
     0
102
RTVSPropertyOp52
 70
     0
102
RTVSPropertyOp53
 70
     1
102
RTVSPropertyOp54
 70
     1
102
RTVSPropertyOp55
 70
     1
102
RTVSPropertyOp56
 70
     1
102
RTVSPropertyOp57
 70
     1
102
RTVSPropertyOp58
 70
     1
102
RTVSPropertyOp59
 70
     1
102
RTVSPropertyOp60
 70
     1
102
RTVSPropertyOp61
 70
     1
102
RTVSPropertyOp62
 70
     1
  0
XRECORD
  5
87C6
102
{ACAD_REACTORS
330
87C5
102
}
330
87C5
100
AcDbXrecord
280
     1
102
RTVSPost2010Prop28
280
     0
102
RTVSPost2010PropOp28
 70
     1
102
RTVSPost2010Prop29
280
     1
102
RTVSPost2010PropOp29
 70
     1
102
RTVSPost2010Prop30
280
     1
102
RTVSPost2010PropOp30
 70
     1
102
RTVSPost2010Prop31
280
     0
102
RTVSPost2010PropOp31
 70
     1
102
RTVSPost2010Prop32
280
     0
102
RTVSPost2010PropOp32
 70
     1
102
RTVSPost2010Prop33
280
     0
102
RTVSPost2010PropOp33
 70
     1
102
RTVSPost2010Prop34
280
     0
102
RTVSPost2010PropOp34
 70
     1
102
RTVSPost2010Prop35
280
     0
102
RTVSPost2010PropOp35
 70
     1
102
RTVSPost2010Prop36
280
     0
102
RTVSPost2010PropOp36
 70
     1
102
RTVSPost2010Prop37
 90
       50
102
RTVSPost2010PropOp37
 70
     1
102
RTVSPost2010Prop38
140
0.0
102
RTVSPost2010PropOp38
 70
     1
102
RTVSPost2010Prop39
140
1.0
102
RTVSPost2010PropOp39
 70
     1
102
RTVSPost2010Prop40
 90
        0
102
RTVSPost2010PropOp40
 70
     1
102
RTVSPost2010Prop41ColorIndex
 90
       18
102
RTVSPost2010Prop41ColorRGB
 90
        0
102
RTVSPost2010PropOp41
 70
     1
102
RTVSPost2010Prop42
 90
       50
102
RTVSPost2010PropOp42
 70
     1
102
RTVSPost2010Prop43
 90
        3
102
RTVSPost2010PropOp43
 70
     1
102
RTVSPost2010Prop44ColorIndex
 90
        5
102
RTVSPost2010Prop44ColorRGB
 90
      255
102
RTVSPost2010PropOp44
 70
     1
102
RTVSPost2010Prop45
280
     0
102
RTVSPost2010PropOp45
 70
     1
102
RTVSPost2010Prop46
 90
       50
102
RTVSPost2010PropOp46
 70
     1
102
RTVSPost2010Prop47
 90
       50
102
RTVSPost2010PropOp47
 70
     1
102
RTVSPost2010Prop48
 90
       50
102
RTVSPost2010PropOp48
 70
     1
102
RTVSPost2010Prop49
280
     0
102
RTVSPost2010PropOp49
 70
     1
102
RTVSPost2010Prop50
 90
       50
102
RTVSPost2010PropOp50
 70
     1
102
RTVSPost2010Prop51ColorIndex
 90
      256
102
RTVSPost2010Prop51ColorRGB
 90
-16777216
102
RTVSPost2010PropOp51
 70
     0
102
RTVSPost2010Prop52
140
1.0
102
RTVSPost2010PropOp52
 70
     0
102
RTVSPost2010Prop53
 90
        2
102
RTVSPost2010PropOp53
 70
     1
102
RTVSPost2010Prop54
  1
strokes_ogs.tif
102
RTVSPost2010PropOp54
 70
     1
102
RTVSPost2010Prop55
280
     0
102
RTVSPost2010PropOp55
 70
     1
102
RTVSPost2010Prop56
140
1.0
102
RTVSPost2010PropOp56
 70
     1
102
RTVSPost2010Prop57
140
1.0
102
RTVSPost2010PropOp57
 70
     1
102
RTVSPropertyOp0
 70
     1
102
RTVSPropertyOp1
 70
     1
102
RTVSPropertyOp2
 70
     1
102
RTVSPropertyOp3
 70
     1
102
RTVSPropertyOp4
 70
     1
102
RTVSPropertyOp5
 70
     1
102
RTVSPropertyOp6
 70
     1
102
RTVSPropertyOp7
 70
     1
102
RTVSPropertyOp8
 70
     1
102
RTVSPropertyOp9
 70
     1
102
RTVSPropertyOp10
 70
     1
102
RTVSPropertyOp11
 70
     1
102
RTVSPropertyOp12
 70
     1
102
RTVSPropertyOp13
 70
     1
102
RTVSPropertyOp14
 70
     1
102
RTVSPropertyOp15
 70
     1
102
RTVSPropertyOp16
 70
     1
102
RTVSPropertyOp17
 70
     1
102
RTVSPropertyOp18
 70
     1
102
RTVSPropertyOp19
 70
     1
102
RTVSPropertyOp20
 70
     1
102
RTVSPropertyOp21
 70
     1
102
RTVSPropertyOp22
 70
     1
102
RTVSPropertyOp23
 70
     1
102
RTVSPropertyOp24
 70
     1
102
RTVSPropertyOp25
 70
     1
102
RTVSPropertyOp26
 70
     1
102
RTVSPropertyOp27
 70
     1
102
RTVSPropertyOp28
 70
     1
102
RTVSPropertyOp29
 70
     1
102
RTVSPropertyOp30
 70
     1
102
RTVSPropertyOp31
 70
     1
102
RTVSPropertyOp32
 70
     1
102
RTVSPropertyOp33
 70
     1
102
RTVSPropertyOp34
 70
     1
102
RTVSPropertyOp35
 70
     1
102
RTVSPropertyOp36
 70
     1
102
RTVSPropertyOp37
 70
     1
102
RTVSPropertyOp38
 70
     1
102
RTVSPropertyOp39
 70
     1
102
RTVSPropertyOp40
 70
     1
102
RTVSPropertyOp41
 70
     1
102
RTVSPropertyOp42
 70
     1
102
RTVSPropertyOp43
 70
     1
102
RTVSPropertyOp44
 70
     1
102
RTVSPropertyOp45
 70
     1
102
RTVSPropertyOp46
 70
     1
102
RTVSPropertyOp47
 70
     1
102
RTVSPropertyOp48
 70
     1
102
RTVSPropertyOp49
 70
     1
102
RTVSPropertyOp50
 70
     1
102
RTVSPropertyOp51
 70
     0
102
RTVSPropertyOp52
 70
     0
102
RTVSPropertyOp53
 70
     1
102
RTVSPropertyOp54
 70
     1
102
RTVSPropertyOp55
 70
     1
102
RTVSPropertyOp56
 70
     1
102
RTVSPropertyOp57
 70
     1
102
RTVSPropertyOp58
 70
     1
102
RTVSPropertyOp59
 70
     1
102
RTVSPropertyOp60
 70
     1
102
RTVSPropertyOp61
 70
     1
102
RTVSPropertyOp62
 70
     1
  0
XRECORD
  5
87E2
102
{ACAD_REACTORS
330
87E1
102
}
330
87E1
100
AcDbXrecord
280
     1
102
RTVSPost2010Prop28
280
     0
102
RTVSPost2010PropOp28
 70
     0
102
RTVSPost2010Prop29
280
     1
102
RTVSPost2010PropOp29
 70
     0
102
RTVSPost2010Prop30
280
     1
102
RTVSPost2010PropOp30
 70
     0
102
RTVSPost2010Prop31
280
     0
102
RTVSPost2010PropOp31
 70
     0
102
RTVSPost2010Prop32
280
     0
102
RTVSPost2010PropOp32
 70
     0
102
RTVSPost2010Prop33
280
     0
102
RTVSPost2010PropOp33
 70
     0
102
RTVSPost2010Prop34
280
     0
102
RTVSPost2010PropOp34
 70
     0
102
RTVSPost2010Prop35
280
     0
102
RTVSPost2010PropOp35
 70
     0
102
RTVSPost2010Prop36
280
     0
102
RTVSPost2010PropOp36
 70
     0
102
RTVSPost2010Prop37
 90
       50
102
RTVSPost2010PropOp37
 70
     0
102
RTVSPost2010Prop38
140
0.0
102
RTVSPost2010PropOp38
 70
     0
102
RTVSPost2010Prop39
140
1.0
102
RTVSPost2010PropOp39
 70
     0
102
RTVSPost2010Prop40
 90
        0
102
RTVSPost2010PropOp40
 70
     0
102
RTVSPost2010Prop41ColorIndex
 90
       18
102
RTVSPost2010Prop41ColorRGB
 90
        0
102
RTVSPost2010PropOp41
 70
     0
102
RTVSPost2010Prop42
 90
       50
102
RTVSPost2010PropOp42
 70
     0
102
RTVSPost2010Prop43
 90
        3
102
RTVSPost2010PropOp43
 70
     0
102
RTVSPost2010Prop44ColorIndex
 90
        5
102
RTVSPost2010Prop44ColorRGB
 90
      255
102
RTVSPost2010PropOp44
 70
     0
102
RTVSPost2010Prop45
280
     0
102
RTVSPost2010PropOp45
 70
     0
102
RTVSPost2010Prop46
 90
       50
102
RTVSPost2010PropOp46
 70
     0
102
RTVSPost2010Prop47
 90
       50
102
RTVSPost2010PropOp47
 70
     0
102
RTVSPost2010Prop48
 90
       50
102
RTVSPost2010PropOp48
 70
     0
102
RTVSPost2010Prop49
280
     0
102
RTVSPost2010PropOp49
 70
     0
102
RTVSPost2010Prop50
 90
       50
102
RTVSPost2010PropOp50
 70
     0
102
RTVSPost2010Prop51ColorIndex
 90
      256
102
RTVSPost2010Prop51ColorRGB
 90
-16777216
102
RTVSPost2010PropOp51
 70
     0
102
RTVSPost2010Prop52
140
1.0
102
RTVSPost2010PropOp52
 70
     0
102
RTVSPost2010Prop53
 90
        2
102
RTVSPost2010PropOp53
 70
     0
102
RTVSPost2010Prop54
  1
strokes_ogs.tif
102
RTVSPost2010PropOp54
 70
     0
102
RTVSPost2010Prop55
280
     0
102
RTVSPost2010PropOp55
 70
     0
102
RTVSPost2010Prop56
140
1.0
102
RTVSPost2010PropOp56
 70
     0
102
RTVSPost2010Prop57
140
1.0
102
RTVSPost2010PropOp57
 70
     0
102
RTVSPropertyOp0
 70
     0
102
RTVSPropertyOp1
 70
     0
102
RTVSPropertyOp2
 70
     0
102
RTVSPropertyOp3
 70
     0
102
RTVSPropertyOp4
 70
     0
102
RTVSPropertyOp5
 70
     0
102
RTVSPropertyOp6
 70
     0
102
RTVSPropertyOp7
 70
     0
102
RTVSPropertyOp8
 70
     0
102
RTVSPropertyOp9
 70
     0
102
RTVSPropertyOp10
 70
     0
102
RTVSPropertyOp11
 70
     0
102
RTVSPropertyOp12
 70
     0
102
RTVSPropertyOp13
 70
     0
102
RTVSPropertyOp14
 70
     2
102
RTVSPropertyOp15
 70
     0
102
RTVSPropertyOp16
 70
     0
102
RTVSPropertyOp17
 70
     0
102
RTVSPropertyOp18
 70
     0
102
RTVSPropertyOp19
 70
     0
102
RTVSPropertyOp20
 70
     0
102
RTVSPropertyOp21
 70
     0
102
RTVSPropertyOp22
 70
     0
102
RTVSPropertyOp23
 70
     0
102
RTVSPropertyOp24
 70
     0
102
RTVSPropertyOp25
 70
     0
102
RTVSPropertyOp26
 70
     0
102
RTVSPropertyOp27
 70
     0
102
RTVSPropertyOp28
 70
     0
102
RTVSPropertyOp29
 70
     0
102
RTVSPropertyOp30
 70
     0
102
RTVSPropertyOp31
 70
     0
102
RTVSPropertyOp32
 70
     0
102
RTVSPropertyOp33
 70
     0
102
RTVSPropertyOp34
 70
     0
102
RTVSPropertyOp35
 70
     0
102
RTVSPropertyOp36
 70
     0
102
RTVSPropertyOp37
 70
     0
102
RTVSPropertyOp38
 70
     0
102
RTVSPropertyOp39
 70
     0
102
RTVSPropertyOp40
 70
     0
102
RTVSPropertyOp41
 70
     0
102
RTVSPropertyOp42
 70
     0
102
RTVSPropertyOp43
 70
     0
102
RTVSPropertyOp44
 70
     0
102
RTVSPropertyOp45
 70
     0
102
RTVSPropertyOp46
 70
     0
102
RTVSPropertyOp47
 70
     0
102
RTVSPropertyOp48
 70
     0
102
RTVSPropertyOp49
 70
     0
102
RTVSPropertyOp50
 70
     0
102
RTVSPropertyOp51
 70
     0
102
RTVSPropertyOp52
 70
     0
102
RTVSPropertyOp53
 70
     0
102
RTVSPropertyOp54
 70
     0
102
RTVSPropertyOp55
 70
     0
102
RTVSPropertyOp56
 70
     0
102
RTVSPropertyOp57
 70
     0
102
RTVSPropertyOp58
 70
     1
102
RTVSPropertyOp59
 70
     1
102
RTVSPropertyOp60
 70
     1
102
RTVSPropertyOp61
 70
     1
102
RTVSPropertyOp62
 70
     1
  0
XRECORD
  5
87D2
102
{ACAD_REACTORS
330
87D1
102
}
330
87D1
100
AcDbXrecord
280
     1
102
RTVSPost2010Prop28
280
     0
102
RTVSPost2010PropOp28
 70
     1
102
RTVSPost2010Prop29
280
     1
102
RTVSPost2010PropOp29
 70
     1
102
RTVSPost2010Prop30
280
     1
102
RTVSPost2010PropOp30
 70
     1
102
RTVSPost2010Prop31
280
     0
102
RTVSPost2010PropOp31
 70
     1
102
RTVSPost2010Prop32
280
     0
102
RTVSPost2010PropOp32
 70
     1
102
RTVSPost2010Prop33
280
     0
102
RTVSPost2010PropOp33
 70
     1
102
RTVSPost2010Prop34
280
     0
102
RTVSPost2010PropOp34
 70
     1
102
RTVSPost2010Prop35
280
     0
102
RTVSPost2010PropOp35
 70
     1
102
RTVSPost2010Prop36
280
     0
102
RTVSPost2010PropOp36
 70
     1
102
RTVSPost2010Prop37
 90
       50
102
RTVSPost2010PropOp37
 70
     1
102
RTVSPost2010Prop38
140
0.0
102
RTVSPost2010PropOp38
 70
     1
102
RTVSPost2010Prop39
140
1.0
102
RTVSPost2010PropOp39
 70
     1
102
RTVSPost2010Prop40
 90
        0
102
RTVSPost2010PropOp40
 70
     1
102
RTVSPost2010Prop41ColorIndex
 90
       18
102
RTVSPost2010Prop41ColorRGB
 90
        0
102
RTVSPost2010PropOp41
 70
     1
102
RTVSPost2010Prop42
 90
       50
102
RTVSPost2010PropOp42
 70
     1
102
RTVSPost2010Prop43
 90
        3
102
RTVSPost2010PropOp43
 70
     1
102
RTVSPost2010Prop44ColorIndex
 90
        5
102
RTVSPost2010Prop44ColorRGB
 90
      255
102
RTVSPost2010PropOp44
 70
     1
102
RTVSPost2010Prop45
280
     0
102
RTVSPost2010PropOp45
 70
     1
102
RTVSPost2010Prop46
 90
       50
102
RTVSPost2010PropOp46
 70
     1
102
RTVSPost2010Prop47
 90
       50
102
RTVSPost2010PropOp47
 70
     1
102
RTVSPost2010Prop48
 90
       50
102
RTVSPost2010PropOp48
 70
     1
102
RTVSPost2010Prop49
280
     0
102
RTVSPost2010PropOp49
 70
     1
102
RTVSPost2010Prop50
 90
       50
102
RTVSPost2010PropOp50
 70
     1
102
RTVSPost2010Prop51ColorIndex
 90
      256
102
RTVSPost2010Prop51ColorRGB
 90
-16777216
102
RTVSPost2010PropOp51
 70
     0
102
RTVSPost2010Prop52
140
1.0
102
RTVSPost2010PropOp52
 70
     0
102
RTVSPost2010Prop53
 90
        2
102
RTVSPost2010PropOp53
 70
     1
102
RTVSPost2010Prop54
  1
strokes_ogs.tif
102
RTVSPost2010PropOp54
 70
     1
102
RTVSPost2010Prop55
280
     0
102
RTVSPost2010PropOp55
 70
     1
102
RTVSPost2010Prop56
140
1.0
102
RTVSPost2010PropOp56
 70
     1
102
RTVSPost2010Prop57
140
1.0
102
RTVSPost2010PropOp57
 70
     1
102
RTVSPropertyOp0
 70
     1
102
RTVSPropertyOp1
 70
     1
102
RTVSPropertyOp2
 70
     1
102
RTVSPropertyOp3
 70
     1
102
RTVSPropertyOp4
 70
     1
102
RTVSPropertyOp5
 70
     1
102
RTVSPropertyOp6
 70
     1
102
RTVSPropertyOp7
 70
     1
102
RTVSPropertyOp8
 70
     1
102
RTVSPropertyOp9
 70
     1
102
RTVSPropertyOp10
 70
     1
102
RTVSPropertyOp11
 70
     1
102
RTVSPropertyOp12
 70
     1
102
RTVSPropertyOp13
 70
     1
102
RTVSPropertyOp14
 70
     1
102
RTVSPropertyOp15
 70
     1
102
RTVSPropertyOp16
 70
     1
102
RTVSPropertyOp17
 70
     1
102
RTVSPropertyOp18
 70
     1
102
RTVSPropertyOp19
 70
     1
102
RTVSPropertyOp20
 70
     1
102
RTVSPropertyOp21
 70
     1
102
RTVSPropertyOp22
 70
     1
102
RTVSPropertyOp23
 70
     1
102
RTVSPropertyOp24
 70
     1
102
RTVSPropertyOp25
 70
     1
102
RTVSPropertyOp26
 70
     1
102
RTVSPropertyOp27
 70
     1
102
RTVSPropertyOp28
 70
     1
102
RTVSPropertyOp29
 70
     1
102
RTVSPropertyOp30
 70
     1
102
RTVSPropertyOp31
 70
     1
102
RTVSPropertyOp32
 70
     1
102
RTVSPropertyOp33
 70
     1
102
RTVSPropertyOp34
 70
     1
102
RTVSPropertyOp35
 70
     1
102
RTVSPropertyOp36
 70
     1
102
RTVSPropertyOp37
 70
     1
102
RTVSPropertyOp38
 70
     1
102
RTVSPropertyOp39
 70
     1
102
RTVSPropertyOp40
 70
     1
102
RTVSPropertyOp41
 70
     1
102
RTVSPropertyOp42
 70
     1
102
RTVSPropertyOp43
 70
     1
102
RTVSPropertyOp44
 70
     1
102
RTVSPropertyOp45
 70
     1
102
RTVSPropertyOp46
 70
     1
102
RTVSPropertyOp47
 70
     1
102
RTVSPropertyOp48
 70
     1
102
RTVSPropertyOp49
 70
     1
102
RTVSPropertyOp50
 70
     1
102
RTVSPropertyOp51
 70
     0
102
RTVSPropertyOp52
 70
     0
102
RTVSPropertyOp53
 70
     1
102
RTVSPropertyOp54
 70
     1
102
RTVSPropertyOp55
 70
     1
102
RTVSPropertyOp56
 70
     1
102
RTVSPropertyOp57
 70
     1
102
RTVSPropertyOp58
 70
     1
102
RTVSPropertyOp59
 70
     1
102
RTVSPropertyOp60
 70
     1
102
RTVSPropertyOp61
 70
     1
102
RTVSPropertyOp62
 70
     1
  0
XRECORD
  5
87E4
102
{ACAD_REACTORS
330
87E3
102
}
330
87E3
100
AcDbXrecord
280
     1
102
RTVSPost2010Prop28
280
     0
102
RTVSPost2010PropOp28
 70
     0
102
RTVSPost2010Prop29
280
     1
102
RTVSPost2010PropOp29
 70
     0
102
RTVSPost2010Prop30
280
     1
102
RTVSPost2010PropOp30
 70
     0
102
RTVSPost2010Prop31
280
     0
102
RTVSPost2010PropOp31
 70
     0
102
RTVSPost2010Prop32
280
     0
102
RTVSPost2010PropOp32
 70
     0
102
RTVSPost2010Prop33
280
     0
102
RTVSPost2010PropOp33
 70
     0
102
RTVSPost2010Prop34
280
     0
102
RTVSPost2010PropOp34
 70
     0
102
RTVSPost2010Prop35
280
     0
102
RTVSPost2010PropOp35
 70
     0
102
RTVSPost2010Prop36
280
     0
102
RTVSPost2010PropOp36
 70
     0
102
RTVSPost2010Prop37
 90
       50
102
RTVSPost2010PropOp37
 70
     0
102
RTVSPost2010Prop38
140
0.0
102
RTVSPost2010PropOp38
 70
     0
102
RTVSPost2010Prop39
140
1.0
102
RTVSPost2010PropOp39
 70
     0
102
RTVSPost2010Prop40
 90
        0
102
RTVSPost2010PropOp40
 70
     0
102
RTVSPost2010Prop41ColorIndex
 90
       18
102
RTVSPost2010Prop41ColorRGB
 90
        0
102
RTVSPost2010PropOp41
 70
     0
102
RTVSPost2010Prop42
 90
       50
102
RTVSPost2010PropOp42
 70
     0
102
RTVSPost2010Prop43
 90
        3
102
RTVSPost2010PropOp43
 70
     0
102
RTVSPost2010Prop44ColorIndex
 90
        5
102
RTVSPost2010Prop44ColorRGB
 90
      255
102
RTVSPost2010PropOp44
 70
     0
102
RTVSPost2010Prop45
280
     0
102
RTVSPost2010PropOp45
 70
     0
102
RTVSPost2010Prop46
 90
       50
102
RTVSPost2010PropOp46
 70
     0
102
RTVSPost2010Prop47
 90
       50
102
RTVSPost2010PropOp47
 70
     0
102
RTVSPost2010Prop48
 90
       50
102
RTVSPost2010PropOp48
 70
     0
102
RTVSPost2010Prop49
280
     0
102
RTVSPost2010PropOp49
 70
     0
102
RTVSPost2010Prop50
 90
       50
102
RTVSPost2010PropOp50
 70
     0
102
RTVSPost2010Prop51ColorIndex
 90
      256
102
RTVSPost2010Prop51ColorRGB
 90
-16777216
102
RTVSPost2010PropOp51
 70
     0
102
RTVSPost2010Prop52
140
1.0
102
RTVSPost2010PropOp52
 70
     0
102
RTVSPost2010Prop53
 90
        2
102
RTVSPost2010PropOp53
 70
     0
102
RTVSPost2010Prop54
  1
strokes_ogs.tif
102
RTVSPost2010PropOp54
 70
     0
102
RTVSPost2010Prop55
280
     0
102
RTVSPost2010PropOp55
 70
     0
102
RTVSPost2010Prop56
140
1.0
102
RTVSPost2010PropOp56
 70
     0
102
RTVSPost2010Prop57
140
1.0
102
RTVSPost2010PropOp57
 70
     0
102
RTVSPropertyOp0
 70
     0
102
RTVSPropertyOp1
 70
     0
102
RTVSPropertyOp2
 70
     0
102
RTVSPropertyOp3
 70
     0
102
RTVSPropertyOp4
 70
     0
102
RTVSPropertyOp5
 70
     0
102
RTVSPropertyOp6
 70
     0
102
RTVSPropertyOp7
 70
     0
102
RTVSPropertyOp8
 70
     0
102
RTVSPropertyOp9
 70
     0
102
RTVSPropertyOp10
 70
     0
102
RTVSPropertyOp11
 70
     0
102
RTVSPropertyOp12
 70
     0
102
RTVSPropertyOp13
 70
     0
102
RTVSPropertyOp14
 70
     2
102
RTVSPropertyOp15
 70
     0
102
RTVSPropertyOp16
 70
     0
102
RTVSPropertyOp17
 70
     0
102
RTVSPropertyOp18
 70
     0
102
RTVSPropertyOp19
 70
     0
102
RTVSPropertyOp20
 70
     0
102
RTVSPropertyOp21
 70
     0
102
RTVSPropertyOp22
 70
     0
102
RTVSPropertyOp23
 70
     0
102
RTVSPropertyOp24
 70
     0
102
RTVSPropertyOp25
 70
     0
102
RTVSPropertyOp26
 70
     0
102
RTVSPropertyOp27
 70
     0
102
RTVSPropertyOp28
 70
     0
102
RTVSPropertyOp29
 70
     0
102
RTVSPropertyOp30
 70
     0
102
RTVSPropertyOp31
 70
     0
102
RTVSPropertyOp32
 70
     0
102
RTVSPropertyOp33
 70
     0
102
RTVSPropertyOp34
 70
     0
102
RTVSPropertyOp35
 70
     0
102
RTVSPropertyOp36
 70
     0
102
RTVSPropertyOp37
 70
     0
102
RTVSPropertyOp38
 70
     0
102
RTVSPropertyOp39
 70
     0
102
RTVSPropertyOp40
 70
     0
102
RTVSPropertyOp41
 70
     0
102
RTVSPropertyOp42
 70
     0
102
RTVSPropertyOp43
 70
     0
102
RTVSPropertyOp44
 70
     0
102
RTVSPropertyOp45
 70
     0
102
RTVSPropertyOp46
 70
     0
102
RTVSPropertyOp47
 70
     0
102
RTVSPropertyOp48
 70
     0
102
RTVSPropertyOp49
 70
     0
102
RTVSPropertyOp50
 70
     0
102
RTVSPropertyOp51
 70
     0
102
RTVSPropertyOp52
 70
     0
102
RTVSPropertyOp53
 70
     0
102
RTVSPropertyOp54
 70
     0
102
RTVSPropertyOp55
 70
     0
102
RTVSPropertyOp56
 70
     0
102
RTVSPropertyOp57
 70
     0
102
RTVSPropertyOp58
 70
     1
102
RTVSPropertyOp59
 70
     1
102
RTVSPropertyOp60
 70
     1
102
RTVSPropertyOp61
 70
     1
102
RTVSPropertyOp62
 70
     1
  0
XRECORD
  5
87CA
102
{ACAD_REACTORS
330
87C9
102
}
330
87C9
100
AcDbXrecord
280
     1
102
RTVSPost2010Prop28
280
     0
102
RTVSPost2010PropOp28
 70
     1
102
RTVSPost2010Prop29
280
     1
102
RTVSPost2010PropOp29
 70
     1
102
RTVSPost2010Prop30
280
     1
102
RTVSPost2010PropOp30
 70
     1
102
RTVSPost2010Prop31
280
     0
102
RTVSPost2010PropOp31
 70
     1
102
RTVSPost2010Prop32
280
     0
102
RTVSPost2010PropOp32
 70
     1
102
RTVSPost2010Prop33
280
     0
102
RTVSPost2010PropOp33
 70
     1
102
RTVSPost2010Prop34
280
     0
102
RTVSPost2010PropOp34
 70
     1
102
RTVSPost2010Prop35
280
     0
102
RTVSPost2010PropOp35
 70
     1
102
RTVSPost2010Prop36
280
     0
102
RTVSPost2010PropOp36
 70
     1
102
RTVSPost2010Prop37
 90
       50
102
RTVSPost2010PropOp37
 70
     1
102
RTVSPost2010Prop38
140
0.0
102
RTVSPost2010PropOp38
 70
     1
102
RTVSPost2010Prop39
140
1.0
102
RTVSPost2010PropOp39
 70
     1
102
RTVSPost2010Prop40
 90
        0
102
RTVSPost2010PropOp40
 70
     1
102
RTVSPost2010Prop41ColorIndex
 90
       18
102
RTVSPost2010Prop41ColorRGB
 90
        0
102
RTVSPost2010PropOp41
 70
     1
102
RTVSPost2010Prop42
 90
       50
102
RTVSPost2010PropOp42
 70
     1
102
RTVSPost2010Prop43
 90
        3
102
RTVSPost2010PropOp43
 70
     1
102
RTVSPost2010Prop44ColorIndex
 90
        5
102
RTVSPost2010Prop44ColorRGB
 90
      255
102
RTVSPost2010PropOp44
 70
     1
102
RTVSPost2010Prop45
280
     0
102
RTVSPost2010PropOp45
 70
     1
102
RTVSPost2010Prop46
 90
       50
102
RTVSPost2010PropOp46
 70
     1
102
RTVSPost2010Prop47
 90
       50
102
RTVSPost2010PropOp47
 70
     1
102
RTVSPost2010Prop48
 90
       50
102
RTVSPost2010PropOp48
 70
     1
102
RTVSPost2010Prop49
280
     0
102
RTVSPost2010PropOp49
 70
     1
102
RTVSPost2010Prop50
 90
       50
102
RTVSPost2010PropOp50
 70
     1
102
RTVSPost2010Prop51ColorIndex
 90
      256
102
RTVSPost2010Prop51ColorRGB
 90
-16777216
102
RTVSPost2010PropOp51
 70
     0
102
RTVSPost2010Prop52
140
1.0
102
RTVSPost2010PropOp52
 70
     0
102
RTVSPost2010Prop53
 90
        2
102
RTVSPost2010PropOp53
 70
     1
102
RTVSPost2010Prop54
  1
strokes_ogs.tif
102
RTVSPost2010PropOp54
 70
     1
102
RTVSPost2010Prop55
280
     0
102
RTVSPost2010PropOp55
 70
     1
102
RTVSPost2010Prop56
140
1.0
102
RTVSPost2010PropOp56
 70
     1
102
RTVSPost2010Prop57
140
1.0
102
RTVSPost2010PropOp57
 70
     1
102
RTVSPropertyOp0
 70
     1
102
RTVSPropertyOp1
 70
     1
102
RTVSPropertyOp2
 70
     1
102
RTVSPropertyOp3
 70
     1
102
RTVSPropertyOp4
 70
     1
102
RTVSPropertyOp5
 70
     1
102
RTVSPropertyOp6
 70
     1
102
RTVSPropertyOp7
 70
     1
102
RTVSPropertyOp8
 70
     1
102
RTVSPropertyOp9
 70
     1
102
RTVSPropertyOp10
 70
     1
102
RTVSPropertyOp11
 70
     1
102
RTVSPropertyOp12
 70
     1
102
RTVSPropertyOp13
 70
     1
102
RTVSPropertyOp14
 70
     1
102
RTVSPropertyOp15
 70
     1
102
RTVSPropertyOp16
 70
     1
102
RTVSPropertyOp17
 70
     1
102
RTVSPropertyOp18
 70
     1
102
RTVSPropertyOp19
 70
     1
102
RTVSPropertyOp20
 70
     1
102
RTVSPropertyOp21
 70
     1
102
RTVSPropertyOp22
 70
     1
102
RTVSPropertyOp23
 70
     1
102
RTVSPropertyOp24
 70
     1
102
RTVSPropertyOp25
 70
     1
102
RTVSPropertyOp26
 70
     1
102
RTVSPropertyOp27
 70
     1
102
RTVSPropertyOp28
 70
     1
102
RTVSPropertyOp29
 70
     1
102
RTVSPropertyOp30
 70
     1
102
RTVSPropertyOp31
 70
     1
102
RTVSPropertyOp32
 70
     1
102
RTVSPropertyOp33
 70
     1
102
RTVSPropertyOp34
 70
     1
102
RTVSPropertyOp35
 70
     1
102
RTVSPropertyOp36
 70
     1
102
RTVSPropertyOp37
 70
     1
102
RTVSPropertyOp38
 70
     1
102
RTVSPropertyOp39
 70
     1
102
RTVSPropertyOp40
 70
     1
102
RTVSPropertyOp41
 70
     1
102
RTVSPropertyOp42
 70
     1
102
RTVSPropertyOp43
 70
     1
102
RTVSPropertyOp44
 70
     1
102
RTVSPropertyOp45
 70
     1
102
RTVSPropertyOp46
 70
     1
102
RTVSPropertyOp47
 70
     1
102
RTVSPropertyOp48
 70
     1
102
RTVSPropertyOp49
 70
     1
102
RTVSPropertyOp50
 70
     1
102
RTVSPropertyOp51
 70
     0
102
RTVSPropertyOp52
 70
     0
102
RTVSPropertyOp53
 70
     1
102
RTVSPropertyOp54
 70
     1
102
RTVSPropertyOp55
 70
     1
102
RTVSPropertyOp56
 70
     1
102
RTVSPropertyOp57
 70
     1
102
RTVSPropertyOp58
 70
     1
102
RTVSPropertyOp59
 70
     1
102
RTVSPropertyOp60
 70
     1
102
RTVSPropertyOp61
 70
     1
102
RTVSPropertyOp62
 70
     1
  0
XRECORD
  5
87E0
102
{ACAD_REACTORS
330
87DF
102
}
330
87DF
100
AcDbXrecord
280
     1
102
RTVSPost2010Prop28
280
     0
102
RTVSPost2010PropOp28
 70
     1
102
RTVSPost2010Prop29
280
     1
102
RTVSPost2010PropOp29
 70
     1
102
RTVSPost2010Prop30
280
     1
102
RTVSPost2010PropOp30
 70
     1
102
RTVSPost2010Prop31
280
     0
102
RTVSPost2010PropOp31
 70
     1
102
RTVSPost2010Prop32
280
     0
102
RTVSPost2010PropOp32
 70
     1
102
RTVSPost2010Prop33
280
     0
102
RTVSPost2010PropOp33
 70
     1
102
RTVSPost2010Prop34
280
     0
102
RTVSPost2010PropOp34
 70
     1
102
RTVSPost2010Prop35
280
     0
102
RTVSPost2010PropOp35
 70
     1
102
RTVSPost2010Prop36
280
     0
102
RTVSPost2010PropOp36
 70
     1
102
RTVSPost2010Prop37
 90
       50
102
RTVSPost2010PropOp37
 70
     1
102
RTVSPost2010Prop38
140
0.0
102
RTVSPost2010PropOp38
 70
     1
102
RTVSPost2010Prop39
140
1.0
102
RTVSPost2010PropOp39
 70
     1
102
RTVSPost2010Prop40
 90
        0
102
RTVSPost2010PropOp40
 70
     1
102
RTVSPost2010Prop41ColorIndex
 90
       18
102
RTVSPost2010Prop41ColorRGB
 90
        0
102
RTVSPost2010PropOp41
 70
     1
102
RTVSPost2010Prop42
 90
       50
102
RTVSPost2010PropOp42
 70
     1
102
RTVSPost2010Prop43
 90
        3
102
RTVSPost2010PropOp43
 70
     1
102
RTVSPost2010Prop44ColorIndex
 90
        5
102
RTVSPost2010Prop44ColorRGB
 90
      255
102
RTVSPost2010PropOp44
 70
     1
102
RTVSPost2010Prop45
280
     0
102
RTVSPost2010PropOp45
 70
     1
102
RTVSPost2010Prop46
 90
       50
102
RTVSPost2010PropOp46
 70
     1
102
RTVSPost2010Prop47
 90
       50
102
RTVSPost2010PropOp47
 70
     1
102
RTVSPost2010Prop48
 90
       50
102
RTVSPost2010PropOp48
 70
     1
102
RTVSPost2010Prop49
280
     0
102
RTVSPost2010PropOp49
 70
     1
102
RTVSPost2010Prop50
 90
       50
102
RTVSPost2010PropOp50
 70
     1
102
RTVSPost2010Prop51ColorIndex
 90
      256
102
RTVSPost2010Prop51ColorRGB
 90
-16777216
102
RTVSPost2010PropOp51
 70
     0
102
RTVSPost2010Prop52
140
1.0
102
RTVSPost2010PropOp52
 70
     0
102
RTVSPost2010Prop53
 90
        2
102
RTVSPost2010PropOp53
 70
     1
102
RTVSPost2010Prop54
  1
strokes_ogs.tif
102
RTVSPost2010PropOp54
 70
     1
102
RTVSPost2010Prop55
280
     0
102
RTVSPost2010PropOp55
 70
     1
102
RTVSPost2010Prop56
140
1.0
102
RTVSPost2010PropOp56
 70
     1
102
RTVSPost2010Prop57
140
1.0
102
RTVSPost2010PropOp57
 70
     1
102
RTVSPropertyOp0
 70
     1
102
RTVSPropertyOp1
 70
     1
102
RTVSPropertyOp2
 70
     1
102
RTVSPropertyOp3
 70
     1
102
RTVSPropertyOp4
 70
     1
102
RTVSPropertyOp5
 70
     1
102
RTVSPropertyOp6
 70
     1
102
RTVSPropertyOp7
 70
     1
102
RTVSPropertyOp8
 70
     1
102
RTVSPropertyOp9
 70
     1
102
RTVSPropertyOp10
 70
     1
102
RTVSPropertyOp11
 70
     1
102
RTVSPropertyOp12
 70
     1
102
RTVSPropertyOp13
 70
     1
102
RTVSPropertyOp14
 70
     1
102
RTVSPropertyOp15
 70
     1
102
RTVSPropertyOp16
 70
     1
102
RTVSPropertyOp17
 70
     1
102
RTVSPropertyOp18
 70
     1
102
RTVSPropertyOp19
 70
     1
102
RTVSPropertyOp20
 70
     1
102
RTVSPropertyOp21
 70
     1
102
RTVSPropertyOp22
 70
     1
102
RTVSPropertyOp23
 70
     1
102
RTVSPropertyOp24
 70
     1
102
RTVSPropertyOp25
 70
     1
102
RTVSPropertyOp26
 70
     1
102
RTVSPropertyOp27
 70
     1
102
RTVSPropertyOp28
 70
     1
102
RTVSPropertyOp29
 70
     1
102
RTVSPropertyOp30
 70
     1
102
RTVSPropertyOp31
 70
     1
102
RTVSPropertyOp32
 70
     1
102
RTVSPropertyOp33
 70
     1
102
RTVSPropertyOp34
 70
     1
102
RTVSPropertyOp35
 70
     1
102
RTVSPropertyOp36
 70
     1
102
RTVSPropertyOp37
 70
     1
102
RTVSPropertyOp38
 70
     1
102
RTVSPropertyOp39
 70
     1
102
RTVSPropertyOp40
 70
     1
102
RTVSPropertyOp41
 70
     1
102
RTVSPropertyOp42
 70
     1
102
RTVSPropertyOp43
 70
     1
102
RTVSPropertyOp44
 70
     1
102
RTVSPropertyOp45
 70
     1
102
RTVSPropertyOp46
 70
     1
102
RTVSPropertyOp47
 70
     1
102
RTVSPropertyOp48
 70
     1
102
RTVSPropertyOp49
 70
     1
102
RTVSPropertyOp50
 70
     1
102
RTVSPropertyOp51
 70
     0
102
RTVSPropertyOp52
 70
     0
102
RTVSPropertyOp53
 70
     1
102
RTVSPropertyOp54
 70
     1
102
RTVSPropertyOp55
 70
     1
102
RTVSPropertyOp56
 70
     1
102
RTVSPropertyOp57
 70
     1
102
RTVSPropertyOp58
 70
     1
102
RTVSPropertyOp59
 70
     1
102
RTVSPropertyOp60
 70
     1
102
RTVSPropertyOp61
 70
     1
102
RTVSPropertyOp62
 70
     1
  0
XRECORD
  5
87DE
102
{ACAD_REACTORS
330
87DD
102
}
330
87DD
100
AcDbXrecord
280
     1
102
RTVSPost2010Prop28
280
     0
102
RTVSPost2010PropOp28
 70
     1
102
RTVSPost2010Prop29
280
     1
102
RTVSPost2010PropOp29
 70
     1
102
RTVSPost2010Prop30
280
     1
102
RTVSPost2010PropOp30
 70
     1
102
RTVSPost2010Prop31
280
     0
102
RTVSPost2010PropOp31
 70
     1
102
RTVSPost2010Prop32
280
     0
102
RTVSPost2010PropOp32
 70
     1
102
RTVSPost2010Prop33
280
     0
102
RTVSPost2010PropOp33
 70
     1
102
RTVSPost2010Prop34
280
     0
102
RTVSPost2010PropOp34
 70
     1
102
RTVSPost2010Prop35
280
     0
102
RTVSPost2010PropOp35
 70
     1
102
RTVSPost2010Prop36
280
     0
102
RTVSPost2010PropOp36
 70
     1
102
RTVSPost2010Prop37
 90
       50
102
RTVSPost2010PropOp37
 70
     1
102
RTVSPost2010Prop38
140
0.0
102
RTVSPost2010PropOp38
 70
     1
102
RTVSPost2010Prop39
140
1.0
102
RTVSPost2010PropOp39
 70
     1
102
RTVSPost2010Prop40
 90
        0
102
RTVSPost2010PropOp40
 70
     1
102
RTVSPost2010Prop41ColorIndex
 90
       18
102
RTVSPost2010Prop41ColorRGB
 90
        0
102
RTVSPost2010PropOp41
 70
     1
102
RTVSPost2010Prop42
 90
       50
102
RTVSPost2010PropOp42
 70
     1
102
RTVSPost2010Prop43
 90
        3
102
RTVSPost2010PropOp43
 70
     1
102
RTVSPost2010Prop44ColorIndex
 90
        5
102
RTVSPost2010Prop44ColorRGB
 90
      255
102
RTVSPost2010PropOp44
 70
     1
102
RTVSPost2010Prop45
280
     0
102
RTVSPost2010PropOp45
 70
     1
102
RTVSPost2010Prop46
 90
       50
102
RTVSPost2010PropOp46
 70
     1
102
RTVSPost2010Prop47
 90
       50
102
RTVSPost2010PropOp47
 70
     1
102
RTVSPost2010Prop48
 90
       50
102
RTVSPost2010PropOp48
 70
     1
102
RTVSPost2010Prop49
280
     0
102
RTVSPost2010PropOp49
 70
     1
102
RTVSPost2010Prop50
 90
       50
102
RTVSPost2010PropOp50
 70
     1
102
RTVSPost2010Prop51ColorIndex
 90
      256
102
RTVSPost2010Prop51ColorRGB
 90
-16777216
102
RTVSPost2010PropOp51
 70
     0
102
RTVSPost2010Prop52
140
1.0
102
RTVSPost2010PropOp52
 70
     0
102
RTVSPost2010Prop53
 90
        2
102
RTVSPost2010PropOp53
 70
     1
102
RTVSPost2010Prop54
  1
strokes_ogs.tif
102
RTVSPost2010PropOp54
 70
     1
102
RTVSPost2010Prop55
280
     0
102
RTVSPost2010PropOp55
 70
     1
102
RTVSPost2010Prop56
140
1.0
102
RTVSPost2010PropOp56
 70
     1
102
RTVSPost2010Prop57
140
1.0
102
RTVSPost2010PropOp57
 70
     1
102
RTVSPropertyOp0
 70
     1
102
RTVSPropertyOp1
 70
     1
102
RTVSPropertyOp2
 70
     1
102
RTVSPropertyOp3
 70
     1
102
RTVSPropertyOp4
 70
     1
102
RTVSPropertyOp5
 70
     1
102
RTVSPropertyOp6
 70
     1
102
RTVSPropertyOp7
 70
     1
102
RTVSPropertyOp8
 70
     1
102
RTVSPropertyOp9
 70
     1
102
RTVSPropertyOp10
 70
     1
102
RTVSPropertyOp11
 70
     1
102
RTVSPropertyOp12
 70
     1
102
RTVSPropertyOp13
 70
     1
102
RTVSPropertyOp14
 70
     1
102
RTVSPropertyOp15
 70
     1
102
RTVSPropertyOp16
 70
     1
102
RTVSPropertyOp17
 70
     1
102
RTVSPropertyOp18
 70
     1
102
RTVSPropertyOp19
 70
     1
102
RTVSPropertyOp20
 70
     1
102
RTVSPropertyOp21
 70
     1
102
RTVSPropertyOp22
 70
     1
102
RTVSPropertyOp23
 70
     1
102
RTVSPropertyOp24
 70
     1
102
RTVSPropertyOp25
 70
     1
102
RTVSPropertyOp26
 70
     1
102
RTVSPropertyOp27
 70
     1
102
RTVSPropertyOp28
 70
     1
102
RTVSPropertyOp29
 70
     1
102
RTVSPropertyOp30
 70
     1
102
RTVSPropertyOp31
 70
     1
102
RTVSPropertyOp32
 70
     1
102
RTVSPropertyOp33
 70
     1
102
RTVSPropertyOp34
 70
     1
102
RTVSPropertyOp35
 70
     1
102
RTVSPropertyOp36
 70
     1
102
RTVSPropertyOp37
 70
     1
102
RTVSPropertyOp38
 70
     1
102
RTVSPropertyOp39
 70
     1
102
RTVSPropertyOp40
 70
     1
102
RTVSPropertyOp41
 70
     1
102
RTVSPropertyOp42
 70
     1
102
RTVSPropertyOp43
 70
     1
102
RTVSPropertyOp44
 70
     1
102
RTVSPropertyOp45
 70
     1
102
RTVSPropertyOp46
 70
     1
102
RTVSPropertyOp47
 70
     1
102
RTVSPropertyOp48
 70
     1
102
RTVSPropertyOp49
 70
     1
102
RTVSPropertyOp50
 70
     1
102
RTVSPropertyOp51
 70
     0
102
RTVSPropertyOp52
 70
     0
102
RTVSPropertyOp53
 70
     1
102
RTVSPropertyOp54
 70
     1
102
RTVSPropertyOp55
 70
     1
102
RTVSPropertyOp56
 70
     1
102
RTVSPropertyOp57
 70
     1
102
RTVSPropertyOp58
 70
     1
102
RTVSPropertyOp59
 70
     1
102
RTVSPropertyOp60
 70
     1
102
RTVSPropertyOp61
 70
     1
102
RTVSPropertyOp62
 70
     1
  0
XRECORD
  5
87D8
102
{ACAD_REACTORS
330
87D7
102
}
330
87D7
100
AcDbXrecord
280
     1
102
RTVSPost2010Prop28
280
     0
102
RTVSPost2010PropOp28
 70
     1
102
RTVSPost2010Prop29
280
     1
102
RTVSPost2010PropOp29
 70
     1
102
RTVSPost2010Prop30
280
     1
102
RTVSPost2010PropOp30
 70
     1
102
RTVSPost2010Prop31
280
     0
102
RTVSPost2010PropOp31
 70
     1
102
RTVSPost2010Prop32
280
     0
102
RTVSPost2010PropOp32
 70
     1
102
RTVSPost2010Prop33
280
     0
102
RTVSPost2010PropOp33
 70
     1
102
RTVSPost2010Prop34
280
     0
102
RTVSPost2010PropOp34
 70
     1
102
RTVSPost2010Prop35
280
     0
102
RTVSPost2010PropOp35
 70
     1
102
RTVSPost2010Prop36
280
     0
102
RTVSPost2010PropOp36
 70
     1
102
RTVSPost2010Prop37
 90
       50
102
RTVSPost2010PropOp37
 70
     1
102
RTVSPost2010Prop38
140
0.0
102
RTVSPost2010PropOp38
 70
     1
102
RTVSPost2010Prop39
140
1.0
102
RTVSPost2010PropOp39
 70
     1
102
RTVSPost2010Prop40
 90
        0
102
RTVSPost2010PropOp40
 70
     1
102
RTVSPost2010Prop41ColorIndex
 90
       18
102
RTVSPost2010Prop41ColorRGB
 90
        0
102
RTVSPost2010PropOp41
 70
     1
102
RTVSPost2010Prop42
 90
       50
102
RTVSPost2010PropOp42
 70
     1
102
RTVSPost2010Prop43
 90
        3
102
RTVSPost2010PropOp43
 70
     1
102
RTVSPost2010Prop44ColorIndex
 90
        5
102
RTVSPost2010Prop44ColorRGB
 90
      255
102
RTVSPost2010PropOp44
 70
     1
102
RTVSPost2010Prop45
280
     0
102
RTVSPost2010PropOp45
 70
     1
102
RTVSPost2010Prop46
 90
       50
102
RTVSPost2010PropOp46
 70
     1
102
RTVSPost2010Prop47
 90
       50
102
RTVSPost2010PropOp47
 70
     1
102
RTVSPost2010Prop48
 90
       50
102
RTVSPost2010PropOp48
 70
     1
102
RTVSPost2010Prop49
280
     0
102
RTVSPost2010PropOp49
 70
     1
102
RTVSPost2010Prop50
 90
       50
102
RTVSPost2010PropOp50
 70
     1
102
RTVSPost2010Prop51ColorIndex
 90
      256
102
RTVSPost2010Prop51ColorRGB
 90
-16777216
102
RTVSPost2010PropOp51
 70
     0
102
RTVSPost2010Prop52
140
1.0
102
RTVSPost2010PropOp52
 70
     0
102
RTVSPost2010Prop53
 90
        2
102
RTVSPost2010PropOp53
 70
     1
102
RTVSPost2010Prop54
  1
strokes_ogs.tif
102
RTVSPost2010PropOp54
 70
     1
102
RTVSPost2010Prop55
280
     0
102
RTVSPost2010PropOp55
 70
     1
102
RTVSPost2010Prop56
140
1.0
102
RTVSPost2010PropOp56
 70
     1
102
RTVSPost2010Prop57
140
1.0
102
RTVSPost2010PropOp57
 70
     1
102
RTVSPropertyOp0
 70
     1
102
RTVSPropertyOp1
 70
     1
102
RTVSPropertyOp2
 70
     1
102
RTVSPropertyOp3
 70
     1
102
RTVSPropertyOp4
 70
     1
102
RTVSPropertyOp5
 70
     1
102
RTVSPropertyOp6
 70
     1
102
RTVSPropertyOp7
 70
     1
102
RTVSPropertyOp8
 70
     1
102
RTVSPropertyOp9
 70
     1
102
RTVSPropertyOp10
 70
     1
102
RTVSPropertyOp11
 70
     1
102
RTVSPropertyOp12
 70
     1
102
RTVSPropertyOp13
 70
     1
102
RTVSPropertyOp14
 70
     1
102
RTVSPropertyOp15
 70
     1
102
RTVSPropertyOp16
 70
     1
102
RTVSPropertyOp17
 70
     1
102
RTVSPropertyOp18
 70
     1
102
RTVSPropertyOp19
 70
     1
102
RTVSPropertyOp20
 70
     1
102
RTVSPropertyOp21
 70
     1
102
RTVSPropertyOp22
 70
     1
102
RTVSPropertyOp23
 70
     1
102
RTVSPropertyOp24
 70
     1
102
RTVSPropertyOp25
 70
     1
102
RTVSPropertyOp26
 70
     1
102
RTVSPropertyOp27
 70
     1
102
RTVSPropertyOp28
 70
     1
102
RTVSPropertyOp29
 70
     1
102
RTVSPropertyOp30
 70
     1
102
RTVSPropertyOp31
 70
     1
102
RTVSPropertyOp32
 70
     1
102
RTVSPropertyOp33
 70
     1
102
RTVSPropertyOp34
 70
     1
102
RTVSPropertyOp35
 70
     1
102
RTVSPropertyOp36
 70
     1
102
RTVSPropertyOp37
 70
     1
102
RTVSPropertyOp38
 70
     1
102
RTVSPropertyOp39
 70
     1
102
RTVSPropertyOp40
 70
     1
102
RTVSPropertyOp41
 70
     1
102
RTVSPropertyOp42
 70
     1
102
RTVSPropertyOp43
 70
     1
102
RTVSPropertyOp44
 70
     1
102
RTVSPropertyOp45
 70
     1
102
RTVSPropertyOp46
 70
     1
102
RTVSPropertyOp47
 70
     1
102
RTVSPropertyOp48
 70
     1
102
RTVSPropertyOp49
 70
     1
102
RTVSPropertyOp50
 70
     1
102
RTVSPropertyOp51
 70
     0
102
RTVSPropertyOp52
 70
     0
102
RTVSPropertyOp53
 70
     1
102
RTVSPropertyOp54
 70
     1
102
RTVSPropertyOp55
 70
     1
102
RTVSPropertyOp56
 70
     1
102
RTVSPropertyOp57
 70
     1
102
RTVSPropertyOp58
 70
     1
102
RTVSPropertyOp59
 70
     1
102
RTVSPropertyOp60
 70
     1
102
RTVSPropertyOp61
 70
     1
102
RTVSPropertyOp62
 70
     1
  0
XRECORD
  5
87DA
102
{ACAD_REACTORS
330
87D9
102
}
330
87D9
100
AcDbXrecord
280
     1
102
RTVSPost2010Prop28
280
     0
102
RTVSPost2010PropOp28
 70
     1
102
RTVSPost2010Prop29
280
     1
102
RTVSPost2010PropOp29
 70
     1
102
RTVSPost2010Prop30
280
     1
102
RTVSPost2010PropOp30
 70
     1
102
RTVSPost2010Prop31
280
     0
102
RTVSPost2010PropOp31
 70
     1
102
RTVSPost2010Prop32
280
     0
102
RTVSPost2010PropOp32
 70
     1
102
RTVSPost2010Prop33
280
     0
102
RTVSPost2010PropOp33
 70
     1
102
RTVSPost2010Prop34
280
     0
102
RTVSPost2010PropOp34
 70
     1
102
RTVSPost2010Prop35
280
     0
102
RTVSPost2010PropOp35
 70
     1
102
RTVSPost2010Prop36
280
     0
102
RTVSPost2010PropOp36
 70
     1
102
RTVSPost2010Prop37
 90
       50
102
RTVSPost2010PropOp37
 70
     1
102
RTVSPost2010Prop38
140
0.0
102
RTVSPost2010PropOp38
 70
     1
102
RTVSPost2010Prop39
140
1.0
102
RTVSPost2010PropOp39
 70
     1
102
RTVSPost2010Prop40
 90
        0
102
RTVSPost2010PropOp40
 70
     1
102
RTVSPost2010Prop41ColorIndex
 90
       18
102
RTVSPost2010Prop41ColorRGB
 90
        0
102
RTVSPost2010PropOp41
 70
     1
102
RTVSPost2010Prop42
 90
       50
102
RTVSPost2010PropOp42
 70
     1
102
RTVSPost2010Prop43
 90
        3
102
RTVSPost2010PropOp43
 70
     1
102
RTVSPost2010Prop44ColorIndex
 90
        5
102
RTVSPost2010Prop44ColorRGB
 90
      255
102
RTVSPost2010PropOp44
 70
     1
102
RTVSPost2010Prop45
280
     0
102
RTVSPost2010PropOp45
 70
     1
102
RTVSPost2010Prop46
 90
       50
102
RTVSPost2010PropOp46
 70
     1
102
RTVSPost2010Prop47
 90
       50
102
RTVSPost2010PropOp47
 70
     1
102
RTVSPost2010Prop48
 90
       50
102
RTVSPost2010PropOp48
 70
     1
102
RTVSPost2010Prop49
280
     0
102
RTVSPost2010PropOp49
 70
     1
102
RTVSPost2010Prop50
 90
       50
102
RTVSPost2010PropOp50
 70
     1
102
RTVSPost2010Prop51ColorIndex
 90
      256
102
RTVSPost2010Prop51ColorRGB
 90
-16777216
102
RTVSPost2010PropOp51
 70
     0
102
RTVSPost2010Prop52
140
1.0
102
RTVSPost2010PropOp52
 70
     0
102
RTVSPost2010Prop53
 90
        2
102
RTVSPost2010PropOp53
 70
     1
102
RTVSPost2010Prop54
  1
strokes_ogs.tif
102
RTVSPost2010PropOp54
 70
     1
102
RTVSPost2010Prop55
280
     0
102
RTVSPost2010PropOp55
 70
     1
102
RTVSPost2010Prop56
140
1.0
102
RTVSPost2010PropOp56
 70
     1
102
RTVSPost2010Prop57
140
1.0
102
RTVSPost2010PropOp57
 70
     1
102
RTVSPropertyOp0
 70
     1
102
RTVSPropertyOp1
 70
     1
102
RTVSPropertyOp2
 70
     1
102
RTVSPropertyOp3
 70
     1
102
RTVSPropertyOp4
 70
     1
102
RTVSPropertyOp5
 70
     1
102
RTVSPropertyOp6
 70
     1
102
RTVSPropertyOp7
 70
     1
102
RTVSPropertyOp8
 70
     1
102
RTVSPropertyOp9
 70
     1
102
RTVSPropertyOp10
 70
     1
102
RTVSPropertyOp11
 70
     1
102
RTVSPropertyOp12
 70
     1
102
RTVSPropertyOp13
 70
     1
102
RTVSPropertyOp14
 70
     1
102
RTVSPropertyOp15
 70
     1
102
RTVSPropertyOp16
 70
     1
102
RTVSPropertyOp17
 70
     1
102
RTVSPropertyOp18
 70
     1
102
RTVSPropertyOp19
 70
     1
102
RTVSPropertyOp20
 70
     1
102
RTVSPropertyOp21
 70
     1
102
RTVSPropertyOp22
 70
     1
102
RTVSPropertyOp23
 70
     1
102
RTVSPropertyOp24
 70
     1
102
RTVSPropertyOp25
 70
     1
102
RTVSPropertyOp26
 70
     1
102
RTVSPropertyOp27
 70
     1
102
RTVSPropertyOp28
 70
     1
102
RTVSPropertyOp29
 70
     1
102
RTVSPropertyOp30
 70
     1
102
RTVSPropertyOp31
 70
     1
102
RTVSPropertyOp32
 70
     1
102
RTVSPropertyOp33
 70
     1
102
RTVSPropertyOp34
 70
     1
102
RTVSPropertyOp35
 70
     1
102
RTVSPropertyOp36
 70
     1
102
RTVSPropertyOp37
 70
     1
102
RTVSPropertyOp38
 70
     1
102
RTVSPropertyOp39
 70
     1
102
RTVSPropertyOp40
 70
     1
102
RTVSPropertyOp41
 70
     1
102
RTVSPropertyOp42
 70
     1
102
RTVSPropertyOp43
 70
     1
102
RTVSPropertyOp44
 70
     1
102
RTVSPropertyOp45
 70
     1
102
RTVSPropertyOp46
 70
     1
102
RTVSPropertyOp47
 70
     1
102
RTVSPropertyOp48
 70
     1
102
RTVSPropertyOp49
 70
     1
102
RTVSPropertyOp50
 70
     1
102
RTVSPropertyOp51
 70
     0
102
RTVSPropertyOp52
 70
     0
102
RTVSPropertyOp53
 70
     1
102
RTVSPropertyOp54
 70
     1
102
RTVSPropertyOp55
 70
     1
102
RTVSPropertyOp56
 70
     1
102
RTVSPropertyOp57
 70
     1
102
RTVSPropertyOp58
 70
     1
102
RTVSPropertyOp59
 70
     1
102
RTVSPropertyOp60
 70
     1
102
RTVSPropertyOp61
 70
     1
102
RTVSPropertyOp62
 70
     1
  0
XRECORD
  5
87D0
102
{ACAD_REACTORS
330
87CF
102
}
330
87CF
100
AcDbXrecord
280
     1
102
RTVSPost2010Prop28
280
     0
102
RTVSPost2010PropOp28
 70
     1
102
RTVSPost2010Prop29
280
     1
102
RTVSPost2010PropOp29
 70
     1
102
RTVSPost2010Prop30
280
     1
102
RTVSPost2010PropOp30
 70
     1
102
RTVSPost2010Prop31
280
     0
102
RTVSPost2010PropOp31
 70
     1
102
RTVSPost2010Prop32
280
     0
102
RTVSPost2010PropOp32
 70
     1
102
RTVSPost2010Prop33
280
     0
102
RTVSPost2010PropOp33
 70
     1
102
RTVSPost2010Prop34
280
     0
102
RTVSPost2010PropOp34
 70
     1
102
RTVSPost2010Prop35
280
     0
102
RTVSPost2010PropOp35
 70
     1
102
RTVSPost2010Prop36
280
     0
102
RTVSPost2010PropOp36
 70
     1
102
RTVSPost2010Prop37
 90
       50
102
RTVSPost2010PropOp37
 70
     1
102
RTVSPost2010Prop38
140
0.0
102
RTVSPost2010PropOp38
 70
     1
102
RTVSPost2010Prop39
140
1.0
102
RTVSPost2010PropOp39
 70
     1
102
RTVSPost2010Prop40
 90
        0
102
RTVSPost2010PropOp40
 70
     1
102
RTVSPost2010Prop41ColorIndex
 90
       18
102
RTVSPost2010Prop41ColorRGB
 90
        0
102
RTVSPost2010PropOp41
 70
     1
102
RTVSPost2010Prop42
 90
       50
102
RTVSPost2010PropOp42
 70
     1
102
RTVSPost2010Prop43
 90
        3
102
RTVSPost2010PropOp43
 70
     1
102
RTVSPost2010Prop44ColorIndex
 90
        5
102
RTVSPost2010Prop44ColorRGB
 90
      255
102
RTVSPost2010PropOp44
 70
     1
102
RTVSPost2010Prop45
280
     0
102
RTVSPost2010PropOp45
 70
     1
102
RTVSPost2010Prop46
 90
       50
102
RTVSPost2010PropOp46
 70
     1
102
RTVSPost2010Prop47
 90
       50
102
RTVSPost2010PropOp47
 70
     1
102
RTVSPost2010Prop48
 90
       50
102
RTVSPost2010PropOp48
 70
     1
102
RTVSPost2010Prop49
280
     0
102
RTVSPost2010PropOp49
 70
     1
102
RTVSPost2010Prop50
 90
       50
102
RTVSPost2010PropOp50
 70
     1
102
RTVSPost2010Prop51ColorIndex
 90
      256
102
RTVSPost2010Prop51ColorRGB
 90
-16777216
102
RTVSPost2010PropOp51
 70
     0
102
RTVSPost2010Prop52
140
1.0
102
RTVSPost2010PropOp52
 70
     0
102
RTVSPost2010Prop53
 90
        2
102
RTVSPost2010PropOp53
 70
     1
102
RTVSPost2010Prop54
  1
strokes_ogs.tif
102
RTVSPost2010PropOp54
 70
     1
102
RTVSPost2010Prop55
280
     0
102
RTVSPost2010PropOp55
 70
     1
102
RTVSPost2010Prop56
140
1.0
102
RTVSPost2010PropOp56
 70
     1
102
RTVSPost2010Prop57
140
1.0
102
RTVSPost2010PropOp57
 70
     1
102
RTVSPropertyOp0
 70
     1
102
RTVSPropertyOp1
 70
     1
102
RTVSPropertyOp2
 70
     1
102
RTVSPropertyOp3
 70
     1
102
RTVSPropertyOp4
 70
     1
102
RTVSPropertyOp5
 70
     1
102
RTVSPropertyOp6
 70
     1
102
RTVSPropertyOp7
 70
     1
102
RTVSPropertyOp8
 70
     1
102
RTVSPropertyOp9
 70
     1
102
RTVSPropertyOp10
 70
     1
102
RTVSPropertyOp11
 70
     1
102
RTVSPropertyOp12
 70
     1
102
RTVSPropertyOp13
 70
     1
102
RTVSPropertyOp14
 70
     1
102
RTVSPropertyOp15
 70
     1
102
RTVSPropertyOp16
 70
     1
102
RTVSPropertyOp17
 70
     1
102
RTVSPropertyOp18
 70
     1
102
RTVSPropertyOp19
 70
     1
102
RTVSPropertyOp20
 70
     1
102
RTVSPropertyOp21
 70
     1
102
RTVSPropertyOp22
 70
     1
102
RTVSPropertyOp23
 70
     1
102
RTVSPropertyOp24
 70
     1
102
RTVSPropertyOp25
 70
     1
102
RTVSPropertyOp26
 70
     1
102
RTVSPropertyOp27
 70
     1
102
RTVSPropertyOp28
 70
     1
102
RTVSPropertyOp29
 70
     1
102
RTVSPropertyOp30
 70
     1
102
RTVSPropertyOp31
 70
     1
102
RTVSPropertyOp32
 70
     1
102
RTVSPropertyOp33
 70
     1
102
RTVSPropertyOp34
 70
     1
102
RTVSPropertyOp35
 70
     1
102
RTVSPropertyOp36
 70
     1
102
RTVSPropertyOp37
 70
     1
102
RTVSPropertyOp38
 70
     1
102
RTVSPropertyOp39
 70
     1
102
RTVSPropertyOp40
 70
     1
102
RTVSPropertyOp41
 70
     1
102
RTVSPropertyOp42
 70
     1
102
RTVSPropertyOp43
 70
     1
102
RTVSPropertyOp44
 70
     1
102
RTVSPropertyOp45
 70
     1
102
RTVSPropertyOp46
 70
     1
102
RTVSPropertyOp47
 70
     1
102
RTVSPropertyOp48
 70
     1
102
RTVSPropertyOp49
 70
     1
102
RTVSPropertyOp50
 70
     1
102
RTVSPropertyOp51
 70
     0
102
RTVSPropertyOp52
 70
     0
102
RTVSPropertyOp53
 70
     1
102
RTVSPropertyOp54
 70
     1
102
RTVSPropertyOp55
 70
     1
102
RTVSPropertyOp56
 70
     1
102
RTVSPropertyOp57
 70
     1
102
RTVSPropertyOp58
 70
     1
102
RTVSPropertyOp59
 70
     1
102
RTVSPropertyOp60
 70
     1
102
RTVSPropertyOp61
 70
     1
102
RTVSPropertyOp62
 70
     1
  0
XRECORD
  5
87C4
102
{ACAD_REACTORS
330
87C3
102
}
330
87C3
100
AcDbXrecord
280
     1
102
RTVSPost2010Prop28
280
     0
102
RTVSPost2010PropOp28
 70
     1
102
RTVSPost2010Prop29
280
     1
102
RTVSPost2010PropOp29
 70
     1
102
RTVSPost2010Prop30
280
     1
102
RTVSPost2010PropOp30
 70
     1
102
RTVSPost2010Prop31
280
     0
102
RTVSPost2010PropOp31
 70
     1
102
RTVSPost2010Prop32
280
     0
102
RTVSPost2010PropOp32
 70
     1
102
RTVSPost2010Prop33
280
     0
102
RTVSPost2010PropOp33
 70
     1
102
RTVSPost2010Prop34
280
     0
102
RTVSPost2010PropOp34
 70
     1
102
RTVSPost2010Prop35
280
     0
102
RTVSPost2010PropOp35
 70
     1
102
RTVSPost2010Prop36
280
     0
102
RTVSPost2010PropOp36
 70
     1
102
RTVSPost2010Prop37
 90
       50
102
RTVSPost2010PropOp37
 70
     1
102
RTVSPost2010Prop38
140
0.0
102
RTVSPost2010PropOp38
 70
     1
102
RTVSPost2010Prop39
140
1.0
102
RTVSPost2010PropOp39
 70
     1
102
RTVSPost2010Prop40
 90
        0
102
RTVSPost2010PropOp40
 70
     1
102
RTVSPost2010Prop41ColorIndex
 90
       18
102
RTVSPost2010Prop41ColorRGB
 90
        0
102
RTVSPost2010PropOp41
 70
     1
102
RTVSPost2010Prop42
 90
       50
102
RTVSPost2010PropOp42
 70
     1
102
RTVSPost2010Prop43
 90
        3
102
RTVSPost2010PropOp43
 70
     1
102
RTVSPost2010Prop44ColorIndex
 90
        5
102
RTVSPost2010Prop44ColorRGB
 90
      255
102
RTVSPost2010PropOp44
 70
     1
102
RTVSPost2010Prop45
280
     0
102
RTVSPost2010PropOp45
 70
     1
102
RTVSPost2010Prop46
 90
       50
102
RTVSPost2010PropOp46
 70
     1
102
RTVSPost2010Prop47
 90
       50
102
RTVSPost2010PropOp47
 70
     1
102
RTVSPost2010Prop48
 90
       50
102
RTVSPost2010PropOp48
 70
     1
102
RTVSPost2010Prop49
280
     0
102
RTVSPost2010PropOp49
 70
     1
102
RTVSPost2010Prop50
 90
       50
102
RTVSPost2010PropOp50
 70
     1
102
RTVSPost2010Prop51ColorIndex
 90
      256
102
RTVSPost2010Prop51ColorRGB
 90
-16777216
102
RTVSPost2010PropOp51
 70
     0
102
RTVSPost2010Prop52
140
1.0
102
RTVSPost2010PropOp52
 70
     0
102
RTVSPost2010Prop53
 90
        2
102
RTVSPost2010PropOp53
 70
     1
102
RTVSPost2010Prop54
  1
strokes_ogs.tif
102
RTVSPost2010PropOp54
 70
     1
102
RTVSPost2010Prop55
280
     0
102
RTVSPost2010PropOp55
 70
     1
102
RTVSPost2010Prop56
140
1.0
102
RTVSPost2010PropOp56
 70
     1
102
RTVSPost2010Prop57
140
1.0
102
RTVSPost2010PropOp57
 70
     1
102
RTVSPropertyOp0
 70
     1
102
RTVSPropertyOp1
 70
     1
102
RTVSPropertyOp2
 70
     1
102
RTVSPropertyOp3
 70
     1
102
RTVSPropertyOp4
 70
     1
102
RTVSPropertyOp5
 70
     1
102
RTVSPropertyOp6
 70
     1
102
RTVSPropertyOp7
 70
     1
102
RTVSPropertyOp8
 70
     1
102
RTVSPropertyOp9
 70
     1
102
RTVSPropertyOp10
 70
     1
102
RTVSPropertyOp11
 70
     1
102
RTVSPropertyOp12
 70
     1
102
RTVSPropertyOp13
 70
     1
102
RTVSPropertyOp14
 70
     1
102
RTVSPropertyOp15
 70
     1
102
RTVSPropertyOp16
 70
     1
102
RTVSPropertyOp17
 70
     1
102
RTVSPropertyOp18
 70
     1
102
RTVSPropertyOp19
 70
     1
102
RTVSPropertyOp20
 70
     1
102
RTVSPropertyOp21
 70
     1
102
RTVSPropertyOp22
 70
     1
102
RTVSPropertyOp23
 70
     1
102
RTVSPropertyOp24
 70
     1
102
RTVSPropertyOp25
 70
     1
102
RTVSPropertyOp26
 70
     1
102
RTVSPropertyOp27
 70
     1
102
RTVSPropertyOp28
 70
     1
102
RTVSPropertyOp29
 70
     1
102
RTVSPropertyOp30
 70
     1
102
RTVSPropertyOp31
 70
     1
102
RTVSPropertyOp32
 70
     1
102
RTVSPropertyOp33
 70
     1
102
RTVSPropertyOp34
 70
     1
102
RTVSPropertyOp35
 70
     1
102
RTVSPropertyOp36
 70
     1
102
RTVSPropertyOp37
 70
     1
102
RTVSPropertyOp38
 70
     1
102
RTVSPropertyOp39
 70
     1
102
RTVSPropertyOp40
 70
     1
102
RTVSPropertyOp41
 70
     1
102
RTVSPropertyOp42
 70
     1
102
RTVSPropertyOp43
 70
     1
102
RTVSPropertyOp44
 70
     1
102
RTVSPropertyOp45
 70
     1
102
RTVSPropertyOp46
 70
     1
102
RTVSPropertyOp47
 70
     1
102
RTVSPropertyOp48
 70
     1
102
RTVSPropertyOp49
 70
     1
102
RTVSPropertyOp50
 70
     1
102
RTVSPropertyOp51
 70
     0
102
RTVSPropertyOp52
 70
     0
102
RTVSPropertyOp53
 70
     1
102
RTVSPropertyOp54
 70
     1
102
RTVSPropertyOp55
 70
     1
102
RTVSPropertyOp56
 70
     1
102
RTVSPropertyOp57
 70
     1
102
RTVSPropertyOp58
 70
     1
102
RTVSPropertyOp59
 70
     1
102
RTVSPropertyOp60
 70
     1
102
RTVSPropertyOp61
 70
     1
102
RTVSPropertyOp62
 70
     1
  0
XRECORD
  5
87DC
102
{ACAD_REACTORS
330
87DB
102
}
330
87DB
100
AcDbXrecord
280
     1
102
RTVSPost2010Prop28
280
     0
102
RTVSPost2010PropOp28
 70
     1
102
RTVSPost2010Prop29
280
     1
102
RTVSPost2010PropOp29
 70
     1
102
RTVSPost2010Prop30
280
     1
102
RTVSPost2010PropOp30
 70
     1
102
RTVSPost2010Prop31
280
     0
102
RTVSPost2010PropOp31
 70
     1
102
RTVSPost2010Prop32
280
     0
102
RTVSPost2010PropOp32
 70
     1
102
RTVSPost2010Prop33
280
     0
102
RTVSPost2010PropOp33
 70
     1
102
RTVSPost2010Prop34
280
     0
102
RTVSPost2010PropOp34
 70
     1
102
RTVSPost2010Prop35
280
     0
102
RTVSPost2010PropOp35
 70
     1
102
RTVSPost2010Prop36
280
     0
102
RTVSPost2010PropOp36
 70
     1
102
RTVSPost2010Prop37
 90
       50
102
RTVSPost2010PropOp37
 70
     1
102
RTVSPost2010Prop38
140
0.0
102
RTVSPost2010PropOp38
 70
     1
102
RTVSPost2010Prop39
140
1.0
102
RTVSPost2010PropOp39
 70
     1
102
RTVSPost2010Prop40
 90
        0
102
RTVSPost2010PropOp40
 70
     1
102
RTVSPost2010Prop41ColorIndex
 90
       18
102
RTVSPost2010Prop41ColorRGB
 90
        0
102
RTVSPost2010PropOp41
 70
     1
102
RTVSPost2010Prop42
 90
       50
102
RTVSPost2010PropOp42
 70
     1
102
RTVSPost2010Prop43
 90
        3
102
RTVSPost2010PropOp43
 70
     1
102
RTVSPost2010Prop44ColorIndex
 90
        5
102
RTVSPost2010Prop44ColorRGB
 90
      255
102
RTVSPost2010PropOp44
 70
     1
102
RTVSPost2010Prop45
280
     0
102
RTVSPost2010PropOp45
 70
     1
102
RTVSPost2010Prop46
 90
       50
102
RTVSPost2010PropOp46
 70
     1
102
RTVSPost2010Prop47
 90
       50
102
RTVSPost2010PropOp47
 70
     1
102
RTVSPost2010Prop48
 90
       50
102
RTVSPost2010PropOp48
 70
     1
102
RTVSPost2010Prop49
280
     0
102
RTVSPost2010PropOp49
 70
     1
102
RTVSPost2010Prop50
 90
       50
102
RTVSPost2010PropOp50
 70
     1
102
RTVSPost2010Prop51ColorIndex
 90
      256
102
RTVSPost2010Prop51ColorRGB
 90
-16777216
102
RTVSPost2010PropOp51
 70
     0
102
RTVSPost2010Prop52
140
1.0
102
RTVSPost2010PropOp52
 70
     0
102
RTVSPost2010Prop53
 90
        2
102
RTVSPost2010PropOp53
 70
     1
102
RTVSPost2010Prop54
  1
strokes_ogs.tif
102
RTVSPost2010PropOp54
 70
     1
102
RTVSPost2010Prop55
280
     0
102
RTVSPost2010PropOp55
 70
     1
102
RTVSPost2010Prop56
140
1.0
102
RTVSPost2010PropOp56
 70
     1
102
RTVSPost2010Prop57
140
1.0
102
RTVSPost2010PropOp57
 70
     1
102
RTVSPropertyOp0
 70
     1
102
RTVSPropertyOp1
 70
     1
102
RTVSPropertyOp2
 70
     1
102
RTVSPropertyOp3
 70
     1
102
RTVSPropertyOp4
 70
     1
102
RTVSPropertyOp5
 70
     1
102
RTVSPropertyOp6
 70
     1
102
RTVSPropertyOp7
 70
     1
102
RTVSPropertyOp8
 70
     1
102
RTVSPropertyOp9
 70
     1
102
RTVSPropertyOp10
 70
     1
102
RTVSPropertyOp11
 70
     1
102
RTVSPropertyOp12
 70
     1
102
RTVSPropertyOp13
 70
     1
102
RTVSPropertyOp14
 70
     1
102
RTVSPropertyOp15
 70
     1
102
RTVSPropertyOp16
 70
     1
102
RTVSPropertyOp17
 70
     1
102
RTVSPropertyOp18
 70
     1
102
RTVSPropertyOp19
 70
     1
102
RTVSPropertyOp20
 70
     1
102
RTVSPropertyOp21
 70
     1
102
RTVSPropertyOp22
 70
     1
102
RTVSPropertyOp23
 70
     1
102
RTVSPropertyOp24
 70
     1
102
RTVSPropertyOp25
 70
     1
102
RTVSPropertyOp26
 70
     1
102
RTVSPropertyOp27
 70
     1
102
RTVSPropertyOp28
 70
     1
102
RTVSPropertyOp29
 70
     1
102
RTVSPropertyOp30
 70
     1
102
RTVSPropertyOp31
 70
     1
102
RTVSPropertyOp32
 70
     1
102
RTVSPropertyOp33
 70
     1
102
RTVSPropertyOp34
 70
     1
102
RTVSPropertyOp35
 70
     1
102
RTVSPropertyOp36
 70
     1
102
RTVSPropertyOp37
 70
     1
102
RTVSPropertyOp38
 70
     1
102
RTVSPropertyOp39
 70
     1
102
RTVSPropertyOp40
 70
     1
102
RTVSPropertyOp41
 70
     1
102
RTVSPropertyOp42
 70
     1
102
RTVSPropertyOp43
 70
     1
102
RTVSPropertyOp44
 70
     1
102
RTVSPropertyOp45
 70
     1
102
RTVSPropertyOp46
 70
     1
102
RTVSPropertyOp47
 70
     1
102
RTVSPropertyOp48
 70
     1
102
RTVSPropertyOp49
 70
     1
102
RTVSPropertyOp50
 70
     1
102
RTVSPropertyOp51
 70
     0
102
RTVSPropertyOp52
 70
     0
102
RTVSPropertyOp53
 70
     1
102
RTVSPropertyOp54
 70
     1
102
RTVSPropertyOp55
 70
     1
102
RTVSPropertyOp56
 70
     1
102
RTVSPropertyOp57
 70
     1
102
RTVSPropertyOp58
 70
     1
102
RTVSPropertyOp59
 70
     1
102
RTVSPropertyOp60
 70
     1
102
RTVSPropertyOp61
 70
     1
102
RTVSPropertyOp62
 70
     1
  0
ENDSEC
  0
EOF
