  0
SECTION
  2
HEADER
  9
$ACADVER
  1
AC1015
  9
$ACADMAINTVER
 70
    20
  9
$DWGCODEPAGE
  3
ANSI_932
  9
$INSBASE
 10
0.0
 20
0.0
 30
0.0
  9
$EXTMIN
 10
0.0
 20
0.0
 30
0.0
  9
$EXTMAX
 10
4200.0
 20
5900.0
 30
0.0
  9
$LIMMIN
 10
0.0
 20
0.0
  9
$LIMMAX
 10
297.0
 20
210.0
  9
$ORTHOMODE
 70
     0
  9
$REGENMODE
 70
     1
  9
$FILLMODE
 70
     0
  9
$QTEXTMODE
 70
     0
  9
$MIRRTEXT
 70
     1
  9
$LTSCALE
 40
100.0
  9
$ATTMODE
 70
     1
  9
$TEXTSIZE
 40
180.0
  9
$TRACEWID
 40
0.05
  9
$TEXTSTYLE
  7
STANDARD
  9
$CLAYER
  8
3
  9
$CELTYPE
  6
BYLAYER
  9
$CECOLOR
 62
   256
  9
$CELTSCALE
 40
1.0
  9
$DISPSILH
 70
     0
  9
$DIMSCALE
 40
20.0
  9
$DIMASZ
 40
2.0
  9
$DIMEXO
 40
0.5
  9
$DIMDLI
 40
10.0
  9
$DIMRND
 40
0.0
  9
$DIMDLE
 40
0.0
  9
$DIMEXE
 40
1.0
  9
$DIMTP
 40
1.0
  9
$DIMTM
 40
1.0
  9
$DIMTXT
 40
3.0
  9
$DIMCEN
 40
0.0
  9
$DIMTSZ
 40
0.0
  9
$DIMTOL
 70
     0
  9
$DIMLIM
 70
     0
  9
$DIMTIH
 70
     0
  9
$DIMTOH
 70
     0
  9
$DIMSE1
 70
     0
  9
$DIMSE2
 70
     0
  9
$DIMTAD
 70
     1
  9
$DIMZIN
 70
     8
  9
$DIMBLK
  1

  9
$DIMASO
 70
     1
  9
$DIMSHO
 70
     1
  9
$DIMPOST
  1

  9
$DIMAPOST
  1

  9
$DIMALT
 70
     0
  9
$DIMALTD
 70
     2
  9
$DIMALTF
 40
0.039
  9
$DIMLFAC
 40
1.0
  9
$DIMTOFL
 70
     1
  9
$DIMTVP
 40
0.0
  9
$DIMTIX
 70
     0
  9
$DIMSOXD
 70
     0
  9
$DIMSAH
 70
     1
  9
$DIMBLK1
  1
OPEN
  9
$DIMBLK2
  1
OPEN
  9
$DIMSTYLE
  2
IGA
  9
$DIMCLRD
 70
     0
  9
$DIMCLRE
 70
     0
  9
$DIMCLRT
 70
     0
  9
$DIMTFAC
 40
10.0
  9
$DIMGAP
 40
1.0
  9
$DIMJUST
 70
     0
  9
$DIMSD1
 70
     0
  9
$DIMSD2
 70
     0
  9
$DIMTOLJ
 70
     1
  9
$DIMTZIN
 70
     8
  9
$DIMALTZ
 70
     0
  9
$DIMALTTZ
 70
     0
  9
$DIMUPT
 70
     0
  9
$DIMDEC
 70
     0
  9
$DIMTDEC
 70
     0
  9
$DIMALTU
 70
     2
  9
$DIMALTTD
 70
     2
  9
$DIMTXSTY
  7
STANDARD
  9
$DIMAUNIT
 70
     0
  9
$DIMADEC
 70
     0
  9
$DIMALTRND
 40
0.0
  9
$DIMAZIN
 70
     0
  9
$DIMDSEP
 70
    46
  9
$DIMATFIT
 70
     3
  9
$DIMFRAC
 70
     0
  9
$DIMLDRBLK
  1
OPEN
  9
$DIMLUNIT
 70
     2
  9
$DIMLWD
 70
    -2
  9
$DIMLWE
 70
    -2
  9
$DIMTMOVE
 70
     0
  9
$LUNITS
 70
     2
  9
$LUPREC
 70
     3
  9
$SKETCHINC
 40
0.1
  9
$FILLETRAD
 40
50.0
  9
$AUNITS
 70
     0
  9
$AUPREC
 70
     0
  9
$MENU
  1
acad
  9
$ELEVATION
 40
0.0
  9
$PELEVATION
 40
0.0
  9
$THICKNESS
 40
0.0
  9
$LIMCHECK
 70
     0
  9
$CHAMFERA
 40
0.5
  9
$CHAMFERB
 40
0.5
  9
$CHAMFERC
 40
20.0
  9
$CHAMFERD
 40
0.0
  9
$SKPOLY
 70
     0
  9
$TDCREATE
 40
2452773.622829630
  9
$TDUCREATE
 40
2452773.247829630
  9
$TDUPDATE
 40
2458829.627305926
  9
$TDUUPDATE
 40
2458829.252305926
  9
$TDINDWG
 40
0.1707072222
  9
$TDUSRTIMER
 40
0.1707072222
  9
$USRTIMER
 70
     1
  9
$ANGBASE
 50
0.0
  9
$ANGDIR
 70
     0
  9
$PDMODE
 70
     0
  9
$PDSIZE
 40
0.0
  9
$PLINEWID
 40
0.0
  9
$SPLFRAME
 70
     0
  9
$SPLINETYPE
 70
     6
  9
$SPLINESEGS
 70
     8
  9
$HANDSEED
  5
8507
  9
$SURFTAB1
 70
     6
  9
$SURFTAB2
 70
     6
  9
$SURFTYPE
 70
     6
  9
$SURFU
 70
     6
  9
$SURFV
 70
     6
  9
$UCSBASE
  2

  9
$UCSNAME
  2

  9
$UCSORG
 10
0.0
 20
0.0
 30
0.0
  9
$UCSXDIR
 10
1.0
 20
0.0
 30
0.0
  9
$UCSYDIR
 10
0.0
 20
1.0
 30
0.0
  9
$UCSORTHOREF
  2

  9
$UCSORTHOVIEW
 70
     0
  9
$UCSORGTOP
 10
0.0
 20
0.0
 30
0.0
  9
$UCSORGBOTTOM
 10
0.0
 20
0.0
 30
0.0
  9
$UCSORGLEFT
 10
0.0
 20
0.0
 30
0.0
  9
$UCSORGRIGHT
 10
0.0
 20
0.0
 30
0.0
  9
$UCSORGFRONT
 10
0.0
 20
0.0
 30
0.0
  9
$UCSORGBACK
 10
0.0
 20
0.0
 30
0.0
  9
$PUCSBASE
  2

  9
$PUCSNAME
  2

  9
$PUCSORG
 10
0.0
 20
0.0
 30
0.0
  9
$PUCSXDIR
 10
1.0
 20
0.0
 30
0.0
  9
$PUCSYDIR
 10
0.0
 20
1.0
 30
0.0
  9
$PUCSORTHOREF
  2

  9
$PUCSORTHOVIEW
 70
     0
  9
$PUCSORGTOP
 10
0.0
 20
0.0
 30
0.0
  9
$PUCSORGBOTTOM
 10
0.0
 20
0.0
 30
0.0
  9
$PUCSORGLEFT
 10
0.0
 20
0.0
 30
0.0
  9
$PUCSORGRIGHT
 10
0.0
 20
0.0
 30
0.0
  9
$PUCSORGFRONT
 10
0.0
 20
0.0
 30
0.0
  9
$PUCSORGBACK
 10
0.0
 20
0.0
 30
0.0
  9
$USERI1
 70
     0
  9
$USERI2
 70
     0
  9
$USERI3
 70
     0
  9
$USERI4
 70
     0
  9
$USERI5
 70
     0
  9
$USERR1
 40
0.0
  9
$USERR2
 40
0.0
  9
$USERR3
 40
0.0
  9
$USERR4
 40
0.0
  9
$USERR5
 40
0.0
  9
$WORLDVIEW
 70
     1
  9
$SHADEDGE
 70
     3
  9
$SHADEDIF
 70
    70
  9
$TILEMODE
 70
     1
  9
$MAXACTVP
 70
    16
  9
$PINSBASE
 10
0.0
 20
0.0
 30
0.0
  9
$PLIMCHECK
 70
     0
  9
$PEXTMIN
 10
1.000000000000000E+20
 20
1.000000000000000E+20
 30
1.000000000000000E+20
  9
$PEXTMAX
 10
-1.000000000000000E+20
 20
-1.000000000000000E+20
 30
-1.000000000000000E+20
  9
$PLIMMIN
 10
0.0
 20
0.0
  9
$PLIMMAX
 10
12.0
 20
9.0
  9
$UNITMODE
 70
     0
  9
$VISRETAIN
 70
     0
  9
$PLINEGEN
 70
     0
  9
$PSLTSCALE
 70
     1
  9
$TREEDEPTH
 70
  3020
  9
$CMLSTYLE
  2
STANDARD
  9
$CMLJUST
 70
     0
  9
$CMLSCALE
 40
20.0
  9
$PROXYGRAPHICS
 70
     1
  9
$MEASUREMENT
 70
     1
  9
$CELWEIGHT
370
    -1
  9
$ENDCAPS
280
     0
  9
$JOINSTYLE
280
     0
  9
$LWDISPLAY
290
     0
  9
$INSUNITS
 70
     0
  9
$HYPERLINKBASE
  1

  9
$STYLESHEET
  1
monochrome.ctb
  9
$XEDIT
290
     1
  9
$CEPSNTYPE
380
     0
  9
$PSTYLEMODE
290
     1
  9
$FINGERPRINTGUID
  2
{FB4D83FC-1542-4326-BB11-7E1ECDC4DEAF}
  9
$VERSIONGUID
  2
{ECCEB0AA-7D9E-4FCB-8A64-76047A2A3FA9}
  9
$EXTNAMES
290
     1
  9
$PSVPSCALE
 40
0.0
  9
$OLESTARTUP
290
     0
  0
ENDSEC
  0
SECTION
  2
CLASSES
  0
CLASS
  1
ACDBDICTIONARYWDFLT
  2
AcDbDictionaryWithDefault
  3
ObjectDBX Classes
 90
        0
280
     0
281
     0
  0
CLASS
  1
ACDBPLACEHOLDER
  2
AcDbPlaceHolder
  3
ObjectDBX Classes
 90
        0
280
     0
281
     0
  0
CLASS
  1
LAYOUT
  2
AcDbLayout
  3
ObjectDBX Classes
 90
        0
280
     0
281
     0
  0
CLASS
  1
DICTIONARYVAR
  2
AcDbDictionaryVar
  3
ObjectDBX Classes
 90
        0
280
     0
281
     0
  0
CLASS
  1
MATERIAL
  2
AcDbMaterial
  3
ObjectDBX Classes
 90
     1153
280
     0
281
     0
  0
CLASS
  1
VISUALSTYLE
  2
AcDbVisualStyle
  3
ObjectDBX Classes
 90
     4095
280
     0
281
     0
  0
CLASS
  1
TABLESTYLE
  2
AcDbTableStyle
  3
ObjectDBX Classes
 90
     4095
280
     0
281
     0
  0
CLASS
  1
SCALE
  2
AcDbScale
  3
ObjectDBX Classes
 90
     1153
280
     0
281
     0
  0
CLASS
  1
MLEADERSTYLE
  2
AcDbMLeaderStyle
  3
ACDB_MLEADERSTYLE_CLASS
 90
     4095
280
     0
281
     0
  0
CLASS
  1
ACDBSECTIONVIEWSTYLE
  2
AcDbSectionViewStyle
  3
ObjectDBX Classes
 90
     1025
280
     0
281
     0
  0
CLASS
  1
ACDBDETAILVIEWSTYLE
  2
AcDbDetailViewStyle
  3
ObjectDBX Classes
 90
     1025
280
     0
281
     0
  0
CLASS
  1
SORTENTSTABLE
  2
AcDbSortentsTable
  3
ObjectDBX Classes
 90
    32768
280
     0
281
     0
  0
CLASS
  1
CELLSTYLEMAP
  2
AcDbCellStyleMap
  3
ObjectDBX Classes
 90
     1152
280
     0
281
     0
  0
ENDSEC
  0
SECTION
  2
TABLES
  0
TABLE
  2
VPORT
  5
8
330
0
100
AcDbSymbolTable
 70
     1
  0
VPORT
  5
8002
330
8
100
AcDbSymbolTableRecord
100
AcDbViewportTableRecord
  2
*Active
 70
     0
 10
0.0
 20
0.0
 11
1.0
 21
1.0
 12
2100.000009778887
 22
2950.000013737006
 13
0.0
 23
0.0
 14
10.0
 24
10.0
 15
10.0
 25
10.0
 16
0.0
 26
0.0
 36
1.0
 17
0.0
 27
0.0
 37
0.0
 40
5948.236781884729
 41
1.915441176470588
 42
50.0
 43
0.0
 44
0.0
 50
0.0
 51
0.0
 71
     0
 72
   100
 73
     1
 74
     0
 75
     0
 76
     0
 77
     0
 78
     0
281
     0
 65
     1
110
0.0
120
0.0
130
0.0
111
1.0
121
0.0
131
0.0
112
0.0
122
1.0
132
0.0
 79
     0
146
0.0
1001
ACAD_NAV_VCDISPLAY
1070
     3
  0
ENDTAB
  0
TABLE
  2
LTYPE
  5
5
330
0
100
AcDbSymbolTable
 70
     2
  0
LTYPE
  5
13
330
5
100
AcDbSymbolTableRecord
100
AcDbLinetypeTableRecord
  2
BYBLOCK
 70
     0
  3

 72
    65
 73
     0
 40
0.0
  0
LTYPE
  5
14
330
5
100
AcDbSymbolTableRecord
100
AcDbLinetypeTableRecord
  2
BYLAYER
 70
     0
  3

 72
    65
 73
     0
 40
0.0
  0
LTYPE
  5
15
330
5
100
AcDbSymbolTableRecord
100
AcDbLinetypeTableRecord
  2
CONTINUOUS
 70
     0
  3
Solid line
 72
    65
 73
     0
 40
0.0
  0
LTYPE
  5
1F
330
5
100
AcDbSymbolTableRecord
100
AcDbLinetypeTableRecord
  2
CENTER
 70
     0
  3
____ _ ____ _ ____ _ ____ _ ____ _ ____ _ ____ 
 72
    65
 73
     4
 40
2.0
 49
1.25
 74
     0
 49
-0.25
 74
     0
 49
0.25
 74
     0
 49
-0.25
 74
     0
  0
ENDTAB
  0
TABLE
  2
LAYER
  5
2
102
{ACAD_XDICTIONARY
360
8129
102
}
330
0
100
AcDbSymbolTable
 70
     6
  0
LAYER
  5
F
102
{ACAD_XDICTIONARY
360
8054
102
}
330
2
100
AcDbSymbolTableRecord
100
AcDbLayerTableRecord
  2
0
 70
     0
 62
     7
  6
CONTINUOUS
370
    -3
390
7F3F
  0
LAYER
  5
31
102
{ACAD_XDICTIONARY
360
8056
102
}
330
2
100
AcDbSymbolTableRecord
100
AcDbLayerTableRecord
  2
3
 70
     0
 62
     2
  6
CONTINUOUS
370
    -3
390
7F3F
  0
LAYER
  5
76D0
102
{ACAD_XDICTIONARY
360
8058
102
}
330
2
100
AcDbSymbolTableRecord
100
AcDbLayerTableRecord
  2
2
 70
     0
 62
     3
  6
CENTER
370
    -3
390
7F3F
  0
LAYER
  5
76D1
102
{ACAD_XDICTIONARY
360
805A
102
}
330
2
100
AcDbSymbolTableRecord
100
AcDbLayerTableRecord
  2
1
 70
     0
 62
     4
  6
CONTINUOUS
370
    -3
390
7F3F
  0
LAYER
  5
76D2
102
{ACAD_XDICTIONARY
360
805C
102
}
330
2
100
AcDbSymbolTableRecord
100
AcDbLayerTableRecord
  2
4
 70
     0
 62
     7
  6
CONTINUOUS
370
    -3
390
7F3F
  0
LAYER
  5
7A08
330
2
100
AcDbSymbolTableRecord
100
AcDbLayerTableRecord
  2
DEFPOINTS
 70
     0
 62
     7
  6
CONTINUOUS
290
     0
370
    -3
390
7F3F
  0
ENDTAB
  0
TABLE
  2
STYLE
  5
3
330
0
100
AcDbSymbolTable
 70
     1
  0
STYLE
  5
10
330
3
100
AcDbSymbolTableRecord
100
AcDbTextStyleTableRecord
  2
STANDARD
 70
     0
 40
0.0
 41
1.0
 50
0.0
 71
     0
 42
180.0
  3
simplex.shx
  4
extfont.shx
  0
ENDTAB
  0
TABLE
  2
VIEW
  5
6
330
0
100
AcDbSymbolTable
 70
     0
  0
ENDTAB
  0
TABLE
  2
UCS
  5
7
330
0
100
AcDbSymbolTable
 70
     0
  0
ENDTAB
  0
TABLE
  2
APPID
  5
9
330
0
100
AcDbSymbolTable
 70
     6
  0
APPID
  5
11
330
9
100
AcDbSymbolTableRecord
100
AcDbRegAppTableRecord
  2
ACAD
 70
     0
  0
APPID
  5
805E
330
9
100
AcDbSymbolTableRecord
100
AcDbRegAppTableRecord
  2
ACAD_PSEXT
 70
     0
  0
APPID
  5
8069
330
9
100
AcDbSymbolTableRecord
100
AcDbRegAppTableRecord
  2
ACAD_NAV_VCDISPLAY
 70
     0
  0
APPID
  5
8481
330
9
100
AcDbSymbolTableRecord
100
AcDbRegAppTableRecord
  2
AcadAnnoMonitorAlertIconDisabled
 70
     0
  0
APPID
  5
8482
330
9
100
AcDbSymbolTableRecord
100
AcDbRegAppTableRecord
  2
ACAD_EXEMPT_FROM_CAD_STANDARDS
 70
     0
  0
APPID
  5
8502
330
9
100
AcDbSymbolTableRecord
100
AcDbRegAppTableRecord
  2
ACAD_MLEADERVER
 70
     0
  0
ENDTAB
  0
TABLE
  2
DIMSTYLE
  5
A
330
0
100
AcDbSymbolTable
 70
     1
100
AcDbDimStyleTable
 71
     1
340
1D
  0
DIMSTYLE
105
1D
102
{ACAD_REACTORS
330
7CC8
330
7CD5
330
7CEC
330
7DA4
330
7DB3
330
7DCC
330
7DE4
330
7E6E
330
7E7A
330
7F0A
330
7F17
330
7F24
330
7F33
330
831A
330
831B
102
}
330
A
100
AcDbSymbolTableRecord
100
AcDbDimStyleTableRecord
  2
IGA
 70
     0
 40
2.0
 41
2.0
 42
0.5
 43
10.0
 44
1.0
 47
1.0
 48
1.0
 73
     0
 74
     0
 77
     1
 78
     8
140
3.0
141
0.0
143
0.03937
146
10.0
147
1.0
173
     1
271
     1
272
     0
279
     2
284
     8
340
10
341
79FC
343
79FC
344
79FC
  0
ENDTAB
  0
TABLE
  2
BLOCK_RECORD
  5
1
330
0
100
AcDbSymbolTable
 70
    47
  0
BLOCK_RECORD
  5
19
102
{ACAD_XDICTIONARY
360
7F6D
102
}
330
1
100
AcDbSymbolTableRecord
100
AcDbBlockTableRecord
  2
*MODEL_SPACE
340
7F42
  0
BLOCK_RECORD
  5
16
102
{ACAD_XDICTIONARY
360
7F6B
102
}
330
1
100
AcDbSymbolTableRecord
100
AcDbBlockTableRecord
  2
*PAPER_SPACE
340
7F43
  0
BLOCK_RECORD
  5
79FC
330
1
100
AcDbSymbolTableRecord
100
AcDbBlockTableRecord
  2
_OPEN
340
0
102
{BLKREFS
331
7F76
331
7F77
331
7F7F
331
7F80
331
7F88
331
7F89
331
7F91
331
7F92
331
7F9A
331
7F9B
331
7FAB
331
7FAC
331
7FC5
331
7FC6
331
7FCD
331
7FCE
331
7FD9
331
7FDA
331
7FE2
331
7FE3
331
7FEB
331
7FEC
331
7FF4
331
7FF5
331
8472
331
8473
331
847B
331
847C
331
848E
331
848F
102
}
  0
BLOCK_RECORD
  5
7CBC
330
1
100
AcDbSymbolTableRecord
100
AcDbBlockTableRecord
  2
*D1
340
0
  0
BLOCK_RECORD
  5
7CC9
330
1
100
AcDbSymbolTableRecord
100
AcDbBlockTableRecord
  2
*D2
340
0
  0
BLOCK_RECORD
  5
7CE1
330
1
100
AcDbSymbolTableRecord
100
AcDbBlockTableRecord
  2
*D3
340
0
  0
BLOCK_RECORD
  5
7D46
330
1
100
AcDbSymbolTableRecord
100
AcDbBlockTableRecord
  2
_DOT
340
0
  0
BLOCK_RECORD
  5
7D98
330
1
100
AcDbSymbolTableRecord
100
AcDbBlockTableRecord
  2
*D5
340
0
  0
BLOCK_RECORD
  5
7DA5
330
1
100
AcDbSymbolTableRecord
100
AcDbBlockTableRecord
  2
*D6
340
0
  0
BLOCK_RECORD
  5
7DC1
330
1
100
AcDbSymbolTableRecord
100
AcDbBlockTableRecord
  2
*D7
340
0
  0
BLOCK_RECORD
  5
7DD8
330
1
100
AcDbSymbolTableRecord
100
AcDbBlockTableRecord
  2
*D8
340
0
  0
BLOCK_RECORD
  5
7E63
330
1
100
AcDbSymbolTableRecord
100
AcDbBlockTableRecord
  2
*D11
340
0
  0
BLOCK_RECORD
  5
7E6F
330
1
100
AcDbSymbolTableRecord
100
AcDbBlockTableRecord
  2
*D12
340
0
  0
BLOCK_RECORD
  5
7EFE
330
1
100
AcDbSymbolTableRecord
100
AcDbBlockTableRecord
  2
*D13
340
0
  0
BLOCK_RECORD
  5
7F0B
330
1
100
AcDbSymbolTableRecord
100
AcDbBlockTableRecord
  2
*D14
340
0
  0
BLOCK_RECORD
  5
7F18
330
1
100
AcDbSymbolTableRecord
100
AcDbBlockTableRecord
  2
*D15
340
0
  0
BLOCK_RECORD
  5
7F25
330
1
100
AcDbSymbolTableRecord
100
AcDbBlockTableRecord
  2
*D16
340
0
  0
BLOCK_RECORD
  5
83C0
330
1
100
AcDbSymbolTableRecord
100
AcDbBlockTableRecord
  2
*D45
340
0
  0
BLOCK_RECORD
  5
83CC
330
1
100
AcDbSymbolTableRecord
100
AcDbBlockTableRecord
  2
*D46
340
0
  0
ENDTAB
  0
ENDSEC
  0
SECTION
  2
BLOCKS
  0
BLOCK
  5
1A
330
19
100
AcDbEntity
  8
0
100
AcDbBlockBegin
  2
*MODEL_SPACE
 70
     0
 10
0.0
 20
0.0
 30
0.0
  3
*MODEL_SPACE
  1

  0
ENDBLK
  5
1B
330
19
100
AcDbEntity
  8
0
100
AcDbBlockEnd
  0
BLOCK
  5
17
330
16
100
AcDbEntity
 67
     1
  8
0
100
AcDbBlockBegin
  2
*PAPER_SPACE
 70
     0
 10
0.0
 20
0.0
 30
0.0
  3
*PAPER_SPACE
  1

  0
ENDBLK
  5
18
330
16
100
AcDbEntity
 67
     1
  8
0
100
AcDbBlockEnd
  0
BLOCK
  5
7A00
330
79FC
100
AcDbEntity
  8
0
100
AcDbBlockBegin
  2
_OPEN
 70
     0
 10
0.0
 20
0.0
 30
0.0
  3
_OPEN
  1

  0
LINE
  5
79FD
330
79FC
100
AcDbEntity
  8
0
  6
ByBlock
 62
     0
100
AcDbLine
 10
-1.0
 20
0.1666666666666666
 30
0.0
 11
0.0
 21
0.0
 31
0.0
  0
LINE
  5
79FE
330
79FC
100
AcDbEntity
  8
0
  6
ByBlock
 62
     0
100
AcDbLine
 10
0.0
 20
0.0
 30
0.0
 11
-1.0
 21
-0.1666666666666666
 31
0.0
  0
LINE
  5
79FF
330
79FC
100
AcDbEntity
  8
0
  6
ByBlock
 62
     0
100
AcDbLine
 10
0.0
 20
0.0
 30
0.0
 11
-1.0
 21
0.0
 31
0.0
  0
ENDBLK
  5
7A01
330
79FC
100
AcDbEntity
  8
0
100
AcDbBlockEnd
  0
BLOCK
  5
7E38
330
7CBC
100
AcDbEntity
  8
0
100
AcDbBlockBegin
  2
*D1
 70
     1
 10
0.0
 20
0.0
 30
0.0
  3
*D1
  1

  0
LINE
  5
7F73
330
7CBC
100
AcDbEntity
  8
3
 62
     0
100
AcDbLine
 10
1693.160685861438
 20
2553.599298936085
 30
0.0
 11
1693.160685861438
 21
2741.164317456654
 31
0.0
  0
LINE
  5
7F74
330
7CBC
100
AcDbEntity
  8
3
 62
     0
100
AcDbLine
 10
1155.160685861438
 20
2610.91349883602
 30
0.0
 11
1155.160685861438
 21
2741.164317456654
 31
0.0
  0
LINE
  5
7F75
330
7CBC
100
AcDbEntity
  8
3
 62
     0
100
AcDbLine
 10
1653.160685861439
 20
2721.164317456654
 30
0.0
 11
1195.160685861438
 21
2721.164317456654
 31
0.0
  0
INSERT
  5
7F76
330
7CBC
100
AcDbEntity
  8
3
 62
     0
100
AcDbBlockReference
  2
_OPEN
 10
1693.160685861438
 20
2721.164317456654
 30
0.0
 41
40.0
 42
40.0
 43
40.0
  0
INSERT
  5
7F77
330
7CBC
100
AcDbEntity
  8
3
 62
     0
100
AcDbBlockReference
  2
_OPEN
 10
1155.160685861438
 20
2721.164317456654
 30
0.0
 41
40.0
 42
40.0
 43
40.0
 50
180.0
  0
MTEXT
  5
7F78
330
7CBC
100
AcDbEntity
  8
3
 62
     0
100
AcDbMText
 10
1407.891888065759
 20
2771.164317456654
 30
0.0
 40
60.0
 41
0.0
 71
     5
 72
     5
  1
\A1;538
 73
     1
 44
1.0
1001
ACAD
1000
MTEXTBEGIN
1070
    73
1070
     1
1070
    44
1040
1.0
1070
    74
1070
     0
1000
MTEXTEND
  0
POINT
  5
7F79
330
7CBC
100
AcDbEntity
  8
DEFPOINTS
 62
     0
100
AcDbPoint
 10
1693.160685861438
 20
2543.599298936085
 30
0.0
  0
POINT
  5
7F7A
330
7CBC
100
AcDbEntity
  8
DEFPOINTS
 62
     0
100
AcDbPoint
 10
1155.160685861438
 20
2600.913498836019
 30
0.0
  0
POINT
  5
7F7B
330
7CBC
100
AcDbEntity
  8
DEFPOINTS
 62
     0
100
AcDbPoint
 10
1155.160685861438
 20
2721.164317456654
 30
0.0
  0
ENDBLK
  5
7E42
330
7CBC
100
AcDbEntity
  8
0
100
AcDbBlockEnd
  0
BLOCK
  5
7E2D
330
7CC9
100
AcDbEntity
  8
0
100
AcDbBlockBegin
  2
*D2
 70
     1
 10
0.0
 20
0.0
 30
0.0
  3
*D2
  1

  0
LINE
  5
7F7C
330
7CC9
100
AcDbEntity
  8
3
 62
     0
100
AcDbLine
 10
1693.160685861438
 20
2553.599298936085
 30
0.0
 11
1693.160685861438
 21
2622.797735104884
 31
0.0
  0
LINE
  5
7F7D
330
7CC9
100
AcDbEntity
  8
3
 62
     0
100
AcDbLine
 10
1181.160685861438
 20
2553.599298936081
 30
0.0
 11
1181.160685861438
 21
2622.797735104884
 31
0.0
  0
LINE
  5
7F7E
330
7CC9
100
AcDbEntity
  8
3
 62
     0
100
AcDbLine
 10
1653.160685861439
 20
2602.797735104884
 30
0.0
 11
1221.160685861438
 21
2602.797735104884
 31
0.0
  0
INSERT
  5
7F7F
330
7CC9
100
AcDbEntity
  8
3
 62
     0
100
AcDbBlockReference
  2
_OPEN
 10
1693.160685861438
 20
2602.797735104884
 30
0.0
 41
40.0
 42
40.0
 43
40.0
  0
INSERT
  5
7F80
330
7CC9
100
AcDbEntity
  8
3
 62
     0
100
AcDbBlockReference
  2
_OPEN
 10
1181.160685861438
 20
2602.797735104884
 30
0.0
 41
40.0
 42
40.0
 43
40.0
 50
180.0
  0
MTEXT
  5
7F81
330
7CC9
100
AcDbEntity
  8
3
 62
     0
100
AcDbMText
 10
1433.546492282475
 20
2652.797735104884
 30
0.0
 40
60.0
 41
0.0
 71
     5
 72
     5
  1
\A1;512
 73
     1
 44
1.0
1001
ACAD
1000
MTEXTBEGIN
1070
    73
1070
     1
1070
    44
1040
1.0
1070
    74
1070
     0
1000
MTEXTEND
  0
POINT
  5
7F82
330
7CC9
100
AcDbEntity
  8
DEFPOINTS
 62
     0
100
AcDbPoint
 10
1693.160685861438
 20
2543.599298936085
 30
0.0
  0
POINT
  5
7F83
330
7CC9
100
AcDbEntity
  8
DEFPOINTS
 62
     0
100
AcDbPoint
 10
1181.160685861438
 20
2543.599298936082
 30
0.0
  0
POINT
  5
7F84
330
7CC9
100
AcDbEntity
  8
DEFPOINTS
 62
     0
100
AcDbPoint
 10
1181.160685861438
 20
2602.797735104884
 30
0.0
  0
ENDBLK
  5
7E37
330
7CC9
100
AcDbEntity
  8
0
100
AcDbBlockEnd
  0
BLOCK
  5
7E58
330
7CE1
100
AcDbEntity
  8
0
100
AcDbBlockBegin
  2
*D3
 70
     1
 10
0.0
 20
0.0
 30
0.0
  3
*D3
  1

  0
LINE
  5
7F85
330
7CE1
100
AcDbEntity
  8
3
 62
     0
100
AcDbLine
 10
727.8464859615032
 20
2183.599298936078
 30
0.0
 11
597.5956673408692
 21
2183.599298936078
 31
0.0
  0
LINE
  5
7F86
330
7CE1
100
AcDbEntity
  8
3
 62
     0
100
AcDbLine
 10
835.1606858614442
 20
1663.599298936079
 30
0.0
 11
597.5956673408691
 21
1663.599298936079
 31
0.0
  0
LINE
  5
7F87
330
7CE1
100
AcDbEntity
  8
3
 62
     0
100
AcDbLine
 10
617.5956673408692
 20
2143.599298936078
 30
0.0
 11
617.5956673408691
 21
1703.599298936079
 31
0.0
  0
INSERT
  5
7F88
330
7CE1
100
AcDbEntity
  8
3
 62
     0
100
AcDbBlockReference
  2
_OPEN
 10
617.5956673408692
 20
2183.599298936078
 30
0.0
 41
40.0
 42
40.0
 43
40.0
 50
90.0
  0
INSERT
  5
7F89
330
7CE1
100
AcDbEntity
  8
3
 62
     0
100
AcDbBlockReference
  2
_OPEN
 10
617.5956673408691
 20
1663.599298936079
 30
0.0
 41
40.0
 42
40.0
 43
40.0
 50
270.0
  0
MTEXT
  5
7F8A
330
7CE1
100
AcDbEntity
  8
3
 62
     0
100
AcDbMText
 10
567.5956673408689
 20
1923.599298936078
 30
0.0
 40
60.0
 41
0.0
 71
     5
 72
     5
  1
\A1;520
 11
0.0000000000000001
 21
1.0
 31
0.0
 73
     1
 44
1.0
1001
ACAD
1000
MTEXTBEGIN
1070
    73
1070
     1
1070
    44
1040
1.0
1070
    74
1070
     0
1000
MTEXTEND
  0
POINT
  5
7F8B
330
7CE1
100
AcDbEntity
  8
DEFPOINTS
 62
     0
100
AcDbPoint
 10
737.8464859615032
 20
2183.599298936078
 30
0.0
  0
POINT
  5
7F8C
330
7CE1
100
AcDbEntity
  8
DEFPOINTS
 62
     0
100
AcDbPoint
 10
845.1606858614441
 20
1663.599298936079
 30
0.0
  0
POINT
  5
7F8D
330
7CE1
100
AcDbEntity
  8
DEFPOINTS
 62
     0
100
AcDbPoint
 10
617.5956673408691
 20
1663.599298936079
 30
0.0
  0
ENDBLK
  5
7E62
330
7CE1
100
AcDbEntity
  8
0
100
AcDbBlockEnd
  0
BLOCK
  5
7D47
330
7D46
100
AcDbEntity
  8
0
100
AcDbBlockBegin
  2
_DOT
 70
     0
 10
0.0
 20
0.0
 30
0.0
  3
_DOT
  1

  0
LINE
  5
7EC4
330
7D46
100
AcDbEntity
  8
0
  6
ByBlock
 62
     0
100
AcDbLine
 10
0.0
 20
0.0
 30
0.0
 11
-1.0
 21
-0.0000000000000284
 31
0.0
  0
LWPOLYLINE
  5
7EC5
330
7D46
100
AcDbEntity
  8
0
  6
ByBlock
 62
     0
100
AcDbPolyline
 90
        2
 70
     1
 43
0.1666666666666666
 10
-0.0833333333333286
 20
-0.0000000000000284
 42
1.0
 10
0.0833333333333286
 20
-0.0000000000000284
 42
1.0
  0
ENDBLK
  5
7D4D
330
7D46
100
AcDbEntity
  8
0
100
AcDbBlockEnd
  0
BLOCK
  5
7D99
330
7D98
100
AcDbEntity
  8
0
100
AcDbBlockBegin
  2
*D5
 70
     1
 10
0.0
 20
0.0
 30
0.0
  3
*D5
  1

  0
LINE
  5
7F8E
330
7D98
100
AcDbEntity
  8
3
 62
     0
100
AcDbLine
 10
2964.330537805764
 20
2520.845516482221
 30
0.0
 11
2964.330537805764
 21
2664.53908781836
 31
0.0
  0
LINE
  5
7F8F
330
7D98
100
AcDbEntity
  8
3
 62
     0
100
AcDbLine
 10
3339.330537805765
 20
2520.845516482221
 30
0.0
 11
3339.330537805765
 21
2664.53908781836
 31
0.0
  0
LINE
  5
7F90
330
7D98
100
AcDbEntity
  8
3
 62
     0
100
AcDbLine
 10
3004.330537805764
 20
2644.53908781836
 30
0.0
 11
3299.330537805765
 21
2644.53908781836
 31
0.0
  0
INSERT
  5
7F91
330
7D98
100
AcDbEntity
  8
3
 62
     0
100
AcDbBlockReference
  2
_OPEN
 10
2964.330537805764
 20
2644.53908781836
 30
0.0
 41
40.0
 42
40.0
 43
40.0
 50
180.0
  0
INSERT
  5
7F92
330
7D98
100
AcDbEntity
  8
3
 62
     0
100
AcDbBlockReference
  2
_OPEN
 10
3339.330537805765
 20
2644.53908781836
 30
0.0
 41
40.0
 42
40.0
 43
40.0
  0
MTEXT
  5
7F93
330
7D98
100
AcDbEntity
  8
3
 62
     0
100
AcDbMText
 10
3152.435655190933
 20
2694.539087818359
 30
0.0
 40
60.0
 41
0.0
 71
     5
 72
     5
  1
\A1;375
 73
     1
 44
1.0
1001
ACAD
1000
MTEXTBEGIN
1070
    73
1070
     1
1070
    44
1040
1.0
1070
    74
1070
     0
1000
MTEXTEND
  0
POINT
  5
7F94
330
7D98
100
AcDbEntity
  8
DEFPOINTS
 62
     0
100
AcDbPoint
 10
2964.330537805764
 20
2510.845516482221
 30
0.0
  0
POINT
  5
7F95
330
7D98
100
AcDbEntity
  8
DEFPOINTS
 62
     0
100
AcDbPoint
 10
3339.330537805765
 20
2510.845516482221
 30
0.0
  0
POINT
  5
7F96
330
7D98
100
AcDbEntity
  8
DEFPOINTS
 62
     0
100
AcDbPoint
 10
3339.330537805765
 20
2644.53908781836
 30
0.0
  0
ENDBLK
  5
7DA3
330
7D98
100
AcDbEntity
  8
0
100
AcDbBlockEnd
  0
BLOCK
  5
7EAF
330
7DA5
100
AcDbEntity
  8
0
100
AcDbBlockBegin
  2
*D6
 70
     1
 10
0.0
 20
0.0
 30
0.0
  3
*D6
  1

  0
LINE
  5
7F97
330
7DA5
100
AcDbEntity
  8
3
 62
     0
100
AcDbLine
 10
3151.830537805766
 20
2723.745452400541
 30
0.0
 11
3151.830537805766
 21
2782.114798567218
 31
0.0
  0
LINE
  5
7F98
330
7DA5
100
AcDbEntity
  8
3
 62
     0
100
AcDbLine
 10
3343.630537805765
 20
2473.599298936083
 30
0.0
 11
3343.630537805765
 21
2782.114798567218
 31
0.0
  0
LINE
  5
7F99
330
7DA5
100
AcDbEntity
  8
3
 62
     0
100
AcDbLine
 10
3191.830537805766
 20
2762.114798567218
 30
0.0
 11
3303.630537805766
 21
2762.114798567218
 31
0.0
  0
INSERT
  5
7F9A
330
7DA5
100
AcDbEntity
  8
3
 62
     0
100
AcDbBlockReference
  2
_OPEN
 10
3151.830537805766
 20
2762.114798567218
 30
0.0
 41
40.0
 42
40.0
 43
40.0
 50
180.0
  0
INSERT
  5
7F9B
330
7DA5
100
AcDbEntity
  8
3
 62
     0
100
AcDbBlockReference
  2
_OPEN
 10
3343.630537805765
 20
2762.114798567218
 30
0.0
 41
40.0
 42
40.0
 43
40.0
  0
MTEXT
  5
7F9C
330
7DA5
100
AcDbEntity
  8
3
 62
     0
100
AcDbMText
 10
3247.730537805766
 20
2812.114798567219
 30
0.0
 40
60.0
 41
0.0
 71
     5
 72
     5
  1
\A1;192
 73
     1
 44
1.0
1001
ACAD
1000
MTEXTBEGIN
1070
    73
1070
     1
1070
    44
1040
1.0
1070
    74
1070
     0
1000
MTEXTEND
  0
POINT
  5
7F9D
330
7DA5
100
AcDbEntity
  8
DEFPOINTS
 62
     0
100
AcDbPoint
 10
3151.830537805766
 20
2713.74545240054
 30
0.0
  0
POINT
  5
7F9E
330
7DA5
100
AcDbEntity
  8
DEFPOINTS
 62
     0
100
AcDbPoint
 10
3343.630537805765
 20
2463.599298936083
 30
0.0
  0
POINT
  5
7F9F
330
7DA5
100
AcDbEntity
  8
DEFPOINTS
 62
     0
100
AcDbPoint
 10
3343.630537805765
 20
2762.114798567218
 30
0.0
  0
ENDBLK
  5
7EBB
330
7DA5
100
AcDbEntity
  8
0
100
AcDbBlockEnd
  0
BLOCK
  5
7EA5
330
7DC1
100
AcDbEntity
  8
0
100
AcDbBlockBegin
  2
*D7
 70
     1
 10
0.0
 20
0.0
 30
0.0
  3
*D7
  1

  0
LINE
  5
848C
330
7DC1
100
AcDbEntity
  8
3
 62
     0
370
    -2
100
AcDbLine
 10
2618.590299456254
 20
2413.599298936083
 30
0.0
 11
2618.590299456254
 21
2782.114798567218
 31
0.0
  0
LINE
  5
848D
330
7DC1
100
AcDbEntity
  8
3
 62
     0
370
    -2
100
AcDbLine
 10
3111.830537805766
 20
2762.114798567218
 30
0.0
 11
2658.590299456254
 21
2762.114798567218
 31
0.0
  0
INSERT
  5
848E
330
7DC1
100
AcDbEntity
  8
3
 62
     0
370
    -2
100
AcDbBlockReference
  2
_OPEN
 10
3151.830537805766
 20
2762.114798567218
 30
0.0
 41
40.0
 42
40.0
 43
40.0
  0
INSERT
  5
848F
330
7DC1
100
AcDbEntity
  8
3
 62
     0
370
    -2
100
AcDbBlockReference
  2
_OPEN
 10
2618.590299456254
 20
2762.114798567218
 30
0.0
 41
40.0
 42
40.0
 43
40.0
 50
180.0
  0
MTEXT
  5
8490
330
7DC1
100
AcDbEntity
  8
3
 62
     0
100
AcDbMText
 10
2885.21041863101
 20
2827.829084281504
 30
0.0
 40
60.0
 41
0.0
 71
     5
 72
     1
  1
\A1;(560)
 73
     1
 44
1.0
1001
ACAD
1000
MTEXTBEGIN
1070
    73
1070
     1
1070
    44
1040
1.0
1070
    74
1070
     0
1000
MTEXTEND
  0
POINT
  5
8491
330
7DC1
100
AcDbEntity
  8
DEFPOINTS
 62
     0
100
AcDbPoint
 10
3151.830537805766
 20
2713.74545240054
 30
0.0
  0
POINT
  5
8492
330
7DC1
100
AcDbEntity
  8
DEFPOINTS
 62
     0
100
AcDbPoint
 10
2618.590299456254
 20
2403.599298936082
 30
0.0
  0
POINT
  5
8493
330
7DC1
100
AcDbEntity
  8
DEFPOINTS
 62
     0
100
AcDbPoint
 10
2618.590299456254
 20
2762.114798567218
 30
0.0
  0
ENDBLK
  5
7EAE
330
7DC1
100
AcDbEntity
  8
0
100
AcDbBlockEnd
  0
BLOCK
  5
7DE5
330
7DD8
100
AcDbEntity
  8
0
100
AcDbBlockBegin
  2
*D8
 70
     1
 10
0.0
 20
0.0
 30
0.0
  3
*D8
  1

  0
LINE
  5
7FA8
330
7DD8
100
AcDbEntity
  8
3
 62
     0
100
AcDbLine
 10
3381.830537805765
 20
2433.599298936083
 30
0.0
 11
3563.286756674447
 21
2433.599298936083
 31
0.0
  0
LINE
  5
7FA9
330
7DD8
100
AcDbEntity
  8
3
 62
     0
100
AcDbLine
 10
3381.830537805765
 20
1933.599298936083
 30
0.0
 11
3563.286756674447
 21
1933.599298936083
 31
0.0
  0
LINE
  5
7FAA
330
7DD8
100
AcDbEntity
  8
3
 62
     0
100
AcDbLine
 10
3543.286756674447
 20
2393.599298936083
 30
0.0
 11
3543.286756674447
 21
1973.599298936083
 31
0.0
  0
INSERT
  5
7FAB
330
7DD8
100
AcDbEntity
  8
3
 62
     0
100
AcDbBlockReference
  2
_OPEN
 10
3543.286756674447
 20
2433.599298936083
 30
0.0
 41
40.0
 42
40.0
 43
40.0
 50
90.0
  0
INSERT
  5
7FAC
330
7DD8
100
AcDbEntity
  8
3
 62
     0
100
AcDbBlockReference
  2
_OPEN
 10
3543.286756674447
 20
1933.599298936083
 30
0.0
 41
40.0
 42
40.0
 43
40.0
 50
270.0
  0
MTEXT
  5
7FAD
330
7DD8
100
AcDbEntity
  8
3
 62
     0
100
AcDbMText
 10
3493.286756674446
 20
2183.339885117799
 30
0.0
 40
60.0
 41
0.0
 71
     5
 72
     5
  1
\A1;\U+03C6500
 11
0.0000000000000001
 21
1.0
 31
0.0
 73
     1
 44
1.0
1001
ACAD
1000
MTEXTBEGIN
1070
    73
1070
     1
1070
    44
1040
1.0
1070
    74
1070
     0
1000
MTEXTEND
  0
POINT
  5
7FAE
330
7DD8
100
AcDbEntity
  8
DEFPOINTS
 62
     0
100
AcDbPoint
 10
3371.830537805765
 20
2433.599298936083
 30
0.0
  0
POINT
  5
7FAF
330
7DD8
100
AcDbEntity
  8
DEFPOINTS
 62
     0
100
AcDbPoint
 10
3371.830537805765
 20
1933.599298936083
 30
0.0
  0
POINT
  5
7FB0
330
7DD8
100
AcDbEntity
  8
DEFPOINTS
 62
     0
100
AcDbPoint
 10
3543.286756674447
 20
1933.599298936083
 30
0.0
  0
ENDBLK
  5
7DEF
330
7DD8
100
AcDbEntity
  8
0
100
AcDbBlockEnd
  0
BLOCK
  5
7E64
330
7E63
100
AcDbEntity
  8
0
100
AcDbBlockBegin
  2
*D11
 70
     1
 10
0.0
 20
0.0
 30
0.0
  3
*D11
  1

  0
LINE
  5
7FC3
330
7E63
100
AcDbEntity
  8
3
 62
     0
100
AcDbLine
 10
1139.560685861438
 20
2543.599298936082
 30
0.0
 11
597.5956673408691
 21
2543.599298936082
 31
0.0
  0
LINE
  5
7FC4
330
7E63
100
AcDbEntity
  8
3
 62
     0
100
AcDbLine
 10
617.5956673408689
 20
2223.599298936077
 30
0.0
 11
617.5956673408691
 21
2503.599298936082
 31
0.0
  0
INSERT
  5
7FC5
330
7E63
100
AcDbEntity
  8
3
 62
     0
100
AcDbBlockReference
  2
_OPEN
 10
617.5956673408689
 20
2183.599298936078
 30
0.0
 41
40.0
 42
40.0
 43
40.0
 50
270.0
  0
INSERT
  5
7FC6
330
7E63
100
AcDbEntity
  8
3
 62
     0
100
AcDbBlockReference
  2
_OPEN
 10
617.5956673408691
 20
2543.599298936082
 30
0.0
 41
40.0
 42
40.0
 43
40.0
 50
90.0
  0
MTEXT
  5
7FC7
330
7E63
100
AcDbEntity
  8
3
 62
     0
100
AcDbMText
 10
567.5956673408686
 20
2363.59929893608
 30
0.0
 40
60.0
 41
0.0
 71
     5
 72
     5
  1
\A1;360
 11
0.0000000000000001
 21
1.0
 31
0.0
 73
     1
 44
1.0
1001
ACAD
1000
MTEXTBEGIN
1070
    73
1070
     1
1070
    44
1040
1.0
1070
    74
1070
     0
1000
MTEXTEND
  0
POINT
  5
7FC8
330
7E63
100
AcDbEntity
  8
DEFPOINTS
 62
     0
100
AcDbPoint
 10
737.8464859615032
 20
2183.599298936078
 30
0.0
  0
POINT
  5
7FC9
330
7E63
100
AcDbEntity
  8
DEFPOINTS
 62
     0
100
AcDbPoint
 10
1149.560685861438
 20
2543.599298936082
 30
0.0
  0
POINT
  5
7FCA
330
7E63
100
AcDbEntity
  8
DEFPOINTS
 62
     0
100
AcDbPoint
 10
617.5956673408691
 20
2543.599298936082
 30
0.0
  0
ENDBLK
  5
7E6D
330
7E63
100
AcDbEntity
  8
0
100
AcDbBlockEnd
  0
BLOCK
  5
7E70
330
7E6F
100
AcDbEntity
  8
0
100
AcDbBlockBegin
  2
*D12
 70
     1
 10
0.0
 20
0.0
 30
0.0
  3
*D12
  1

  0
LINE
  5
7FCB
330
7E6F
100
AcDbEntity
  8
3
 62
     0
100
AcDbLine
 10
792.7126950535812
 20
2156.599298936081
 30
0.0
 11
792.7126950535812
 21
2741.164317456654
 31
0.0
  0
LINE
  5
7FCC
330
7E6F
100
AcDbEntity
  8
3
 62
     0
100
AcDbLine
 10
1115.160685861438
 20
2721.164317456654
 30
0.0
 11
832.7126950535811
 21
2721.164317456654
 31
0.0
  0
INSERT
  5
7FCD
330
7E6F
100
AcDbEntity
  8
3
 62
     0
100
AcDbBlockReference
  2
_OPEN
 10
1155.160685861438
 20
2721.164317456654
 30
0.0
 41
40.0
 42
40.0
 43
40.0
  0
INSERT
  5
7FCE
330
7E6F
100
AcDbEntity
  8
3
 62
     0
100
AcDbBlockReference
  2
_OPEN
 10
792.7126950535812
 20
2721.164317456654
 30
0.0
 41
40.0
 42
40.0
 43
40.0
 50
180.0
  0
MTEXT
  5
7FCF
330
7E6F
100
AcDbEntity
  8
3
 62
     0
100
AcDbMText
 10
973.9366904575094
 20
2771.164317456654
 30
0.0
 40
60.0
 41
0.0
 71
     5
 72
     5
  1
\A1;362
 73
     1
 44
1.0
1001
ACAD
1000
MTEXTBEGIN
1070
    73
1070
     1
1070
    44
1040
1.0
1070
    74
1070
     0
1000
MTEXTEND
  0
POINT
  5
7FD0
330
7E6F
100
AcDbEntity
  8
DEFPOINTS
 62
     0
100
AcDbPoint
 10
1155.160685861438
 20
2600.913498836019
 30
0.0
  0
POINT
  5
7FD1
330
7E6F
100
AcDbEntity
  8
DEFPOINTS
 62
     0
100
AcDbPoint
 10
792.7126950535812
 20
2146.599298936081
 30
0.0
  0
POINT
  5
7FD2
330
7E6F
100
AcDbEntity
  8
DEFPOINTS
 62
     0
100
AcDbPoint
 10
792.7126950535812
 20
2721.164317456654
 30
0.0
  0
ENDBLK
  5
7E79
330
7E6F
100
AcDbEntity
  8
0
100
AcDbBlockEnd
  0
BLOCK
  5
7EFF
330
7EFE
100
AcDbEntity
  8
0
100
AcDbBlockBegin
  2
*D13
 70
     1
 10
0.0
 20
0.0
 30
0.0
  3
*D13
  1

  0
LINE
  5
7FD6
330
7EFE
100
AcDbEntity
  8
3
 62
     0
100
AcDbLine
 10
845.1606858614441
 20
1653.599298936079
 30
0.0
 11
845.1606858614441
 21
1506.331775590148
 31
0.0
  0
LINE
  5
7FD7
330
7EFE
100
AcDbEntity
  8
3
 62
     0
100
AcDbLine
 10
1155.160685861446
 20
1653.599298936081
 30
0.0
 11
1155.160685861446
 21
1506.331775590148
 31
0.0
  0
LINE
  5
7FD8
330
7EFE
100
AcDbEntity
  8
3
 62
     0
100
AcDbLine
 10
885.1606858614442
 20
1526.331775590148
 30
0.0
 11
1115.160685861446
 21
1526.331775590148
 31
0.0
  0
INSERT
  5
7FD9
330
7EFE
100
AcDbEntity
  8
3
 62
     0
100
AcDbBlockReference
  2
_OPEN
 10
845.1606858614441
 20
1526.331775590148
 30
0.0
 41
40.0
 42
40.0
 43
40.0
 50
180.0
  0
INSERT
  5
7FDA
330
7EFE
100
AcDbEntity
  8
3
 62
     0
100
AcDbBlockReference
  2
_OPEN
 10
1155.160685861446
 20
1526.331775590148
 30
0.0
 41
40.0
 42
40.0
 43
40.0
  0
MTEXT
  5
7FDB
330
7EFE
100
AcDbEntity
  8
3
 62
     0
100
AcDbMText
 10
1000.160685861445
 20
1576.331775590148
 30
0.0
 40
60.0
 41
0.0
 71
     5
 72
     5
  1
\A1;310
 73
     1
 44
1.0
1001
ACAD
1000
MTEXTBEGIN
1070
    73
1070
     1
1070
    44
1040
1.0
1070
    74
1070
     0
1000
MTEXTEND
  0
POINT
  5
7FDC
330
7EFE
100
AcDbEntity
  8
DEFPOINTS
 62
     0
100
AcDbPoint
 10
845.1606858614441
 20
1663.599298936079
 30
0.0
  0
POINT
  5
7FDD
330
7EFE
100
AcDbEntity
  8
DEFPOINTS
 62
     0
100
AcDbPoint
 10
1155.160685861446
 20
1663.599298936081
 30
0.0
  0
POINT
  5
7FDE
330
7EFE
100
AcDbEntity
  8
DEFPOINTS
 62
     0
100
AcDbPoint
 10
1155.160685861446
 20
1526.331775590148
 30
0.0
  0
ENDBLK
  5
7F09
330
7EFE
100
AcDbEntity
  8
0
100
AcDbBlockEnd
  0
BLOCK
  5
7F0C
330
7F0B
100
AcDbEntity
  8
0
100
AcDbBlockBegin
  2
*D14
 70
     1
 10
0.0
 20
0.0
 30
0.0
  3
*D14
  1

  0
LINE
  5
7FDF
330
7F0B
100
AcDbEntity
  8
3
 62
     0
100
AcDbLine
 10
1155.160685861446
 20
1653.599298936081
 30
0.0
 11
1155.160685861446
 21
1506.331775590148
 31
0.0
  0
LINE
  5
7FE0
330
7F0B
100
AcDbEntity
  8
3
 62
     0
100
AcDbLine
 10
1965.160685861444
 20
1653.599298936088
 30
0.0
 11
1965.160685861444
 21
1506.331775590148
 31
0.0
  0
LINE
  5
7FE1
330
7F0B
100
AcDbEntity
  8
3
 62
     0
100
AcDbLine
 10
1195.160685861446
 20
1526.331775590148
 30
0.0
 11
1925.160685861444
 21
1526.331775590148
 31
0.0
  0
INSERT
  5
7FE2
330
7F0B
100
AcDbEntity
  8
3
 62
     0
100
AcDbBlockReference
  2
_OPEN
 10
1155.160685861446
 20
1526.331775590148
 30
0.0
 41
40.0
 42
40.0
 43
40.0
 50
180.0
  0
INSERT
  5
7FE3
330
7F0B
100
AcDbEntity
  8
3
 62
     0
100
AcDbBlockReference
  2
_OPEN
 10
1965.160685861444
 20
1526.331775590148
 30
0.0
 41
40.0
 42
40.0
 43
40.0
  0
MTEXT
  5
7FE4
330
7F0B
100
AcDbEntity
  8
3
 62
     0
100
AcDbMText
 10
1560.160685861445
 20
1576.331775590148
 30
0.0
 40
60.0
 41
0.0
 71
     5
 72
     5
  1
\A1;810
 73
     1
 44
1.0
1001
ACAD
1000
MTEXTBEGIN
1070
    73
1070
     1
1070
    44
1040
1.0
1070
    74
1070
     0
1000
MTEXTEND
  0
POINT
  5
7FE5
330
7F0B
100
AcDbEntity
  8
DEFPOINTS
 62
     0
100
AcDbPoint
 10
1155.160685861446
 20
1663.599298936081
 30
0.0
  0
POINT
  5
7FE6
330
7F0B
100
AcDbEntity
  8
DEFPOINTS
 62
     0
100
AcDbPoint
 10
1965.160685861444
 20
1663.599298936088
 30
0.0
  0
POINT
  5
7FE7
330
7F0B
100
AcDbEntity
  8
DEFPOINTS
 62
     0
100
AcDbPoint
 10
1965.160685861444
 20
1526.331775590148
 30
0.0
  0
ENDBLK
  5
7F16
330
7F0B
100
AcDbEntity
  8
0
100
AcDbBlockEnd
  0
BLOCK
  5
7F19
330
7F18
100
AcDbEntity
  8
0
100
AcDbBlockBegin
  2
*D15
 70
     1
 10
0.0
 20
0.0
 30
0.0
  3
*D15
  1

  0
LINE
  5
7FE8
330
7F18
100
AcDbEntity
  8
3
 62
     0
100
AcDbLine
 10
2756.830537805764
 20
1653.599298936091
 30
0.0
 11
2756.830537805764
 21
1506.331775590148
 31
0.0
  0
LINE
  5
7FE9
330
7F18
100
AcDbEntity
  8
3
 62
     0
100
AcDbLine
 10
3151.830537805765
 20
1653.599298936092
 30
0.0
 11
3151.830537805765
 21
1506.331775590148
 31
0.0
  0
LINE
  5
7FEA
330
7F18
100
AcDbEntity
  8
3
 62
     0
100
AcDbLine
 10
2796.830537805764
 20
1526.331775590148
 30
0.0
 11
3111.830537805765
 21
1526.331775590148
 31
0.0
  0
INSERT
  5
7FEB
330
7F18
100
AcDbEntity
  8
3
 62
     0
100
AcDbBlockReference
  2
_OPEN
 10
2756.830537805764
 20
1526.331775590148
 30
0.0
 41
40.0
 42
40.0
 43
40.0
 50
180.0
  0
INSERT
  5
7FEC
330
7F18
100
AcDbEntity
  8
3
 62
     0
100
AcDbBlockReference
  2
_OPEN
 10
3151.830537805765
 20
1526.331775590148
 30
0.0
 41
40.0
 42
40.0
 43
40.0
  0
MTEXT
  5
7FED
330
7F18
100
AcDbEntity
  8
3
 62
     0
100
AcDbMText
 10
2954.330537805764
 20
1576.331775590148
 30
0.0
 40
60.0
 41
0.0
 71
     5
 72
     5
  1
\A1;395
 73
     1
 44
1.0
1001
ACAD
1000
MTEXTBEGIN
1070
    73
1070
     1
1070
    44
1040
1.0
1070
    74
1070
     0
1000
MTEXTEND
  0
POINT
  5
7FEE
330
7F18
100
AcDbEntity
  8
DEFPOINTS
 62
     0
100
AcDbPoint
 10
2756.830537805764
 20
1663.599298936091
 30
0.0
  0
POINT
  5
7FEF
330
7F18
100
AcDbEntity
  8
DEFPOINTS
 62
     0
100
AcDbPoint
 10
3151.830537805765
 20
1663.599298936092
 30
0.0
  0
POINT
  5
7FF0
330
7F18
100
AcDbEntity
  8
DEFPOINTS
 62
     0
100
AcDbPoint
 10
3151.830537805765
 20
1526.331775590148
 30
0.0
  0
ENDBLK
  5
7F23
330
7F18
100
AcDbEntity
  8
0
100
AcDbBlockEnd
  0
BLOCK
  5
7F26
330
7F25
100
AcDbEntity
  8
0
100
AcDbBlockBegin
  2
*D16
 70
     1
 10
0.0
 20
0.0
 30
0.0
  3
*D16
  1

  0
LINE
  5
7FF1
330
7F25
100
AcDbEntity
  8
3
 62
     0
100
AcDbLine
 10
3151.830537805765
 20
1653.599298936092
 30
0.0
 11
3151.830537805765
 21
1506.331775590148
 31
0.0
  0
LINE
  5
7FF2
330
7F25
100
AcDbEntity
  8
3
 62
     0
100
AcDbLine
 10
3381.830537805765
 20
1653.599298936092
 30
0.0
 11
3381.830537805765
 21
1506.331775590148
 31
0.0
  0
LINE
  5
7FF3
330
7F25
100
AcDbEntity
  8
3
 62
     0
100
AcDbLine
 10
3191.830537805765
 20
1526.331775590148
 30
0.0
 11
3341.830537805765
 21
1526.331775590148
 31
0.0
  0
INSERT
  5
7FF4
330
7F25
100
AcDbEntity
  8
3
 62
     0
100
AcDbBlockReference
  2
_OPEN
 10
3151.830537805765
 20
1526.331775590148
 30
0.0
 41
40.0
 42
40.0
 43
40.0
 50
180.0
  0
INSERT
  5
7FF5
330
7F25
100
AcDbEntity
  8
3
 62
     0
100
AcDbBlockReference
  2
_OPEN
 10
3381.830537805765
 20
1526.331775590148
 30
0.0
 41
40.0
 42
40.0
 43
40.0
  0
MTEXT
  5
7FF6
330
7F25
100
AcDbEntity
  8
3
 62
     0
100
AcDbMText
 10
3266.830537805765
 20
1576.331775590148
 30
0.0
 40
60.0
 41
0.0
 71
     5
 72
     5
  1
\A1;230
 73
     1
 44
1.0
1001
ACAD
1000
MTEXTBEGIN
1070
    73
1070
     1
1070
    44
1040
1.0
1070
    74
1070
     0
1000
MTEXTEND
  0
POINT
  5
7FF7
330
7F25
100
AcDbEntity
  8
DEFPOINTS
 62
     0
100
AcDbPoint
 10
3151.830537805765
 20
1663.599298936092
 30
0.0
  0
POINT
  5
7FF8
330
7F25
100
AcDbEntity
  8
DEFPOINTS
 62
     0
100
AcDbPoint
 10
3381.830537805765
 20
1663.599298936092
 30
0.0
  0
POINT
  5
7FF9
330
7F25
100
AcDbEntity
  8
DEFPOINTS
 62
     0
100
AcDbPoint
 10
3381.830537805765
 20
1526.331775590148
 30
0.0
  0
ENDBLK
  5
7F32
330
7F25
100
AcDbEntity
  8
0
100
AcDbBlockEnd
  0
BLOCK
  5
83C1
330
83C0
100
AcDbEntity
  8
0
100
AcDbBlockBegin
  2
*D45
 70
     1
 10
0.0
 20
0.0
 30
0.0
  3
*D45
  1

  0
LINE
  5
846F
330
83C0
100
AcDbEntity
  8
3
 62
     0
370
    -2
100
AcDbLine
 10
845.160685861434
 20
4003.713410176739
 30
0.0
 11
845.160685861434
 21
4217.081280799659
 31
0.0
  0
LINE
  5
8470
330
83C0
100
AcDbEntity
  8
3
 62
     0
370
    -2
100
AcDbLine
 10
1965.160685861434
 20
4003.713410176742
 30
0.0
 11
1965.160685861434
 21
4217.081280799659
 31
0.0
  0
LINE
  5
8471
330
83C0
100
AcDbEntity
  8
3
 62
     0
370
    -2
100
AcDbLine
 10
885.160685861434
 20
4197.081280799658
 30
0.0
 11
1925.160685861434
 21
4197.081280799658
 31
0.0
  0
INSERT
  5
8472
330
83C0
100
AcDbEntity
  8
3
 62
     0
370
    -2
100
AcDbBlockReference
  2
_OPEN
 10
845.160685861434
 20
4197.081280799658
 30
0.0
 41
40.0
 42
40.0
 43
40.0
 50
180.0
  0
INSERT
  5
8473
330
83C0
100
AcDbEntity
  8
3
 62
     0
370
    -2
100
AcDbBlockReference
  2
_OPEN
 10
1965.160685861434
 20
4197.081280799658
 30
0.0
 41
40.0
 42
40.0
 43
40.0
  0
MTEXT
  5
8474
330
83C0
100
AcDbEntity
  8
3
 62
     0
100
AcDbMText
 10
1352.381722866702
 20
4247.081280799658
 30
0.0
 40
60.0
 41
0.0
 71
     5
 72
     1
  1
\A1;1120
 73
     1
 44
1.0
1001
ACAD
1000
MTEXTBEGIN
1070
    73
1070
     1
1070
    44
1040
1.0
1070
    74
1070
     0
1000
MTEXTEND
  0
POINT
  5
8475
330
83C0
100
AcDbEntity
  8
DEFPOINTS
 62
     0
100
AcDbPoint
 10
845.160685861434
 20
3993.71341017674
 30
0.0
  0
POINT
  5
8476
330
83C0
100
AcDbEntity
  8
DEFPOINTS
 62
     0
100
AcDbPoint
 10
1965.160685861434
 20
3993.713410176743
 30
0.0
  0
POINT
  5
8477
330
83C0
100
AcDbEntity
  8
DEFPOINTS
 62
     0
100
AcDbPoint
 10
1965.160685861434
 20
4197.081280799658
 30
0.0
  0
ENDBLK
  5
83C2
330
83C0
100
AcDbEntity
  8
0
100
AcDbBlockEnd
  0
BLOCK
  5
83CD
330
83CC
100
AcDbEntity
  8
0
100
AcDbBlockBegin
  2
*D46
 70
     1
 10
0.0
 20
0.0
 30
0.0
  3
*D46
  1

  0
LINE
  5
8478
330
83CC
100
AcDbEntity
  8
3
 62
     0
370
    -2
100
AcDbLine
 10
1975.160685861434
 20
3993.713410176743
 30
0.0
 11
2171.784558400348
 21
3993.713410176743
 31
0.0
  0
LINE
  5
8479
330
83CC
100
AcDbEntity
  8
3
 62
     0
370
    -2
100
AcDbLine
 10
1975.160685861434
 20
3368.713410176741
 30
0.0
 11
2171.784558400348
 21
3368.713410176741
 31
0.0
  0
LINE
  5
847A
330
83CC
100
AcDbEntity
  8
3
 62
     0
370
    -2
100
AcDbLine
 10
2151.784558400349
 20
3953.713410176743
 30
0.0
 11
2151.784558400349
 21
3408.713410176741
 31
0.0
  0
INSERT
  5
847B
330
83CC
100
AcDbEntity
  8
3
 62
     0
370
    -2
100
AcDbBlockReference
  2
_OPEN
 10
2151.784558400349
 20
3993.713410176743
 30
0.0
 41
40.0
 42
40.0
 43
40.0
 50
90.0
  0
INSERT
  5
847C
330
83CC
100
AcDbEntity
  8
3
 62
     0
370
    -2
100
AcDbBlockReference
  2
_OPEN
 10
2151.784558400349
 20
3368.713410176741
 30
0.0
 41
40.0
 42
40.0
 43
40.0
 50
270.0
  0
MTEXT
  5
847D
330
83CC
100
AcDbEntity
  8
3
 62
     0
100
AcDbMText
 10
2101.784558400348
 20
3688.740278048191
 30
0.0
 40
60.0
 41
0.0
 71
     5
 72
     1
  1
\A1;625
 11
0.0000000000000001
 21
1.0
 31
0.0
 73
     1
 44
1.0
1001
ACAD
1000
MTEXTBEGIN
1070
    73
1070
     1
1070
    44
1040
1.0
1070
    74
1070
     0
1000
MTEXTEND
  0
POINT
  5
847E
330
83CC
100
AcDbEntity
  8
DEFPOINTS
 62
     0
100
AcDbPoint
 10
1965.160685861434
 20
3993.713410176743
 30
0.0
  0
POINT
  5
847F
330
83CC
100
AcDbEntity
  8
DEFPOINTS
 62
     0
100
AcDbPoint
 10
1965.160685861434
 20
3368.713410176741
 30
0.0
  0
POINT
  5
8480
330
83CC
100
AcDbEntity
  8
DEFPOINTS
 62
     0
100
AcDbPoint
 10
2151.784558400349
 20
3368.713410176741
 30
0.0
  0
ENDBLK
  5
83CE
330
83CC
100
AcDbEntity
  8
0
100
AcDbBlockEnd
  0
ENDSEC
  0
SECTION
  2
ENTITIES
  0
LINE
  5
7B33
330
19
100
AcDbEntity
  8
1
100
AcDbLine
 10
2757.330537805765
 20
2123.599298936083
 30
0.0
 11
2962.330537805766
 21
2123.599298936083
 31
0.0
  0
LINE
  5
7B34
330
19
100
AcDbEntity
  8
1
100
AcDbLine
 10
2756.830537805765
 20
1738.599298936091
 30
0.0
 11
3381.830537805765
 21
1738.599298936092
 31
0.0
  0
LINE
  5
7B35
330
19
100
AcDbEntity
  8
1
100
AcDbLine
 10
2756.830537805764
 20
1663.599298936091
 30
0.0
 11
3381.830537805765
 21
1663.599298936092
 31
0.0
  0
LINE
  5
7B36
330
19
100
AcDbEntity
  8
1
100
AcDbLine
 10
2757.330537805765
 20
2120.399298936082
 30
0.0
 11
2962.330537805766
 21
2120.399298936085
 31
0.0
  0
LINE
  5
7B37
330
19
100
AcDbEntity
  8
2
100
AcDbLine
 10
2536.499626049663
 20
2183.599298936083
 30
0.0
 11
3395.706797645881
 21
2183.599298936083
 31
0.0
1001
ACAD
1000
ASC_BOUNDS
1002
{
1070
    19
1002
}
  0
LINE
  5
7B38
330
19
100
AcDbEntity
  8
1
100
AcDbLine
 10
2791.830537805765
 20
1663.599298936091
 30
0.0
 11
3381.830537805765
 21
1663.599298936092
 31
0.0
  0
CIRCLE
  5
7B39
330
19
100
AcDbEntity
  8
1
100
AcDbCircle
 10
1155.160685861441
 20
2183.599298936081
 30
0.0
 40
139.7
  0
ARC
  5
7B3A
330
19
100
AcDbEntity
  8
1
100
AcDbCircle
 10
1124.160685861442
 20
2152.599298936081
 30
0.0
 40
331.1837981443563
100
AcDbArc
 50
93.54882950407729
 51
174.9575489308296
  0
LINE
  5
7B3B
330
19
100
AcDbEntity
  8
1
100
AcDbLine
 10
1693.160685861438
 20
2543.599298936085
 30
0.0
 11
1664.160685861441
 21
2183.599298936085
 31
0.0
  0
LINE
  5
7B3C
330
19
100
AcDbEntity
  8
1
100
AcDbLine
 10
2665.530537805764
 20
2323.299298936083
 30
0.0
 11
2665.530537805766
 21
2043.899298936082
 31
0.0
  0
LINE
  5
7B3D
330
19
100
AcDbEntity
  8
1
100
AcDbLine
 10
2705.530537805764
 20
2323.299298936083
 30
0.0
 11
2705.530537805766
 21
2043.899298936082
 31
0.0
  0
LINE
  5
7B3E
330
19
100
AcDbEntity
  8
1
100
AcDbLine
 10
2618.590299456254
 20
2403.599298936083
 30
0.0
 11
2618.590299456255
 21
1738.59929893609
 31
0.0
  0
LINE
  5
7B3F
330
19
100
AcDbEntity
  8
2
100
AcDbLine
 10
737.8464859615032
 20
2183.599298936078
 30
0.0
 11
1687.795484133789
 21
2183.599298936085
 31
0.0
  0
ARC
  5
7B40
330
19
100
AcDbEntity
  8
1
100
AcDbCircle
 10
1192.16068586144
 20
2220.599298936081
 30
0.0
 40
473.4479908078608
100
AcDbArc
 50
270.0000000000005
 51
355.5177596295755
  0
LINE
  5
7B41
330
19
100
AcDbEntity
  8
1
100
AcDbLine
 10
845.1606858614432
 20
1728.599298936079
 30
0.0
 11
1965.160685861443
 21
1728.599298936088
 31
0.0
  0
LINE
  5
7B42
330
19
100
AcDbEntity
  8
1
100
AcDbLine
 10
845.1606858614441
 20
1663.599298936079
 30
0.0
 11
1965.160685861444
 21
1663.599298936088
 31
0.0
  0
CIRCLE
  5
7B43
330
19
100
AcDbEntity
  8
1
100
AcDbCircle
 10
1805.160685861442
 20
1851.599298936086
 30
0.0
 40
57.14999999999999
  0
LINE
  5
7B44
330
19
100
AcDbEntity
  8
1
100
AcDbLine
 10
1805.160685861443
 20
1782.615198936086
 30
0.0
 11
1805.160685861441
 21
1960.060398936087
 31
0.0
  0
LINE
  5
7B45
330
19
100
AcDbEntity
  8
1
100
AcDbLine
 10
1928.876580386257
 20
1728.599298936087
 30
0.0
 11
1681.444791336631
 21
1728.599298936085
 31
0.0
  0
LINE
  5
7B46
330
19
100
AcDbEntity
  8
1
100
AcDbLine
 10
1965.160685861444
 20
1663.599298936088
 30
0.0
 11
1965.160685861443
 21
1728.599298936088
 31
0.0
  0
ARC
  5
7B47
330
19
100
AcDbEntity
  8
1
100
AcDbCircle
 10
1192.160685861442
 20
2146.599298936081
 30
0.0
 40
399.4479908078606
100
AcDbArc
 50
174.9575489308296
 51
270.0000000000005
  0
LINE
  5
7B48
330
19
100
AcDbEntity
  8
2
100
AcDbLine
 10
1155.160685861439
 20
2570.697355126677
 30
0.0
 11
1155.160685861446
 21
1663.599298936081
 31
0.0
  0
LINE
  5
7B49
330
19
100
AcDbEntity
  8
1
100
AcDbLine
 10
845.1606858614441
 20
1663.599298936079
 30
0.0
 11
845.1606858614432
 21
1728.599298936079
 31
0.0
  0
LINE
  5
7B4A
330
19
100
AcDbEntity
  8
1
100
AcDbLine
 10
2665.530537805766
 20
2043.899298936082
 30
0.0
 11
2665.530537805766
 21
1792.449298936085
 31
0.0
  0
LINE
  5
7B4B
330
19
100
AcDbEntity
  8
1
100
AcDbLine
 10
2705.530537805766
 20
2043.899298936082
 30
0.0
 11
2705.530537805766
 21
1792.449298936085
 31
0.0
  0
LINE
  5
7B4C
330
19
100
AcDbEntity
  8
1
100
AcDbLine
 10
2757.330537805765
 20
2123.599298936083
 30
0.0
 11
2757.330537805766
 21
1935.599298936091
 31
0.0
  0
LINE
  5
7B4D
330
19
100
AcDbEntity
  8
1
100
AcDbLine
 10
2760.530537805765
 20
2120.399298936082
 30
0.0
 11
2760.530537805765
 21
1935.599298936091
 31
0.0
  0
LINE
  5
7B4E
330
19
100
AcDbEntity
  8
1
100
AcDbLine
 10
2665.530537805767
 20
1792.449298936085
 30
0.0
 11
2705.530537805766
 21
1792.449298936085
 31
0.0
  0
LINE
  5
7B4F
330
19
100
AcDbEntity
  8
1
100
AcDbLine
 10
2618.590299456255
 20
1738.59929893609
 30
0.0
 11
2740.590299456255
 21
1738.59929893609
 31
0.0
  0
LINE
  5
7B50
330
19
100
AcDbEntity
  8
1
100
AcDbLine
 10
2740.590299456255
 20
1758.599298936091
 30
0.0
 11
2740.590299456255
 21
1738.59929893609
 31
0.0
  0
LINE
  5
7B51
330
19
100
AcDbEntity
  8
1
100
AcDbLine
 10
2665.530537805766
 20
2043.899298936082
 30
0.0
 11
2705.530537805766
 21
2043.899298936082
 31
0.0
1001
ACAD
1000
ASC_BOUNDS
1002
{
1070
    19
1002
}
  0
LINE
  5
7B52
330
19
100
AcDbEntity
  8
1
100
AcDbLine
 10
2665.530537805767
 20
1906.749298936085
 30
0.0
 11
2705.530537805767
 21
1906.749298936085
 31
0.0
  0
LINE
  5
7B53
330
19
100
AcDbEntity
  8
1
100
AcDbLine
 10
2705.530537805765
 20
2202.599298936083
 30
0.0
 11
2735.530537805765
 21
2202.599298936082
 31
0.0
1001
ACAD
1000
ASC_BOUNDS
1002
{
1070
    19
1002
}
  0
LINE
  5
7B54
330
19
100
AcDbEntity
  8
1
100
AcDbLine
 10
2705.530537805766
 20
2164.599298936083
 30
0.0
 11
2735.530537805765
 21
2164.599298936083
 31
0.0
1001
ACAD
1000
ASC_BOUNDS
1002
{
1070
    19
1002
}
  0
LINE
  5
7B55
330
19
100
AcDbEntity
  8
1
100
AcDbLine
 10
2735.530537805765
 20
2206.099298936083
 30
0.0
 11
2735.530537805766
 21
2161.099298936083
 31
0.0
  0
LINE
  5
7B5A
330
19
100
AcDbEntity
  8
1
100
AcDbLine
 10
1724.76586882474
 20
2540.599298936086
 30
0.0
 11
1149.560685861438
 21
2540.599298936081
 31
0.0
  0
LINE
  5
7B5B
330
19
100
AcDbEntity
  8
1
100
AcDbLine
 10
1693.160685861438
 20
2543.599298936085
 30
0.0
 11
1181.160685861438
 21
2543.599298936082
 31
0.0
  0
LINE
  5
7B5C
330
19
100
AcDbEntity
  8
1
100
AcDbLine
 10
1171.160685861438
 20
2543.599298936082
 30
0.0
 11
1703.193079382083
 21
2543.599298936085
 31
0.0
  0
LINE
  5
7B5D
330
19
100
AcDbEntity
  8
1
100
AcDbLine
 10
1724.765868824742
 20
2513.599298936086
 30
0.0
 11
1149.560685861438
 21
2513.599298936081
 31
0.0
  0
LINE
  5
7B5E
330
19
100
AcDbEntity
  8
1
100
AcDbLine
 10
1149.560685861438
 20
2543.599298936082
 30
0.0
 11
1724.765868824742
 21
2543.599298936086
 31
0.0
  0
POINT
  5
7B61
330
19
100
AcDbEntity
  8
1
100
AcDbPoint
 10
1694.765868824742
 20
2543.599298936085
 30
0.0
  0
POINT
  5
7B62
330
19
100
AcDbEntity
  8
1
100
AcDbPoint
 10
1693.160685861438
 20
2543.599298936085
 30
0.0
  0
POINT
  5
7B63
330
19
100
AcDbEntity
  8
1
100
AcDbPoint
 10
1693.160685861438
 20
2543.599298936085
 30
0.0
  0
POINT
  5
7B64
330
19
100
AcDbEntity
  8
1
100
AcDbPoint
 10
1693.160685861438
 20
2543.599298936085
 30
0.0
  0
LINE
  5
7B65
330
19
100
AcDbEntity
  8
1
100
AcDbLine
 10
1724.765868824742
 20
2543.599298936086
 30
0.0
 11
1724.765868824742
 21
2513.599298936086
 31
0.0
  0
ARC
  5
7B69
330
19
100
AcDbEntity
  8
1
100
AcDbCircle
 10
1124.160685861442
 20
2214.599298936079
 30
0.0
 40
269.1837981443569
100
AcDbArc
 50
77.77500151106656
 51
86.9121800634964
  0
LINE
  5
7B6A
330
19
100
AcDbEntity
  8
1
100
AcDbLine
 10
1181.160685861439
 20
2477.67897732919
 30
0.0
 11
1181.160685861438
 21
2543.599298936082
 31
0.0
  0
POINT
  5
7B6B
330
19
100
AcDbEntity
  8
1
100
AcDbPoint
 10
1181.160685861438
 20
2543.599298936082
 30
0.0
  0
LINE
  5
7B6C
330
19
100
AcDbEntity
  8
1
100
AcDbLine
 10
1149.560685861438
 20
2513.599298936081
 30
0.0
 11
1149.560685861438
 21
2543.599298936082
 31
0.0
  0
LINE
  5
7B6D
330
19
100
AcDbEntity
  8
1
100
AcDbLine
 10
2740.590299456254
 20
2403.599298936083
 30
0.0
 11
2618.590299456254
 21
2403.599298936083
 31
0.0
  0
LINE
  5
7B6E
330
19
100
AcDbEntity
  8
1
100
AcDbLine
 10
2618.590299456254
 20
2403.599298936082
 30
0.0
 11
2740.590299456254
 21
2403.599298936082
 31
0.0
  0
LINE
  5
7B6F
330
19
100
AcDbEntity
  8
1
100
AcDbLine
 10
2665.530537805764
 20
2323.299298936083
 30
0.0
 11
2705.530537805764
 21
2323.299298936083
 31
0.0
1001
ACAD
1000
ASC_BOUNDS
1002
{
1070
    19
1002
}
  0
LINE
  5
7B70
330
19
100
AcDbEntity
  8
1
100
AcDbLine
 10
2740.590299456254
 20
2383.599298936083
 30
0.0
 11
2740.590299456254
 21
2403.599298936083
 31
0.0
  0
LINE
  5
7B71
330
19
100
AcDbEntity
  8
1
100
AcDbLine
 10
2964.330537805764
 20
2513.145516482221
 30
0.0
 11
2964.330537805766
 21
2183.599298936083
 31
0.0
  0
LINE
  5
7B72
330
19
100
AcDbEntity
  8
1
100
AcDbLine
 10
3339.330537805765
 20
2513.145516482221
 30
0.0
 11
3339.330537805766
 21
2183.599298936083
 31
0.0
  0
LINE
  5
7B73
330
19
100
AcDbEntity
  8
1
100
AcDbLine
 10
3343.630537805765
 20
2177.599298936083
 30
0.0
 11
3343.630537805765
 21
2433.599298936084
 31
0.0
  0
LINE
  5
7B74
330
19
100
AcDbEntity
  8
1
100
AcDbLine
 10
3373.630537805766
 20
1968.299298936083
 30
0.0
 11
3373.630537805766
 21
2433.599298936084
 31
0.0
  0
LINE
  5
7B76
330
19
100
AcDbEntity
  8
1
100
AcDbLine
 10
2964.330537805766
 20
2183.599298936083
 30
0.0
 11
2964.330537805766
 21
1948.323396153796
 31
0.0
  0
LINE
  5
7B77
330
19
100
AcDbEntity
  8
1
100
AcDbLine
 10
2860.830537805766
 20
2206.099298936083
 30
0.0
 11
2962.330537805766
 21
2206.099298936083
 31
0.0
1001
ACAD
1000
ASC_BOUNDS
1002
{
1070
    19
1002
}
  0
LINE
  5
7B78
330
19
100
AcDbEntity
  8
1
100
AcDbLine
 10
2735.530537805766
 20
2161.099298936083
 30
0.0
 11
2962.330537805766
 21
2161.099298936083
 31
0.0
1001
ACAD
1000
ASC_BOUNDS
1002
{
1070
    19
1002
}
  0
LINE
  5
7B79
330
19
100
AcDbEntity
  8
1
100
AcDbLine
 10
2864.958955167663
 20
2161.099298936083
 30
0.0
 11
2900.823645586267
 21
2161.099298936083
 31
0.0
1001
ACAD
1000
ASC_BOUNDS
1002
{
1070
    19
1002
}
  0
LINE
  5
7B7A
330
19
100
AcDbEntity
  8
1
100
AcDbLine
 10
2735.530537805765
 20
2206.099298936083
 30
0.0
 11
2900.823645586267
 21
2206.099298936083
 31
0.0
1001
ACAD
1000
ASC_BOUNDS
1002
{
1070
    19
1002
}
  0
LINE
  5
7B7B
330
19
100
AcDbEntity
  8
1
100
AcDbLine
 10
3343.630537805765
 20
1933.599298936083
 30
0.0
 11
3343.630537805765
 21
2177.599298936083
 31
0.0
  0
LINE
  5
7B7C
330
19
100
AcDbEntity
  8
1
100
AcDbLine
 10
3339.330537805766
 20
2183.599298936083
 30
0.0
 11
3339.330537805765
 21
1738.599298936092
 31
0.0
  0
LINE
  5
7B7D
330
19
100
AcDbEntity
  8
1
100
AcDbLine
 10
3381.830537805765
 20
1738.599298936092
 30
0.0
 11
3381.830537805765
 21
1663.599298936092
 31
0.0
  0
LINE
  5
7B7E
330
19
100
AcDbEntity
  8
1
100
AcDbLine
 10
3343.630537805765
 20
1903.599298936083
 30
0.0
 11
3339.330537805765
 21
1903.599298936083
 31
0.0
  0
LINE
  5
7B7F
330
19
100
AcDbEntity
  8
1
100
AcDbLine
 10
3343.630537805765
 20
1903.599298936083
 30
0.0
 11
3343.630537805765
 21
1933.599298936083
 31
0.0
  0
LINE
  5
7B80
330
19
100
AcDbEntity
  8
1
100
AcDbLine
 10
3343.630537805765
 20
2463.599298936083
 30
0.0
 11
3343.630537805765
 21
2433.599298936084
 31
0.0
  0
LINE
  5
7B81
330
19
100
AcDbEntity
  8
1
100
AcDbLine
 10
3343.630537805765
 20
2433.599298936084
 30
0.0
 11
3373.630537805766
 21
2433.599298936084
 31
0.0
  0
LINE
  5
7B82
330
19
100
AcDbEntity
  8
1
100
AcDbLine
 10
3343.630537805765
 20
2463.599298936083
 30
0.0
 11
3339.330537805765
 21
2463.599298936083
 31
0.0
  0
POINT
  5
7B83
330
19
100
AcDbEntity
  8
1
100
AcDbPoint
 10
3343.630537805765
 20
2458.599298936084
 30
0.0
  0
LINE
  5
7B84
330
19
100
AcDbEntity
  8
1
100
AcDbLine
 10
3013.180595120522
 20
1821.151308128229
 30
0.0
 11
3339.330537805764
 21
1821.15130812823
 31
0.0
  0
LINE
  5
7B85
330
19
100
AcDbEntity
  8
1
100
AcDbLine
 10
1805.160685861443
 20
1749.099298936086
 30
0.0
 11
1805.160685861441
 21
1926.659770243487
 31
0.0
  0
LINE
  5
7B86
330
19
100
AcDbEntity
  8
1
100
AcDbLine
 10
1214.797578976919
 20
2309.930336213281
 30
0.0
 11
1833.986504962719
 21
1900.184709955715
 31
0.0
  0
LINE
  5
7B87
330
19
100
AcDbEntity
  8
1
100
AcDbLine
 10
1155.160685861439
 20
2447.18211009213
 30
0.0
 11
1905.160685861443
 21
1931.428706083865
 31
0.0
  0
LINE
  5
7B88
330
19
100
AcDbEntity
  8
1
100
AcDbLine
 10
1126.459571535815
 20
2046.879380721992
 30
0.0
 11
1781.646538331761
 21
1799.510841808308
 31
0.0
  0
LINE
  5
7B89
330
19
100
AcDbEntity
  8
1
100
AcDbLine
 10
2931.830537805766
 20
2510.845516482221
 30
0.0
 11
3371.830537805767
 21
2510.845516482221
 31
0.0
1001
ACAD
1000
ASC_BOUNDS
1002
{
1070
    19
1002
}
  0
LINE
  5
7B8A
330
19
100
AcDbEntity
  8
1
100
AcDbLine
 10
2931.830537805766
 20
2542.845516482221
 30
0.0
 11
3371.830537805766
 21
2542.845516482221
 31
0.0
1001
ACAD
1000
ASC_BOUNDS
1002
{
1070
    19
1002
}
  0
LINE
  5
7B8B
330
19
100
AcDbEntity
  8
1
100
AcDbLine
 10
2931.830537805766
 20
2542.845516482221
 30
0.0
 11
2931.830537805766
 21
2510.845516482221
 31
0.0
  0
LINE
  5
7B8C
330
19
100
AcDbEntity
  8
1
100
AcDbLine
 10
3371.830537805766
 20
2542.845516482221
 30
0.0
 11
3371.830537805766
 21
2510.84551648222
 31
0.0
  0
LINE
  5
7B8D
330
19
100
AcDbEntity
  8
2
100
AcDbLine
 10
3151.830537805766
 20
2627.096673032211
 30
0.0
 11
3151.830537805765
 21
1663.599298936092
 31
0.0
  0
LINE
  5
7B92
330
19
100
AcDbEntity
  8
1
100
AcDbLine
 10
1387.160685861442
 20
2132.099298936083
 30
0.0
 11
1387.160685861445
 21
1728.599298936083
 31
0.0
  0
LINE
  5
7B93
330
19
100
AcDbEntity
  8
1
100
AcDbLine
 10
923.1606858614423
 20
2132.099298936079
 30
0.0
 11
923.1606858614449
 21
1728.599298936079
 31
0.0
  0
LINE
  5
7B94
330
19
100
AcDbEntity
  8
1
100
AcDbLine
 10
835.1606858614422
 20
2132.099298936078
 30
0.0
 11
1475.160685861442
 21
2132.099298936084
 31
0.0
  0
LINE
  5
7B95
330
19
100
AcDbEntity
  8
1
100
AcDbLine
 10
1475.160685861441
 20
2167.099298936083
 30
0.0
 11
1475.160685861442
 21
2132.099298936084
 31
0.0
  0
LINE
  5
7B96
330
19
100
AcDbEntity
  8
1
100
AcDbLine
 10
835.1606858614413
 20
2167.099298936078
 30
0.0
 11
835.1606858614422
 21
2132.099298936078
 31
0.0
  0
LINE
  5
7B97
330
19
100
AcDbEntity
  8
1
100
AcDbLine
 10
835.1606858614422
 20
2167.099298936078
 30
0.0
 11
1475.160685861441
 21
2167.099298936083
 31
0.0
  0
LINE
  5
7B98
330
19
100
AcDbEntity
  8
1
100
AcDbLine
 10
963.1606858614423
 20
2132.09929893608
 30
0.0
 11
963.160685861445
 21
1728.59929893608
 31
0.0
  0
LINE
  5
7B99
330
19
100
AcDbEntity
  8
1
100
AcDbLine
 10
1347.160685861442
 20
2132.099298936083
 30
0.0
 11
1347.160685861445
 21
1728.599298936083
 31
0.0
  0
LINE
  5
7B9A
330
19
100
AcDbEntity
  8
1
100
AcDbLine
 10
915.1606858614405
 20
2308.125332163859
 30
0.0
 11
915.1606858614449
 21
1728.599298936079
 31
0.0
  0
LINE
  5
7B9B
330
19
100
AcDbEntity
  8
1
100
AcDbLine
 10
1155.160685861439
 20
2447.18211009213
 30
0.0
 11
915.1606858614405
 21
2308.125332163859
 31
0.0
  0
LINE
  5
7B9C
330
19
100
AcDbEntity
  8
1
100
AcDbLine
 10
3381.330537805766
 20
1960.599298936083
 30
0.0
 11
3381.330537805764
 21
1738.599298936092
 31
0.0
  0
LINE
  5
7B9D
330
19
100
AcDbEntity
  8
1
100
AcDbLine
 10
3339.330537805765
 20
1968.599298936083
 30
0.0
 11
3373.330537805766
 21
1968.599298936083
 31
0.0
  0
LINE
  5
7B9E
330
19
100
AcDbEntity
  8
1
100
AcDbLine
 10
3373.330537805766
 20
1968.599298936083
 30
0.0
 11
3381.330537805766
 21
1960.599298936083
 31
0.0
  0
LINE
  5
7B9F
330
19
100
AcDbEntity
  8
1
100
AcDbLine
 10
2756.830537805765
 20
1738.599298936091
 30
0.0
 11
2756.830537805764
 21
1663.599298936091
 31
0.0
  0
ARC
  5
7BA4
330
19
100
AcDbEntity
  8
1
100
AcDbCircle
 10
1805.160685861442
 20
1851.599298936086
 30
0.0
 40
100.8
100
AcDbArc
 50
300.3933
 51
0.0
  0
ARC
  5
7BA5
330
19
100
AcDbEntity
  8
1
100
AcDbCircle
 10
1805.160685861442
 20
1851.599298936086
 30
0.0
 40
100.8
100
AcDbArc
 50
0.0
 51
239.6993
  0
LINE
  5
7BA6
330
19
100
AcDbEntity
  8
1
100
AcDbLine
 10
1870.160685861442
 20
1771.599298936086
 30
0.0
 11
1870.160685861442
 21
1761.599298936086
 31
0.0
  0
LINE
  5
7BA7
330
19
100
AcDbEntity
  8
1
100
AcDbLine
 10
1880.160685861442
 20
1771.599298936086
 30
0.0
 11
1880.160685861442
 21
1761.599298936086
 31
0.0
  0
LINE
  5
7BA8
330
19
100
AcDbEntity
  8
1
100
AcDbLine
 10
1875.160685861442
 20
1757.232798936086
 30
0.0
 11
1875.160685861442
 21
1774.136198936087
 31
0.0
  0
LINE
  5
7BA9
330
19
100
AcDbEntity
  8
1
100
AcDbLine
 10
1893.160685861442
 20
1761.599298936086
 30
0.0
 11
1893.160685861442
 21
1769.599298936087
 31
0.0
  0
LINE
  5
7BAA
330
19
100
AcDbEntity
  8
1
100
AcDbLine
 10
1740.160685861442
 20
1771.599298936086
 30
0.0
 11
1740.160685861442
 21
1761.599298936086
 31
0.0
  0
LINE
  5
7BAB
330
19
100
AcDbEntity
  8
1
100
AcDbLine
 10
1730.160685861442
 20
1771.599298936086
 30
0.0
 11
1730.160685861442
 21
1761.599298936086
 31
0.0
  0
LINE
  5
7BAC
330
19
100
AcDbEntity
  8
1
100
AcDbLine
 10
1735.160685861442
 20
1757.232798936086
 30
0.0
 11
1735.160685861442
 21
1774.136198936087
 31
0.0
  0
LINE
  5
7BAD
330
19
100
AcDbEntity
  8
2
100
AcDbLine
 10
1805.160685861442
 20
1755.615198936087
 30
0.0
 11
1805.160685861442
 21
1960.060398936087
 31
0.0
  0
LINE
  5
7BAE
330
19
100
AcDbEntity
  8
1
100
AcDbLine
 10
1717.160685861442
 20
1761.599298936086
 30
0.0
 11
1717.160685861442
 21
1769.599298936087
 31
0.0
  0
ARC
  5
7BAF
330
19
100
AcDbEntity
  8
1
100
AcDbCircle
 10
1805.160685861442
 20
1851.599298936086
 30
0.0
 40
100.8
100
AcDbArc
 50
300.3933
 51
0.0
  0
LINE
  5
7BB0
330
19
100
AcDbEntity
  8
1
100
AcDbLine
 10
1760.330185861442
 20
1765.599298936086
 30
0.0
 11
1850.284585861442
 21
1765.599298936086
 31
0.0
  0
LINE
  5
7BB1
330
19
100
AcDbEntity
  8
1
100
AcDbLine
 10
1754.236585861442
 20
1764.599298936087
 30
0.0
 11
1856.191685861442
 21
1764.599298936087
 31
0.0
  0
LINE
  5
7BB2
330
19
100
AcDbEntity
  8
1
100
AcDbLine
 10
1754.236585861442
 20
1764.599298936087
 30
0.0
 11
1856.191685861442
 21
1764.599298936087
 31
0.0
  0
LINE
  5
7BB3
330
19
100
AcDbEntity
  8
1
100
AcDbLine
 10
1717.160685861442
 20
1761.599298936086
 30
0.0
 11
1757.160685861442
 21
1761.599298936086
 31
0.0
  0
LINE
  5
7BB4
330
19
100
AcDbEntity
  8
1
100
AcDbLine
 10
1757.160685861442
 20
1764.572098936087
 30
0.0
 11
1757.160685861442
 21
1761.599298936086
 31
0.0
  0
LINE
  5
7BB5
330
19
100
AcDbEntity
  8
1
100
AcDbLine
 10
1893.160685861442
 20
1761.599298936086
 30
0.0
 11
1853.160685861442
 21
1761.599298936086
 31
0.0
  0
LINE
  5
7BB6
330
19
100
AcDbEntity
  8
1
100
AcDbLine
 10
1853.160685861442
 20
1764.530298936087
 30
0.0
 11
1853.160685861442
 21
1761.599298936086
 31
0.0
  0
LINE
  5
7BB7
330
19
100
AcDbEntity
  8
2
100
AcDbLine
 10
1700.695485861443
 20
1851.599298936086
 30
0.0
 11
1911.263485861442
 21
1851.599298936086
 31
0.0
  0
LINE
  5
7BB8
330
19
100
AcDbEntity
  8
1
100
AcDbLine
 10
1743.836685861442
 20
1771.599298936086
 30
0.0
 11
1719.160685861442
 21
1771.599298936086
 31
0.0
  0
LINE
  5
7BB9
330
19
100
AcDbEntity
  8
1
100
AcDbLine
 10
1723.014185861442
 20
1793.181998936086
 30
0.0
 11
1717.160685861442
 21
1769.599298936087
 31
0.0
  0
ARC
  5
7BBA
330
19
100
AcDbEntity
  8
1
100
AcDbCircle
 10
1719.160685861442
 20
1769.599298936087
 30
0.0
 40
2.0
100
AcDbArc
 50
90.0
 51
180.0
  0
LINE
  5
7BBB
330
19
100
AcDbEntity
  8
1
100
AcDbLine
 10
1866.449585861442
 20
1771.599298936086
 30
0.0
 11
1891.160685861442
 21
1771.599298936086
 31
0.0
  0
LINE
  5
7BBC
330
19
100
AcDbEntity
  8
1
100
AcDbLine
 10
1887.307285861442
 20
1793.181998936086
 30
0.0
 11
1893.160685861442
 21
1769.599298936087
 31
0.0
  0
ARC
  5
7BBD
330
19
100
AcDbEntity
  8
1
100
AcDbCircle
 10
1891.160685861442
 20
1769.599298936087
 30
0.0
 40
2.0
100
AcDbArc
 50
0.0
 51
90.0
  0
LINE
  5
7BBE
330
19
100
AcDbEntity
  8
1
100
AcDbLine
 10
1928.876580386256
 20
1728.599298936088
 30
0.0
 11
1917.660685861443
 21
1763.599298936088
 31
0.0
  0
LINE
  5
7BBF
330
19
100
AcDbEntity
  8
1
100
AcDbLine
 10
1833.56343777793
 20
1763.599298936087
 30
0.0
 11
1833.56343777793
 21
1757.302627301176
 31
0.0
  0
LINE
  5
7BC0
330
19
100
AcDbEntity
  8
1
100
AcDbLine
 10
1776.757933944957
 20
1757.302627301176
 30
0.0
 11
1776.757933944957
 21
1763.599298936086
 31
0.0
  0
LINE
  5
7BC1
330
19
100
AcDbEntity
  8
1
100
AcDbLine
 10
1692.660685861443
 20
1763.599298936085
 30
0.0
 11
1681.444791336631
 21
1728.599298936085
 31
0.0
  0
LINE
  5
7BC2
330
19
100
AcDbEntity
  8
1
100
AcDbLine
 10
1681.444791336631
 20
1728.599298936085
 30
0.0
 11
1776.757933944957
 21
1728.599298936086
 31
0.0
  0
LINE
  5
7BC3
330
19
100
AcDbEntity
  8
1
100
AcDbLine
 10
1833.56343777793
 20
1728.599298936087
 30
0.0
 11
1928.876580386256
 21
1728.599298936088
 31
0.0
  0
LINE
  5
7BC4
330
19
100
AcDbEntity
  8
1
100
AcDbLine
 10
1776.757933944957
 20
1735.739933712421
 30
0.0
 11
1833.56343777793
 21
1735.739933712421
 31
0.0
  0
LINE
  5
7BC5
330
19
100
AcDbEntity
  8
1
100
AcDbLine
 10
1833.56343777793
 20
1757.302627301176
 30
0.0
 11
1776.757933944957
 21
1757.302627301176
 31
0.0
  0
LINE
  5
7BC6
330
19
100
AcDbEntity
  8
1
100
AcDbLine
 10
1776.757933944957
 20
1728.599298936086
 30
0.0
 11
1776.757933944957
 21
1735.739933712421
 31
0.0
  0
LINE
  5
7BC7
330
19
100
AcDbEntity
  8
1
100
AcDbLine
 10
1833.56343777793
 20
1735.739933712421
 30
0.0
 11
1833.56343777793
 21
1728.599298936087
 31
0.0
  0
LINE
  5
7BC8
330
19
100
AcDbEntity
  8
1
100
AcDbLine
 10
1776.757933944957
 20
1763.599298936086
 30
0.0
 11
1692.660685861443
 21
1763.599298936085
 31
0.0
  0
LINE
  5
7BC9
330
19
100
AcDbEntity
  8
1
100
AcDbLine
 10
1917.660685861443
 20
1763.599298936088
 30
0.0
 11
1833.56343777793
 21
1763.599298936087
 31
0.0
  0
LINE
  5
7BCA
330
19
100
AcDbEntity
  8
1
100
AcDbLine
 10
1905.160685861443
 20
1931.428706083865
 30
0.0
 11
1905.160685861446
 21
1728.599298936087
 31
0.0
  0
LINE
  5
7BCB
330
19
100
AcDbEntity
  8
2
100
AcDbLine
 10
2539.200177614516
 20
1851.59929893609
 30
0.0
 11
3095.19897708003
 21
1851.59929893609
 31
0.0
  0
LINE
  5
7BCC
330
19
100
AcDbEntity
  8
1
100
AcDbLine
 10
2854.680595120522
 20
1951.599398936092
 30
0.0
 11
2793.840895120522
 21
1951.599398936092
 31
0.0
  0
LINE
  5
7BCD
330
19
100
AcDbEntity
  8
1
100
AcDbLine
 10
2781.680595120523
 20
1771.599298936091
 30
0.0
 11
2832.180595120524
 21
1771.599298936092
 31
0.0
  0
LINE
  5
7BCE
330
19
100
AcDbEntity
  8
1
100
AcDbLine
 10
2774.680595120524
 20
1761.599298936091
 30
0.0
 11
2854.680595120523
 21
1761.599298936092
 31
0.0
  0
LINE
  5
7BD0
330
19
100
AcDbEntity
  8
1
100
AcDbLine
 10
2782.180595120524
 20
1771.599298936091
 30
0.0
 11
2782.180595120522
 21
1936.599298936091
 31
0.0
  0
LINE
  5
7BD1
330
19
100
AcDbEntity
  8
1
100
AcDbLine
 10
2741.180595120523
 20
1888.099298936091
 30
0.0
 11
2741.180595120523
 21
1815.099298936091
 31
0.0
  0
LINE
  5
7BD2
330
19
100
AcDbEntity
  8
1
100
AcDbLine
 10
2751.180595120523
 20
1769.599398936091
 30
0.0
 11
2751.180595120521
 21
1933.599298936091
 31
0.0
  0
LINE
  5
7BD3
330
19
100
AcDbEntity
  8
1
100
AcDbLine
 10
2736.180595120523
 20
1863.59929893609
 30
0.0
 11
2686.180595120522
 21
1863.59929893609
 31
0.0
  0
LINE
  5
7BD4
330
19
100
AcDbEntity
  8
1
100
AcDbLine
 10
2736.180595120523
 20
1839.59929893609
 30
0.0
 11
2686.180595120522
 21
1839.59929893609
 31
0.0
  0
LINE
  5
7BD5
330
19
100
AcDbEntity
  8
1
100
AcDbLine
 10
2726.180595120523
 20
1866.599298936091
 30
0.0
 11
2686.180595120522
 21
1866.59929893609
 31
0.0
  0
LINE
  5
7BD6
330
19
100
AcDbEntity
  8
1
100
AcDbLine
 10
2686.180595120522
 20
1839.59929893609
 30
0.0
 11
2686.180595120522
 21
1866.59929893609
 31
0.0
  0
LINE
  5
7BD7
330
19
100
AcDbEntity
  8
1
100
AcDbLine
 10
2726.180595120523
 20
1863.59929893609
 30
0.0
 11
2726.180595120523
 21
1866.599298936091
 31
0.0
  0
LINE
  5
7BD8
330
19
100
AcDbEntity
  8
1
100
AcDbLine
 10
2779.680595120523
 20
1767.599298936091
 30
0.0
 11
2753.180595120523
 21
1767.599298936091
 31
0.0
  0
ARC
  5
7BD9
330
19
100
AcDbEntity
  8
1
100
AcDbCircle
 10
2753.180795120524
 20
1769.599398936091
 30
0.0
 40
2.0001
100
AcDbArc
 50
180.0035000000004
 51
269.9965000000005
  0
ARC
  5
7BDA
330
19
100
AcDbEntity
  8
1
100
AcDbCircle
 10
2781.680595120523
 20
1769.599298936091
 30
0.0
 40
2.0
100
AcDbArc
 50
90.00000000000049
 51
180.0000000000005
  0
LINE
  5
7BDB
330
19
100
AcDbEntity
  8
1
100
AcDbLine
 10
2779.680595120523
 20
1761.599298936091
 30
0.0
 11
2779.680595120523
 21
1769.599298936091
 31
0.0
  0
LINE
  5
7BDC
330
19
100
AcDbEntity
  8
1
100
AcDbLine
 10
2792.180595120524
 20
1755.615298936091
 30
0.0
 11
2792.180595120524
 21
1773.768098936091
 31
0.0
  0
LINE
  5
7BDD
330
19
100
AcDbEntity
  8
1
100
AcDbLine
 10
2787.180595120523
 20
1771.599298936091
 30
0.0
 11
2787.180595120523
 21
1761.599298936091
 31
0.0
  0
LINE
  5
7BDE
330
19
100
AcDbEntity
  8
1
100
AcDbLine
 10
2741.180595120523
 20
1864.099298936091
 30
0.0
 11
2736.180595120523
 21
1864.099298936091
 31
0.0
  0
LINE
  5
7BDF
330
19
100
AcDbEntity
  8
1
100
AcDbLine
 10
2741.180595120523
 20
1839.099298936091
 30
0.0
 11
2736.180595120523
 21
1839.099298936091
 31
0.0
  0
ARC
  5
7BE0
330
19
100
AcDbEntity
  8
1
100
AcDbCircle
 10
2742.180595120523
 20
1815.099398936091
 30
0.0
 40
1.000099999999999
100
AcDbArc
 50
180.0035000000004
 51
270.0000000000005
  0
ARC
  5
7BE1
330
19
100
AcDbEntity
  8
1
100
AcDbCircle
 10
2750.180595120523
 20
1813.099298936091
 30
0.0
 40
1.000099999999999
100
AcDbArc
 50
0.0035000000004913
 51
90.00000000000049
  0
LINE
  5
7BE2
330
19
100
AcDbEntity
  8
1
100
AcDbLine
 10
2742.180595120523
 20
1814.099298936091
 30
0.0
 11
2750.180595120523
 21
1814.099298936091
 31
0.0
  0
LINE
  5
7BE3
330
19
100
AcDbEntity
  8
1
100
AcDbLine
 10
2736.180595120523
 20
1839.099298936091
 30
0.0
 11
2736.180595120523
 21
1864.099298936091
 31
0.0
  0
LINE
  5
7BE4
330
19
100
AcDbEntity
  8
1
100
AcDbLine
 10
2777.180595120522
 20
1935.599298936091
 30
0.0
 11
2753.180595120522
 21
1935.599298936091
 31
0.0
  0
ARC
  5
7BE5
330
19
100
AcDbEntity
  8
1
100
AcDbCircle
 10
2753.180795120522
 20
1933.599198936091
 30
0.0
 40
2.0001
100
AcDbArc
 50
90.0035000000005
 51
179.9965000000005
  0
ARC
  5
7BE6
330
19
100
AcDbEntity
  8
1
100
AcDbCircle
 10
2742.180695120523
 20
1888.099298936091
 30
0.0
 40
1.000099999999999
100
AcDbArc
 50
90.0035000000005
 51
180.0000000000005
  0
ARC
  5
7BE7
330
19
100
AcDbEntity
  8
1
100
AcDbCircle
 10
2750.180595120522
 20
1890.099298936091
 30
0.0
 40
1.000099999999999
100
AcDbArc
 50
270.0035000000004
 51
0.0000000000004941
  0
LINE
  5
7BE8
330
19
100
AcDbEntity
  8
1
100
AcDbLine
 10
2742.180595120523
 20
1889.099298936091
 30
0.0
 11
2750.180595120522
 21
1889.099298936091
 31
0.0
  0
LINE
  5
7BE9
330
19
100
AcDbEntity
  8
1
100
AcDbLine
 10
2782.180595120522
 20
1936.599298936091
 30
0.0
 11
2777.180595120522
 21
1936.599298936091
 31
0.0
  0
LINE
  5
7BEA
330
19
100
AcDbEntity
  8
1
100
AcDbLine
 10
2793.840895120522
 20
1951.599398936092
 30
0.0
 11
2785.180595120522
 21
1936.599298936091
 31
0.0
  0
LINE
  5
7BEB
330
19
100
AcDbEntity
  8
1
100
AcDbLine
 10
2785.180595120522
 20
1936.599298936091
 30
0.0
 11
2782.180595120522
 21
1936.599298936091
 31
0.0
  0
LINE
  5
7BEC
330
19
100
AcDbEntity
  8
1
100
AcDbLine
 10
2927.680595120524
 20
1771.599298936092
 30
0.0
 11
2877.180595120524
 21
1771.599298936092
 31
0.0
  0
LINE
  5
7BED
330
19
100
AcDbEntity
  8
1
100
AcDbLine
 10
2934.680595120524
 20
1761.599298936092
 30
0.0
 11
2774.680595120524
 21
1761.599298936091
 31
0.0
  0
LINE
  5
7BEE
330
19
100
AcDbEntity
  8
1
100
AcDbLine
 10
2854.680595120522
 20
1951.599398936092
 30
0.0
 11
2915.520395120522
 21
1951.599398936093
 31
0.0
  0
LINE
  5
7BF0
330
19
100
AcDbEntity
  8
1
100
AcDbLine
 10
2797.180595120523
 20
1771.599298936092
 30
0.0
 11
2797.180595120523
 21
1761.599298936091
 31
0.0
  0
LINE
  5
7BF1
330
19
100
AcDbEntity
  8
1
100
AcDbLine
 10
2848.321095120523
 20
1779.392498936092
 30
0.0
 11
2849.164895120523
 21
1788.342998936092
 31
0.0
  0
ARC
  5
7BF2
330
19
100
AcDbEntity
  8
1
100
AcDbCircle
 10
2840.356395120523
 20
1780.143398936091
 30
0.0
 40
8.0
100
AcDbArc
 50
273.6915000000005
 51
354.6140000000006
  0
ARC
  5
7BF3
330
19
100
AcDbEntity
  8
1
100
AcDbCircle
 10
2844.186995120523
 20
1788.812398936092
 30
0.0
 40
5.0
100
AcDbArc
 50
354.6136000000005
 51
90.00000000000049
  0
LINE
  5
7BF4
330
19
100
AcDbEntity
  8
1
100
AcDbLine
 10
2832.180595120524
 20
1771.599298936092
 30
0.0
 11
2840.871495120523
 21
1772.159998936092
 31
0.0
  0
LINE
  5
7BF5
330
19
100
AcDbEntity
  8
1
100
AcDbLine
 10
2861.040195120523
 20
1779.392498936092
 30
0.0
 11
2860.196295120524
 21
1788.342998936092
 31
0.0
  0
LINE
  5
7BF6
330
19
100
AcDbEntity
  8
1
100
AcDbLine
 10
2877.180595120524
 20
1771.599298936092
 30
0.0
 11
2868.489795120523
 21
1772.159998936092
 31
0.0
  0
ARC
  5
7BF7
330
19
100
AcDbEntity
  8
1
100
AcDbCircle
 10
2869.004795120524
 20
1780.143398936092
 30
0.0
 40
8.0
100
AcDbArc
 50
185.3860000000005
 51
266.3085000000005
  0
ARC
  5
7BF8
330
19
100
AcDbEntity
  8
1
100
AcDbCircle
 10
2865.174195120523
 20
1788.812398936092
 30
0.0
 40
5.0
100
AcDbArc
 50
90.00000000000049
 51
185.3864000000004
  0
LINE
  5
7BF9
330
19
100
AcDbEntity
  8
1
100
AcDbLine
 10
2923.180595120522
 20
1952.399398936092
 30
0.0
 11
2923.180595120523
 21
1804.599298936092
 31
0.0
  0
LINE
  5
7BFA
330
19
100
AcDbEntity
  8
1
100
AcDbLine
 10
3013.180595120524
 20
1767.579498936093
 30
0.0
 11
3013.180595120522
 21
1935.810898936093
 31
0.0
  0
LINE
  5
7BFB
330
19
100
AcDbEntity
  8
1
100
AcDbLine
 10
2963.180595120523
 20
1764.599298936093
 30
0.0
 11
2963.180595120522
 21
1951.399398936093
 31
0.0
  0
LINE
  5
7BFC
330
19
100
AcDbEntity
  8
1
100
AcDbLine
 10
2963.180595120523
 20
1765.599298936093
 30
0.0
 11
3012.200595120523
 21
1766.579698936093
 31
0.0
  0
LINE
  5
7BFD
330
19
100
AcDbEntity
  8
1
100
AcDbLine
 10
2927.180595120523
 20
1801.710398936092
 30
0.0
 11
2927.180595120523
 21
1771.599298936092
 31
0.0
  0
LINE
  5
7BFE
330
19
100
AcDbEntity
  8
1
100
AcDbLine
 10
2923.180595120523
 20
1804.599298936092
 30
0.0
 11
2939.108095120523
 21
1793.096098936092
 31
0.0
  0
ARC
  5
7BFF
330
19
100
AcDbEntity
  8
1
100
AcDbCircle
 10
2936.180495120524
 20
1789.042698936092
 30
0.0
 40
5.000099999999999
100
AcDbArc
 50
0.0000000000004941
 51
54.16090000000048
  0
LINE
  5
7C00
330
19
100
AcDbEntity
  8
1
100
AcDbLine
 10
2932.180595120524
 20
1767.599298936092
 30
0.0
 11
2941.180595120524
 21
1768.884098936092
 31
0.0
  0
ARC
  5
7C01
330
19
100
AcDbEntity
  8
1
100
AcDbCircle
 10
2927.680595120524
 20
1769.599298936092
 30
0.0
 40
2.0
100
AcDbArc
 50
0.0000000000004941
 51
90.00000000000049
  0
LINE
  5
7C02
330
19
100
AcDbEntity
  8
1
100
AcDbLine
 10
2929.680595120523
 20
1767.599298936092
 30
0.0
 11
2932.180595120524
 21
1767.599298936092
 31
0.0
  0
LINE
  5
7C03
330
19
100
AcDbEntity
  8
1
100
AcDbLine
 10
2929.680595120523
 20
1761.599298936092
 30
0.0
 11
2929.680595120523
 21
1769.599298936092
 31
0.0
  0
LINE
  5
7C04
330
19
100
AcDbEntity
  8
1
100
AcDbLine
 10
2917.180595120523
 20
1755.615298936092
 30
0.0
 11
2917.180595120523
 21
1773.768098936092
 31
0.0
  0
LINE
  5
7C05
330
19
100
AcDbEntity
  8
1
100
AcDbLine
 10
2922.180595120524
 20
1771.599298936092
 30
0.0
 11
2922.180595120524
 21
1761.599298936092
 31
0.0
  0
LINE
  5
7C06
330
19
100
AcDbEntity
  8
1
100
AcDbLine
 10
2912.180595120523
 20
1771.599298936092
 30
0.0
 11
2912.180595120523
 21
1761.599298936092
 31
0.0
  0
LINE
  5
7C07
330
19
100
AcDbEntity
  8
1
100
AcDbLine
 10
2932.180595120523
 20
1798.134198936093
 30
0.0
 11
2932.180595120524
 21
1767.599298936092
 31
0.0
  0
LINE
  5
7C08
330
19
100
AcDbEntity
  8
1
100
AcDbLine
 10
2941.180595120524
 20
1764.599298936093
 30
0.0
 11
2963.180595120523
 21
1764.599298936093
 31
0.0
  0
LINE
  5
7C09
330
19
100
AcDbEntity
  8
1
100
AcDbLine
 10
2941.180595120524
 20
1764.599298936093
 30
0.0
 11
2941.180595120524
 21
1789.042698936092
 31
0.0
  0
ARC
  5
7C0A
330
19
100
AcDbEntity
  8
1
100
AcDbCircle
 10
3012.180595120523
 20
1767.579598936093
 30
0.0
 40
1.000099999999999
100
AcDbArc
 50
271.1505000000006
 51
359.9965000000005
  0
LINE
  5
7C0B
330
19
100
AcDbEntity
  8
1
100
AcDbLine
 10
3012.413995120522
 20
1936.783298936093
 30
0.0
 11
2963.947195120521
 21
1948.415398936093
 31
0.0
  0
LINE
  5
7C0C
330
19
100
AcDbEntity
  8
1
100
AcDbLine
 10
2923.180595120522
 20
1952.399398936092
 30
0.0
 11
2962.180595120522
 21
1952.399398936093
 31
0.0
  0
LINE
  5
7C0D
330
19
100
AcDbEntity
  8
1
100
AcDbLine
 10
2923.249695120522
 20
1938.211798936093
 30
0.0
 11
2915.520395120522
 21
1951.599398936093
 31
0.0
  0
ARC
  5
7C0E
330
19
100
AcDbEntity
  8
1
100
AcDbCircle
 10
2964.180695120522
 20
1949.387398936092
 30
0.0
 40
1.0
100
AcDbArc
 50
180.0000000000005
 51
256.4998000000004
  0
ARC
  5
7C0F
330
19
100
AcDbEntity
  8
1
100
AcDbCircle
 10
2962.180595120522
 20
1951.399398936093
 30
0.0
 40
1.000099999999999
100
AcDbArc
 50
0.0035000000004913
 51
90.00000000000049
  0
ARC
  5
7C10
330
19
100
AcDbEntity
  8
1
100
AcDbCircle
 10
3012.180595120522
 20
1935.810898936093
 30
0.0
 40
1.0
100
AcDbArc
 50
0.0000000000004941
 51
76.49980000000049
  0
LINE
  5
7C11
330
19
100
AcDbEntity
  8
1
100
AcDbLine
 10
2774.680595120524
 20
1761.599298936091
 30
0.0
 11
2774.680595120524
 21
1738.599298936091
 31
0.0
  0
LINE
  5
7C12
330
19
100
AcDbEntity
  8
1
100
AcDbLine
 10
2934.680595120524
 20
1761.599298936092
 30
0.0
 11
2934.680595120524
 21
1738.599298936091
 31
0.0
  0
LINE
  5
7C13
330
19
100
AcDbEntity
  8
2
100
AcDbLine
 10
746.1104215222512
 20
3763.713410176741
 30
0.0
 11
1620.325601441394
 21
3763.71341017674
 31
0.0
  0
LINE
  5
7C1C
330
19
100
AcDbEntity
  8
2
100
AcDbLine
 10
1155.160685861433
 20
3237.930374257149
 30
0.0
 11
1155.160685861433
 21
4007.589670016855
 31
0.0
1001
ACAD
1000
ASC_BOUNDS
1002
{
1070
    19
1002
}
  0
LINE
  5
7C55
330
19
100
AcDbEntity
  8
4
100
AcDbLine
 10
3700.0
 20
1000.0
 30
0.0
 11
3700.0
 21
600.0
 31
0.0
  0
LINE
  5
7C56
330
19
100
AcDbEntity
  8
4
100
AcDbLine
 10
2300.0
 20
1000.0
 30
0.0
 11
2300.0
 21
600.0
 31
0.0
  0
LINE
  5
7C57
330
19
100
AcDbEntity
  8
4
100
AcDbLine
 10
1300.0
 20
1000.0
 30
0.0
 11
1300.0
 21
600.0
 31
0.0
  0
LINE
  5
7C5A
330
19
100
AcDbEntity
  8
4
100
AcDbLine
 10
1300.0
 20
600.0
 30
0.0
 11
3700.0
 21
600.0
 31
0.0
  0
LINE
  5
7C5B
330
19
100
AcDbEntity
  8
4
100
AcDbLine
 10
1300.0
 20
800.0
 30
0.0
 11
3700.0
 21
800.0
 31
0.0
  0
TEXT
  5
7C5C
330
19
100
AcDbEntity
  8
4
100
AcDbText
 10
1377.004161693803
 20
863.0860517332257
 30
0.0
 40
100.0
  1
機器名称
100
AcDbText
  0
TEXT
  5
7C5D
330
19
100
AcDbEntity
  8
4
100
AcDbText
 10
1372.516212049595
 20
643.2903134640219
 30
0.0
 40
100.0
  1
機器型番
100
AcDbText
  0
TEXT
  5
7C5E
330
19
100
AcDbEntity
  8
4
100
AcDbText
 10
2355.35749097533
 20
845.1435379151371
 30
0.0
 40
100.0
  1
ミツヤ厨房用ファン
100
AcDbText
  0
TEXT
  5
7C5F
330
19
100
AcDbEntity
  8
4
100
AcDbText
 10
2373.308991170961
 20
634.3191685598867
 30
0.0
 40
100.0
  1
MFK#3-1
100
AcDbText
  0
TEXT
  5
7C61
330
19
100
AcDbEntity
  8
4
100
AcDbText
 10
1632.99454860769
 20
4766.857682665031
 30
0.0
 40
108.0
  1
床置ベット
100
AcDbText
  0
TEXT
  5
7C62
330
19
100
AcDbEntity
  8
4
100
AcDbText
 10
632.3351866588928
 20
5067.761952398596
 30
0.0
 40
144.0
  1
ベルト駆動式片吸込片持多翼ファン
100
AcDbText
  0
LINE
  5
7C63
330
19
100
AcDbEntity
  8
4
100
AcDbLine
 10
500.0
 20
4938.817508529609
 30
0.0
 11
3700.0
 21
4938.817508529609
 31
0.0
  0
LINE
  5
7C64
330
19
100
AcDbEntity
  8
4
100
AcDbLine
 10
500.0
 20
5338.81750852961
 30
0.0
 11
3700.0
 21
5338.81750852961
 31
0.0
  0
LINE
  5
7C65
330
19
100
AcDbEntity
  8
4
100
AcDbLine
 10
1300.0
 20
1000.0
 30
0.0
 11
3700.0
 21
1000.0
 31
0.0
  0
LINE
  5
7C66
330
19
100
AcDbEntity
  8
4
100
AcDbLine
 10
500.0
 20
5338.81750852961
 30
0.0
 11
500.0
 21
4938.817508529609
 31
0.0
  0
TEXT
  5
7C67
330
19
100
AcDbEntity
  8
4
100
AcDbText
 10
761.276884122286
 20
4764.638955092687
 30
0.0
 40
108.0
  1
左回転上向
100
AcDbText
  0
TEXT
  5
7C68
330
19
100
AcDbEntity
  8
4
100
AcDbText
 10
2937.93911849858
 20
5412.122162990618
 30
0.0
 40
112.0
  1
No.
100
AcDbText
  0
TEXT
  5
7C69
330
19
100
AcDbEntity
  8
4
100
AcDbText
 10
2622.592125200026
 20
4766.857682665031
 30
0.0
 40
108.0
  1
縮尺：1/20
100
AcDbText
  0
LINE
  5
7C6A
330
19
100
AcDbEntity
  8
4
100
AcDbLine
 10
3700.0
 20
5338.81750852961
 30
0.0
 11
3700.0
 21
4938.817508529609
 31
0.0
  0
LINE
  5
7C6B
330
19
100
AcDbEntity
  8
4
100
AcDbLine
 10
4200.0
 20
5900.0
 30
0.0
 11
4200.0
 21
5900.0
 31
0.0
  0
LINE
  5
7C6C
330
19
100
AcDbEntity
  8
4
100
AcDbLine
 10
2881.234844719729
 20
5362.527166250802
 30
0.0
 11
2881.234844719729
 21
5573.304523099505
 31
0.0
  0
LINE
  5
7C6D
330
19
100
AcDbEntity
  8
4
100
AcDbLine
 10
2881.234844719729
 20
5573.304523099505
 30
0.0
 11
3700.0
 21
5573.304523099505
 31
0.0
  0
LINE
  5
7C6E
330
19
100
AcDbEntity
  8
4
100
AcDbLine
 10
3700.0
 20
5573.304523099505
 30
0.0
 11
3700.0
 21
5362.527166250802
 31
0.0
  0
LINE
  5
7C6F
330
19
100
AcDbEntity
  8
4
100
AcDbLine
 10
3700.0
 20
5362.527166250802
 30
0.0
 11
2881.234844719729
 21
5362.527166250802
 31
0.0
  0
LINE
  5
7C70
330
19
100
AcDbEntity
  8
4
100
AcDbLine
 10
0.0
 20
0.0
 30
0.0
 11
0.0
 21
5900.0
 31
0.0
  0
LINE
  5
7C71
330
19
100
AcDbEntity
  8
4
100
AcDbLine
 10
0.0
 20
5900.0
 30
0.0
 11
4200.0
 21
5900.0
 31
0.0
  0
LINE
  5
7C72
330
19
100
AcDbEntity
  8
4
100
AcDbLine
 10
4200.0
 20
5900.0
 30
0.0
 11
4200.0
 21
0.0
 31
0.0
  0
LINE
  5
7C73
330
19
100
AcDbEntity
  8
4
100
AcDbLine
 10
4200.0
 20
0.0
 30
0.0
 11
0.0
 21
0.0
 31
0.0
  0
DIMENSION
  5
7CC8
330
19
100
AcDbEntity
  8
3
100
AcDbDimension
  2
*D1
 10
1155.160685861438
 20
2721.164317456654
 30
0.0
 11
1407.891888065759
 21
2721.164317456654
 31
0.0
 70
   160
 71
     5
 42
-1.0
  3
IGA
100
AcDbAlignedDimension
 13
1693.160685861438
 23
2543.599298936085
 33
0.0
 14
1155.160685861438
 24
2600.913498836019
 34
0.0
100
AcDbRotatedDimension
1001
ACAD
1000
DSTYLE
1002
{
1070
   287
1070
     3
1070
    40
1040
20.0
1070
   143
1040
0.039
1070
   172
1070
     1
1070
   271
1070
     0
1070
   279
1070
     0
1070
   288
1070
     1
1002
}
  0
DIMENSION
  5
7CD5
330
19
100
AcDbEntity
  8
3
100
AcDbDimension
  2
*D2
 10
1181.160685861438
 20
2602.797735104884
 30
0.0
 11
1433.546492282475
 21
2602.797735104884
 31
0.0
 70
   160
 71
     5
 42
-1.0
  3
IGA
100
AcDbAlignedDimension
 13
1693.160685861438
 23
2543.599298936085
 33
0.0
 14
1181.160685861438
 24
2543.599298936082
 34
0.0
100
AcDbRotatedDimension
1001
ACAD
1000
DSTYLE
1002
{
1070
   287
1070
     3
1070
    40
1040
20.0
1070
   143
1040
0.039
1070
   172
1070
     1
1070
   271
1070
     0
1070
   279
1070
     0
1070
   288
1070
     1
1002
}
  0
DIMENSION
  5
7CEC
330
19
100
AcDbEntity
  8
3
100
AcDbDimension
  2
*D3
 10
617.5956673408691
 20
1663.599298936079
 30
0.0
 11
567.5956673408689
 21
1923.599298936078
 31
0.0
 70
    32
 71
     5
 42
-1.0
  3
IGA
100
AcDbAlignedDimension
 13
737.8464859615032
 23
2183.599298936078
 33
0.0
 14
845.1606858614441
 24
1663.599298936079
 34
0.0
 50
90.0
100
AcDbRotatedDimension
1001
ACAD
1000
DSTYLE
1002
{
1070
   287
1070
     3
1070
    40
1040
20.0
1070
   143
1040
0.039
1070
   172
1070
     1
1070
   271
1070
     0
1070
   279
1070
     0
1070
   288
1070
     1
1002
}
  0
DIMENSION
  5
7DA4
330
19
100
AcDbEntity
  8
3
100
AcDbDimension
  2
*D5
 10
3339.330537805765
 20
2644.53908781836
 30
0.0
 11
3152.435655190933
 21
2644.53908781836
 31
0.0
 70
   160
 71
     5
 42
-1.0
  3
IGA
100
AcDbAlignedDimension
 13
2964.330537805764
 23
2510.845516482221
 33
0.0
 14
3339.330537805765
 24
2510.845516482221
 34
0.0
100
AcDbRotatedDimension
1001
ACAD
1000
DSTYLE
1002
{
1070
   287
1070
     3
1070
    40
1040
20.0
1070
   143
1040
0.039
1070
   172
1070
     1
1070
   271
1070
     0
1070
   279
1070
     0
1070
   288
1070
     1
1002
}
  0
DIMENSION
  5
7DB3
330
19
100
AcDbEntity
  8
3
100
AcDbDimension
  2
*D6
 10
3343.630537805765
 20
2762.114798567218
 30
0.0
 11
3247.730537805766
 21
2762.114798567218
 31
0.0
 70
   160
 71
     5
 42
-1.0
  3
IGA
100
AcDbAlignedDimension
 13
3151.830537805766
 23
2713.74545240054
 33
0.0
 14
3343.630537805765
 24
2463.599298936083
 34
0.0
100
AcDbRotatedDimension
1001
ACAD
1000
DSTYLE
1002
{
1070
   287
1070
     3
1070
    40
1040
20.0
1070
   143
1040
0.039
1070
   172
1070
     1
1070
   271
1070
     0
1070
   279
1070
     0
1070
   288
1070
     1
1002
}
  0
DIMENSION
  5
7DCC
330
19
100
AcDbEntity
  8
3
100
AcDbDimension
  2
*D7
 10
2618.590299456254
 20
2762.114798567218
 30
0.0
 11
2885.21041863101
 21
2827.829084281504
 31
0.0
 70
    32
  1
(560)
 71
     5
 42
533.2402383495118
  3
IGA
100
AcDbAlignedDimension
 13
3151.830537805766
 23
2713.74545240054
 33
0.0
 14
2618.590299456254
 24
2403.599298936082
 34
0.0
100
AcDbRotatedDimension
1001
ACAD
1000
DSTYLE
1002
{
1070
   287
1070
     4
1070
    40
1040
20.0
1070
    75
1070
     1
1070
   143
1040
0.039
1070
   172
1070
     1
1070
   271
1070
     0
1070
   279
1070
     1
1070
   288
1070
     1
1002
}
  0
DIMENSION
  5
7DE4
330
19
100
AcDbEntity
  8
3
100
AcDbDimension
  2
*D8
 10
3543.286756674447
 20
1933.599298936083
 30
0.0
 11
3543.286756674446
 21
2183.339885117799
 31
0.0
 70
   160
 71
     5
 42
-1.0
  3
IGA
100
AcDbAlignedDimension
 13
3371.830537805765
 23
2433.599298936083
 33
0.0
 14
3371.830537805765
 24
1933.599298936083
 34
0.0
 50
90.0
100
AcDbRotatedDimension
1001
ACAD
1000
DSTYLE
1002
{
1070
   287
1070
     3
1070
     3
1000
\U+03C6<>
1070
    40
1040
20.0
1070
   143
1040
0.039
1070
   172
1070
     1
1070
   271
1070
     0
1070
   279
1070
     0
1070
   288
1070
     1
1002
}
  0
DIMENSION
  5
7E6E
330
19
100
AcDbEntity
  8
3
100
AcDbDimension
  2
*D11
 10
617.5956673408691
 20
2543.599298936082
 30
0.0
 11
567.5956673408686
 21
2363.59929893608
 31
0.0
 70
    32
 71
     5
 42
-1.0
  3
IGA
100
AcDbAlignedDimension
 13
737.8464859615032
 23
2183.599298936078
 33
0.0
 14
1149.560685861438
 24
2543.599298936082
 34
0.0
 50
90.0
100
AcDbRotatedDimension
1001
ACAD
1000
DSTYLE
1002
{
1070
   287
1070
     4
1070
    40
1040
20.0
1070
    75
1070
     1
1070
   143
1040
0.039
1070
   172
1070
     1
1070
   271
1070
     0
1070
   279
1070
     1
1070
   288
1070
     1
1002
}
  0
DIMENSION
  5
7E7A
330
19
100
AcDbEntity
  8
3
100
AcDbDimension
  2
*D12
 10
792.7126950535812
 20
2721.164317456654
 30
0.0
 11
973.9366904575094
 21
2771.164317456654
 31
0.0
 70
    32
 71
     5
 42
-1.0
  3
IGA
100
AcDbAlignedDimension
 13
1155.160685861438
 23
2600.913498836019
 33
0.0
 14
792.7126950535812
 24
2146.599298936081
 34
0.0
100
AcDbRotatedDimension
1001
ACAD
1000
DSTYLE
1002
{
1070
   287
1070
     4
1070
    40
1040
20.0
1070
    75
1070
     1
1070
   143
1040
0.039
1070
   172
1070
     1
1070
   271
1070
     0
1070
   279
1070
     1
1070
   288
1070
     1
1002
}
  0
LINE
  5
7E7B
330
19
100
AcDbEntity
  8
1
100
AcDbLine
 10
1636.040471953634
 20
2223.242033224775
 30
0.0
 11
1396.040471953634
 21
2223.242033224775
 31
0.0
  0
LINE
  5
7E7C
330
19
100
AcDbEntity
  8
1
100
AcDbLine
 10
1396.040471953634
 20
2223.242033224775
 30
0.0
 11
1396.040471953634
 21
2423.242033224775
 31
0.0
  0
LINE
  5
7E7D
330
19
100
AcDbEntity
  8
1
100
AcDbLine
 10
1396.040471953634
 20
2423.242033224775
 30
0.0
 11
1636.040471953634
 21
2423.242033224775
 31
0.0
  0
LINE
  5
7E7E
330
19
100
AcDbEntity
  8
1
100
AcDbLine
 10
1636.040471953634
 20
2423.242033224775
 30
0.0
 11
1636.040471953634
 21
2223.242033224775
 31
0.0
  0
DIMENSION
  5
7F0A
330
19
100
AcDbEntity
  8
3
100
AcDbDimension
  2
*D13
 10
1155.160685861446
 20
1526.331775590148
 30
0.0
 11
1000.160685861445
 21
1576.331775590148
 31
0.0
 70
    32
 71
     5
 42
-1.0
  3
IGA
100
AcDbAlignedDimension
 13
845.1606858614441
 23
1663.599298936079
 33
0.0
 14
1155.160685861446
 24
1663.599298936081
 34
0.0
100
AcDbRotatedDimension
1001
ACAD
1000
DSTYLE
1002
{
1070
   287
1070
     3
1070
    40
1040
20.0
1070
   143
1040
0.039
1070
   172
1070
     1
1070
   271
1070
     0
1070
   279
1070
     0
1002
}
  0
DIMENSION
  5
7F17
330
19
100
AcDbEntity
  8
3
100
AcDbDimension
  2
*D14
 10
1965.160685861444
 20
1526.331775590148
 30
0.0
 11
1560.160685861445
 21
1576.331775590148
 31
0.0
 70
    32
 71
     5
 42
-1.0
  3
IGA
100
AcDbAlignedDimension
 13
1155.160685861446
 23
1663.599298936081
 33
0.0
 14
1965.160685861444
 24
1663.599298936088
 34
0.0
100
AcDbRotatedDimension
1001
ACAD
1000
DSTYLE
1002
{
1070
   287
1070
     3
1070
    40
1040
20.0
1070
   143
1040
0.039
1070
   172
1070
     1
1070
   271
1070
     0
1070
   279
1070
     0
1002
}
  0
DIMENSION
  5
7F24
330
19
100
AcDbEntity
  8
3
100
AcDbDimension
  2
*D15
 10
3151.830537805765
 20
1526.331775590148
 30
0.0
 11
2954.330537805764
 21
1576.331775590148
 31
0.0
 70
    32
 71
     5
 42
-1.0
  3
IGA
100
AcDbAlignedDimension
 13
2756.830537805764
 23
1663.599298936091
 33
0.0
 14
3151.830537805765
 24
1663.599298936092
 34
0.0
100
AcDbRotatedDimension
1001
ACAD
1000
DSTYLE
1002
{
1070
   287
1070
     3
1070
    40
1040
20.0
1070
   143
1040
0.039
1070
   172
1070
     1
1070
   271
1070
     0
1070
   279
1070
     0
1002
}
  0
DIMENSION
  5
7F33
330
19
100
AcDbEntity
  8
3
100
AcDbDimension
  2
*D16
 10
3381.830537805765
 20
1526.331775590148
 30
0.0
 11
3266.830537805765
 21
1576.331775590148
 31
0.0
 70
    32
 71
     5
 42
-1.0
  3
IGA
100
AcDbAlignedDimension
 13
3151.830537805765
 23
1663.599298936092
 33
0.0
 14
3381.830537805765
 24
1663.599298936092
 34
0.0
100
AcDbRotatedDimension
1001
ACAD
1000
DSTYLE
1002
{
1070
   287
1070
     3
1070
    40
1040
20.0
1070
   143
1040
0.039
1070
   172
1070
     1
1070
   271
1070
     0
1070
   279
1070
     0
1002
}
  0
LINE
  5
82DA
330
19
100
AcDbEntity
  8
1
100
AcDbLine
 10
1965.160685861434
 20
3993.713410176743
 30
0.0
 11
845.160685861434
 21
3993.71341017674
 31
0.0
  0
LINE
  5
82DB
330
19
100
AcDbEntity
  8
1
100
AcDbLine
 10
1965.160685861433
 20
3953.713410176743
 30
0.0
 11
1724.765868824743
 21
3953.713410176741
 31
0.0
  0
LINE
  5
82DC
330
19
100
AcDbEntity
  8
1
100
AcDbLine
 10
1148.765868824742
 20
3953.71341017674
 30
0.0
 11
845.1606858614336
 21
3953.713410176741
 31
0.0
  0
LINE
  5
82DD
330
19
100
AcDbEntity
  8
1
100
AcDbLine
 10
1965.160685861434
 20
3368.713410176741
 30
0.0
 11
1925.960685861433
 21
3368.713410176741
 31
0.0
  0
LINE
  5
82DE
330
19
100
AcDbEntity
  8
1
100
AcDbLine
 10
1965.160685861434
 20
3408.713410176741
 30
0.0
 11
1925.960685861433
 21
3408.713410176742
 31
0.0
  0
LINE
  5
82DF
330
19
100
AcDbEntity
  8
1
100
AcDbLine
 10
1925.160685861434
 20
3953.713410176741
 30
0.0
 11
1925.160685861434
 21
3625.063467491496
 31
0.0
  0
LINE
  5
82E0
330
19
100
AcDbEntity
  8
1
100
AcDbLine
 10
1965.160685861433
 20
3953.713410176743
 30
0.0
 11
1965.160685861434
 21
3408.713410176741
 31
0.0
  0
LINE
  5
82E1
330
19
100
AcDbEntity
  8
1
100
AcDbLine
 10
1965.160685861434
 20
3368.713410176741
 30
0.0
 11
1965.160685861434
 21
3408.713410176741
 31
0.0
  0
LINE
  5
82E2
330
19
100
AcDbEntity
  8
1
100
AcDbLine
 10
1965.160685861433
 20
3953.713410176743
 30
0.0
 11
1965.160685861434
 21
3993.713410176743
 31
0.0
  0
LINE
  5
82E3
330
19
100
AcDbEntity
  8
1
100
AcDbLine
 10
845.160685861434
 20
3368.71341017674
 30
0.0
 11
845.1606858614344
 21
3408.71341017674
 31
0.0
  0
LINE
  5
82E4
330
19
100
AcDbEntity
  8
1
100
AcDbLine
 10
793.1606858614345
 20
3951.213410176741
 30
0.0
 11
1148.765868824741
 21
3951.21341017674
 31
0.0
  0
LINE
  5
82E5
330
19
100
AcDbEntity
  8
1
100
AcDbLine
 10
1015.46068586143
 20
3317.413410176739
 30
0.0
 11
1294.860685861431
 21
3317.413410176739
 31
0.0
  0
LINE
  5
82E6
330
19
100
AcDbEntity
  8
1
100
AcDbLine
 10
1015.460685861429
 20
3277.41341017674
 30
0.0
 11
1294.86068586143
 21
3277.41341017674
 31
0.0
  0
LINE
  5
82E7
330
19
100
AcDbEntity
  8
1
100
AcDbLine
 10
935.1606858614296
 20
3230.47317182723
 30
0.0
 11
1918.160685861434
 21
3230.473171827227
 31
0.0
  0
LINE
  5
82E8
330
19
100
AcDbEntity
  8
1
100
AcDbLine
 10
793.1606858614318
 20
3576.213410176741
 30
0.0
 11
1148.765868824741
 21
3576.21341017674
 31
0.0
  0
LINE
  5
82E9
330
19
100
AcDbEntity
  8
2
100
AcDbLine
 10
1805.160685861435
 20
3629.000467491496
 30
0.0
 11
1805.160685861434
 21
3293.028867491496
 31
0.0
  0
LINE
  5
82EA
330
19
100
AcDbEntity
  8
1
100
AcDbLine
 10
1817.160685861434
 20
3348.063467491495
 30
0.0
 11
1817.160685861434
 21
3298.063467491495
 31
0.0
  0
LINE
  5
82EB
330
19
100
AcDbEntity
  8
1
100
AcDbLine
 10
1793.160685861434
 20
3348.063467491495
 30
0.0
 11
1793.160685861434
 21
3298.063467491495
 31
0.0
  0
LINE
  5
82EC
330
19
100
AcDbEntity
  8
1
100
AcDbLine
 10
1805.160685861434
 20
3251.37814547668
 30
0.0
 11
1805.160685861435
 21
3361.651049985488
 31
0.0
  0
LINE
  5
82ED
330
19
100
AcDbEntity
  8
1
100
AcDbLine
 10
1136.16068586143
 20
3317.413410176739
 30
0.0
 11
1136.160685861431
 21
3347.41341017674
 31
0.0
1001
ACAD
1000
ASC_BOUNDS
1002
{
1070
    19
1002
}
  0
LINE
  5
82EE
330
19
100
AcDbEntity
  8
1
100
AcDbLine
 10
1174.16068586143
 20
3317.413410176739
 30
0.0
 11
1174.16068586143
 21
3347.413410176739
 31
0.0
1001
ACAD
1000
ASC_BOUNDS
1002
{
1070
    19
1002
}
  0
LINE
  5
82EF
330
19
100
AcDbEntity
  8
1
100
AcDbLine
 10
1918.160685861434
 20
3230.473171827227
 30
0.0
 11
1918.160685861435
 21
3352.473171827227
 31
0.0
  0
LINE
  5
82F0
330
19
100
AcDbEntity
  8
1
100
AcDbLine
 10
1817.160685861434
 20
3298.063467491495
 30
0.0
 11
1790.160685861434
 21
3298.063467491495
 31
0.0
  0
LINE
  5
82F1
330
19
100
AcDbEntity
  8
1
100
AcDbLine
 10
1294.86068586143
 20
3277.41341017674
 30
0.0
 11
1864.310685861439
 21
3277.413410176738
 31
0.0
  0
LINE
  5
82F2
330
19
100
AcDbEntity
  8
1
100
AcDbLine
 10
1294.860685861431
 20
3317.413410176739
 30
0.0
 11
1864.31068586144
 21
3317.413410176737
 31
0.0
  0
LINE
  5
82F3
330
19
100
AcDbEntity
  8
1
100
AcDbLine
 10
1864.310685861439
 20
3277.413410176739
 30
0.0
 11
1864.31068586144
 21
3317.413410176738
 31
0.0
  0
LINE
  5
82F4
330
19
100
AcDbEntity
  8
1
100
AcDbLine
 10
1750.01068586144
 20
3277.41341017674
 30
0.0
 11
1750.01068586144
 21
3317.41341017674
 31
0.0
  0
LINE
  5
82F5
330
19
100
AcDbEntity
  8
1
100
AcDbLine
 10
1790.160685861434
 20
3338.063467491496
 30
0.0
 11
1790.160685861434
 21
3298.063467491495
 31
0.0
  0
LINE
  5
82F6
330
19
100
AcDbEntity
  8
1
100
AcDbLine
 10
1793.160685861434
 20
3338.063467491496
 30
0.0
 11
1790.160685861434
 21
3338.063467491496
 31
0.0
  0
LINE
  5
82F7
330
19
100
AcDbEntity
  8
1
100
AcDbLine
 10
1294.86068586143
 20
3277.41341017674
 30
0.0
 11
1294.860685861431
 21
3317.413410176739
 31
0.0
1001
ACAD
1000
ASC_BOUNDS
1002
{
1070
    19
1002
}
  0
LINE
  5
82F8
330
19
100
AcDbEntity
  8
1
100
AcDbLine
 10
1817.660685861434
 20
3348.063467491495
 30
0.0
 11
1792.660685861434
 21
3348.063467491495
 31
0.0
  0
LINE
  5
82F9
330
19
100
AcDbEntity
  8
1
100
AcDbLine
 10
1925.960685861433
 20
3363.063467491496
 30
0.0
 11
1684.360685861434
 21
3363.063467491495
 31
0.0
  0
LINE
  5
82FA
330
19
100
AcDbEntity
  8
1
100
AcDbLine
 10
1768.660685861435
 20
3353.063467491496
 30
0.0
 11
1841.660685861435
 21
3353.063467491495
 31
0.0
  0
LINE
  5
82FB
330
19
100
AcDbEntity
  8
1
100
AcDbLine
 10
1898.160685861435
 20
3352.473171827227
 30
0.0
 11
1918.160685861435
 21
3352.473171827227
 31
0.0
  0
LINE
  5
82FC
330
19
100
AcDbEntity
  8
1
100
AcDbLine
 10
1842.660685861435
 20
3354.063467491495
 30
0.0
 11
1842.660685861435
 21
3362.063467491495
 31
0.0
  0
ARC
  5
82FD
330
19
100
AcDbEntity
  8
1
100
AcDbCircle
 10
1843.660685861435
 20
3362.063467491495
 30
0.0
 40
1.000099999999999
100
AcDbArc
 50
90.00349999998965
 51
180.0
  0
ARC
  5
82FE
330
19
100
AcDbEntity
  8
1
100
AcDbCircle
 10
1841.660585861434
 20
3354.063467491495
 30
0.0
 40
1.000099999999999
100
AcDbArc
 50
270.0034999999897
 51
0.0
  0
LINE
  5
82FF
330
19
100
AcDbEntity
  8
1
100
AcDbLine
 10
1817.660685861435
 20
3353.063467491496
 30
0.0
 11
1817.660685861434
 21
3348.063467491495
 31
0.0
  0
LINE
  5
8300
330
19
100
AcDbEntity
  8
1
100
AcDbLine
 10
1132.66068586143
 20
3347.41341017674
 30
0.0
 11
1132.660685861431
 21
3512.706517957242
 31
0.0
1001
ACAD
1000
ASC_BOUNDS
1002
{
1070
    19
1002
}
  0
LINE
  5
8301
330
19
100
AcDbEntity
  8
1
100
AcDbLine
 10
1177.66068586143
 20
3347.41341017674
 30
0.0
 11
1177.660685861432
 21
3543.713410176738
 31
0.0
1001
ACAD
1000
ASC_BOUNDS
1002
{
1070
    19
1002
}
  0
LINE
  5
8302
330
19
100
AcDbEntity
  8
1
100
AcDbLine
 10
1767.660685861435
 20
3354.063467491496
 30
0.0
 11
1767.660685861435
 21
3362.063467491495
 31
0.0
  0
ARC
  5
8303
330
19
100
AcDbEntity
  8
1
100
AcDbCircle
 10
1766.660685861435
 20
3362.063467491495
 30
0.0
 40
1.000099999999999
100
AcDbArc
 50
0.003500000002683
 51
90.0
  0
ARC
  5
8304
330
19
100
AcDbEntity
  8
1
100
AcDbCircle
 10
1768.660685861435
 20
3354.063567491496
 30
0.0
 40
1.000099999999999
100
AcDbArc
 50
180.0035000000026
 51
270.0
  0
LINE
  5
8305
330
19
100
AcDbEntity
  8
1
100
AcDbLine
 10
1792.660685861435
 20
3353.063467491496
 30
0.0
 11
1792.660685861434
 21
3348.063467491495
 31
0.0
  0
LINE
  5
8306
330
19
100
AcDbEntity
  8
1
100
AcDbLine
 10
1132.66068586143
 20
3347.41341017674
 30
0.0
 11
1177.66068586143
 21
3347.41341017674
 31
0.0
  0
LINE
  5
8307
330
19
100
AcDbEntity
  8
1
100
AcDbLine
 10
1132.660685861431
 20
3472.713410176741
 30
0.0
 11
1132.660685861432
 21
3574.21341017674
 31
0.0
1001
ACAD
1000
ASC_BOUNDS
1002
{
1070
    19
1002
}
  0
LINE
  5
8308
330
19
100
AcDbEntity
  8
1
100
AcDbLine
 10
1177.660685861431
 20
3476.841827538637
 30
0.0
 11
1177.660685861431
 21
3512.706517957241
 31
0.0
1001
ACAD
1000
ASC_BOUNDS
1002
{
1070
    19
1002
}
  0
LINE
  5
8309
330
19
100
AcDbEntity
  8
1
100
AcDbLine
 10
1925.960685861434
 20
3625.063467491496
 30
0.0
 11
1724.765868824741
 21
3625.063467491496
 31
0.0
  0
ARC
  5
830A
330
19
100
AcDbEntity
  8
1
100
AcDbCircle
 10
1889.180385861434
 20
3624.063467491496
 30
0.0
 40
1.000099999999999
100
AcDbArc
 50
1.150500000007528
 51
89.99650000001034
  0
LINE
  5
830B
330
19
100
AcDbEntity
  8
1
100
AcDbLine
 10
1600.160685861426
 20
3993.713410176737
 30
0.0
 11
1675.160685861426
 21
3993.713410176736
 31
0.0
  0
LINE
  5
830C
330
19
100
AcDbEntity
  8
1
100
AcDbLine
 10
935.1606858614305
 20
3352.47317182723
 30
0.0
 11
935.1606858614296
 21
3230.47317182723
 31
0.0
  0
LINE
  5
830D
330
19
100
AcDbEntity
  8
1
100
AcDbLine
 10
935.1606858614305
 20
3230.47317182723
 30
0.0
 11
935.1606858614314
 21
3352.47317182723
 31
0.0
  0
LINE
  5
830E
330
19
100
AcDbEntity
  8
1
100
AcDbLine
 10
1015.460685861429
 20
3277.413410176739
 30
0.0
 11
1015.46068586143
 21
3317.413410176739
 31
0.0
1001
ACAD
1000
ASC_BOUNDS
1002
{
1070
    19
1002
}
  0
LINE
  5
830F
330
19
100
AcDbEntity
  8
1
100
AcDbLine
 10
955.1606858614304
 20
3352.47317182723
 30
0.0
 11
935.1606858614305
 21
3352.47317182723
 31
0.0
  0
LINE
  5
8310
330
19
100
AcDbEntity
  8
1
100
AcDbLine
 10
885.1606858614346
 20
3951.21341017674
 30
0.0
 11
885.1606858614346
 21
3953.71341017674
 31
0.0
  0
LINE
  5
8311
330
19
100
AcDbEntity
  8
1
100
AcDbLine
 10
845.1606858614336
 20
3951.213410176741
 30
0.0
 11
845.160685861434
 21
3993.713410176739
 31
0.0
  0
LINE
  5
8312
330
19
100
AcDbEntity
  8
1
100
AcDbLine
 10
1684.360685861434
 20
3363.063467491496
 30
0.0
 11
1684.360685861434
 21
3543.713410176734
 31
0.0
  0
LINE
  5
8313
330
19
100
AcDbEntity
  8
1
100
AcDbLine
 10
1925.960685861433
 20
3363.063467491495
 30
0.0
 11
1925.960685861434
 21
3625.063467491495
 31
0.0
  0
LINE
  5
8314
330
19
100
AcDbEntity
  8
1
100
AcDbLine
 10
1684.360685861434
 20
3408.713410176741
 30
0.0
 11
1177.66068586143
 21
3408.713410176741
 31
0.0
  0
LINE
  5
8315
330
19
100
AcDbEntity
  8
1
100
AcDbLine
 10
1684.360685861434
 20
3368.713410176741
 30
0.0
 11
1177.66068586143
 21
3368.71341017674
 31
0.0
  0
LINE
  5
8316
330
19
100
AcDbEntity
  8
1
100
AcDbLine
 10
1475.160685861434
 20
3408.713410176741
 30
0.0
 11
1475.160685861434
 21
3543.713410176735
 31
0.0
  0
LINE
  5
8317
330
19
100
AcDbEntity
  8
1
100
AcDbLine
 10
835.1606858614315
 20
3408.713410176743
 30
0.0
 11
835.1606858614317
 21
3576.213410176742
 31
0.0
  0
LINE
  5
8318
330
19
100
AcDbEntity
  8
1
100
AcDbLine
 10
1132.66068586143
 20
3408.713410176741
 30
0.0
 11
835.1606858614315
 21
3408.713410176741
 31
0.0
  0
LINE
  5
8319
330
19
100
AcDbEntity
  8
1
100
AcDbLine
 10
1132.66068586143
 20
3368.71341017674
 30
0.0
 11
845.160685861434
 21
3368.71341017674
 31
0.0
  0
DIMENSION
  5
831A
330
19
100
AcDbEntity
  8
3
100
AcDbDimension
  2
*D45
 10
1965.160685861434
 20
4197.081280799658
 30
0.0
 11
1352.381722866702
 21
4197.081280799658
 31
0.0
 70
   160
 71
     5
 42
1120.0
  3
IGA
100
AcDbAlignedDimension
 13
845.160685861434
 23
3993.71341017674
 33
0.0
 14
1965.160685861434
 24
3993.713410176743
 34
0.0
 50
180.0
100
AcDbRotatedDimension
1001
ACAD
1000
DSTYLE
1002
{
1070
   287
1070
     3
1070
    40
1040
20.0
1070
   143
1040
0.039
1070
   172
1070
     1
1070
   271
1070
     0
1070
   279
1070
     0
1070
   288
1070
     1
1002
}
  0
DIMENSION
  5
831B
330
19
100
AcDbEntity
  8
3
100
AcDbDimension
  2
*D46
 10
2151.784558400349
 20
3368.713410176741
 30
0.0
 11
2151.784558400348
 21
3688.740278048191
 31
0.0
 70
   160
 71
     5
 42
625.0000000000014
  3
IGA
100
AcDbAlignedDimension
 13
1965.160685861434
 23
3993.713410176743
 33
0.0
 14
1965.160685861434
 24
3368.713410176741
 34
0.0
 50
270.0
100
AcDbRotatedDimension
1001
ACAD
1000
DSTYLE
1002
{
1070
   287
1070
     3
1070
    40
1040
20.0
1070
   143
1040
0.039
1070
   172
1070
     1
1070
   271
1070
     0
1070
   279
1070
     0
1070
   288
1070
     1
1002
}
  0
LINE
  5
831C
330
19
100
AcDbEntity
  8
1
100
AcDbLine
 10
793.1606858614318
 20
3576.21341017674
 30
0.0
 11
793.1606858614345
 21
3951.213410176742
 31
0.0
1001
ACAD
1000
ASC_BOUNDS
1002
{
1070
    19
1002
}
  0
LINE
  5
831D
330
19
100
AcDbEntity
  8
1
100
AcDbLine
 10
1724.765868824744
 20
3983.713410176734
 30
0.0
 11
1724.765868824741
 21
3543.713410176734
 31
0.0
  0
LINE
  5
831E
330
19
100
AcDbEntity
  8
1
100
AcDbLine
 10
1148.765868824741
 20
3543.713410176739
 30
0.0
 11
1724.765868824741
 21
3543.713410176734
 31
0.0
  0
LINE
  5
831F
330
19
100
AcDbEntity
  8
1
100
AcDbLine
 10
1148.765868824744
 20
3983.713410176738
 30
0.0
 11
1724.765868824744
 21
3983.713410176734
 31
0.0
  0
LINE
  5
8320
330
19
100
AcDbEntity
  8
1
100
AcDbLine
 10
1148.765868824741
 20
3543.713410176739
 30
0.0
 11
1148.765868824742
 21
3983.713410176738
 31
0.0
  0
LINE
  5
8321
330
19
100
AcDbEntity
  8
1
100
AcDbLine
 10
1694.765868824741
 20
3573.713410176735
 30
0.0
 11
1694.765868824743
 21
3953.713410176734
 31
0.0
  0
LINE
  5
8322
330
19
100
AcDbEntity
  8
1
100
AcDbLine
 10
1178.76586882474
 20
3573.713410176738
 30
0.0
 11
1178.765868824741
 21
3953.713410176738
 31
0.0
  0
LINE
  5
8323
330
19
100
AcDbEntity
  8
1
100
AcDbLine
 10
1178.76586882474
 20
3573.713410176738
 30
0.0
 11
1694.765868824741
 21
3573.713410176735
 31
0.0
  0
LINE
  5
8324
330
19
100
AcDbEntity
  8
1
100
AcDbLine
 10
1178.765868824743
 20
3953.713410176738
 30
0.0
 11
1694.765868824743
 21
3953.713410176734
 31
0.0
  0
LINE
  5
8325
330
19
100
AcDbEntity
  8
1
100
AcDbLine
 10
1694.765868824743
 20
3953.713410176734
 30
0.0
 11
1178.76586882474
 21
3573.713410176738
 31
0.0
  0
LINE
  5
8326
330
19
100
AcDbEntity
  8
1
100
AcDbLine
 10
1694.765868824741
 20
3573.713410176735
 30
0.0
 11
1178.765868824741
 21
3953.713410176738
 31
0.0
  0
ENDSEC
  0
SECTION
  2
OBJECTS
  0
DICTIONARY
  5
C
330
0
100
AcDbDictionary
281
     1
  3
ACAD_CIP_PREVIOUS_PRODUCT_INFO
350
8053
  3
ACAD_COLOR
350
8036
  3
ACAD_DETAILVIEWSTYLE
350
804F
  3
ACAD_GROUP
350
D
  3
ACAD_LAYOUT
350
7F40
  3
ACAD_MATERIAL
350
8004
  3
ACAD_MLEADERSTYLE
350
804B
  3
ACAD_MLINESTYLE
350
E
  3
ACAD_PLOTSETTINGS
350
7F41
  3
ACAD_PLOTSTYLENAME
350
7F3E
  3
ACAD_SCALELIST
350
8039
  3
ACAD_SECTIONVIEWSTYLE
350
804D
  3
ACAD_TABLESTYLE
350
8037
  3
ACAD_VISUALSTYLE
350
801D
  3
ACDB_RECOMPOSE_DATA
350
84C0
  3
AcDbVariableDictionary
350
7FFC
  3
AcDsDecomposeData
350
84C7
  3
DWGPROPS
350
84C1
  0
DICTIONARY
  5
8129
330
2
100
AcDbDictionary
280
     1
281
     1
  3
ACAD_LAYERSTATES
360
812A
  0
DICTIONARY
  5
8054
330
F
100
AcDbDictionary
280
     1
281
     1
  3
ADSK_XREC_LAYER_RECONCILED
360
8055
  0
DICTIONARY
  5
8056
330
31
100
AcDbDictionary
280
     1
281
     1
  3
ADSK_XREC_LAYER_RECONCILED
360
8057
  0
DICTIONARY
  5
8058
330
76D0
100
AcDbDictionary
280
     1
281
     1
  3
ADSK_XREC_LAYER_RECONCILED
360
8059
  0
DICTIONARY
  5
805A
330
76D1
100
AcDbDictionary
280
     1
281
     1
  3
ADSK_XREC_LAYER_RECONCILED
360
805B
  0
DICTIONARY
  5
805C
330
76D2
100
AcDbDictionary
280
     1
281
     1
  3
ADSK_XREC_LAYER_RECONCILED
360
805D
  0
DICTIONARY
  5
7F6D
330
19
100
AcDbDictionary
280
     1
281
     1
  3
ACAD_LAYOUTSELFREF
360
7F6E
  0
DICTIONARY
  5
7F6B
330
16
100
AcDbDictionary
280
     1
281
     1
  3
ACAD_LAYOUTSELFREF
360
7F6C
  0
XRECORD
  5
8053
102
{ACAD_REACTORS
330
C
102
}
330
C
100
AcDbXrecord
280
     1
300
ACDLT
300
2015
300
INVLTS_F_S
  0
DICTIONARY
  5
8036
102
{ACAD_REACTORS
330
C
102
}
330
C
100
AcDbDictionary
281
     1
  0
DICTIONARY
  5
804F
102
{ACAD_REACTORS
330
C
102
}
330
C
100
AcDbDictionary
281
     1
  3
Metric50
350
8050
  0
DICTIONARY
  5
D
102
{ACAD_REACTORS
330
C
102
}
330
C
100
AcDbDictionary
281
     1
  0
DICTIONARY
  5
7F40
102
{ACAD_REACTORS
330
C
102
}
330
C
100
AcDbDictionary
281
     1
  3
Model
350
7F42
  3
ﾚｲｱｳﾄ1
350
7F43
  0
DICTIONARY
  5
8004
102
{ACAD_REACTORS
330
C
102
}
330
C
100
AcDbDictionary
281
     1
  3
ByBlock
350
800D
  3
ByLayer
350
8005
  3
Global
350
8015
  0
DICTIONARY
  5
804B
102
{ACAD_REACTORS
330
C
102
}
330
C
100
AcDbDictionary
281
     1
  3
Standard
350
804C
  0
DICTIONARY
  5
E
102
{ACAD_REACTORS
330
C
102
}
330
C
100
AcDbDictionary
281
     1
  3
STANDARD
350
1C
  0
DICTIONARY
  5
7F41
102
{ACAD_REACTORS
330
C
102
}
330
C
100
AcDbDictionary
281
     1
  0
ACDBDICTIONARYWDFLT
  5
7F3E
102
{ACAD_REACTORS
330
C
102
}
330
C
100
AcDbDictionary
281
     1
  3
Normal
350
7F3F
100
AcDbDictionaryWithDefault
340
7F3F
  0
DICTIONARY
  5
8039
102
{ACAD_REACTORS
330
C
102
}
330
C
100
AcDbDictionary
281
     1
  3
A0
350
803A
  3
A1
350
803B
  3
A2
350
803C
  3
A3
350
803D
  3
A4
350
803E
  3
A5
350
803F
  3
A6
350
8040
  3
A7
350
8041
  3
A8
350
8042
  3
A9
350
8043
  3
B0
350
8044
  3
B1
350
8045
  3
B2
350
8046
  3
B3
350
8047
  3
B4
350
8048
  3
B5
350
8049
  3
B6
350
804A
  0
DICTIONARY
  5
804D
102
{ACAD_REACTORS
330
C
102
}
330
C
100
AcDbDictionary
281
     1
  3
Metric50
350
804E
  0
DICTIONARY
  5
8037
102
{ACAD_REACTORS
330
C
102
}
330
C
100
AcDbDictionary
281
     1
  3
Standard
350
8038
  0
DICTIONARY
  5
801D
102
{ACAD_REACTORS
330
C
102
}
330
C
100
AcDbDictionary
281
     1
  3
2dWireframe
350
8023
  3
Basic
350
8022
  3
Brighten
350
8029
  3
ColorChange
350
802D
  3
Conceptual
350
8026
  3
Dim
350
8028
  3
EdgeColorOff
350
8035
  3
Facepattern
350
802C
  3
Flat
350
801E
  3
FlatWithEdges
350
801F
  3
Gouraud
350
8020
  3
GouraudWithEdges
350
8021
  3
Hidden
350
8025
  3
JitterOff
350
8033
  3
Linepattern
350
802B
  3
OverhangOff
350
8034
  3
Realistic
350
8027
  3
Shaded
350
8032
  3
Shaded with edges
350
8031
  3
Shades of Gray
350
802E
  3
Sketchy
350
802F
  3
Thicken
350
802A
  3
Wireframe
350
8024
  3
X-Ray
350
8030
  0
XRECORD
  5
84C0
102
{ACAD_REACTORS
330
C
102
}
330
C
100
AcDbXrecord
280
     1
 90
        1
330
8038
  0
DICTIONARY
  5
7FFC
102
{ACAD_REACTORS
330
C
102
}
330
C
100
AcDbDictionary
281
     1
  3
CANNOSCALE
350
84B3
  3
CMLEADERSTYLE
350
84AF
  3
CTABLESTYLE
350
84AE
  3
CVIEWDETAILSTYLE
350
84B0
  3
CVIEWSECTIONSTYLE
350
84B1
  3
DIMASSOC
350
7FFD
  3
INDEXCTL
350
84BC
  3
LAYEREVAL
350
84B5
  3
LAYERNOTIFY
350
84B6
  3
LIGHTINGUNITS
350
84B4
  3
MSLTSCALE
350
84B2
  3
SORTENTS
350
84BB
  3
XCLIPFRAME
350
84BD
  0
DICTIONARY
  5
84C7
102
{ACAD_REACTORS
330
C
102
}
330
C
100
AcDbDictionary
281
     1
  3
AcDsRecords
350
84C9
  3
AcDsSchemas
350
84C8
1001
ACAD
1070
     2
  0
XRECORD
  5
84C1
102
{ACAD_REACTORS
330
C
102
}
330
C
100
AcDbXrecord
280
     1
  1
DWGPROPS COOKIE
  2

  3

  4

  6

  7

  8
reiko.miyawaki
  9

300
=
301
=
302
=
303
=
304
=
305
=
306
=
307
=
308
=
309
=
 40
0.1707060532407407
 41
2452773.62282963
 42
2458829.627305926
  1

 90
        0
  0
DICTIONARY
  5
812A
102
{ACAD_REACTORS
330
8129
102
}
330
8129
100
AcDbDictionary
281
     1
  0
XRECORD
  5
8055
102
{ACAD_REACTORS
330
8054
102
}
330
8054
100
AcDbXrecord
280
     1
290
     1
  0
XRECORD
  5
8057
102
{ACAD_REACTORS
330
8056
102
}
330
8056
100
AcDbXrecord
280
     1
290
     1
  0
XRECORD
  5
8059
102
{ACAD_REACTORS
330
8058
102
}
330
8058
100
AcDbXrecord
280
     1
290
     1
  0
XRECORD
  5
805B
102
{ACAD_REACTORS
330
805A
102
}
330
805A
100
AcDbXrecord
280
     1
290
     1
  0
XRECORD
  5
805D
102
{ACAD_REACTORS
330
805C
102
}
330
805C
100
AcDbXrecord
280
     1
290
     1
  0
XRECORD
  5
7F6E
102
{ACAD_REACTORS
330
7F6D
102
}
330
7F6D
100
AcDbXrecord
280
     1
340
19
  0
XRECORD
  5
7F6C
102
{ACAD_REACTORS
330
7F6B
102
}
330
7F6B
100
AcDbXrecord
280
     1
340
16
  0
ACDBDETAILVIEWSTYLE
  5
8050
102
{ACAD_XDICTIONARY
360
84AB
102
}
102
{ACAD_REACTORS
330
804F
102
}
330
804F
100
AcDbModelDocViewStyle
 70
     0
  3
Metric50
290
     0
100
AcDbDetailViewStyle
 70
     0
 71
     0
 90
        3
 71
     1
340
10
 40
5.0
340
0
 40
5.0
300

 40
0.0
280
     1
 71
     2
340
15
 90
       25
 71
     3
340
10
 40
5.0
 90
        0
 40
15.0
 90
        1
300
%<\AcVar ViewDetailId>% (%<\AcVar ViewScale \f "%sn">%)
 71
     4
340
15
 90
       25
340
15
 90
       25
280
     0
  0
LAYOUT
  5
7F42
102
{ACAD_XDICTIONARY
360
84CA
102
}
102
{ACAD_REACTORS
330
7F40
102
}
330
7F40
100
AcDbPlotSettings
  1

  2
none_device
  4
ISO_A4_(210.00_x_297.00_MM)
  6

 40
7.5
 41
20.0
 42
7.5
 43
20.0
 44
210.0
 45
297.0
 46
0.0
 47
0.0
 48
0.0
 49
0.0
140
0.0
141
0.0
142
1.0
143
44.29880314161315
 70
 11952
 72
     1
 73
     1
 74
     0
  7
monochrome.ctb
 75
     0
147
0.0225739733148823
148
3592.396193918403
149
21.84598896100351
100
AcDbLayout
  1
Model
 70
     1
 71
     0
 10
0.0
 20
0.0
 11
12.0
 21
9.0
 12
0.0
 22
0.0
 32
0.0
 14
0.0
 24
0.0
 34
0.0
 15
0.0
 25
0.0
 35
0.0
146
0.0
 13
0.0
 23
0.0
 33
0.0
 16
1.0
 26
0.0
 36
0.0
 17
0.0
 27
1.0
 37
0.0
 76
     0
330
19
331
8002
1001
ACAD_PSEXT
1000
なし
1000
なし
1000
適切ではありません
1000
新しいプロッタ環境設定名を選択しない限り、レイアウトは印刷されません。
1070
     0
  0
LAYOUT
  5
7F43
102
{ACAD_XDICTIONARY
360
84CC
102
}
102
{ACAD_REACTORS
330
7F40
102
}
330
7F40
100
AcDbPlotSettings
  1

  2
\\Txbo34x8944cqyd\EPSON LP-6100
  4

  6

 40
0.0
 41
0.0
 42
0.0
 43
0.0
 44
0.0
 45
0.0
 46
0.0
 47
0.0
 48
0.0
 49
0.0
140
0.0
141
0.0
142
1.0
143
1.0
 70
   688
 72
     0
 73
     0
 74
     5
  7
monochrome.ctb
 75
    16
147
1.0
148
0.0
149
0.0
100
AcDbLayout
  1
ﾚｲｱｳﾄ1
 70
     1
 71
     1
 10
0.0
 20
0.0
 11
12.0
 21
9.0
 12
0.0
 22
0.0
 32
0.0
 14
1.000000000000000E+20
 24
1.000000000000000E+20
 34
1.000000000000000E+20
 15
-1.000000000000000E+20
 25
-1.000000000000000E+20
 35
-1.000000000000000E+20
146
0.0
 13
0.0
 23
0.0
 33
0.0
 16
1.0
 26
0.0
 36
0.0
 17
0.0
 27
1.0
 37
0.0
 76
     0
330
16
  0
MATERIAL
  5
800D
102
{ACAD_XDICTIONARY
360
800E
102
}
102
{ACAD_REACTORS
330
8004
102
}
330
8004
100
AcDbMaterial
  1
ByBlock
 72
     0
 43
0.0208333333333333
 43
0.0
 43
0.0
 43
0.0
 43
0.0
 43
0.0208333333333333
 43
0.0
 43
0.0
 43
0.0
 43
0.0
 43
1.0
 43
0.0
 43
0.0
 43
0.0
 43
0.0
 43
1.0
 77
     0
 47
0.0208333333333333
 47
0.0
 47
0.0
 47
0.0
 47
0.0
 47
0.0208333333333333
 47
0.0
 47
0.0
 47
0.0
 47
0.0
 47
1.0
 47
0.0
 47
0.0
 47
0.0
 47
0.0
 47
1.0
171
     0
 49
0.0208333333333333
 49
0.0
 49
0.0
 49
0.0
 49
0.0
 49
0.0208333333333333
 49
0.0
 49
0.0
 49
0.0
 49
0.0
 49
1.0
 49
0.0
 49
0.0
 49
0.0
 49
0.0
 49
1.0
175
     0
142
0.0208333333333333
142
0.0
142
0.0
142
0.0
142
0.0
142
0.0208333333333333
142
0.0
142
0.0
142
0.0
142
0.0
142
1.0
142
0.0
142
0.0
142
0.0
142
0.0
142
1.0
179
     0
144
0.0208333333333333
144
0.0
144
0.0
144
0.0
144
0.0
144
0.0208333333333333
144
0.0
144
0.0
144
0.0
144
0.0
144
1.0
144
0.0
144
0.0
144
0.0
144
0.0
144
1.0
147
0.0208333333333333
147
0.0
147
0.0
147
0.0
147
0.0
147
0.0208333333333333
147
0.0
147
0.0
147
0.0
147
0.0
147
1.0
147
0.0
147
0.0
147
0.0
147
0.0
147
1.0
  0
MATERIAL
  5
8005
102
{ACAD_XDICTIONARY
360
8006
102
}
102
{ACAD_REACTORS
330
8004
102
}
330
8004
100
AcDbMaterial
  1
ByLayer
 72
     0
 43
0.0208333333333333
 43
0.0
 43
0.0
 43
0.0
 43
0.0
 43
0.0208333333333333
 43
0.0
 43
0.0
 43
0.0
 43
0.0
 43
1.0
 43
0.0
 43
0.0
 43
0.0
 43
0.0
 43
1.0
 77
     0
 47
0.0208333333333333
 47
0.0
 47
0.0
 47
0.0
 47
0.0
 47
0.0208333333333333
 47
0.0
 47
0.0
 47
0.0
 47
0.0
 47
1.0
 47
0.0
 47
0.0
 47
0.0
 47
0.0
 47
1.0
171
     0
 49
0.0208333333333333
 49
0.0
 49
0.0
 49
0.0
 49
0.0
 49
0.0208333333333333
 49
0.0
 49
0.0
 49
0.0
 49
0.0
 49
1.0
 49
0.0
 49
0.0
 49
0.0
 49
0.0
 49
1.0
175
     0
142
0.0208333333333333
142
0.0
142
0.0
142
0.0
142
0.0
142
0.0208333333333333
142
0.0
142
0.0
142
0.0
142
0.0
142
1.0
142
0.0
142
0.0
142
0.0
142
0.0
142
1.0
179
     0
144
0.0208333333333333
144
0.0
144
0.0
144
0.0
144
0.0
144
0.0208333333333333
144
0.0
144
0.0
144
0.0
144
0.0
144
1.0
144
0.0
144
0.0
144
0.0
144
0.0
144
1.0
147
0.0208333333333333
147
0.0
147
0.0
147
0.0
147
0.0
147
0.0208333333333333
147
0.0
147
0.0
147
0.0
147
0.0
147
1.0
147
0.0
147
0.0
147
0.0
147
0.0
147
1.0
  0
MATERIAL
  5
8015
102
{ACAD_XDICTIONARY
360
8016
102
}
102
{ACAD_REACTORS
330
8004
102
}
330
8004
100
AcDbMaterial
  1
Global
 72
     0
 43
0.0208333333333333
 43
0.0
 43
0.0
 43
0.0
 43
0.0
 43
0.0208333333333333
 43
0.0
 43
0.0
 43
0.0
 43
0.0
 43
1.0
 43
0.0
 43
0.0
 43
0.0
 43
0.0
 43
1.0
 77
     0
 47
0.0208333333333333
 47
0.0
 47
0.0
 47
0.0
 47
0.0
 47
0.0208333333333333
 47
0.0
 47
0.0
 47
0.0
 47
0.0
 47
1.0
 47
0.0
 47
0.0
 47
0.0
 47
0.0
 47
1.0
171
     0
 49
0.0208333333333333
 49
0.0
 49
0.0
 49
0.0
 49
0.0
 49
0.0208333333333333
 49
0.0
 49
0.0
 49
0.0
 49
0.0
 49
1.0
 49
0.0
 49
0.0
 49
0.0
 49
0.0
 49
1.0
175
     0
142
0.0208333333333333
142
0.0
142
0.0
142
0.0
142
0.0
142
0.0208333333333333
142
0.0
142
0.0
142
0.0
142
0.0
142
1.0
142
0.0
142
0.0
142
0.0
142
0.0
142
1.0
179
     0
144
0.0208333333333333
144
0.0
144
0.0
144
0.0
144
0.0
144
0.0208333333333333
144
0.0
144
0.0
144
0.0
144
0.0
144
1.0
144
0.0
144
0.0
144
0.0
144
0.0
144
1.0
147
0.0208333333333333
147
0.0
147
0.0
147
0.0
147
0.0
147
0.0208333333333333
147
0.0
147
0.0
147
0.0
147
0.0
147
1.0
147
0.0
147
0.0
147
0.0
147
0.0
147
1.0
  0
MLEADERSTYLE
  5
804C
102
{ACAD_XDICTIONARY
360
8503
102
}
102
{ACAD_REACTORS
330
804B
102
}
330
804B
100
AcDbMLeaderStyle
170
     2
171
     1
172
     0
 90
        2
 40
0.0
 41
0.0
173
     1
 91
-1056964608
340
13
 92
       -2
290
     1
 42
2.0
291
     1
 43
0.36
  3
Standard
 44
4.0
300

342
10
174
     1
178
     6
175
     1
176
     0
 93
-1056964608
 45
4.0
292
     0
297
     0
 46
4.0
 94
-1056964608
 47
1.0
 49
1.0
140
1.0
293
     1
141
0.0
294
     1
177
     0
142
1.0
295
     0
296
     0
143
0.125
1001
ACAD_MLEADERVER
1070
     2
  0
MLINESTYLE
  5
1C
102
{ACAD_REACTORS
330
E
102
}
330
E
100
AcDbMlineStyle
  2
STANDARD
 70
     0
  3

 62
     0
 51
90.0
 52
90.0
 71
     2
 49
0.5
 62
   256
  6
BYLAYER
 49
-0.5
 62
   256
  6
BYLAYER
  0
ACDBPLACEHOLDER
  5
7F3F
102
{ACAD_REACTORS
330
7F3E
102
}
330
7F3E
  0
SCALE
  5
803A
102
{ACAD_REACTORS
330
8039
102
}
330
8039
100
AcDbScale
 70
     0
300
1:1
140
1.0
141
1.0
290
     1
  0
SCALE
  5
803B
102
{ACAD_REACTORS
330
8039
102
}
330
8039
100
AcDbScale
 70
     0
300
1:2
140
1.0
141
2.0
290
     0
  0
SCALE
  5
803C
102
{ACAD_REACTORS
330
8039
102
}
330
8039
100
AcDbScale
 70
     0
300
1:4
140
1.0
141
4.0
290
     0
  0
SCALE
  5
803D
102
{ACAD_REACTORS
330
8039
102
}
330
8039
100
AcDbScale
 70
     0
300
1:5
140
1.0
141
5.0
290
     0
  0
SCALE
  5
803E
102
{ACAD_REACTORS
330
8039
102
}
330
8039
100
AcDbScale
 70
     0
300
1:8
140
1.0
141
8.0
290
     0
  0
SCALE
  5
803F
102
{ACAD_REACTORS
330
8039
102
}
330
8039
100
AcDbScale
 70
     0
300
1:10
140
1.0
141
10.0
290
     0
  0
SCALE
  5
8040
102
{ACAD_REACTORS
330
8039
102
}
330
8039
100
AcDbScale
 70
     0
300
1:16
140
1.0
141
16.0
290
     0
  0
SCALE
  5
8041
102
{ACAD_REACTORS
330
8039
102
}
330
8039
100
AcDbScale
 70
     0
300
1:20
140
1.0
141
20.0
290
     0
  0
SCALE
  5
8042
102
{ACAD_REACTORS
330
8039
102
}
330
8039
100
AcDbScale
 70
     0
300
1:30
140
1.0
141
30.0
290
     0
  0
SCALE
  5
8043
102
{ACAD_REACTORS
330
8039
102
}
330
8039
100
AcDbScale
 70
     0
300
1:40
140
1.0
141
40.0
290
     0
  0
SCALE
  5
8044
102
{ACAD_REACTORS
330
8039
102
}
330
8039
100
AcDbScale
 70
     0
300
1:50
140
1.0
141
50.0
290
     0
  0
SCALE
  5
8045
102
{ACAD_REACTORS
330
8039
102
}
330
8039
100
AcDbScale
 70
     0
300
1:100
140
1.0
141
100.0
290
     0
  0
SCALE
  5
8046
102
{ACAD_REACTORS
330
8039
102
}
330
8039
100
AcDbScale
 70
     0
300
2:1
140
2.0
141
1.0
290
     0
  0
SCALE
  5
8047
102
{ACAD_REACTORS
330
8039
102
}
330
8039
100
AcDbScale
 70
     0
300
4:1
140
4.0
141
1.0
290
     0
  0
SCALE
  5
8048
102
{ACAD_REACTORS
330
8039
102
}
330
8039
100
AcDbScale
 70
     0
300
8:1
140
8.0
141
1.0
290
     0
  0
SCALE
  5
8049
102
{ACAD_REACTORS
330
8039
102
}
330
8039
100
AcDbScale
 70
     0
300
10:1
140
10.0
141
1.0
290
     0
  0
SCALE
  5
804A
102
{ACAD_REACTORS
330
8039
102
}
330
8039
100
AcDbScale
 70
     0
300
100:1
140
100.0
141
1.0
290
     0
  0
ACDBSECTIONVIEWSTYLE
  5
804E
102
{ACAD_XDICTIONARY
360
84A9
102
}
102
{ACAD_REACTORS
330
804D
102
}
330
804D
100
AcDbModelDocViewStyle
 70
     0
  3
Metric50
290
     0
100
AcDbSectionViewStyle
 70
     0
 71
     0
 90
      102
 71
     1
340
10
 40
5.0
340
0
340
0
 40
5.0
300
I, O, Q, S, X, Z
 40
10.0
 90
        0
 40
2.5
 90
        0
 71
     2
340
15
 90
       25
340
15
 90
       50
 40
5.0
 40
2.5
 40
5.0
 71
     3
340
10
 40
5.0
 90
        0
 40
15.0
 90
        1
300
%<\AcVar ViewSectionStartId>%-%<\AcVar ViewSectionEndId>% (%<\AcVar ViewScale \f "%sn">%)
 71
     4
300
ANSI31
 40
1.0
 90
        0
290
     0
290
     0
 90
        6
 40
0.0
 40
1.570796326794896
 40
0.2617993877991494
 40
1.308996938995747
 40
-0.2617993877991494
 40
1.832595714594046
  0
TABLESTYLE
  5
8038
102
{ACAD_XDICTIONARY
360
84BE
102
}
102
{ACAD_REACTORS
330
8037
102
}
330
8037
100
AcDbTableStyle
  3
Standard
 70
     0
 71
     0
 40
1.5
 41
1.5
280
     0
281
     0
  7
STANDARD
140
4.5
170
     2
 62
     0
 63
     7
283
     0
274
    -2
284
     1
 64
     0
275
    -2
285
     1
 65
     0
276
    -2
286
     1
 66
     0
277
    -2
287
     1
 67
     0
278
    -2
288
     1
 68
     0
279
    -2
289
     1
 69
     0
  7
STANDARD
140
6.0
170
     5
 62
     0
 63
     7
283
     0
274
    -2
284
     1
 64
     0
275
    -2
285
     1
 65
     0
276
    -2
286
     1
 66
     0
277
    -2
287
     1
 67
     0
278
    -2
288
     1
 68
     0
279
    -2
289
     1
 69
     0
  7
STANDARD
140
4.5
170
     5
 62
     0
 63
     7
283
     0
274
    -2
284
     1
 64
     0
275
    -2
285
     1
 65
     0
276
    -2
286
     1
 66
     0
277
    -2
287
     1
 67
     0
278
    -2
288
     1
 68
     0
279
    -2
289
     1
 69
     0
  0
VISUALSTYLE
  5
8023
102
{ACAD_XDICTIONARY
360
84DB
102
}
102
{ACAD_REACTORS
330
801D
102
}
330
801D
100
AcDbVisualStyle
  2
2dWireframe
 70
     4
 71
     0
 72
     2
 73
     0
 90
        0
 40
-0.6
 41
-30.0
 62
     5
 63
     7
 74
     1
 91
        4
 64
     7
 65
   257
 75
     1
175
     1
 42
1.0
 92
        0
 66
   257
 43
1.0
 76
     1
 77
     6
 78
     2
 67
     7
 79
     5
170
     0
171
     0
290
     0
174
     0
 93
        1
 44
0.0
173
     0
291
     0
 45
0.0
1001
ACAD
1000
AcDbSavedByObjectVersion
1070
     0
  0
VISUALSTYLE
  5
8022
102
{ACAD_XDICTIONARY
360
84D9
102
}
102
{ACAD_REACTORS
330
801D
102
}
330
801D
100
AcDbVisualStyle
  2
Basic
 70
     7
 71
     1
 72
     0
 73
     1
 90
        0
 40
-0.6
 41
-30.0
 62
     5
 63
     7
 74
     0
 91
        4
 64
     7
 65
   257
 75
     1
175
     1
 42
1.0
 92
        8
 66
     7
 43
1.0
 76
     1
 77
     6
 78
     2
 67
     7
 79
     5
170
     0
171
     0
290
     0
174
     0
 93
        1
 44
0.0
173
     0
291
     1
 45
0.0
1001
ACAD
1000
AcDbSavedByObjectVersion
1070
     0
  0
VISUALSTYLE
  5
8029
102
{ACAD_XDICTIONARY
360
84E7
102
}
102
{ACAD_REACTORS
330
801D
102
}
330
801D
100
AcDbVisualStyle
  2
Brighten
 70
    12
 71
     2
 72
     2
 73
     0
 90
        0
 40
-0.6
 41
-30.0
 62
     5
 63
     7
 74
     1
 91
        4
 64
     7
 65
   257
 75
     1
175
     1
 42
1.0
 92
        8
 66
     7
 43
1.0
 76
     1
 77
     6
 78
     2
 67
     7
 79
     5
170
     0
171
     0
290
     0
174
     0
 93
        1
 44
50.0
173
     0
291
     1
 45
0.0
1001
ACAD
1000
AcDbSavedByObjectVersion
1070
     0
  0
VISUALSTYLE
  5
802D
102
{ACAD_XDICTIONARY
360
84EF
102
}
102
{ACAD_REACTORS
330
801D
102
}
330
801D
100
AcDbVisualStyle
  2
ColorChange
 70
    16
 71
     2
 72
     2
 73
     3
 90
        0
 40
-0.6
 41
-30.0
 62
     5
 63
     8
 74
     1
 91
        4
 64
     7
 65
   257
 75
     1
175
     1
 42
1.0
 92
        8
 66
     8
 43
1.0
 76
     1
 77
     6
 78
     2
 67
     7
 79
     5
170
     0
171
     0
290
     0
174
     0
 93
        1
 44
0.0
173
     0
291
     1
 45
0.0
1001
ACAD
1000
AcDbSavedByObjectVersion
1070
     0
  0
VISUALSTYLE
  5
8026
102
{ACAD_XDICTIONARY
360
84E1
102
}
102
{ACAD_REACTORS
330
801D
102
}
330
801D
100
AcDbVisualStyle
  2
Conceptual
 70
     9
 71
     3
 72
     2
 73
     0
 90
        0
 40
-0.6
 41
-30.0
 62
     5
 63
     7
 74
     2
 91
        2
 64
     7
 65
   257
 75
     1
175
     1
 42
179.0
 92
        8
 66
     7
 43
1.0
 76
     1
 77
     6
 78
     2
 67
     7
 79
     3
170
     0
171
     0
290
     0
174
     0
 93
        1
 44
0.0
173
     0
291
     0
 45
0.0
1001
ACAD
1000
AcDbSavedByObjectVersion
1070
     0
  0
VISUALSTYLE
  5
8028
102
{ACAD_XDICTIONARY
360
84E5
102
}
102
{ACAD_REACTORS
330
801D
102
}
330
801D
100
AcDbVisualStyle
  2
Dim
 70
    11
 71
     2
 72
     2
 73
     0
 90
        0
 40
-0.6
 41
-30.0
 62
     5
 63
     7
 74
     1
 91
        4
 64
     7
 65
   257
 75
     1
175
     1
 42
1.0
 92
        8
 66
     7
 43
1.0
 76
     1
 77
     6
 78
     2
 67
     7
 79
     5
170
     0
171
     0
290
     0
174
     0
 93
        1
 44
-50.0
173
     0
291
     1
 45
0.0
1001
ACAD
1000
AcDbSavedByObjectVersion
1070
     0
  0
VISUALSTYLE
  5
8035
102
{ACAD_XDICTIONARY
360
84FF
102
}
102
{ACAD_REACTORS
330
801D
102
}
330
801D
100
AcDbVisualStyle
  2
EdgeColorOff
 70
    22
 71
     2
 72
     2
 73
     0
 90
        0
 40
-0.6
 41
-30.0
 62
     5
 63
     7
 74
     1
 91
        4
 64
     7
 65
   257
 75
     1
175
     1
 42
1.0
 92
        8
 66
     7
 43
1.0
 76
     1
 77
     6
 78
     2
 67
     7
 79
     5
170
     0
171
     0
290
     0
174
     0
 93
        1
 44
0.0
173
     0
291
     1
 45
0.0
1001
ACAD
1000
AcDbSavedByObjectVersion
1070
     0
  0
VISUALSTYLE
  5
802C
102
{ACAD_XDICTIONARY
360
84ED
102
}
102
{ACAD_REACTORS
330
801D
102
}
330
801D
100
AcDbVisualStyle
  2
Facepattern
 70
    15
 71
     2
 72
     2
 73
     0
 90
        0
 40
-0.6
 41
-30.0
 62
     5
 63
     7
 74
     1
 91
        4
 64
     7
 65
   257
 75
     1
175
     1
 42
1.0
 92
        8
 66
     7
 43
1.0
 76
     1
 77
     6
 78
     2
 67
     7
 79
     5
170
     0
171
     0
290
     0
174
     0
 93
        1
 44
0.0
173
     0
291
     1
 45
0.0
1001
ACAD
1000
AcDbSavedByObjectVersion
1070
     0
  0
VISUALSTYLE
  5
801E
102
{ACAD_XDICTIONARY
360
84D1
102
}
102
{ACAD_REACTORS
330
801D
102
}
330
801D
100
AcDbVisualStyle
  2
Flat
 70
     0
 71
     2
 72
     1
 73
     1
 90
        2
 40
-0.6
 41
30.0
 62
     5
 63
     7
 74
     0
 91
        0
 64
     7
 65
   257
 75
     1
175
     1
 42
1.0
 92
        8
 66
     7
 43
1.0
 76
     1
 77
     6
 78
     2
 67
     7
 79
     5
170
     0
171
     0
290
     0
174
     0
 93
       13
 44
0.0
173
     0
291
     1
 45
0.0
1001
ACAD
1000
AcDbSavedByObjectVersion
1070
     0
  0
VISUALSTYLE
  5
801F
102
{ACAD_XDICTIONARY
360
84D3
102
}
102
{ACAD_REACTORS
330
801D
102
}
330
801D
100
AcDbVisualStyle
  2
FlatWithEdges
 70
     1
 71
     2
 72
     1
 73
     1
 90
        2
 40
-0.6
 41
30.0
 62
     5
 63
     7
 74
     1
 91
        0
 64
     7
 65
   257
 75
     1
175
     1
 42
1.0
 92
        0
 66
   257
 43
1.0
 76
     1
 77
     6
 78
     2
 67
     7
 79
     5
170
     0
171
     0
290
     0
174
     0
 93
       13
 44
0.0
173
     0
291
     1
 45
0.0
1001
ACAD
1000
AcDbSavedByObjectVersion
1070
     0
  0
VISUALSTYLE
  5
8020
102
{ACAD_XDICTIONARY
360
84D5
102
}
102
{ACAD_REACTORS
330
801D
102
}
330
801D
100
AcDbVisualStyle
  2
Gouraud
 70
     2
 71
     2
 72
     2
 73
     1
 90
        2
 40
-0.6
 41
30.0
 62
     5
 63
     7
 74
     0
 91
        0
 64
     7
 65
   257
 75
     1
175
     1
 42
1.0
 92
        0
 66
     7
 43
1.0
 76
     1
 77
     6
 78
     2
 67
     7
 79
     5
170
     0
171
     0
290
     0
174
     0
 93
       13
 44
0.0
173
     0
291
     1
 45
0.0
1001
ACAD
1000
AcDbSavedByObjectVersion
1070
     0
  0
VISUALSTYLE
  5
8021
102
{ACAD_XDICTIONARY
360
84D7
102
}
102
{ACAD_REACTORS
330
801D
102
}
330
801D
100
AcDbVisualStyle
  2
GouraudWithEdges
 70
     3
 71
     2
 72
     2
 73
     1
 90
        2
 40
-0.6
 41
30.0
 62
     5
 63
     7
 74
     1
 91
        0
 64
     7
 65
   257
 75
     1
175
     1
 42
1.0
 92
        0
 66
   257
 43
1.0
 76
     1
 77
     6
 78
     2
 67
     7
 79
     5
170
     0
171
     0
290
     0
174
     0
 93
       13
 44
0.0
173
     0
291
     1
 45
0.0
1001
ACAD
1000
AcDbSavedByObjectVersion
1070
     0
  0
VISUALSTYLE
  5
8025
102
{ACAD_XDICTIONARY
360
84DF
102
}
102
{ACAD_REACTORS
330
801D
102
}
330
801D
100
AcDbVisualStyle
  2
Hidden
 70
     6
 71
     1
 72
     2
 73
     2
 90
        0
 40
-0.6
 41
-30.0
 62
     5
 63
     7
 74
     2
 91
        2
 64
     7
 65
   257
 75
     2
175
     1
 42
40.0
 92
        0
 66
   257
 43
1.0
 76
     1
 77
     6
 78
     2
 67
     7
 79
     3
170
     0
171
     0
290
     0
174
     0
 93
        1
 44
0.0
173
     0
291
     0
 45
0.0
1001
ACAD
1000
AcDbSavedByObjectVersion
1070
     0
  0
VISUALSTYLE
  5
8033
102
{ACAD_XDICTIONARY
360
84FB
102
}
102
{ACAD_REACTORS
330
801D
102
}
330
801D
100
AcDbVisualStyle
  2
JitterOff
 70
    20
 71
     2
 72
     2
 73
     0
 90
        0
 40
-0.6
 41
-30.0
 62
     5
 63
     7
 74
     1
 91
        4
 64
     7
 65
   257
 75
     1
175
     1
 42
1.0
 92
       10
 66
     7
 43
1.0
 76
     1
 77
     6
 78
     2
 67
     7
 79
     5
170
     0
171
     0
290
     0
174
     0
 93
        1
 44
0.0
173
     0
291
     1
 45
0.0
1001
ACAD
1000
AcDbSavedByObjectVersion
1070
     0
  0
VISUALSTYLE
  5
802B
102
{ACAD_XDICTIONARY
360
84EB
102
}
102
{ACAD_REACTORS
330
801D
102
}
330
801D
100
AcDbVisualStyle
  2
Linepattern
 70
    14
 71
     2
 72
     2
 73
     0
 90
        0
 40
-0.6
 41
-30.0
 62
     5
 63
     7
 74
     1
 91
        4
 64
     7
 65
   257
 75
     7
175
     7
 42
1.0
 92
        8
 66
     7
 43
1.0
 76
     1
 77
     6
 78
     2
 67
     7
 79
     5
170
     0
171
     0
290
     0
174
     0
 93
        1
 44
0.0
173
     0
291
     1
 45
0.0
1001
ACAD
1000
AcDbSavedByObjectVersion
1070
     0
  0
VISUALSTYLE
  5
8034
102
{ACAD_XDICTIONARY
360
84FD
102
}
102
{ACAD_REACTORS
330
801D
102
}
330
801D
100
AcDbVisualStyle
  2
OverhangOff
 70
    21
 71
     2
 72
     2
 73
     0
 90
        0
 40
-0.6
 41
-30.0
 62
     5
 63
     7
 74
     1
 91
        4
 64
     7
 65
   257
 75
     1
175
     1
 42
1.0
 92
        9
 66
     7
 43
1.0
 76
     1
 77
     6
 78
     2
 67
     7
 79
     5
170
     0
171
     0
290
     0
174
     0
 93
        1
 44
0.0
173
     0
291
     1
 45
0.0
1001
ACAD
1000
AcDbSavedByObjectVersion
1070
     0
  0
VISUALSTYLE
  5
8027
102
{ACAD_XDICTIONARY
360
84E3
102
}
102
{ACAD_REACTORS
330
801D
102
}
330
801D
100
AcDbVisualStyle
  2
Realistic
 70
     8
 71
     2
 72
     3
 73
     0
 90
        2
 40
-0.6
 41
30.0
 62
     5
 63
     7
 74
     0
 91
        0
 64
     7
 65
   257
 75
     1
175
     1
 42
1.0
 92
        8
 66
   257
 43
1.0
 76
     1
 77
     6
 78
     2
 67
     7
 79
     3
170
     0
171
     0
290
     0
174
     0
 93
       13
 44
0.0
173
     0
291
     0
 45
0.0
1001
ACAD
1000
AcDbSavedByObjectVersion
1070
     0
  0
VISUALSTYLE
  5
8032
102
{ACAD_XDICTIONARY
360
84F9
102
}
102
{ACAD_REACTORS
330
801D
102
}
330
801D
100
AcDbVisualStyle
  2
Shaded
 70
    27
 71
     2
 72
     2
 73
     1
 90
        2
 40
-0.6
 41
30.0
 62
     5
 63
     7
 74
     0
 91
        4
 64
     7
 65
   257
 75
     1
175
     1
 42
1.0
 92
        8
 66
   257
 43
1.0
 76
     1
 77
     6
 78
     2
 67
     8
 79
     3
170
     0
171
     0
290
     0
174
     0
 93
        5
 44
0.0
173
     0
291
     0
 45
0.0
1001
ACAD
1000
AcDbSavedByObjectVersion
1070
     0
  0
VISUALSTYLE
  5
8031
102
{ACAD_XDICTIONARY
360
84F7
102
}
102
{ACAD_REACTORS
330
801D
102
}
330
801D
100
AcDbVisualStyle
  2
Shaded with edges
 70
    26
 71
     2
 72
     2
 73
     1
 90
        2
 40
-0.6
 41
30.0
 62
     5
 63
     7
 74
     1
 91
       10
 64
     7
 65
   257
 75
     2
175
     1
 42
1.0
 92
        8
 66
   257
 43
1.0
 76
     1
 77
     6
 78
     2
 67
     7
 79
     3
170
     0
171
     0
290
     0
174
     0
 93
        5
 44
0.0
173
     0
291
     0
 45
0.0
1001
ACAD
1000
AcDbSavedByObjectVersion
1070
     0
  0
VISUALSTYLE
  5
802E
102
{ACAD_XDICTIONARY
360
84F1
102
}
102
{ACAD_REACTORS
330
801D
102
}
330
801D
100
AcDbVisualStyle
  2
Shades of Gray
 70
    23
 71
     2
 72
     2
 73
     3
 90
        0
 40
-0.6
 41
-30.0
 62
     5
 63
     7
 74
     2
 91
        2
 64
     7
 65
     7
 75
     1
175
     1
 42
40.0
 92
        8
 66
     7
 43
1.0
 76
     1
 77
     6
 78
     2
 67
     7
 79
     3
170
     0
171
     0
290
     0
174
     0
 93
        1
 44
0.0
173
     0
291
     0
 45
0.0
1001
ACAD
1000
AcDbSavedByObjectVersion
1070
     0
  0
VISUALSTYLE
  5
802F
102
{ACAD_XDICTIONARY
360
84F3
102
}
102
{ACAD_REACTORS
330
801D
102
}
330
801D
100
AcDbVisualStyle
  2
Sketchy
 70
    24
 71
     1
 72
     2
 73
     2
 90
        0
 40
-0.6
 41
-30.0
 62
     5
 63
     7
 74
     2
 91
        2
 64
     7
 65
     7
 75
     1
175
     1
 42
40.0
 92
       11
 66
     7
 43
1.0
 76
     1
 77
     6
 78
     2
 67
     7
 79
     6
170
     0
171
     0
290
     0
174
     0
 93
        1
 44
0.0
173
     0
291
     0
 45
0.0
1001
ACAD
1000
AcDbSavedByObjectVersion
1070
     0
  0
VISUALSTYLE
  5
802A
102
{ACAD_XDICTIONARY
360
84E9
102
}
102
{ACAD_REACTORS
330
801D
102
}
330
801D
100
AcDbVisualStyle
  2
Thicken
 70
    13
 71
     2
 72
     2
 73
     0
 90
        0
 40
-0.6
 41
-30.0
 62
     5
 63
     7
 74
     1
 91
        4
 64
     7
 65
   257
 75
     1
175
     1
 42
1.0
 92
       12
 66
     7
 43
1.0
 76
     1
 77
     6
 78
     2
 67
     7
 79
     5
170
     0
171
     0
290
     0
174
     0
 93
        1
 44
0.0
173
     0
291
     1
 45
0.0
1001
ACAD
1000
AcDbSavedByObjectVersion
1070
     0
  0
VISUALSTYLE
  5
8024
102
{ACAD_XDICTIONARY
360
84DD
102
}
102
{ACAD_REACTORS
330
801D
102
}
330
801D
100
AcDbVisualStyle
  2
Wireframe
 70
     5
 71
     0
 72
     2
 73
     0
 90
        0
 40
-0.6
 41
-30.0
 62
     5
 63
     7
 74
     1
 91
        4
 64
     7
 65
   257
 75
     1
175
     1
 42
1.0
 92
        0
 66
   257
 43
1.0
 76
     1
 77
     6
 78
     2
 67
     7
 79
     3
170
     0
171
     0
290
     0
174
     0
 93
        1
 44
0.0
173
     0
291
     0
 45
0.0
1001
ACAD
1000
AcDbSavedByObjectVersion
1070
     0
  0
VISUALSTYLE
  5
8030
102
{ACAD_XDICTIONARY
360
84F5
102
}
102
{ACAD_REACTORS
330
801D
102
}
330
801D
100
AcDbVisualStyle
  2
X-Ray
 70
    25
 71
     2
 72
     2
 73
     1
 90
        1
 40
0.5
 41
-30.0
 62
     5
 63
     7
 74
     1
 91
        0
 64
     7
 65
   257
 75
     1
175
     1
 42
1.0
 92
        8
 66
     7
 43
1.0
 76
     1
 77
     6
 78
     2
 67
     7
 79
     3
170
     0
171
     0
290
     0
174
     0
 93
       13
 44
0.0
173
     0
291
     0
 45
0.0
1001
ACAD
1000
AcDbSavedByObjectVersion
1070
     0
  0
DICTIONARYVAR
  5
84B3
102
{ACAD_REACTORS
330
7FFC
102
}
330
7FFC
100
DictionaryVariables
280
     0
  1
1:1
  0
DICTIONARYVAR
  5
84AF
102
{ACAD_REACTORS
330
7FFC
102
}
330
7FFC
100
DictionaryVariables
280
     0
  1
STANDARD
  0
DICTIONARYVAR
  5
84AE
102
{ACAD_REACTORS
330
7FFC
102
}
330
7FFC
100
DictionaryVariables
280
     0
  1
STANDARD
  0
DICTIONARYVAR
  5
84B0
102
{ACAD_REACTORS
330
7FFC
102
}
330
7FFC
100
DictionaryVariables
280
     0
  1
Metric50
  0
DICTIONARYVAR
  5
84B1
102
{ACAD_REACTORS
330
7FFC
102
}
330
7FFC
100
DictionaryVariables
280
     0
  1
Metric50
  0
DICTIONARYVAR
  5
7FFD
102
{ACAD_REACTORS
330
7FFC
102
}
330
7FFC
100
DictionaryVariables
280
     0
  1
1
  0
DICTIONARYVAR
  5
84BC
102
{ACAD_REACTORS
330
7FFC
102
}
330
7FFC
100
DictionaryVariables
280
     0
  1
0
  0
DICTIONARYVAR
  5
84B5
102
{ACAD_REACTORS
330
7FFC
102
}
330
7FFC
100
DictionaryVariables
280
     0
  1
1
  0
DICTIONARYVAR
  5
84B6
102
{ACAD_REACTORS
330
7FFC
102
}
330
7FFC
100
DictionaryVariables
280
     0
  1
15
  0
DICTIONARYVAR
  5
84B4
102
{ACAD_REACTORS
330
7FFC
102
}
330
7FFC
100
DictionaryVariables
280
     0
  1
0
  0
DICTIONARYVAR
  5
84B2
102
{ACAD_REACTORS
330
7FFC
102
}
330
7FFC
100
DictionaryVariables
280
     0
  1
0
  0
DICTIONARYVAR
  5
84BB
102
{ACAD_REACTORS
330
7FFC
102
}
330
7FFC
100
DictionaryVariables
280
     0
  1
127
  0
DICTIONARYVAR
  5
84BD
102
{ACAD_REACTORS
330
7FFC
102
}
330
7FFC
100
DictionaryVariables
280
     0
  1
2
  0
DICTIONARY
  5
84C9
102
{ACAD_REACTORS
330
84C7
102
}
330
84C7
100
AcDbDictionary
281
     1
  0
DICTIONARY
  5
84C8
102
{ACAD_REACTORS
330
84C7
102
}
330
84C7
100
AcDbDictionary
281
     1
  3
2129718992
350
84C2
  3
2129719000
350
84C3
  3
2129719008
350
84C4
  3
2129719016
350
84C5
  3
2129719024
350
84C6
  0
DICTIONARY
  5
84AB
330
8050
100
AcDbDictionary
280
     1
281
     1
  3
ACAD_XREC_ROUNDTRIP
360
8506
  0
DICTIONARY
  5
84CA
330
7F42
100
AcDbDictionary
280
     1
281
     1
  3
ACAD_XREC_ROUNDTRIP
360
84CB
  0
DICTIONARY
  5
84CC
330
7F43
100
AcDbDictionary
280
     1
281
     1
  3
ACAD_XREC_ROUNDTRIP
360
84CD
  0
DICTIONARY
  5
800E
330
800D
100
AcDbDictionary
280
     1
281
     1
  3
ACAD_XREC_ROUNDTRIP
360
84CF
  3
BUMPTILE
360
8010
  3
DIFFUSETILE
360
800F
  3
OPACITYTILE
360
8013
  3
REFLECTIONTILE
360
8012
  3
REFRACTIONTILE
360
8014
  3
SPECULARTILE
360
8011
  0
DICTIONARY
  5
8006
330
8005
100
AcDbDictionary
280
     1
281
     1
  3
ACAD_XREC_ROUNDTRIP
360
84CE
  3
BUMPTILE
360
8008
  3
DIFFUSETILE
360
8007
  3
OPACITYTILE
360
800B
  3
REFLECTIONTILE
360
800A
  3
REFRACTIONTILE
360
800C
  3
SPECULARTILE
360
8009
  0
DICTIONARY
  5
8016
330
8015
100
AcDbDictionary
280
     1
281
     1
  3
ACAD_XREC_ROUNDTRIP
360
84D0
  3
BUMPTILE
360
8018
  3
DIFFUSETILE
360
8017
  3
FBXASSET
360
8068
  3
OPACITYTILE
360
801B
  3
REFLECTIONTILE
360
801A
  3
REFRACTIONTILE
360
801C
  3
SPECULARTILE
360
8019
  0
DICTIONARY
  5
8503
330
804C
100
AcDbDictionary
280
     1
281
     1
  3
ACAD_XREC_ROUNDTRIP
360
8504
  0
DICTIONARY
  5
84A9
330
804E
100
AcDbDictionary
280
     1
281
     1
  3
ACAD_XREC_ROUNDTRIP
360
8505
  0
DICTIONARY
  5
84BE
330
8038
100
AcDbDictionary
280
     1
281
     1
  3
ACAD_ROUNDTRIP_2008_TABLESTYLE_CELLSTYLEMAP
360
84BF
  3
ACAD_XREC_ROUNDTRIP
360
8501
  0
DICTIONARY
  5
84DB
330
8023
100
AcDbDictionary
280
     1
281
     1
  3
ACAD_XREC_ROUNDTRIP
360
84DC
  0
DICTIONARY
  5
84D9
330
8022
100
AcDbDictionary
280
     1
281
     1
  3
ACAD_XREC_ROUNDTRIP
360
84DA
  0
DICTIONARY
  5
84E7
330
8029
100
AcDbDictionary
280
     1
281
     1
  3
ACAD_XREC_ROUNDTRIP
360
84E8
  0
DICTIONARY
  5
84EF
330
802D
100
AcDbDictionary
280
     1
281
     1
  3
ACAD_XREC_ROUNDTRIP
360
84F0
  0
DICTIONARY
  5
84E1
330
8026
100
AcDbDictionary
280
     1
281
     1
  3
ACAD_XREC_ROUNDTRIP
360
84E2
  0
DICTIONARY
  5
84E5
330
8028
100
AcDbDictionary
280
     1
281
     1
  3
ACAD_XREC_ROUNDTRIP
360
84E6
  0
DICTIONARY
  5
84FF
330
8035
100
AcDbDictionary
280
     1
281
     1
  3
ACAD_XREC_ROUNDTRIP
360
8500
  0
DICTIONARY
  5
84ED
330
802C
100
AcDbDictionary
280
     1
281
     1
  3
ACAD_XREC_ROUNDTRIP
360
84EE
  0
DICTIONARY
  5
84D1
330
801E
100
AcDbDictionary
280
     1
281
     1
  3
ACAD_XREC_ROUNDTRIP
360
84D2
  0
DICTIONARY
  5
84D3
330
801F
100
AcDbDictionary
280
     1
281
     1
  3
ACAD_XREC_ROUNDTRIP
360
84D4
  0
DICTIONARY
  5
84D5
330
8020
100
AcDbDictionary
280
     1
281
     1
  3
ACAD_XREC_ROUNDTRIP
360
84D6
  0
DICTIONARY
  5
84D7
330
8021
100
AcDbDictionary
280
     1
281
     1
  3
ACAD_XREC_ROUNDTRIP
360
84D8
  0
DICTIONARY
  5
84DF
330
8025
100
AcDbDictionary
280
     1
281
     1
  3
ACAD_XREC_ROUNDTRIP
360
84E0
  0
DICTIONARY
  5
84FB
330
8033
100
AcDbDictionary
280
     1
281
     1
  3
ACAD_XREC_ROUNDTRIP
360
84FC
  0
DICTIONARY
  5
84EB
330
802B
100
AcDbDictionary
280
     1
281
     1
  3
ACAD_XREC_ROUNDTRIP
360
84EC
  0
DICTIONARY
  5
84FD
330
8034
100
AcDbDictionary
280
     1
281
     1
  3
ACAD_XREC_ROUNDTRIP
360
84FE
  0
DICTIONARY
  5
84E3
330
8027
100
AcDbDictionary
280
     1
281
     1
  3
ACAD_XREC_ROUNDTRIP
360
84E4
  0
DICTIONARY
  5
84F9
330
8032
100
AcDbDictionary
280
     1
281
     1
  3
ACAD_XREC_ROUNDTRIP
360
84FA
  0
DICTIONARY
  5
84F7
330
8031
100
AcDbDictionary
280
     1
281
     1
  3
ACAD_XREC_ROUNDTRIP
360
84F8
  0
DICTIONARY
  5
84F1
330
802E
100
AcDbDictionary
280
     1
281
     1
  3
ACAD_XREC_ROUNDTRIP
360
84F2
  0
DICTIONARY
  5
84F3
330
802F
100
AcDbDictionary
280
     1
281
     1
  3
ACAD_XREC_ROUNDTRIP
360
84F4
  0
DICTIONARY
  5
84E9
330
802A
100
AcDbDictionary
280
     1
281
     1
  3
ACAD_XREC_ROUNDTRIP
360
84EA
  0
DICTIONARY
  5
84DD
330
8024
100
AcDbDictionary
280
     1
281
     1
  3
ACAD_XREC_ROUNDTRIP
360
84DE
  0
DICTIONARY
  5
84F5
330
8030
100
AcDbDictionary
280
     1
281
     1
  3
ACAD_XREC_ROUNDTRIP
360
84F6
  0
XRECORD
  5
84C2
102
{ACAD_REACTORS
330
84C8
102
}
330
84C8
100
AcDbXrecord
280
     1
  1
AcDb_Thumbnail_Schema
102
{ATTRRECORD
341
84C3
  2
AcDbDs::TreatedAsObjectData
280
     1
291
     1
102
ATTRRECORD}
102
{ATTRRECORD
341
84C4
  2
AcDbDs::Legacy
280
     1
291
     1
102
ATTRRECORD}
  2
AcDbDs::ID
280
    10
 91
        8
102
{ATTRRECORD
341
84C5
  2
AcDs:Indexable
280
     1
291
     1
102
ATTRRECORD}
102
{ATTRRECORD
341
84C6
  2
AcDbDs::HandleAttribute
280
     7
282
     1
102
ATTRRECORD}
  2
Thumbnail_Data
280
    15
 91
        0
  0
XRECORD
  5
84C3
102
{ACAD_REACTORS
330
84C8
102
}
330
84C8
100
AcDbXrecord
280
     1
  1
AcDbDs::TreatedAsObjectDataSchema
  2
AcDbDs::TreatedAsObjectData
280
     1
 91
        0
  0
XRECORD
  5
84C4
102
{ACAD_REACTORS
330
84C8
102
}
330
84C8
100
AcDbXrecord
280
     1
  1
AcDbDs::LegacySchema
  2
AcDbDs::Legacy
280
     1
 91
        0
  0
XRECORD
  5
84C5
102
{ACAD_REACTORS
330
84C8
102
}
330
84C8
100
AcDbXrecord
280
     1
  1
AcDbDs::IndexedPropertySchema
  2
AcDs:Indexable
280
     1
 91
        0
  0
XRECORD
  5
84C6
102
{ACAD_REACTORS
330
84C8
102
}
330
84C8
100
AcDbXrecord
280
     1
  1
AcDbDs::HandleAttributeSchema
  2
AcDbDs::HandleAttribute
280
     7
 91
        1
284
     1
  0
XRECORD
  5
8506
102
{ACAD_REACTORS
330
84AB
102
}
330
84AB
100
AcDbXrecord
280
     1
102
DISPLAYNAME
  1
Metric50
102
FLAGS
 90
        0
  0
XRECORD
  5
84CB
102
{ACAD_REACTORS
330
84CA
102
}
330
84CA
100
AcDbXrecord
280
     1
102
SHADEPLOT
 70
     0
102
SHADEPLOTRESLEVEL
 70
     2
102
SHADEPLOTCUSTOMDPI
 70
   300
  0
XRECORD
  5
84CD
102
{ACAD_REACTORS
330
84CC
102
}
330
84CC
100
AcDbXrecord
280
     1
102
SHADEPLOT
 70
     0
102
SHADEPLOTRESLEVEL
 70
     2
102
SHADEPLOTCUSTOMDPI
 70
   300
  0
XRECORD
  5
84CF
102
{ACAD_REACTORS
330
800E
102
}
330
800E
100
AcDbXrecord
280
     1
102
MATERIAL
148
0.0
149
0.0
149
0.0
 93
        0
 94
      127
282
     0
 72
     0
 77
     0
171
     0
175
     0
179
     0
273
     0
  0
XRECORD
  5
8010
102
{ACAD_REACTORS
330
800E
102
}
330
800E
100
AcDbXrecord
280
     1
270
     1
271
     1
  0
XRECORD
  5
800F
102
{ACAD_REACTORS
330
800E
102
}
330
800E
100
AcDbXrecord
280
     1
270
     1
271
     1
  0
XRECORD
  5
8013
102
{ACAD_REACTORS
330
800E
102
}
330
800E
100
AcDbXrecord
280
     1
270
     1
271
     1
  0
XRECORD
  5
8012
102
{ACAD_REACTORS
330
800E
102
}
330
800E
100
AcDbXrecord
280
     1
270
     1
271
     1
  0
XRECORD
  5
8014
102
{ACAD_REACTORS
330
800E
102
}
330
800E
100
AcDbXrecord
280
     1
270
     1
271
     1
  0
XRECORD
  5
8011
102
{ACAD_REACTORS
330
800E
102
}
330
800E
100
AcDbXrecord
280
     1
270
     1
271
     1
  0
XRECORD
  5
84CE
102
{ACAD_REACTORS
330
8006
102
}
330
8006
100
AcDbXrecord
280
     1
102
MATERIAL
148
0.0
149
0.0
149
0.0
 93
        0
 94
      127
282
     0
 72
     0
 77
     0
171
     0
175
     0
179
     0
273
     0
  0
XRECORD
  5
8008
102
{ACAD_REACTORS
330
8006
102
}
330
8006
100
AcDbXrecord
280
     1
270
     1
271
     1
  0
XRECORD
  5
8007
102
{ACAD_REACTORS
330
8006
102
}
330
8006
100
AcDbXrecord
280
     1
270
     1
271
     1
  0
XRECORD
  5
800B
102
{ACAD_REACTORS
330
8006
102
}
330
8006
100
AcDbXrecord
280
     1
270
     1
271
     1
  0
XRECORD
  5
800A
102
{ACAD_REACTORS
330
8006
102
}
330
8006
100
AcDbXrecord
280
     1
270
     1
271
     1
  0
XRECORD
  5
800C
102
{ACAD_REACTORS
330
8006
102
}
330
8006
100
AcDbXrecord
280
     1
270
     1
271
     1
  0
XRECORD
  5
8009
102
{ACAD_REACTORS
330
8006
102
}
330
8006
100
AcDbXrecord
280
     1
270
     1
271
     1
  0
XRECORD
  5
84D0
102
{ACAD_REACTORS
330
8016
102
}
330
8016
100
AcDbXrecord
280
     1
102
MATERIAL
148
0.0
149
0.0
149
0.0
 93
        0
 94
      127
282
     0
 72
     0
 77
     0
171
     0
175
     0
179
     0
273
     0
  0
XRECORD
  5
8018
102
{ACAD_REACTORS
330
8016
102
}
330
8016
100
AcDbXrecord
280
     1
270
     1
271
     1
  0
XRECORD
  5
8017
102
{ACAD_REACTORS
330
8016
102
}
330
8016
100
AcDbXrecord
280
     1
270
     1
271
     1
  0
XRECORD
  5
8068
102
{ACAD_REACTORS
330
8016
102
}
330
8016
100
AcDbXrecord
280
     1
 70
     1
 90
1959938040
 71
     1
  1
6D44BF10-CC81-452A-B0C5-F8038143D818
311
504B0304140006080800F6588B4F5FAB3D45D9000000200100004F00000033324441394644462D454442462D343432422D423831372D3131413832383245384144362F4173736574446174612F446566696E6974696F6E4974657261746F7250726F706572746965732E62696E454E3D6FC23010351D8A3A74E01F2076D739
311
27226D0454551298DA854E5D9031471AC97190ED481D3BF65FB76715C449EFDE7DBEBB1FC6D8EFD9286423C237F97BE20D5A74ADDEEA4FEC14BB8D15D3EF95195F7B3714C6B4C2A31A4C885BAFADD7688CB2D80F7E721D9D762A909C320F71E98E7029F8A8D0FC1F8BF7DF08F1A5C8EA702A9E95F71896E2B8FF12952CF3B9
311
04E0008F25CFB275CD5FD279CAEB3CAD4B80AA92752E1CFA7E701ABD9022D99D957727DBE072A61DD21F87D94A26F0C44192D03B4091E445967D2C44683B5C2D7C70AD6DA656757F504B0304140006080800F6588B4F6EB337E12C010000300200004500000033324441394644462D454442462D343432422D423831372D31
311
31413832383245384144362F4173736574446174612F496E7374616E636550726F706572746965732E62696EEB606060F80F0540260323103700495E20ED9E9A975A94991C9C9C919A9BA802143073313171723334D07576B630D435313572D475327036D575B33030B630343176B130B4604768046931363471713532B5D4
311
35353131D635313332D475727372D13534373670367376B67474B5042A03DBCBA019D37FE8ABC6157B20CD04146B0062181F4C03F940F0C11EA29A8141C08141002C0426541C106CAC2CA046088033B02A030AC2157C6006F21A8018AAF50194E6010A610250382264E08660284CD9E98021862280A91564B406929A0FF62C
311
401E28B6F88038B83CB1243943D7A928312F25350524C3600822183EFA38B308288467E6A5E4971733D8307030B030BCDFF7D6C794ADDB5F994F0BA4821F14D59C20C548209C2193218F2185219FA19CA118282EC65006311100504B0304140006080800F6588B4F28BB58AF800100009E0500003D00000033324441394644
311
462D454442462D343432422D423831372D3131413832383245384144362F536368656D61732F436F6D6D6F6E536368656D612E786D6CBD544D4FC23018BEFB2B96DE15493C78601010A34B880709DEDFB52FD0D8B54BD70DF6EFED3AC0B12E6442E2716BFB3CEFF3D18E26FB440405EA8C2B1992E1C323095052C5B8DC8424
311
37EBFB673219DF8DA659866649B798C078B48AE6410122242F2A4994AC7F93815DF85C049C8564CA0A901499DD886B2EB9B1E02448F358701A9235880C49A0119892A20C89D1B9FD768815CAD268CB5E0355B40B1E47F3E37A2020464BED06AA57CE8FCC20C3C3446D46761A2632A8C1283D07031EFF2AE7CCB1BFEEE916E4
311
06DFAC8E36FFD99A9D60A6944090EEDC3B670C7DC13DE86B6B2C5C240D6E503BB85ACD579D513F1B9F9A69DC9CC22AFA80C426D40AF0B21EA168559156B6276F0F726A6BFF04DCD513A87A62CAD41FB24FCB2858B3952E3D852084DA25B9303C15687973CC8E8AAE11DF2836C38C6A9E765E8C1BA1BFB1DC29CDFE518C8B5A
311
7655A4ED7E77291ABEB80DBD82EC866ADE1B8D05AF9E35CF09D7A061F38A986D9EC412B8F0F65E5D81534D9B231D1E5A8FE577A241F3A5FD01504B0304140006080800F6588B4F2CCEBD668A040000E01200003E00000033324441394644462D454442462D343432422D423831372D3131413832383245384144362F536368
311
656D61732F47656E65726963536368656D612E786D6CD5586D6FDB380CFE7EBF42F0F7A649B70E1B90744856B4970F450FCD7A5F05459613EDE4174872DADCAF3F522F8ED3B88D2F1D06AC4050DBA2493EE4438AF2F8EB73AEC8466823CB62928C06C384888297A92C5693A4B6D9D9E7E4EBD51FE3A931C22EF85AE4EC6AFC
311
38BF261BA626C9AD288496DC3F4FCEAFC63366845F7A10452AF41DB320C0D44EC26EAB20918735565582695670811A6A49643A49A6E9069FA4604A64B29016DC4B48552F95E4932463CA888468C1D2B250DB4962750DF7CE273069CE8363F1FF4EDB00E0A21999574AE4A2B00C353B93F3BD4777B8A61ED8F604ABFEDD79CE
311
56A2B7BDFBDBC50996E0ADDE16FED26223C5D30956C29BDF4A55EA686E5E58B112DA45CE67F76F4FA27EFA3FB672FD7372FC388FAECDCA5209E693CAD167BADCD272F943701B3812F8A3D852008B1D2E32DB927B2F833C6EA95879925356D254582695095A3CE982924720BE5774A3CB9CDCDB350427D2DF20DA1B5532EBE2
311
D5D6288D75D4F7E4FD9890A0EF8E3D93EBB8F8BA4758158EF6FB90A6F9520281C93DE7AAC6D24607DA296BB96018123F821A7D6A5C5884050C475DA4865442732C8B95684A50165CBB3A32F25F783A4A480ED59AD7F924B968AEA50131F46303223E6A397B0E52976030DC1DCA81D7E7C1EDEEA42C19FF27635C505E2BD519
311
8A599020DF50A2330FCB3AAF28CB0124108429553EF1B228802E2265D8F7CC2401042B155BCC7070F1E5C55F13B4A9577362CCCE46C32174E010C3C378C44841A4BDA00FE3A12006CE11EE6AEC59894D3526DDE1CD59D503ECC324017F8061B7F162162FA62EDD81AE3308617770796DCBDAD2B2625C5AE8A63DE20B2C8AA5
311
E95E76E5730823955956E33E705425A2187C185D36489A1B44D3DCEC2172F6BA2105C3546287A7194B2331768EBBE64F6E70A9930ABE0ADEA89E9E2C38523B810287AD67A54A039C1606EAFE68F8304610BB9093DBDDABC0B2AE4E290DCDA15376D7E39F72B556F0B32EAB5D3D498B4C41ABADEC3A1434C422D87E8025A84B
311
DCB2B1417ED750FAE4DA8976863974C577C7F902D3F156AD354DEA3540DE6BEAE2BEA52F7A2EB4CA43802ECE5BF2CE2EDC9347179FFB023CE412E60BE16DA0BE29B374988A553F561DC04615DD35F7D2C8979F60E5955CE93DF29DED8AFA1EE6642D53418086C03C47C377910F75F7E8F5EF665F70B60FFB22AEDF897D119E
311
8423C773E819A3C1E55E550599EE6EDCA34D0C86FD72057DF2CD46F16A470682471C164E4346D5306BF12D7D12D82CFF673D41636C347443FEB51B50D72EA171A8E4A58623A4A16E0FA2B8B10A0D23268D87C33896EE8FB73305A74BF224EDBADFA0BD674AB354D63DB7BD5D83426761C077DE767728235446A552754EB93B
311
755891C3C4CC6CADE37CF0E912A7BB38DBA010F9DE1282EDF470CA69A9CDA482E334C4A6EA4107987980B17E72F31730EBF88BBD39E7C629F56797A3C0009C2C5AE7951D9A05A02773440F02EEB4DE396A3B6A570C72CCFBCD823B0B8ED3F1D5CEDDFED772FA70236C83FB7D86C385D570B87107535572A60A96035F8F7C6A
311
7192F13007246BBE0521855E6AC46F3E27689CEE7D186A6FD679D98CDCAD13333E04EBE7ED6F55FF01504B0304140006080800F6588B4F6180134D5F0100006B0300004500000033324441394644462D454442462D343432422D423831372D3131413832383245384144362F536368656D61732F52656E6465724D61746572
311
69616C536368656D612E786D6CA5934D6FC2300C86EFFB1551EEE343DBA41D1A103009551ADAD40EAE28A4A68D9426284961FCFBE5A340113B2071746D3F765EBF4DC6BFB5407BD0862B49F0B037C0082453059725C18DDD3EBFE3F1E829991803366715D474942CD30FB4A782E00C64017A412D684E454CE3FE28995203B1
311
62A6EA5AC94B66997D225E109CD63B0135484BAD1B3C07E9080CA35DB3119C11BCA5C200461A68A1A438126C75E3E230D40FF81FB3F03C91D1E3A3A0AF79FE28E25BC39EC3E17E4C2A2D94A0833A51AF55BCCA7D88572FCBAC529C4140B020FC3AAFA886621DCED7EAD7664CC86024E806DC297DA1BB393E4156543457A453
311
7DB8817349A70F8ACBF09B3EEE2CB2F33E91B65D60786E4E3B39B77E3FEEEF5650424525DA657FB8B46BE6BF064646F0A0F7327C0BC1BC1B4CBBC1C419FA3CCB23500007872A2580CAAE5461865565294E4EDB4617B62FF579DF9A5B2F54E834076A597573A020912FED777F9B3F504B0304140006080800F6588B4FA95895
311
7651000000570000004700000033324441394644462D454442462D343432422D423831372D3131413832383245384144362F4173736574446174612F41737365745461626C654F66436F6E74656E74732E62696E536160603073313171723334D07576B630D435313572D475327036D575B33030B630343176B130B41002AA
311
CB4D2C492DCA4CCC492C28484D2C4ACC4B4E050A82012F90744FCD03CA26072767A4E6260200504B0304140006080800F6588B4FF865834058000000680000004500000033324441394644462D454442462D343432422D423831372D3131413832383245384144362F4173736574446174612F53747265616D56657273696F
311
6E5461626C652E696E66558CBD0A80300C06F73E4B117FB66E451741D041DC5BF98480A492E4FDD18EAEC7DD4555D89EF28DF51A0B1BD8340C4DE7DD848B988C0ACF0649566493F2408C508DDEBB99D5129FF8F1AF8CF5B9503E20FAE5A16B5AF702504B0304140006080800F6588B4FC86A6B0D340100009A040000360000
311
0033324441394644462D454442462D343432422D423831372D3131413832383245384144362F4173736574446174612F636E782E786D6CCD94314FC3301085FF4AE43D765C55022AC71582A51348540C6C57E752AC3A76645F10FC7BEC3603A888A943D7F3BBF3F327BF53EBCFC1551F18930DBE659237AC426F4267FDBE65
311
13F5F52DABD65AC510E8878C551E066C592933ADF6314CE35CEAB087C995AAB3FE3017EF5342DAC2CEE153FF103CA1A7C42AE320A59625F38E0370982874980EBC03022E79C414A668304F223BE03CC94404C28EE94523EF6AB9A8A5DC4AB96A6E56CBE59B1245A9D52E0437EB6DBE2C86B132A75B996E9428C75A4DD1CE9A
311
F216A6FFF2C877D62B91955A258A99C9DC415F63EE807174D6006574221842AAB3086150E224D64A1406BF483C626FBD2D2D9B6C0C28C4E76C0F2359BC3A22FF79BD3C998D4F04DEE0F5F2387778790A2FC71FF47A0AE43131D796937387DCFAFE022911C735924353B68AFE06504B0304140006080800F6588B4F3DBB733D
311
070100004F0300003400000033324441394644462D454442462D343432422D423831372D3131413832383245384144362F536368656D61732F636E782E786D6CCD93BD4E042114855F65423F306C3651370C5B5858D9A8951DC2DD952C7027FC187D7B61A4D84DECB4D80E0E5FC839878BD87F7A377C404C16C34C389DC800
311
41A3B1E13893920FE32D19F65244C47C869121280F33693291E218B12C5D327050C535D5D970EAE23D7A8FE159BF835764D04EA53493B46EA92A190DA413352A2BCA698484256AA83764EBA1DFA023A80C86C8CDC4EF46BE19397FE17C37DDECB6DB57C11A29C51BA2EBBC0D19222E83C6BA08D5CE24583B96A244DB999681
311
C8736FB4B6215825A44839D60E3A99BF964AAA657156AB5CAB622BF8C348C15AD48BC00F10205A7D9D892FCCFD5BE4270806E2637DA56895BBCEE4BF79FC5B016C9DFD3A02ED2BC86F504B0304140006080800F6588B4F410A3D5871000000A40000002C00000033324441394644462D454442462D343432422D423831372D
311
3131413832383245384144362F636E782E786D6C55CC4D0E82301086E1AB34B31774E7A22D31F1069E60020334B633A63FC6E34B0909B07DDE2F9FEE7EC1AB2FC5E4840DDC9A2B28E25E06C7938192C7CB1D54677514C9871928C640062A83D55394F2D968A0118BAFEA1DBF377CA444F98919176EAB9FEAAB9F2960DA5BBB
311
1E2ED3FA6FFF504B0304140006080800F6588B4F4C17AB347D000000A300000007000000636E782E786D6C4D8CD10AC22018465F45FE7B2B6D94813A14E77B8CE686E4346C468F9FC62EBAFAE0F09DC3FBCF1AD0DBE5974F5100399C00B9784F938F8B80B2CD9801EA25CF296D7F3740715C9D808641F225A7F2DCD1E4E6B1
311
8446838F8F1D9EA951376B2C1E8CB6B8EBA8C69A912B264431CAE8C094B954E3D8943ABF5EDD96975F504B0304140006080800F6588B4F16E99B5DA600000035010000130000005B436F6E74656E745F54797065735D2E786D6C9590410E82301045AFD2740F4517C6180A0BF5065E60AC53688469D30E066F6F91AD9AB89C
311
F9FFFD3F99BA9DC7413C3026E749CB4D59498164FCCD51A7E5C4B6D84BD136F5E5193089ECA5A465CF1C0E4A25D3E308A9F401292BD6C711388FB15301CC1D3A54DBAADA29E38991B8E0254336F5092D4C038BF39CD76B6FC6A538AEBEA54A4B08617006389FA516557DE4AE8E7E70DE30729138228C5F021CD93F02D4FB0D
311
CD0B504B0304140006080800F6588B4F3DEE336E64000000790000001B0000006175746F6465736B2D64657369676E2D7061636B6167652E786D6C35CBC10E83200C00D05F21DCA56CA76D41FC96062B120735B69A7DBE268BB7777961F8D5AF396893C2ADB70FE7ADA196782C2DF776D7A97B5933C430F15651E5469C55D7
311
0F80A4992A3ADC954792C525AE70A1E4D6AD9816CC044FEFDF01FE3FDE907802504B0304140006080800F6588B4FF3EE837DF8000000960100003700000033324441394644462D454442462D343432422D423831372D3131413832383245384144362F4173736574446174612F636F72652E786D6C8550CB6EC32010FC156B
311
EFD8E0E0124798C852DC2FE8A93784898B1283C5A3EAE71712576A4F3DED6A76667677F8F96BBD579FDA07E3EC00A4C65069ABDC6CEC32408A577484EA2CB8772EFEA24165E5AA07283008BE7897B61D52CE466D0B6ADDAC775086A02354EA9E9B0182FAD0ABAC658A99116EF526D54D2EBA26F59327784A66DEA566CE6EE6
311
6AB4077199C848D96B8730A61451DCB7A8675D875EBAC37124AC67139B7853C48247B3FE6C575ECBA867102D263D222D22E48D901366274ADF7953988287E8F3CFFBD2F21D88B15C7D9151F2E639FDE39AB6F97FD7646C3CB4BBEB531140907CE46320785352CAE51161AE2551F10D504B0304140006080800F6588B4FD5D5
311
0F48F7000000940100003500000033324441394644462D454442462D343432422D423831372D3131413832383245384144362F536368656D61732F636F72652E786D6C8550CB6EC32010FC156BEFD8E0E01247982852DD1F684FBD214C5C94182C1E553FBFE0B8527BEA6957B333B3BBC3CF5FCBBDFAD43E1867072035864A
311
5BE52663E70152BCA2235467C1BD73F1170D2A2B173D408141F0D9BBB4EE9072366A5B50EB26BD8332041DA152F7DC0C10D4875E642D53CC8C70AB57A96E72D635A91F3CC15332D32E3553763357A33D88E7915C287BE910C694228AFB16F5ACEBD05377385E08EBD9C846DE14B1E0D12C3FDB95D732EA09448B498F488B08
311
7923E484D989D277DE14A6E021FAFCF3BEB47C07E275BB33F0E631FBE399D6E97FCF646C3CB4BBE7431140907CE23610BC2919E5B205986BC9537C03504B0304140006080800F6588B4F32BDB66C02010000D70100002D00000033324441394644462D454442462D343432422D423831372D3131413832383245384144362F
311
636F72652E786D6C95914D6E83301085AF82660FC40E6D48641C810827E8AA3B174FA8956023FF543D7EED42D576D7AE6C3D7F6FC66F869DDFE77BF686D629A31B20C50E32D4A3914A4F0D047FCD6BC8CE9C5963FC0F0C322D666C20C9C0D9644D58366934DAA34EAA3612375138871EB2F11E2F0DB8F115675188E023E16E
311
C522C69B98B020C5CA71E6D5FC651D2D0A8F1238DD91634E684EC81321A7DDE15455CFAC4C24674169BFA75B339C5F506666F13112F00756AEAF910A4A6E8C92F18FEAAAD002DFD3BE3D0EFD905FFA6EC8AB8A76795793436CD4D6B4A697BAED1F639168E6CC791B27B3154933F8AB7D35FE4A1616F9CF64ABC30127DFA1CA
311
3466CECACF1DC433AD847F00504B0304140006080800F6588B4FA809098006010000B201000008000000636F72652E786D6C8D50416EC32010FC0ADA3B3638761D47982852DD17F4D41B05E2A2D8601988DADF1762576A6F3D2D9A99DD19869D3FE709DDF5EA8DB33DD08200D2563A65ECD8430C577C0474E66C752EFC9201
311
B262D63D6418381B5717971D92CE066D336A9DD23B28BCD701909CD2A3072F3FF42C0A114352F85BB1087913A32E68B1E9380B66FE5995AB16412BE015A11DA615A6F495D213694F75FDC6CAACE42C46A3762BA392BBB91ABD027F1EE8A56E5F1A4C485DE39A7415EEDAA6C14FCDE178A16DD70EEDC0CABCCC990F6BFAF37E
311
24E50CC88B7BF665E54671F6EEDCB40B5228859C9DBE80135666E24FE8B8A87F8436361CAAFDE0B6E181D314E84124E3DC601A8F7AD3CC6DF36F504B01021400140006080800F6588B4F5FAB3D45D9000000200100004F000000000000000000000000000000000033324441394644462D454442462D343432422D42383137
311
2D3131413832383245384144362F4173736574446174612F446566696E6974696F6E4974657261746F7250726F706572746965732E62696E504B01021400140006080800F6588B4F6EB337E12C0100003002000045000000000000000000000000004601000033324441394644462D454442462D343432422D423831372D31
311
31413832383245384144362F4173736574446174612F496E7374616E636550726F706572746965732E62696E504B01021400140006080800F6588B4F28BB58AF800100009E0500003D00000000000000000000000000D502000033324441394644462D454442462D343432422D423831372D3131413832383245384144362F
311
536368656D61732F436F6D6D6F6E536368656D612E786D6C504B01021400140006080800F6588B4F2CCEBD668A040000E01200003E00000000000000000000000000B004000033324441394644462D454442462D343432422D423831372D3131413832383245384144362F536368656D61732F47656E65726963536368656D
311
612E786D6C504B01021400140006080800F6588B4F6180134D5F0100006B03000045000000000000000000000000009609000033324441394644462D454442462D343432422D423831372D3131413832383245384144362F536368656D61732F52656E6465724D6174657269616C536368656D612E786D6C504B0102140014
311
0006080800F6588B4FA958957651000000570000004700000000000000000000000000580B000033324441394644462D454442462D343432422D423831372D3131413832383245384144362F4173736574446174612F41737365745461626C654F66436F6E74656E74732E62696E504B01021400140006080800F6588B4FF8
311
658340580000006800000045000000000000000000000000000E0C000033324441394644462D454442462D343432422D423831372D3131413832383245384144362F4173736574446174612F53747265616D56657273696F6E5461626C652E696E66504B01021400140006080800F6588B4FC86A6B0D340100009A04000036
311
00000000000000000000000000C90C000033324441394644462D454442462D343432422D423831372D3131413832383245384144362F4173736574446174612F636E782E786D6C504B01021400140006080800F6588B4F3DBB733D070100004F0300003400000000000000000000000000510E000033324441394644462D45
311
4442462D343432422D423831372D3131413832383245384144362F536368656D61732F636E782E786D6C504B01021400140006080800F6588B4F410A3D5871000000A40000002C00000000000000000000000000AA0F000033324441394644462D454442462D343432422D423831372D3131413832383245384144362F636E
311
782E786D6C504B01021400140006080800F6588B4F4C17AB347D000000A3000000070000000000000000000000000065100000636E782E786D6C504B01021400140006080800F6588B4F16E99B5DA6000000350100001300000000000000000000000000071100005B436F6E74656E745F54797065735D2E786D6C504B0102
311
1400140006080800F6588B4F3DEE336E64000000790000001B00000000000000000000000000DE1100006175746F6465736B2D64657369676E2D7061636B6167652E786D6C504B01021400140006080800F6588B4FF3EE837DF80000009601000037000000000000000000000000007B12000033324441394644462D454442
311
462D343432422D423831372D3131413832383245384144362F4173736574446174612F636F72652E786D6C504B01021400140006080800F6588B4FD5D50F48F7000000940100003500000000000000000000000000C813000033324441394644462D454442462D343432422D423831372D3131413832383245384144362F53
311
6368656D61732F636F72652E786D6C504B01021400140006080800F6588B4F32BDB66C02010000D70100002D000000000000000000000000001215000033324441394644462D454442462D343432422D423831372D3131413832383245384144362F636F72652E786D6C504B01021400140006080800F6588B4FA809098006
311
010000B201000008000000000000000000000000005F160000636F72652E786D6C504B050600000000110011005A0600008B1700000000
310
504B0304140006080800F6588B4F000000000000000000000000370000006662782F30353232393131302D424242392D344343422D383431362D4430313330394637393732392F617474726962757465732E62696E504B0304140006080800F6588B4F000000000000000000000000350000006662782F3035323239313130
310
2D424242392D344343422D383431362D4430313330394637393732392F76657274696365732E62696E504B0304140006080800F6588B4FF270F1330600000004000000360000006662782F30353232393131302D424242392D344343422D383431362D4430313330394637393732392F747269616E676C65732E62696E6366
310
60600000504B0304140006080800F6588B4F51464CB48900000043010000360000006662782F30353232393131302D424242392D344343422D383431362D4430313330394637393732392F6469726563746F72792E786D6C9D8F310EC2300C45AF127987122606C71DD918B841D4B851A43646695A717C52A85029031293A5
310
A76FBF6FACEF7DA7264E43906840EF0FA03836E242F406C6DCEE4EA06AC22492573150D1F66C60C640E8938CB705396EEDD86DE9B5042FE27813D640EA63BB001C722AF6E55CB61E4863F58284D5D3F53DD715CE1C3985E63FD7F1B7EBDD617E9F1E504B0304140006080800F6588B4F392D9859330700001A1C0000340000
310
006662782F30353232393131302D424242392D344343422D383431362D4430313330394637393732392F6F626A656374732E786D6CDD59EB6FE23810FF57ACDCE7BC08B4B0A2AC5A682B74EAEE6AD19EEE5B6482A1BE3A0F39491FF7D7DFD8B1431C02A4FB905647A5121C673CF39BF764FAF13566E899F09CA6C995E53B9E
310
854812A51B9AECAEACB2D8DA630B7D9CA1294FD3A2B1CF42098EC9952596ADD974C7D332534B1BB2C5256BAFDEDDFC8DF28824C44211C3797E65E5D12389B183CB22DD90FCC9D9E0023BBBEDABE33BD54693EC8EE3ECB175548639490A6015D613A0A238F0CD9F20923B9BBA6283B12DE8B76D70629B2B053719A5495EE024
310
3AE0AA75DCE00857ADE3027FB8B81D8C26F668380CECE1C5C0B76FEE6E16B67F1978F38BF97C727D3BB1D06CBA4E53562B2023C906B4F866CDFCA92BEED4E22B14BAF88ED224219142B36BC38628BA94E46D4C0C607D295A432195AC8D85A0A7F047B6F502C560C9405B0BA7BF9BD69BAEFF0110F23E56CA7322AC3C2F38E8
310
5A615FF9833775AB55432F3447312E08A7982146D71C7350106CAD14649011DE2248218199D4A2A6D7E4150CFBBC2F7571B92D1913FE6BCDA4A785E08FA4C82567F45FC2F7DC374F039E40DA9226C558095BBC6540623275E562752F18A89B159068CBF00EAC05C4149B82410BAFB98805CB8535FBF36EFDBA12F1A1FBF08C
310
A719E185B03CE9CCCAEFB4061BA605C6D703940A5753777B54BE02F49F00F99A173405CD71FA3A7C1D6AD9394EF26DCA63D00EF290EDC13F0F89CB83ABA95B3F3C43C88895C73005B7FD49981A62186737209D4D9FC1E8531E28E156116660D30F34117E0E8682580A4B10EFB7EB576BB684600A8BF01466203DFC4D5D7189
310
E0ABA203F1A6A5A1AEF0DB4351DA61DA7EB6D7D53DD80CA751AD2A43C663F88E7E0ABED78BD59FAB926F71441E94632FC89626B48064DACD9001BAE1F2DF969FA447DEB3748DD9FE69635304C7EC5211373AD4B2526A41522FC08948C39566E4CA03056F670C27242D73B5DE15A7A294A53C5CBF85950B779EF597B681EA30
310
65009DB10C927BC4692630B1664A5B7520741A82828561AE2C705769355C977116E2382D13116A0F4DB1CD07C4196189405552D386ADBD5693DDD0EDB6CC217875929C1B402A7FD6842B0B1F421CEBE297932DC79044D324A49083C1593A4F300EA8C13BCD734ED836A48C9571B8A50CF24818E3EC08FD9E123433D713797B
310
49F9A693A06959DA27B50D09C015B01A249DADAA98AF74CAC9331565A6CC673A1B183B541D6ACD8647D285C8141D806A6394667EB1180E6FEE7CCF9ECFC7BE3D1C0DAEED1B6F3EB2EFC65E30F687C162EC8FDB7CEA68D5CC77A04A51E618FE573C96F13AC194C10D2136DE641F3ECAEC79E54268741783F9259468BEEDFBE3
310
B93D1CDEDDDAD7C14560DF5E06B773DF5F2C06B7972E27795AF288E4EEC0F5426D9259B23BC695E6EE30864259733ED9697DB585F91FC7D0764E3094F8BB06D13A767514847D83A878B41D4271F42452541841D5D7E93EAD20DAE6A32BCEBD332E7B4EE0C98FEF4F06DE64309E5CD4C67E3250CB737E38CE75491041DF5916
310
619AE18816DD09B5854BCF38FDAEDCE204FE08013AF5FFFA90D379461D12D218EF48B8C5A24BE8088CE724E8CC613B96E6394D482EBBBC83EAAF45D373A09832736E8711D23C8C4981BFC7FE64DBD0B26988CD2C847EB4101381B355416DD0AA0339465174BF90B8A5FC6F618EE38C559DEE390CFC818640F7385D16279816
310
473C83BD85B808BD0D91838B73D46BF6757DD0A9B536F5C977933F028FAE6B7E213CFA88FEA59333F227E23386A07231F2834BAD887358E9A30AD1C7B1123ACFE82D7C2174F7D8ABD0ECA79346C95615D50589A18DC545C97BF9EBC5C83B3848C5859643344E7A677128FB37DDC1017AB2813B56DE368E813A942630E7EA25
310
C881149D262C7521677A6274F50EBF3EA9EC26D51F8E97BFBC626E3A5F2C873FE771806AB90AC02AFA18357567D56DD443F90B2E2208A42BF96DDF80476CC866DF9819E4BA4A745D9F9EAB9E9722A0C630B1C522CE3E880BF61583AAA17BCEDDFBAA6873ABF5A5486C0E0CA7F77C184C9BB43EDFAF5A5460A5F7D35F0446E4
310
A54541ADCE45377C82D4B7E5BEE76F5150127D5B9E78FCB7E828B4021B63349806E729A33094271BB42329646F183BF4E836784C729995C1785590D26F047A3CFD5CCD540BBC66FAE9E811C3609AA95EAC8C60280A19F3CA52EBE80F18838A49A41C4E394FD086A91866A192D32B0B2CB6A0D06D396B1867C9E1A1A4DE1A57
310
8263E36427F27DF554FD7BFF984007A2D25EAE7A4F1F5C9464863341619BC9F70450F5553766D3EF175DB383700197EBB2A885D92FECA55120E81702957030F57B52F0BE4241715A2EDF917B0C487A4DE64FDA4145D52E30DFC9F17A03EFEBC517574CC6979F51C6CA9D50E7A9EED7A0648BAE9B95D5146A0A86A1C4CCB0A8
310
21E71FDC2F3C85574C31BAA36004EE3C8DE334513FAED52B2AB47A84174E1B570FFBA081F7FC912BFB7F35D00FD738270EDEE44FB0004AE5544C452B700DD5D771B4A17AAD0BA10578CCD8BF5C205515356623CD802B8091D37C042E24DEE20887696E688C1EC10B802B79737FA117A62E87F1F7EC3F504B03041400060808
310
00F6588B4FD711A7DF3D01000046050000300000006662782F30353232393131302D424242392D344343422D383431362D4430313330394637393732392F636E782E786D6CCD94C14A033110865F25E4BE9B4D29A8259B82079FC08378CB66A76BEC6EB22413B16F6F52D3AA48C543A1BD85C93FF07F333F23D6EFD348DEC0
310
07E36C4B79DD500256BBDED8A1A51137D52D256B29BC73F84D46895513B43497A9148377712EA51E362A8EB93A1ABB2D4585E84D171102257A5421B434E8179854AD22BA1EC2B6EE15AA9AD71E828B5E43EA473341E9D71E14424FE5A2E177155F549C3F72BE6A6E56CBE5B360592945E7DC58F4C622783713EDD2C326338D
310
60F95B8AE84DD164022ABF9CD59DB182A57F2942726B87A2C3DD9C75F33C1AAD308D89398D805512819A04FB144BC132EF0FEA87FBA78303D21B0F1A9DDF5D6800FCD4008EC6EA9484FFF1EF857F63BBEE35E15E6ADB27618BADB3A11ED21A525C7FEF3FA548D961BCBED01F8D9D3FF3E994A0D1D7877CF0752662B63F7969
310
E9F902CA0F504B0304140006080800F6588B4F45C12E527E000000A30000000B0000006662782F636E782E786D6C4D8CD10AC22018465F45FE7B4B6DB509EAC045EF319A1B92FB0D9BD1E3A7B18BAE3E387CE7A8FEB306F276E9E5236AE00706C4E13D4E1E170D799B6907A4372AC5B8FDDD80E0B83A0D1583514B8AF9B9A3
310
C9CD630E95068F8F1DB2B310927346ADB59236C36069D7F00BBD327E62F2D6CA56C8621CAB52E6D72B5BF3E60B504B0304140006080800F6588B4FA6D797065F0000008200000007000000636E782E786D6C4DCB3B0E80201045D1AD90E9FD7516806B51190811670C8A61F982B1B0BAC9C97B72CA7B1037C6D3332918DA1E
310
04D2CAC69353902EDB8C20262D23F3F59B81A079470595414B17391D1F19B4730A5583A7ED43BBE4025D9592775E5ADFFA01504B0304140006080800F6588B4F4FEB6A7CA0000000F4000000130000005B436F6E74656E745F54797065735D2E786D6C7D8F4B0EC2300C44AF1279DFA6B0400835ED02B8011730C16D239A8F
310
121795DB93D02D6269CFBC19BBED573B8B17C564BC53B0AB1B10E4B47F18372A5878A88E20FAAEBDBD032591BD2E299898C349CAA427B2986A1FC86565F0D122E7318E32A07EE24872DF3407A9BD63725C71C980AEBDD080CBCCE2BAE6F5D69B7110E7CD57AA146008B3D1C8F92C5954F993BB1BF787F39A89ABC491D09600
310
F9FDA2FB00504B0304140006080800F6588B4F3DEE336E64000000790000001B0000006175746F6465736B2D64657369676E2D7061636B6167652E786D6C35CBC10E83200C00D05F21DCA56CA76D41FC96062B120735B69A7DBE268BB7777961F8D5AF396893C2ADB70FE7ADA196782C2DF776D7A97B5933C430F15651E546
310
9C55D70F80A4992A3ADC954792C525AE70A1E4D6AD9816CC044FEFDF01FE3FDE907802504B0304140006080800F6588B4FB2E3C6F3FA000000960100003B0000006662782F30353232393131302D424242392D344343422D383431362D4430313330394637393732392F7265736F75726365732F636F72652E786D6C8550CB
310
6E833010FC15B4770326902691711468F9829E7AB3CC86580936F2A3EAE7D70E546A4F3DED6A76667677D8F96B7E649F689D32BA059A9790A19666547A6A21F82B394076E6CC1AE37FD120D362C616120C9C4DD6846583A4D11E7542B51971038573E821938FD8B4E0E40D67918BE023C3DDF345C8BB9830A7F9CAE32C0435
310
6E52354637755568811FEAC33034CD1BE99BEA95D4979E92AE1FF6643FD4C75D77698ED5D0B1228939F36AFED92E2D0A8F23F0AAA447422B42E93BA5A7F2E554D71FAC484CCE9CB7F1E76D69FA0EB845678295E858B14EFFB88665FCDF3528ED77D5E6BA2A1C701A8F7C0E382B524AB13C238C3525CABF01504B0304140006
310
080800F6588B4F8EA17155F0000000B1010000310000006662782F30353232393131302D424242392D344343422D383431362D4430313330394637393732392F636F72652E786D6C8D50CB6EC32010FC158B3B364BDC264498484ED52FE8A93704C44189C1E251F5F30BB12BB5B79C16CDCE30B3C34FDFF3BDF932215AEF06
310
042D418D71CA6BEBA601E574C107D49C040FDEA73F34D438399B015518093E059F970D52DE25E32AEABC361B2863340935EA5E1E038AEA6A66D9CA9C0A23DEDA45AA9B9C4C0BEDCA133CD9F957AA8291C968242801868162800F8023D91FFBFE9377952978CE566F565617777BB12620415E286500048FE3C8707F3E8FF8D0
310
C32B7E23B023EC7DCFF694F1AE8A058F29949BB74FEA75CFCA57E1BFCC79D14F64B62EEDE866B82A221250F23C168277B5C0321EED9659CB163F504B0304140006080800F6588B4F0E2F90F955010000DD0200000C0000006662782F636F72652E786D6C8D525D6F832014FD2B867754AC766D83346D377FC19EF646915A52
310
058360FAF3077EC4F9B06E314172EEBDE7DC73023E3E9B3AE8B9EE84923940610C022E992A85AC7260CD0DEE407024582B657EB48140D286E7C0C380E04A2BDB4E1053D270E951A94A3E81B4EBB80101ABDD25071DBBF38686D41AD7D13DC296B207AD7888C2B18F606B45398D8AD2B1899BE01A905DBA2B8A2CFB80972C79
310
87E9E982E0F9526CE1B648F79BF329DB27C519477E9860239A599D694E0D2F014962B4872881087D227488DF0E69FA8523DF497067B4F33C897A7780DCAE4F1C8DF88ACFB6E5DF7C5648B34926BE71A20304B9F58602C191CFC7FD86F0D6193A61979FA1D77AB6F07050CF99513A759552D9A5D4D3DA72471D07C387A3B1EA
310
980782DF7892173CAF395C5054566E356ADCF56A8D575FEFD4720D7BF30CA4D20DAD97E5C6159773115A599AC799AA95FECFF46C750E33F20F937C03504B0304140006080800F6588B4F2E1B152208010000B201000008000000636F72652E786D6C8D50C16E842014FC15F2EEA8B8BAD50DB2596DFD829E7AA3C25AB20A06
310
70D3FE7D61B5497BEBE99199796F86A1E7CF794277699D32BA01926480A41E8C507A6C60F5575C013A336A8DF1BF6480349F6503110646476BD6658706A3BDD411D546C81DE4CE490F6898C2A301377CC899277CF541E16EC9C2871B1F6542924DC7A857F3CFEA6025F75200CB3352639263425E0939654FA7A278A3695432
310
BAAE4AEC564A04777555D202AB8AAAEFCBF2057765FE8C8B4B4770DBF5477CEC8BFAD05ECA3AEF5B9AC665469DB7E1CFFB9190D323C7EFD197A61BC5E8BB31D32E08A104327AFA0296D134127F42AF8BF84768A5FD21DF0F6E1B0E1809811E44308E0D86F1A837CCD836FB06504B01021400140006080800F6588B4F000000
310
0000000000000000003700000000000000000000000000000000006662782F30353232393131302D424242392D344343422D383431362D4430313330394637393732392F617474726962757465732E62696E504B01021400140006080800F6588B4F0000000000000000000000003500000000000000000000000000550000
310
006662782F30353232393131302D424242392D344343422D383431362D4430313330394637393732392F76657274696365732E62696E504B01021400140006080800F6588B4FF270F13306000000040000003600000000000000000000000000A80000006662782F30353232393131302D424242392D344343422D38343136
310
2D4430313330394637393732392F747269616E676C65732E62696E504B01021400140006080800F6588B4F51464CB489000000430100003600000000000000000000000000020100006662782F30353232393131302D424242392D344343422D383431362D4430313330394637393732392F6469726563746F72792E786D6C
310
504B01021400140006080800F6588B4F392D9859330700001A1C00003400000000000000000000000000DF0100006662782F30353232393131302D424242392D344343422D383431362D4430313330394637393732392F6F626A656374732E786D6C504B01021400140006080800F6588B4FD711A7DF3D0100004605000030
310
00000000000000000000000000640900006662782F30353232393131302D424242392D344343422D383431362D4430313330394637393732392F636E782E786D6C504B01021400140006080800F6588B4F45C12E527E000000A30000000B00000000000000000000000000EF0A00006662782F636E782E786D6C504B010214
310
00140006080800F6588B4FA6D797065F000000820000000700000000000000000000000000960B0000636E782E786D6C504B01021400140006080800F6588B4F4FEB6A7CA0000000F400000013000000000000000000000000001A0C00005B436F6E74656E745F54797065735D2E786D6C504B01021400140006080800F658
310
8B4F3DEE336E64000000790000001B00000000000000000000000000EB0C00006175746F6465736B2D64657369676E2D7061636B6167652E786D6C504B01021400140006080800F6588B4FB2E3C6F3FA000000960100003B00000000000000000000000000880D00006662782F30353232393131302D424242392D34434342
310
2D383431362D4430313330394637393732392F7265736F75726365732F636F72652E786D6C504B01021400140006080800F6588B4F8EA17155F0000000B10100003100000000000000000000000000DB0E00006662782F30353232393131302D424242392D344343422D383431362D4430313330394637393732392F636F72
310
652E786D6C504B01021400140006080800F6588B4F0E2F90F955010000DD0200000C000000000000000000000000001A1000006662782F636F72652E786D6C504B01021400140006080800F6588B4F2E1B152208010000B2010000080000000000000000000000000099110000636F72652E786D6C504B0506000000000E00
310
0E0080040000C71200000000
  0
XRECORD
  5
801B
102
{ACAD_REACTORS
330
8016
102
}
330
8016
100
AcDbXrecord
280
     1
270
     1
271
     1
  0
XRECORD
  5
801A
102
{ACAD_REACTORS
330
8016
102
}
330
8016
100
AcDbXrecord
280
     1
270
     1
271
     1
  0
XRECORD
  5
801C
102
{ACAD_REACTORS
330
8016
102
}
330
8016
100
AcDbXrecord
280
     1
270
     1
271
     1
  0
XRECORD
  5
8019
102
{ACAD_REACTORS
330
8016
102
}
330
8016
100
AcDbXrecord
280
     1
270
     1
271
     1
  0
XRECORD
  5
8504
102
{ACAD_REACTORS
330
8503
102
}
330
8503
100
AcDbXrecord
280
     1
102
ACAD_ROUNDTRIP_2012_MLEADER_STYLE
298
     1
  0
XRECORD
  5
8505
102
{ACAD_REACTORS
330
84A9
102
}
330
84A9
100
AcDbXrecord
280
     1
102
DISPLAYNAME
  1
Metric50
102
FLAGS
 90
        0
  0
CELLSTYLEMAP
  5
84BF
102
{ACAD_REACTORS
330
84BE
102
}
330
84BE
100
AcDbCellStyleMap
 90
        3
300
CELLSTYLE
  1
TABLEFORMAT_BEGIN
 90
        5
170
     1
 91
        0
 92
    32768
 62
   257
 93
        1
300
CONTENTFORMAT
  1
CONTENTFORMAT_BEGIN
 90
        0
 91
        0
 92
      512
 93
        0
300

 40
0.0
140
1.0
 94
        5
 62
     0
340
10
144
6.0
309
CONTENTFORMAT_END
171
     1
301
MARGIN
  1
CELLMARGIN_BEGIN
 40
1.5
 40
1.5
 40
1.5
 40
1.5
 40
4.5
 40
4.5
309
CELLMARGIN_END
 94
        6
 95
        1
302
GRIDFORMAT
  1
GRIDFORMAT_BEGIN
 90
        0
 91
        1
 62
     0
 92
       -2
340
0
 93
        0
 40
1.125
309
GRIDFORMAT_END
 95
        2
302
GRIDFORMAT
  1
GRIDFORMAT_BEGIN
 90
        0
 91
        1
 62
     0
 92
       -2
340
0
 93
        0
 40
1.125
309
GRIDFORMAT_END
 95
        4
302
GRIDFORMAT
  1
GRIDFORMAT_BEGIN
 90
        0
 91
        1
 62
     0
 92
       -2
340
0
 93
        0
 40
1.125
309
GRIDFORMAT_END
 95
        8
302
GRIDFORMAT
  1
GRIDFORMAT_BEGIN
 90
        0
 91
        1
 62
     0
 92
       -2
340
0
 93
        0
 40
1.125
309
GRIDFORMAT_END
 95
       16
302
GRIDFORMAT
  1
GRIDFORMAT_BEGIN
 90
        0
 91
        1
 62
     0
 92
       -2
340
0
 93
        0
 40
1.125
309
GRIDFORMAT_END
 95
       32
302
GRIDFORMAT
  1
GRIDFORMAT_BEGIN
 90
        0
 91
        1
 62
     0
 92
       -2
340
0
 93
        0
 40
1.125
309
GRIDFORMAT_END
309
TABLEFORMAT_END
  1
CELLSTYLE_BEGIN
 90
        1
 91
        1
300
_TITLE
309
CELLSTYLE_END
300
CELLSTYLE
  1
TABLEFORMAT_BEGIN
 90
        5
170
     1
 91
        0
 92
        0
 62
   257
 93
        1
300
CONTENTFORMAT
  1
CONTENTFORMAT_BEGIN
 90
        0
 91
        0
 92
      512
 93
        0
300

 40
0.0
140
1.0
 94
        5
 62
     0
340
10
144
4.5
309
CONTENTFORMAT_END
171
     1
301
MARGIN
  1
CELLMARGIN_BEGIN
 40
1.5
 40
1.5
 40
1.5
 40
1.5
 40
4.5
 40
4.5
309
CELLMARGIN_END
 94
        6
 95
        1
302
GRIDFORMAT
  1
GRIDFORMAT_BEGIN
 90
        0
 91
        1
 62
     0
 92
       -2
340
0
 93
        0
 40
1.125
309
GRIDFORMAT_END
 95
        2
302
GRIDFORMAT
  1
GRIDFORMAT_BEGIN
 90
        0
 91
        1
 62
     0
 92
       -2
340
0
 93
        0
 40
1.125
309
GRIDFORMAT_END
 95
        4
302
GRIDFORMAT
  1
GRIDFORMAT_BEGIN
 90
        0
 91
        1
 62
     0
 92
       -2
340
0
 93
        0
 40
1.125
309
GRIDFORMAT_END
 95
        8
302
GRIDFORMAT
  1
GRIDFORMAT_BEGIN
 90
        0
 91
        1
 62
     0
 92
       -2
340
0
 93
        0
 40
1.125
309
GRIDFORMAT_END
 95
       16
302
GRIDFORMAT
  1
GRIDFORMAT_BEGIN
 90
        0
 91
        1
 62
     0
 92
       -2
340
0
 93
        0
 40
1.125
309
GRIDFORMAT_END
 95
       32
302
GRIDFORMAT
  1
GRIDFORMAT_BEGIN
 90
        0
 91
        1
 62
     0
 92
       -2
340
0
 93
        0
 40
1.125
309
GRIDFORMAT_END
309
TABLEFORMAT_END
  1
CELLSTYLE_BEGIN
 90
        2
 91
        1
300
_HEADER
309
CELLSTYLE_END
300
CELLSTYLE
  1
TABLEFORMAT_BEGIN
 90
        5
170
     1
 91
        0
 92
        0
 62
   257
 93
        1
300
CONTENTFORMAT
  1
CONTENTFORMAT_BEGIN
 90
        0
 91
        0
 92
      512
 93
        0
300

 40
0.0
140
1.0
 94
        2
 62
     0
340
10
144
4.5
309
CONTENTFORMAT_END
171
     1
301
MARGIN
  1
CELLMARGIN_BEGIN
 40
1.5
 40
1.5
 40
1.5
 40
1.5
 40
4.5
 40
4.5
309
CELLMARGIN_END
 94
        6
 95
        1
302
GRIDFORMAT
  1
GRIDFORMAT_BEGIN
 90
        0
 91
        1
 62
     0
 92
       -2
340
0
 93
        0
 40
1.125
309
GRIDFORMAT_END
 95
        2
302
GRIDFORMAT
  1
GRIDFORMAT_BEGIN
 90
        0
 91
        1
 62
     0
 92
       -2
340
0
 93
        0
 40
1.125
309
GRIDFORMAT_END
 95
        4
302
GRIDFORMAT
  1
GRIDFORMAT_BEGIN
 90
        0
 91
        1
 62
     0
 92
       -2
340
0
 93
        0
 40
1.125
309
GRIDFORMAT_END
 95
        8
302
GRIDFORMAT
  1
GRIDFORMAT_BEGIN
 90
        0
 91
        1
 62
     0
 92
       -2
340
0
 93
        0
 40
1.125
309
GRIDFORMAT_END
 95
       16
302
GRIDFORMAT
  1
GRIDFORMAT_BEGIN
 90
        0
 91
        1
 62
     0
 92
       -2
340
0
 93
        0
 40
1.125
309
GRIDFORMAT_END
 95
       32
302
GRIDFORMAT
  1
GRIDFORMAT_BEGIN
 90
        0
 91
        1
 62
     0
 92
       -2
340
0
 93
        0
 40
1.125
309
GRIDFORMAT_END
309
TABLEFORMAT_END
  1
CELLSTYLE_BEGIN
 90
        3
 91
        2
300
_DATA
309
CELLSTYLE_END
  0
XRECORD
  5
8501
102
{ACAD_REACTORS
330
84BE
102
}
330
84BE
100
AcDbXrecord
280
     1
102
ACAD_ROUNDTRIP_PRE2007_TABLESTYLE
 90
      512
 91
        0
  1

 92
      512
 93
        0
  2

 94
      512
 95
        0
  3

  0
XRECORD
  5
84DC
102
{ACAD_REACTORS
330
84DB
102
}
330
84DB
100
AcDbXrecord
280
     1
102
RTVSPost2010Prop28
280
     1
102
RTVSPost2010PropOp28
 70
     1
102
RTVSPost2010Prop29
280
     1
102
RTVSPost2010PropOp29
 70
     1
102
RTVSPost2010Prop30
280
     0
102
RTVSPost2010PropOp30
 70
     1
102
RTVSPost2010Prop31
280
     0
102
RTVSPost2010PropOp31
 70
     1
102
RTVSPost2010Prop32
280
     0
102
RTVSPost2010PropOp32
 70
     1
102
RTVSPost2010Prop33
280
     0
102
RTVSPost2010PropOp33
 70
     1
102
RTVSPost2010Prop34
280
     0
102
RTVSPost2010PropOp34
 70
     1
102
RTVSPost2010Prop35
280
     0
102
RTVSPost2010PropOp35
 70
     1
102
RTVSPost2010Prop36
280
     0
102
RTVSPost2010PropOp36
 70
     1
102
RTVSPost2010Prop37
 90
       50
102
RTVSPost2010PropOp37
 70
     1
102
RTVSPost2010Prop38
140
0.0
102
RTVSPost2010PropOp38
 70
     1
102
RTVSPost2010Prop39
140
1.0
102
RTVSPost2010PropOp39
 70
     1
102
RTVSPost2010Prop40
 90
        0
102
RTVSPost2010PropOp40
 70
     1
102
RTVSPost2010Prop41ColorIndex
 90
       18
102
RTVSPost2010Prop41ColorRGB
 90
        0
102
RTVSPost2010PropOp41
 70
     1
102
RTVSPost2010Prop42
 90
       50
102
RTVSPost2010PropOp42
 70
     1
102
RTVSPost2010Prop43
 90
        3
102
RTVSPost2010PropOp43
 70
     1
102
RTVSPost2010Prop44ColorIndex
 90
        5
102
RTVSPost2010Prop44ColorRGB
 90
      255
102
RTVSPost2010PropOp44
 70
     1
102
RTVSPost2010Prop45
280
     0
102
RTVSPost2010PropOp45
 70
     1
102
RTVSPost2010Prop46
 90
       50
102
RTVSPost2010PropOp46
 70
     1
102
RTVSPost2010Prop47
 90
       50
102
RTVSPost2010PropOp47
 70
     1
102
RTVSPost2010Prop48
 90
       50
102
RTVSPost2010PropOp48
 70
     1
102
RTVSPost2010Prop49
280
     0
102
RTVSPost2010PropOp49
 70
     1
102
RTVSPost2010Prop50
 90
       50
102
RTVSPost2010PropOp50
 70
     1
102
RTVSPost2010Prop51ColorIndex
 90
      256
102
RTVSPost2010Prop51ColorRGB
 90
-16777216
102
RTVSPost2010PropOp51
 70
     0
102
RTVSPost2010Prop52
140
1.0
102
RTVSPost2010PropOp52
 70
     0
102
RTVSPost2010Prop53
 90
        2
102
RTVSPost2010PropOp53
 70
     1
102
RTVSPost2010Prop54
  1
strokes_ogs.tif
102
RTVSPost2010PropOp54
 70
     1
102
RTVSPost2010Prop55
280
     0
102
RTVSPost2010PropOp55
 70
     1
102
RTVSPost2010Prop56
140
1.0
102
RTVSPost2010PropOp56
 70
     1
102
RTVSPost2010Prop57
140
1.0
102
RTVSPost2010PropOp57
 70
     1
102
RTVSPropertyOp0
 70
     1
102
RTVSPropertyOp1
 70
     1
102
RTVSPropertyOp2
 70
     1
102
RTVSPropertyOp3
 70
     1
102
RTVSPropertyOp4
 70
     1
102
RTVSPropertyOp5
 70
     1
102
RTVSPropertyOp6
 70
     1
102
RTVSPropertyOp7
 70
     1
102
RTVSPropertyOp8
 70
     1
102
RTVSPropertyOp9
 70
     1
102
RTVSPropertyOp10
 70
     1
102
RTVSPropertyOp11
 70
     1
102
RTVSPropertyOp12
 70
     1
102
RTVSPropertyOp13
 70
     1
102
RTVSPropertyOp14
 70
     1
102
RTVSPropertyOp15
 70
     1
102
RTVSPropertyOp16
 70
     1
102
RTVSPropertyOp17
 70
     1
102
RTVSPropertyOp18
 70
     1
102
RTVSPropertyOp19
 70
     1
102
RTVSPropertyOp20
 70
     1
102
RTVSPropertyOp21
 70
     1
102
RTVSPropertyOp22
 70
     1
102
RTVSPropertyOp23
 70
     1
102
RTVSPropertyOp24
 70
     1
102
RTVSPropertyOp25
 70
     1
102
RTVSPropertyOp26
 70
     1
102
RTVSPropertyOp27
 70
     1
102
RTVSPropertyOp28
 70
     1
102
RTVSPropertyOp29
 70
     1
102
RTVSPropertyOp30
 70
     1
102
RTVSPropertyOp31
 70
     1
102
RTVSPropertyOp32
 70
     1
102
RTVSPropertyOp33
 70
     1
102
RTVSPropertyOp34
 70
     1
102
RTVSPropertyOp35
 70
     1
102
RTVSPropertyOp36
 70
     1
102
RTVSPropertyOp37
 70
     1
102
RTVSPropertyOp38
 70
     1
102
RTVSPropertyOp39
 70
     1
102
RTVSPropertyOp40
 70
     1
102
RTVSPropertyOp41
 70
     1
102
RTVSPropertyOp42
 70
     1
102
RTVSPropertyOp43
 70
     1
102
RTVSPropertyOp44
 70
     1
102
RTVSPropertyOp45
 70
     1
102
RTVSPropertyOp46
 70
     1
102
RTVSPropertyOp47
 70
     1
102
RTVSPropertyOp48
 70
     1
102
RTVSPropertyOp49
 70
     1
102
RTVSPropertyOp50
 70
     1
102
RTVSPropertyOp51
 70
     0
102
RTVSPropertyOp52
 70
     0
102
RTVSPropertyOp53
 70
     1
102
RTVSPropertyOp54
 70
     1
102
RTVSPropertyOp55
 70
     1
102
RTVSPropertyOp56
 70
     1
102
RTVSPropertyOp57
 70
     1
102
RTVSPropertyOp58
 70
     1
102
RTVSPropertyOp59
 70
     1
102
RTVSPropertyOp60
 70
     1
102
RTVSPropertyOp61
 70
     1
102
RTVSPropertyOp62
 70
     1
  0
XRECORD
  5
84DA
102
{ACAD_REACTORS
330
84D9
102
}
330
84D9
100
AcDbXrecord
280
     1
102
RTVSPost2010Prop28
280
     0
102
RTVSPost2010PropOp28
 70
     1
102
RTVSPost2010Prop29
280
     1
102
RTVSPost2010PropOp29
 70
     1
102
RTVSPost2010Prop30
280
     1
102
RTVSPost2010PropOp30
 70
     1
102
RTVSPost2010Prop31
280
     0
102
RTVSPost2010PropOp31
 70
     1
102
RTVSPost2010Prop32
280
     0
102
RTVSPost2010PropOp32
 70
     1
102
RTVSPost2010Prop33
280
     0
102
RTVSPost2010PropOp33
 70
     1
102
RTVSPost2010Prop34
280
     0
102
RTVSPost2010PropOp34
 70
     1
102
RTVSPost2010Prop35
280
     0
102
RTVSPost2010PropOp35
 70
     1
102
RTVSPost2010Prop36
280
     0
102
RTVSPost2010PropOp36
 70
     1
102
RTVSPost2010Prop37
 90
       50
102
RTVSPost2010PropOp37
 70
     1
102
RTVSPost2010Prop38
140
0.0
102
RTVSPost2010PropOp38
 70
     1
102
RTVSPost2010Prop39
140
1.0
102
RTVSPost2010PropOp39
 70
     1
102
RTVSPost2010Prop40
 90
        0
102
RTVSPost2010PropOp40
 70
     1
102
RTVSPost2010Prop41ColorIndex
 90
       18
102
RTVSPost2010Prop41ColorRGB
 90
        0
102
RTVSPost2010PropOp41
 70
     1
102
RTVSPost2010Prop42
 90
       50
102
RTVSPost2010PropOp42
 70
     1
102
RTVSPost2010Prop43
 90
        3
102
RTVSPost2010PropOp43
 70
     1
102
RTVSPost2010Prop44ColorIndex
 90
        5
102
RTVSPost2010Prop44ColorRGB
 90
      255
102
RTVSPost2010PropOp44
 70
     1
102
RTVSPost2010Prop45
280
     0
102
RTVSPost2010PropOp45
 70
     1
102
RTVSPost2010Prop46
 90
       50
102
RTVSPost2010PropOp46
 70
     1
102
RTVSPost2010Prop47
 90
       50
102
RTVSPost2010PropOp47
 70
     1
102
RTVSPost2010Prop48
 90
       50
102
RTVSPost2010PropOp48
 70
     1
102
RTVSPost2010Prop49
280
     0
102
RTVSPost2010PropOp49
 70
     1
102
RTVSPost2010Prop50
 90
       50
102
RTVSPost2010PropOp50
 70
     1
102
RTVSPost2010Prop51ColorIndex
 90
      256
102
RTVSPost2010Prop51ColorRGB
 90
-16777216
102
RTVSPost2010PropOp51
 70
     0
102
RTVSPost2010Prop52
140
1.0
102
RTVSPost2010PropOp52
 70
     0
102
RTVSPost2010Prop53
 90
        2
102
RTVSPost2010PropOp53
 70
     1
102
RTVSPost2010Prop54
  1
strokes_ogs.tif
102
RTVSPost2010PropOp54
 70
     1
102
RTVSPost2010Prop55
280
     0
102
RTVSPost2010PropOp55
 70
     1
102
RTVSPost2010Prop56
140
1.0
102
RTVSPost2010PropOp56
 70
     1
102
RTVSPost2010Prop57
140
1.0
102
RTVSPost2010PropOp57
 70
     1
102
RTVSPropertyOp0
 70
     1
102
RTVSPropertyOp1
 70
     1
102
RTVSPropertyOp2
 70
     1
102
RTVSPropertyOp3
 70
     1
102
RTVSPropertyOp4
 70
     1
102
RTVSPropertyOp5
 70
     1
102
RTVSPropertyOp6
 70
     1
102
RTVSPropertyOp7
 70
     1
102
RTVSPropertyOp8
 70
     1
102
RTVSPropertyOp9
 70
     1
102
RTVSPropertyOp10
 70
     1
102
RTVSPropertyOp11
 70
     1
102
RTVSPropertyOp12
 70
     1
102
RTVSPropertyOp13
 70
     1
102
RTVSPropertyOp14
 70
     1
102
RTVSPropertyOp15
 70
     1
102
RTVSPropertyOp16
 70
     1
102
RTVSPropertyOp17
 70
     1
102
RTVSPropertyOp18
 70
     1
102
RTVSPropertyOp19
 70
     1
102
RTVSPropertyOp20
 70
     1
102
RTVSPropertyOp21
 70
     1
102
RTVSPropertyOp22
 70
     1
102
RTVSPropertyOp23
 70
     1
102
RTVSPropertyOp24
 70
     1
102
RTVSPropertyOp25
 70
     1
102
RTVSPropertyOp26
 70
     1
102
RTVSPropertyOp27
 70
     1
102
RTVSPropertyOp28
 70
     1
102
RTVSPropertyOp29
 70
     1
102
RTVSPropertyOp30
 70
     1
102
RTVSPropertyOp31
 70
     1
102
RTVSPropertyOp32
 70
     1
102
RTVSPropertyOp33
 70
     1
102
RTVSPropertyOp34
 70
     1
102
RTVSPropertyOp35
 70
     1
102
RTVSPropertyOp36
 70
     1
102
RTVSPropertyOp37
 70
     1
102
RTVSPropertyOp38
 70
     1
102
RTVSPropertyOp39
 70
     1
102
RTVSPropertyOp40
 70
     1
102
RTVSPropertyOp41
 70
     1
102
RTVSPropertyOp42
 70
     1
102
RTVSPropertyOp43
 70
     1
102
RTVSPropertyOp44
 70
     1
102
RTVSPropertyOp45
 70
     1
102
RTVSPropertyOp46
 70
     1
102
RTVSPropertyOp47
 70
     1
102
RTVSPropertyOp48
 70
     1
102
RTVSPropertyOp49
 70
     1
102
RTVSPropertyOp50
 70
     1
102
RTVSPropertyOp51
 70
     0
102
RTVSPropertyOp52
 70
     0
102
RTVSPropertyOp53
 70
     1
102
RTVSPropertyOp54
 70
     1
102
RTVSPropertyOp55
 70
     1
102
RTVSPropertyOp56
 70
     1
102
RTVSPropertyOp57
 70
     1
102
RTVSPropertyOp58
 70
     1
102
RTVSPropertyOp59
 70
     1
102
RTVSPropertyOp60
 70
     1
102
RTVSPropertyOp61
 70
     1
102
RTVSPropertyOp62
 70
     1
  0
XRECORD
  5
84E8
102
{ACAD_REACTORS
330
84E7
102
}
330
84E7
100
AcDbXrecord
280
     1
102
RTVSPost2010Prop28
280
     0
102
RTVSPost2010PropOp28
 70
     1
102
RTVSPost2010Prop29
280
     1
102
RTVSPost2010PropOp29
 70
     1
102
RTVSPost2010Prop30
280
     1
102
RTVSPost2010PropOp30
 70
     1
102
RTVSPost2010Prop31
280
     0
102
RTVSPost2010PropOp31
 70
     1
102
RTVSPost2010Prop32
280
     0
102
RTVSPost2010PropOp32
 70
     1
102
RTVSPost2010Prop33
280
     0
102
RTVSPost2010PropOp33
 70
     1
102
RTVSPost2010Prop34
280
     0
102
RTVSPost2010PropOp34
 70
     1
102
RTVSPost2010Prop35
280
     0
102
RTVSPost2010PropOp35
 70
     1
102
RTVSPost2010Prop36
280
     0
102
RTVSPost2010PropOp36
 70
     1
102
RTVSPost2010Prop37
 90
       50
102
RTVSPost2010PropOp37
 70
     1
102
RTVSPost2010Prop38
140
0.0
102
RTVSPost2010PropOp38
 70
     1
102
RTVSPost2010Prop39
140
1.0
102
RTVSPost2010PropOp39
 70
     1
102
RTVSPost2010Prop40
 90
        0
102
RTVSPost2010PropOp40
 70
     1
102
RTVSPost2010Prop41ColorIndex
 90
       18
102
RTVSPost2010Prop41ColorRGB
 90
        0
102
RTVSPost2010PropOp41
 70
     1
102
RTVSPost2010Prop42
 90
       50
102
RTVSPost2010PropOp42
 70
     1
102
RTVSPost2010Prop43
 90
        3
102
RTVSPost2010PropOp43
 70
     1
102
RTVSPost2010Prop44ColorIndex
 90
        5
102
RTVSPost2010Prop44ColorRGB
 90
      255
102
RTVSPost2010PropOp44
 70
     1
102
RTVSPost2010Prop45
280
     0
102
RTVSPost2010PropOp45
 70
     1
102
RTVSPost2010Prop46
 90
       50
102
RTVSPost2010PropOp46
 70
     1
102
RTVSPost2010Prop47
 90
       50
102
RTVSPost2010PropOp47
 70
     1
102
RTVSPost2010Prop48
 90
       50
102
RTVSPost2010PropOp48
 70
     1
102
RTVSPost2010Prop49
280
     0
102
RTVSPost2010PropOp49
 70
     1
102
RTVSPost2010Prop50
 90
       50
102
RTVSPost2010PropOp50
 70
     1
102
RTVSPost2010Prop51ColorIndex
 90
      256
102
RTVSPost2010Prop51ColorRGB
 90
-16777216
102
RTVSPost2010PropOp51
 70
     0
102
RTVSPost2010Prop52
140
1.0
102
RTVSPost2010PropOp52
 70
     0
102
RTVSPost2010Prop53
 90
        2
102
RTVSPost2010PropOp53
 70
     1
102
RTVSPost2010Prop54
  1
strokes_ogs.tif
102
RTVSPost2010PropOp54
 70
     1
102
RTVSPost2010Prop55
280
     0
102
RTVSPost2010PropOp55
 70
     1
102
RTVSPost2010Prop56
140
1.0
102
RTVSPost2010PropOp56
 70
     1
102
RTVSPost2010Prop57
140
1.0
102
RTVSPost2010PropOp57
 70
     1
102
RTVSPropertyOp0
 70
     1
102
RTVSPropertyOp1
 70
     1
102
RTVSPropertyOp2
 70
     1
102
RTVSPropertyOp3
 70
     1
102
RTVSPropertyOp4
 70
     1
102
RTVSPropertyOp5
 70
     1
102
RTVSPropertyOp6
 70
     1
102
RTVSPropertyOp7
 70
     1
102
RTVSPropertyOp8
 70
     1
102
RTVSPropertyOp9
 70
     1
102
RTVSPropertyOp10
 70
     1
102
RTVSPropertyOp11
 70
     1
102
RTVSPropertyOp12
 70
     1
102
RTVSPropertyOp13
 70
     1
102
RTVSPropertyOp14
 70
     1
102
RTVSPropertyOp15
 70
     1
102
RTVSPropertyOp16
 70
     1
102
RTVSPropertyOp17
 70
     1
102
RTVSPropertyOp18
 70
     1
102
RTVSPropertyOp19
 70
     1
102
RTVSPropertyOp20
 70
     1
102
RTVSPropertyOp21
 70
     1
102
RTVSPropertyOp22
 70
     1
102
RTVSPropertyOp23
 70
     1
102
RTVSPropertyOp24
 70
     1
102
RTVSPropertyOp25
 70
     1
102
RTVSPropertyOp26
 70
     1
102
RTVSPropertyOp27
 70
     1
102
RTVSPropertyOp28
 70
     1
102
RTVSPropertyOp29
 70
     1
102
RTVSPropertyOp30
 70
     1
102
RTVSPropertyOp31
 70
     1
102
RTVSPropertyOp32
 70
     1
102
RTVSPropertyOp33
 70
     1
102
RTVSPropertyOp34
 70
     1
102
RTVSPropertyOp35
 70
     1
102
RTVSPropertyOp36
 70
     1
102
RTVSPropertyOp37
 70
     1
102
RTVSPropertyOp38
 70
     1
102
RTVSPropertyOp39
 70
     1
102
RTVSPropertyOp40
 70
     1
102
RTVSPropertyOp41
 70
     1
102
RTVSPropertyOp42
 70
     1
102
RTVSPropertyOp43
 70
     1
102
RTVSPropertyOp44
 70
     1
102
RTVSPropertyOp45
 70
     1
102
RTVSPropertyOp46
 70
     1
102
RTVSPropertyOp47
 70
     1
102
RTVSPropertyOp48
 70
     1
102
RTVSPropertyOp49
 70
     1
102
RTVSPropertyOp50
 70
     1
102
RTVSPropertyOp51
 70
     0
102
RTVSPropertyOp52
 70
     0
102
RTVSPropertyOp53
 70
     1
102
RTVSPropertyOp54
 70
     1
102
RTVSPropertyOp55
 70
     1
102
RTVSPropertyOp56
 70
     1
102
RTVSPropertyOp57
 70
     1
102
RTVSPropertyOp58
 70
     1
102
RTVSPropertyOp59
 70
     1
102
RTVSPropertyOp60
 70
     1
102
RTVSPropertyOp61
 70
     1
102
RTVSPropertyOp62
 70
     1
  0
XRECORD
  5
84F0
102
{ACAD_REACTORS
330
84EF
102
}
330
84EF
100
AcDbXrecord
280
     1
102
RTVSPost2010Prop28
280
     0
102
RTVSPost2010PropOp28
 70
     1
102
RTVSPost2010Prop29
280
     1
102
RTVSPost2010PropOp29
 70
     1
102
RTVSPost2010Prop30
280
     1
102
RTVSPost2010PropOp30
 70
     1
102
RTVSPost2010Prop31
280
     0
102
RTVSPost2010PropOp31
 70
     1
102
RTVSPost2010Prop32
280
     0
102
RTVSPost2010PropOp32
 70
     1
102
RTVSPost2010Prop33
280
     0
102
RTVSPost2010PropOp33
 70
     1
102
RTVSPost2010Prop34
280
     0
102
RTVSPost2010PropOp34
 70
     1
102
RTVSPost2010Prop35
280
     0
102
RTVSPost2010PropOp35
 70
     1
102
RTVSPost2010Prop36
280
     0
102
RTVSPost2010PropOp36
 70
     1
102
RTVSPost2010Prop37
 90
       50
102
RTVSPost2010PropOp37
 70
     1
102
RTVSPost2010Prop38
140
0.0
102
RTVSPost2010PropOp38
 70
     1
102
RTVSPost2010Prop39
140
1.0
102
RTVSPost2010PropOp39
 70
     1
102
RTVSPost2010Prop40
 90
        0
102
RTVSPost2010PropOp40
 70
     1
102
RTVSPost2010Prop41ColorIndex
 90
       18
102
RTVSPost2010Prop41ColorRGB
 90
        0
102
RTVSPost2010PropOp41
 70
     1
102
RTVSPost2010Prop42
 90
       50
102
RTVSPost2010PropOp42
 70
     1
102
RTVSPost2010Prop43
 90
        3
102
RTVSPost2010PropOp43
 70
     1
102
RTVSPost2010Prop44ColorIndex
 90
        5
102
RTVSPost2010Prop44ColorRGB
 90
      255
102
RTVSPost2010PropOp44
 70
     1
102
RTVSPost2010Prop45
280
     0
102
RTVSPost2010PropOp45
 70
     1
102
RTVSPost2010Prop46
 90
       50
102
RTVSPost2010PropOp46
 70
     1
102
RTVSPost2010Prop47
 90
       50
102
RTVSPost2010PropOp47
 70
     1
102
RTVSPost2010Prop48
 90
       50
102
RTVSPost2010PropOp48
 70
     1
102
RTVSPost2010Prop49
280
     0
102
RTVSPost2010PropOp49
 70
     1
102
RTVSPost2010Prop50
 90
       50
102
RTVSPost2010PropOp50
 70
     1
102
RTVSPost2010Prop51ColorIndex
 90
      256
102
RTVSPost2010Prop51ColorRGB
 90
-16777216
102
RTVSPost2010PropOp51
 70
     0
102
RTVSPost2010Prop52
140
1.0
102
RTVSPost2010PropOp52
 70
     0
102
RTVSPost2010Prop53
 90
        2
102
RTVSPost2010PropOp53
 70
     1
102
RTVSPost2010Prop54
  1
strokes_ogs.tif
102
RTVSPost2010PropOp54
 70
     1
102
RTVSPost2010Prop55
280
     0
102
RTVSPost2010PropOp55
 70
     1
102
RTVSPost2010Prop56
140
1.0
102
RTVSPost2010PropOp56
 70
     1
102
RTVSPost2010Prop57
140
1.0
102
RTVSPost2010PropOp57
 70
     1
102
RTVSPropertyOp0
 70
     1
102
RTVSPropertyOp1
 70
     1
102
RTVSPropertyOp2
 70
     1
102
RTVSPropertyOp3
 70
     1
102
RTVSPropertyOp4
 70
     1
102
RTVSPropertyOp5
 70
     1
102
RTVSPropertyOp6
 70
     1
102
RTVSPropertyOp7
 70
     1
102
RTVSPropertyOp8
 70
     1
102
RTVSPropertyOp9
 70
     1
102
RTVSPropertyOp10
 70
     1
102
RTVSPropertyOp11
 70
     1
102
RTVSPropertyOp12
 70
     1
102
RTVSPropertyOp13
 70
     1
102
RTVSPropertyOp14
 70
     1
102
RTVSPropertyOp15
 70
     1
102
RTVSPropertyOp16
 70
     1
102
RTVSPropertyOp17
 70
     1
102
RTVSPropertyOp18
 70
     1
102
RTVSPropertyOp19
 70
     1
102
RTVSPropertyOp20
 70
     1
102
RTVSPropertyOp21
 70
     1
102
RTVSPropertyOp22
 70
     1
102
RTVSPropertyOp23
 70
     1
102
RTVSPropertyOp24
 70
     1
102
RTVSPropertyOp25
 70
     1
102
RTVSPropertyOp26
 70
     1
102
RTVSPropertyOp27
 70
     1
102
RTVSPropertyOp28
 70
     1
102
RTVSPropertyOp29
 70
     1
102
RTVSPropertyOp30
 70
     1
102
RTVSPropertyOp31
 70
     1
102
RTVSPropertyOp32
 70
     1
102
RTVSPropertyOp33
 70
     1
102
RTVSPropertyOp34
 70
     1
102
RTVSPropertyOp35
 70
     1
102
RTVSPropertyOp36
 70
     1
102
RTVSPropertyOp37
 70
     1
102
RTVSPropertyOp38
 70
     1
102
RTVSPropertyOp39
 70
     1
102
RTVSPropertyOp40
 70
     1
102
RTVSPropertyOp41
 70
     1
102
RTVSPropertyOp42
 70
     1
102
RTVSPropertyOp43
 70
     1
102
RTVSPropertyOp44
 70
     1
102
RTVSPropertyOp45
 70
     1
102
RTVSPropertyOp46
 70
     1
102
RTVSPropertyOp47
 70
     1
102
RTVSPropertyOp48
 70
     1
102
RTVSPropertyOp49
 70
     1
102
RTVSPropertyOp50
 70
     1
102
RTVSPropertyOp51
 70
     0
102
RTVSPropertyOp52
 70
     0
102
RTVSPropertyOp53
 70
     1
102
RTVSPropertyOp54
 70
     1
102
RTVSPropertyOp55
 70
     1
102
RTVSPropertyOp56
 70
     1
102
RTVSPropertyOp57
 70
     1
102
RTVSPropertyOp58
 70
     1
102
RTVSPropertyOp59
 70
     1
102
RTVSPropertyOp60
 70
     1
102
RTVSPropertyOp61
 70
     1
102
RTVSPropertyOp62
 70
     1
  0
XRECORD
  5
84E2
102
{ACAD_REACTORS
330
84E1
102
}
330
84E1
100
AcDbXrecord
280
     1
102
RTVSPost2010Prop28
280
     0
102
RTVSPost2010PropOp28
 70
     1
102
RTVSPost2010Prop29
280
     1
102
RTVSPost2010PropOp29
 70
     1
102
RTVSPost2010Prop30
280
     1
102
RTVSPost2010PropOp30
 70
     1
102
RTVSPost2010Prop31
280
     0
102
RTVSPost2010PropOp31
 70
     1
102
RTVSPost2010Prop32
280
     0
102
RTVSPost2010PropOp32
 70
     1
102
RTVSPost2010Prop33
280
     0
102
RTVSPost2010PropOp33
 70
     1
102
RTVSPost2010Prop34
280
     0
102
RTVSPost2010PropOp34
 70
     1
102
RTVSPost2010Prop35
280
     0
102
RTVSPost2010PropOp35
 70
     1
102
RTVSPost2010Prop36
280
     0
102
RTVSPost2010PropOp36
 70
     1
102
RTVSPost2010Prop37
 90
       50
102
RTVSPost2010PropOp37
 70
     1
102
RTVSPost2010Prop38
140
0.0
102
RTVSPost2010PropOp38
 70
     1
102
RTVSPost2010Prop39
140
1.0
102
RTVSPost2010PropOp39
 70
     1
102
RTVSPost2010Prop40
 90
        0
102
RTVSPost2010PropOp40
 70
     1
102
RTVSPost2010Prop41ColorIndex
 90
       18
102
RTVSPost2010Prop41ColorRGB
 90
        0
102
RTVSPost2010PropOp41
 70
     1
102
RTVSPost2010Prop42
 90
       50
102
RTVSPost2010PropOp42
 70
     1
102
RTVSPost2010Prop43
 90
        3
102
RTVSPost2010PropOp43
 70
     1
102
RTVSPost2010Prop44ColorIndex
 90
        5
102
RTVSPost2010Prop44ColorRGB
 90
      255
102
RTVSPost2010PropOp44
 70
     1
102
RTVSPost2010Prop45
280
     0
102
RTVSPost2010PropOp45
 70
     1
102
RTVSPost2010Prop46
 90
       50
102
RTVSPost2010PropOp46
 70
     1
102
RTVSPost2010Prop47
 90
       50
102
RTVSPost2010PropOp47
 70
     1
102
RTVSPost2010Prop48
 90
       50
102
RTVSPost2010PropOp48
 70
     1
102
RTVSPost2010Prop49
280
     0
102
RTVSPost2010PropOp49
 70
     1
102
RTVSPost2010Prop50
 90
       50
102
RTVSPost2010PropOp50
 70
     1
102
RTVSPost2010Prop51ColorIndex
 90
      256
102
RTVSPost2010Prop51ColorRGB
 90
-16777216
102
RTVSPost2010PropOp51
 70
     0
102
RTVSPost2010Prop52
140
1.0
102
RTVSPost2010PropOp52
 70
     0
102
RTVSPost2010Prop53
 90
        2
102
RTVSPost2010PropOp53
 70
     1
102
RTVSPost2010Prop54
  1
strokes_ogs.tif
102
RTVSPost2010PropOp54
 70
     1
102
RTVSPost2010Prop55
280
     0
102
RTVSPost2010PropOp55
 70
     1
102
RTVSPost2010Prop56
140
1.0
102
RTVSPost2010PropOp56
 70
     1
102
RTVSPost2010Prop57
140
1.0
102
RTVSPost2010PropOp57
 70
     1
102
RTVSPropertyOp0
 70
     1
102
RTVSPropertyOp1
 70
     1
102
RTVSPropertyOp2
 70
     1
102
RTVSPropertyOp3
 70
     1
102
RTVSPropertyOp4
 70
     1
102
RTVSPropertyOp5
 70
     1
102
RTVSPropertyOp6
 70
     1
102
RTVSPropertyOp7
 70
     1
102
RTVSPropertyOp8
 70
     1
102
RTVSPropertyOp9
 70
     1
102
RTVSPropertyOp10
 70
     1
102
RTVSPropertyOp11
 70
     1
102
RTVSPropertyOp12
 70
     1
102
RTVSPropertyOp13
 70
     1
102
RTVSPropertyOp14
 70
     1
102
RTVSPropertyOp15
 70
     1
102
RTVSPropertyOp16
 70
     1
102
RTVSPropertyOp17
 70
     1
102
RTVSPropertyOp18
 70
     1
102
RTVSPropertyOp19
 70
     1
102
RTVSPropertyOp20
 70
     1
102
RTVSPropertyOp21
 70
     1
102
RTVSPropertyOp22
 70
     1
102
RTVSPropertyOp23
 70
     1
102
RTVSPropertyOp24
 70
     1
102
RTVSPropertyOp25
 70
     1
102
RTVSPropertyOp26
 70
     1
102
RTVSPropertyOp27
 70
     1
102
RTVSPropertyOp28
 70
     1
102
RTVSPropertyOp29
 70
     1
102
RTVSPropertyOp30
 70
     1
102
RTVSPropertyOp31
 70
     1
102
RTVSPropertyOp32
 70
     1
102
RTVSPropertyOp33
 70
     1
102
RTVSPropertyOp34
 70
     1
102
RTVSPropertyOp35
 70
     1
102
RTVSPropertyOp36
 70
     1
102
RTVSPropertyOp37
 70
     1
102
RTVSPropertyOp38
 70
     1
102
RTVSPropertyOp39
 70
     1
102
RTVSPropertyOp40
 70
     1
102
RTVSPropertyOp41
 70
     1
102
RTVSPropertyOp42
 70
     1
102
RTVSPropertyOp43
 70
     1
102
RTVSPropertyOp44
 70
     1
102
RTVSPropertyOp45
 70
     1
102
RTVSPropertyOp46
 70
     1
102
RTVSPropertyOp47
 70
     1
102
RTVSPropertyOp48
 70
     1
102
RTVSPropertyOp49
 70
     1
102
RTVSPropertyOp50
 70
     1
102
RTVSPropertyOp51
 70
     0
102
RTVSPropertyOp52
 70
     0
102
RTVSPropertyOp53
 70
     1
102
RTVSPropertyOp54
 70
     1
102
RTVSPropertyOp55
 70
     1
102
RTVSPropertyOp56
 70
     1
102
RTVSPropertyOp57
 70
     1
102
RTVSPropertyOp58
 70
     1
102
RTVSPropertyOp59
 70
     1
102
RTVSPropertyOp60
 70
     1
102
RTVSPropertyOp61
 70
     1
102
RTVSPropertyOp62
 70
     1
  0
XRECORD
  5
84E6
102
{ACAD_REACTORS
330
84E5
102
}
330
84E5
100
AcDbXrecord
280
     1
102
RTVSPost2010Prop28
280
     0
102
RTVSPost2010PropOp28
 70
     1
102
RTVSPost2010Prop29
280
     1
102
RTVSPost2010PropOp29
 70
     1
102
RTVSPost2010Prop30
280
     1
102
RTVSPost2010PropOp30
 70
     1
102
RTVSPost2010Prop31
280
     0
102
RTVSPost2010PropOp31
 70
     1
102
RTVSPost2010Prop32
280
     0
102
RTVSPost2010PropOp32
 70
     1
102
RTVSPost2010Prop33
280
     0
102
RTVSPost2010PropOp33
 70
     1
102
RTVSPost2010Prop34
280
     0
102
RTVSPost2010PropOp34
 70
     1
102
RTVSPost2010Prop35
280
     0
102
RTVSPost2010PropOp35
 70
     1
102
RTVSPost2010Prop36
280
     0
102
RTVSPost2010PropOp36
 70
     1
102
RTVSPost2010Prop37
 90
       50
102
RTVSPost2010PropOp37
 70
     1
102
RTVSPost2010Prop38
140
0.0
102
RTVSPost2010PropOp38
 70
     1
102
RTVSPost2010Prop39
140
1.0
102
RTVSPost2010PropOp39
 70
     1
102
RTVSPost2010Prop40
 90
        0
102
RTVSPost2010PropOp40
 70
     1
102
RTVSPost2010Prop41ColorIndex
 90
       18
102
RTVSPost2010Prop41ColorRGB
 90
        0
102
RTVSPost2010PropOp41
 70
     1
102
RTVSPost2010Prop42
 90
       50
102
RTVSPost2010PropOp42
 70
     1
102
RTVSPost2010Prop43
 90
        3
102
RTVSPost2010PropOp43
 70
     1
102
RTVSPost2010Prop44ColorIndex
 90
        5
102
RTVSPost2010Prop44ColorRGB
 90
      255
102
RTVSPost2010PropOp44
 70
     1
102
RTVSPost2010Prop45
280
     0
102
RTVSPost2010PropOp45
 70
     1
102
RTVSPost2010Prop46
 90
       50
102
RTVSPost2010PropOp46
 70
     1
102
RTVSPost2010Prop47
 90
       50
102
RTVSPost2010PropOp47
 70
     1
102
RTVSPost2010Prop48
 90
       50
102
RTVSPost2010PropOp48
 70
     1
102
RTVSPost2010Prop49
280
     0
102
RTVSPost2010PropOp49
 70
     1
102
RTVSPost2010Prop50
 90
       50
102
RTVSPost2010PropOp50
 70
     1
102
RTVSPost2010Prop51ColorIndex
 90
      256
102
RTVSPost2010Prop51ColorRGB
 90
-16777216
102
RTVSPost2010PropOp51
 70
     0
102
RTVSPost2010Prop52
140
1.0
102
RTVSPost2010PropOp52
 70
     0
102
RTVSPost2010Prop53
 90
        2
102
RTVSPost2010PropOp53
 70
     1
102
RTVSPost2010Prop54
  1
strokes_ogs.tif
102
RTVSPost2010PropOp54
 70
     1
102
RTVSPost2010Prop55
280
     0
102
RTVSPost2010PropOp55
 70
     1
102
RTVSPost2010Prop56
140
1.0
102
RTVSPost2010PropOp56
 70
     1
102
RTVSPost2010Prop57
140
1.0
102
RTVSPost2010PropOp57
 70
     1
102
RTVSPropertyOp0
 70
     1
102
RTVSPropertyOp1
 70
     1
102
RTVSPropertyOp2
 70
     1
102
RTVSPropertyOp3
 70
     1
102
RTVSPropertyOp4
 70
     1
102
RTVSPropertyOp5
 70
     1
102
RTVSPropertyOp6
 70
     1
102
RTVSPropertyOp7
 70
     1
102
RTVSPropertyOp8
 70
     1
102
RTVSPropertyOp9
 70
     1
102
RTVSPropertyOp10
 70
     1
102
RTVSPropertyOp11
 70
     1
102
RTVSPropertyOp12
 70
     1
102
RTVSPropertyOp13
 70
     1
102
RTVSPropertyOp14
 70
     1
102
RTVSPropertyOp15
 70
     1
102
RTVSPropertyOp16
 70
     1
102
RTVSPropertyOp17
 70
     1
102
RTVSPropertyOp18
 70
     1
102
RTVSPropertyOp19
 70
     1
102
RTVSPropertyOp20
 70
     1
102
RTVSPropertyOp21
 70
     1
102
RTVSPropertyOp22
 70
     1
102
RTVSPropertyOp23
 70
     1
102
RTVSPropertyOp24
 70
     1
102
RTVSPropertyOp25
 70
     1
102
RTVSPropertyOp26
 70
     1
102
RTVSPropertyOp27
 70
     1
102
RTVSPropertyOp28
 70
     1
102
RTVSPropertyOp29
 70
     1
102
RTVSPropertyOp30
 70
     1
102
RTVSPropertyOp31
 70
     1
102
RTVSPropertyOp32
 70
     1
102
RTVSPropertyOp33
 70
     1
102
RTVSPropertyOp34
 70
     1
102
RTVSPropertyOp35
 70
     1
102
RTVSPropertyOp36
 70
     1
102
RTVSPropertyOp37
 70
     1
102
RTVSPropertyOp38
 70
     1
102
RTVSPropertyOp39
 70
     1
102
RTVSPropertyOp40
 70
     1
102
RTVSPropertyOp41
 70
     1
102
RTVSPropertyOp42
 70
     1
102
RTVSPropertyOp43
 70
     1
102
RTVSPropertyOp44
 70
     1
102
RTVSPropertyOp45
 70
     1
102
RTVSPropertyOp46
 70
     1
102
RTVSPropertyOp47
 70
     1
102
RTVSPropertyOp48
 70
     1
102
RTVSPropertyOp49
 70
     1
102
RTVSPropertyOp50
 70
     1
102
RTVSPropertyOp51
 70
     0
102
RTVSPropertyOp52
 70
     0
102
RTVSPropertyOp53
 70
     1
102
RTVSPropertyOp54
 70
     1
102
RTVSPropertyOp55
 70
     1
102
RTVSPropertyOp56
 70
     1
102
RTVSPropertyOp57
 70
     1
102
RTVSPropertyOp58
 70
     1
102
RTVSPropertyOp59
 70
     1
102
RTVSPropertyOp60
 70
     1
102
RTVSPropertyOp61
 70
     1
102
RTVSPropertyOp62
 70
     1
  0
XRECORD
  5
8500
102
{ACAD_REACTORS
330
84FF
102
}
330
84FF
100
AcDbXrecord
280
     1
102
RTVSPost2010Prop28
280
     0
102
RTVSPost2010PropOp28
 70
     0
102
RTVSPost2010Prop29
280
     1
102
RTVSPost2010PropOp29
 70
     0
102
RTVSPost2010Prop30
280
     1
102
RTVSPost2010PropOp30
 70
     0
102
RTVSPost2010Prop31
280
     0
102
RTVSPost2010PropOp31
 70
     0
102
RTVSPost2010Prop32
280
     0
102
RTVSPost2010PropOp32
 70
     0
102
RTVSPost2010Prop33
280
     0
102
RTVSPost2010PropOp33
 70
     0
102
RTVSPost2010Prop34
280
     0
102
RTVSPost2010PropOp34
 70
     0
102
RTVSPost2010Prop35
280
     0
102
RTVSPost2010PropOp35
 70
     0
102
RTVSPost2010Prop36
280
     0
102
RTVSPost2010PropOp36
 70
     0
102
RTVSPost2010Prop37
 90
       50
102
RTVSPost2010PropOp37
 70
     0
102
RTVSPost2010Prop38
140
0.0
102
RTVSPost2010PropOp38
 70
     0
102
RTVSPost2010Prop39
140
1.0
102
RTVSPost2010PropOp39
 70
     0
102
RTVSPost2010Prop40
 90
        0
102
RTVSPost2010PropOp40
 70
     0
102
RTVSPost2010Prop41ColorIndex
 90
       18
102
RTVSPost2010Prop41ColorRGB
 90
        0
102
RTVSPost2010PropOp41
 70
     0
102
RTVSPost2010Prop42
 90
       50
102
RTVSPost2010PropOp42
 70
     0
102
RTVSPost2010Prop43
 90
        3
102
RTVSPost2010PropOp43
 70
     0
102
RTVSPost2010Prop44ColorIndex
 90
        5
102
RTVSPost2010Prop44ColorRGB
 90
      255
102
RTVSPost2010PropOp44
 70
     0
102
RTVSPost2010Prop45
280
     0
102
RTVSPost2010PropOp45
 70
     0
102
RTVSPost2010Prop46
 90
       50
102
RTVSPost2010PropOp46
 70
     0
102
RTVSPost2010Prop47
 90
       50
102
RTVSPost2010PropOp47
 70
     0
102
RTVSPost2010Prop48
 90
       50
102
RTVSPost2010PropOp48
 70
     0
102
RTVSPost2010Prop49
280
     0
102
RTVSPost2010PropOp49
 70
     0
102
RTVSPost2010Prop50
 90
       50
102
RTVSPost2010PropOp50
 70
     0
102
RTVSPost2010Prop51ColorIndex
 90
      256
102
RTVSPost2010Prop51ColorRGB
 90
-16777216
102
RTVSPost2010PropOp51
 70
     0
102
RTVSPost2010Prop52
140
1.0
102
RTVSPost2010PropOp52
 70
     0
102
RTVSPost2010Prop53
 90
        2
102
RTVSPost2010PropOp53
 70
     0
102
RTVSPost2010Prop54
  1
strokes_ogs.tif
102
RTVSPost2010PropOp54
 70
     0
102
RTVSPost2010Prop55
280
     0
102
RTVSPost2010PropOp55
 70
     0
102
RTVSPost2010Prop56
140
1.0
102
RTVSPost2010PropOp56
 70
     0
102
RTVSPost2010Prop57
140
1.0
102
RTVSPost2010PropOp57
 70
     0
102
RTVSPropertyOp0
 70
     0
102
RTVSPropertyOp1
 70
     0
102
RTVSPropertyOp2
 70
     0
102
RTVSPropertyOp3
 70
     0
102
RTVSPropertyOp4
 70
     0
102
RTVSPropertyOp5
 70
     0
102
RTVSPropertyOp6
 70
     0
102
RTVSPropertyOp7
 70
     0
102
RTVSPropertyOp8
 70
     0
102
RTVSPropertyOp9
 70
     0
102
RTVSPropertyOp10
 70
     0
102
RTVSPropertyOp11
 70
     0
102
RTVSPropertyOp12
 70
     0
102
RTVSPropertyOp13
 70
     0
102
RTVSPropertyOp14
 70
     2
102
RTVSPropertyOp15
 70
     0
102
RTVSPropertyOp16
 70
     0
102
RTVSPropertyOp17
 70
     0
102
RTVSPropertyOp18
 70
     0
102
RTVSPropertyOp19
 70
     0
102
RTVSPropertyOp20
 70
     0
102
RTVSPropertyOp21
 70
     0
102
RTVSPropertyOp22
 70
     0
102
RTVSPropertyOp23
 70
     0
102
RTVSPropertyOp24
 70
     0
102
RTVSPropertyOp25
 70
     0
102
RTVSPropertyOp26
 70
     0
102
RTVSPropertyOp27
 70
     0
102
RTVSPropertyOp28
 70
     0
102
RTVSPropertyOp29
 70
     0
102
RTVSPropertyOp30
 70
     0
102
RTVSPropertyOp31
 70
     0
102
RTVSPropertyOp32
 70
     0
102
RTVSPropertyOp33
 70
     0
102
RTVSPropertyOp34
 70
     0
102
RTVSPropertyOp35
 70
     0
102
RTVSPropertyOp36
 70
     0
102
RTVSPropertyOp37
 70
     0
102
RTVSPropertyOp38
 70
     0
102
RTVSPropertyOp39
 70
     0
102
RTVSPropertyOp40
 70
     0
102
RTVSPropertyOp41
 70
     0
102
RTVSPropertyOp42
 70
     0
102
RTVSPropertyOp43
 70
     0
102
RTVSPropertyOp44
 70
     0
102
RTVSPropertyOp45
 70
     0
102
RTVSPropertyOp46
 70
     0
102
RTVSPropertyOp47
 70
     0
102
RTVSPropertyOp48
 70
     0
102
RTVSPropertyOp49
 70
     0
102
RTVSPropertyOp50
 70
     0
102
RTVSPropertyOp51
 70
     0
102
RTVSPropertyOp52
 70
     0
102
RTVSPropertyOp53
 70
     0
102
RTVSPropertyOp54
 70
     0
102
RTVSPropertyOp55
 70
     0
102
RTVSPropertyOp56
 70
     0
102
RTVSPropertyOp57
 70
     0
102
RTVSPropertyOp58
 70
     1
102
RTVSPropertyOp59
 70
     1
102
RTVSPropertyOp60
 70
     1
102
RTVSPropertyOp61
 70
     1
102
RTVSPropertyOp62
 70
     1
  0
XRECORD
  5
84EE
102
{ACAD_REACTORS
330
84ED
102
}
330
84ED
100
AcDbXrecord
280
     1
102
RTVSPost2010Prop28
280
     0
102
RTVSPost2010PropOp28
 70
     1
102
RTVSPost2010Prop29
280
     1
102
RTVSPost2010PropOp29
 70
     1
102
RTVSPost2010Prop30
280
     1
102
RTVSPost2010PropOp30
 70
     1
102
RTVSPost2010Prop31
280
     0
102
RTVSPost2010PropOp31
 70
     1
102
RTVSPost2010Prop32
280
     0
102
RTVSPost2010PropOp32
 70
     1
102
RTVSPost2010Prop33
280
     0
102
RTVSPost2010PropOp33
 70
     1
102
RTVSPost2010Prop34
280
     0
102
RTVSPost2010PropOp34
 70
     1
102
RTVSPost2010Prop35
280
     0
102
RTVSPost2010PropOp35
 70
     1
102
RTVSPost2010Prop36
280
     0
102
RTVSPost2010PropOp36
 70
     1
102
RTVSPost2010Prop37
 90
       50
102
RTVSPost2010PropOp37
 70
     1
102
RTVSPost2010Prop38
140
0.0
102
RTVSPost2010PropOp38
 70
     1
102
RTVSPost2010Prop39
140
1.0
102
RTVSPost2010PropOp39
 70
     1
102
RTVSPost2010Prop40
 90
        0
102
RTVSPost2010PropOp40
 70
     1
102
RTVSPost2010Prop41ColorIndex
 90
       18
102
RTVSPost2010Prop41ColorRGB
 90
        0
102
RTVSPost2010PropOp41
 70
     1
102
RTVSPost2010Prop42
 90
       50
102
RTVSPost2010PropOp42
 70
     1
102
RTVSPost2010Prop43
 90
        3
102
RTVSPost2010PropOp43
 70
     1
102
RTVSPost2010Prop44ColorIndex
 90
        5
102
RTVSPost2010Prop44ColorRGB
 90
      255
102
RTVSPost2010PropOp44
 70
     1
102
RTVSPost2010Prop45
280
     0
102
RTVSPost2010PropOp45
 70
     1
102
RTVSPost2010Prop46
 90
       50
102
RTVSPost2010PropOp46
 70
     1
102
RTVSPost2010Prop47
 90
       50
102
RTVSPost2010PropOp47
 70
     1
102
RTVSPost2010Prop48
 90
       50
102
RTVSPost2010PropOp48
 70
     1
102
RTVSPost2010Prop49
280
     0
102
RTVSPost2010PropOp49
 70
     1
102
RTVSPost2010Prop50
 90
       50
102
RTVSPost2010PropOp50
 70
     1
102
RTVSPost2010Prop51ColorIndex
 90
      256
102
RTVSPost2010Prop51ColorRGB
 90
-16777216
102
RTVSPost2010PropOp51
 70
     0
102
RTVSPost2010Prop52
140
1.0
102
RTVSPost2010PropOp52
 70
     0
102
RTVSPost2010Prop53
 90
        2
102
RTVSPost2010PropOp53
 70
     1
102
RTVSPost2010Prop54
  1
strokes_ogs.tif
102
RTVSPost2010PropOp54
 70
     1
102
RTVSPost2010Prop55
280
     0
102
RTVSPost2010PropOp55
 70
     1
102
RTVSPost2010Prop56
140
1.0
102
RTVSPost2010PropOp56
 70
     1
102
RTVSPost2010Prop57
140
1.0
102
RTVSPost2010PropOp57
 70
     1
102
RTVSPropertyOp0
 70
     1
102
RTVSPropertyOp1
 70
     1
102
RTVSPropertyOp2
 70
     1
102
RTVSPropertyOp3
 70
     1
102
RTVSPropertyOp4
 70
     1
102
RTVSPropertyOp5
 70
     1
102
RTVSPropertyOp6
 70
     1
102
RTVSPropertyOp7
 70
     1
102
RTVSPropertyOp8
 70
     1
102
RTVSPropertyOp9
 70
     1
102
RTVSPropertyOp10
 70
     1
102
RTVSPropertyOp11
 70
     1
102
RTVSPropertyOp12
 70
     1
102
RTVSPropertyOp13
 70
     1
102
RTVSPropertyOp14
 70
     1
102
RTVSPropertyOp15
 70
     1
102
RTVSPropertyOp16
 70
     1
102
RTVSPropertyOp17
 70
     1
102
RTVSPropertyOp18
 70
     1
102
RTVSPropertyOp19
 70
     1
102
RTVSPropertyOp20
 70
     1
102
RTVSPropertyOp21
 70
     1
102
RTVSPropertyOp22
 70
     1
102
RTVSPropertyOp23
 70
     1
102
RTVSPropertyOp24
 70
     1
102
RTVSPropertyOp25
 70
     1
102
RTVSPropertyOp26
 70
     1
102
RTVSPropertyOp27
 70
     1
102
RTVSPropertyOp28
 70
     1
102
RTVSPropertyOp29
 70
     1
102
RTVSPropertyOp30
 70
     1
102
RTVSPropertyOp31
 70
     1
102
RTVSPropertyOp32
 70
     1
102
RTVSPropertyOp33
 70
     1
102
RTVSPropertyOp34
 70
     1
102
RTVSPropertyOp35
 70
     1
102
RTVSPropertyOp36
 70
     1
102
RTVSPropertyOp37
 70
     1
102
RTVSPropertyOp38
 70
     1
102
RTVSPropertyOp39
 70
     1
102
RTVSPropertyOp40
 70
     1
102
RTVSPropertyOp41
 70
     1
102
RTVSPropertyOp42
 70
     1
102
RTVSPropertyOp43
 70
     1
102
RTVSPropertyOp44
 70
     1
102
RTVSPropertyOp45
 70
     1
102
RTVSPropertyOp46
 70
     1
102
RTVSPropertyOp47
 70
     1
102
RTVSPropertyOp48
 70
     1
102
RTVSPropertyOp49
 70
     1
102
RTVSPropertyOp50
 70
     1
102
RTVSPropertyOp51
 70
     0
102
RTVSPropertyOp52
 70
     0
102
RTVSPropertyOp53
 70
     1
102
RTVSPropertyOp54
 70
     1
102
RTVSPropertyOp55
 70
     1
102
RTVSPropertyOp56
 70
     1
102
RTVSPropertyOp57
 70
     1
102
RTVSPropertyOp58
 70
     1
102
RTVSPropertyOp59
 70
     1
102
RTVSPropertyOp60
 70
     1
102
RTVSPropertyOp61
 70
     1
102
RTVSPropertyOp62
 70
     1
  0
XRECORD
  5
84D2
102
{ACAD_REACTORS
330
84D1
102
}
330
84D1
100
AcDbXrecord
280
     1
102
RTVSPost2010Prop28
280
     0
102
RTVSPost2010PropOp28
 70
     1
102
RTVSPost2010Prop29
280
     1
102
RTVSPost2010PropOp29
 70
     1
102
RTVSPost2010Prop30
280
     1
102
RTVSPost2010PropOp30
 70
     1
102
RTVSPost2010Prop31
280
     0
102
RTVSPost2010PropOp31
 70
     1
102
RTVSPost2010Prop32
280
     0
102
RTVSPost2010PropOp32
 70
     1
102
RTVSPost2010Prop33
280
     0
102
RTVSPost2010PropOp33
 70
     1
102
RTVSPost2010Prop34
280
     0
102
RTVSPost2010PropOp34
 70
     1
102
RTVSPost2010Prop35
280
     0
102
RTVSPost2010PropOp35
 70
     1
102
RTVSPost2010Prop36
280
     0
102
RTVSPost2010PropOp36
 70
     1
102
RTVSPost2010Prop37
 90
       50
102
RTVSPost2010PropOp37
 70
     1
102
RTVSPost2010Prop38
140
0.0
102
RTVSPost2010PropOp38
 70
     1
102
RTVSPost2010Prop39
140
1.0
102
RTVSPost2010PropOp39
 70
     1
102
RTVSPost2010Prop40
 90
        0
102
RTVSPost2010PropOp40
 70
     1
102
RTVSPost2010Prop41ColorIndex
 90
       18
102
RTVSPost2010Prop41ColorRGB
 90
        0
102
RTVSPost2010PropOp41
 70
     1
102
RTVSPost2010Prop42
 90
       50
102
RTVSPost2010PropOp42
 70
     1
102
RTVSPost2010Prop43
 90
        3
102
RTVSPost2010PropOp43
 70
     1
102
RTVSPost2010Prop44ColorIndex
 90
        5
102
RTVSPost2010Prop44ColorRGB
 90
      255
102
RTVSPost2010PropOp44
 70
     1
102
RTVSPost2010Prop45
280
     0
102
RTVSPost2010PropOp45
 70
     1
102
RTVSPost2010Prop46
 90
       50
102
RTVSPost2010PropOp46
 70
     1
102
RTVSPost2010Prop47
 90
       50
102
RTVSPost2010PropOp47
 70
     1
102
RTVSPost2010Prop48
 90
       50
102
RTVSPost2010PropOp48
 70
     1
102
RTVSPost2010Prop49
280
     0
102
RTVSPost2010PropOp49
 70
     1
102
RTVSPost2010Prop50
 90
       50
102
RTVSPost2010PropOp50
 70
     1
102
RTVSPost2010Prop51ColorIndex
 90
      256
102
RTVSPost2010Prop51ColorRGB
 90
-16777216
102
RTVSPost2010PropOp51
 70
     0
102
RTVSPost2010Prop52
140
1.0
102
RTVSPost2010PropOp52
 70
     0
102
RTVSPost2010Prop53
 90
        2
102
RTVSPost2010PropOp53
 70
     1
102
RTVSPost2010Prop54
  1
strokes_ogs.tif
102
RTVSPost2010PropOp54
 70
     1
102
RTVSPost2010Prop55
280
     0
102
RTVSPost2010PropOp55
 70
     1
102
RTVSPost2010Prop56
140
1.0
102
RTVSPost2010PropOp56
 70
     1
102
RTVSPost2010Prop57
140
1.0
102
RTVSPost2010PropOp57
 70
     1
102
RTVSPropertyOp0
 70
     1
102
RTVSPropertyOp1
 70
     1
102
RTVSPropertyOp2
 70
     1
102
RTVSPropertyOp3
 70
     1
102
RTVSPropertyOp4
 70
     1
102
RTVSPropertyOp5
 70
     1
102
RTVSPropertyOp6
 70
     1
102
RTVSPropertyOp7
 70
     1
102
RTVSPropertyOp8
 70
     1
102
RTVSPropertyOp9
 70
     1
102
RTVSPropertyOp10
 70
     1
102
RTVSPropertyOp11
 70
     1
102
RTVSPropertyOp12
 70
     1
102
RTVSPropertyOp13
 70
     1
102
RTVSPropertyOp14
 70
     1
102
RTVSPropertyOp15
 70
     1
102
RTVSPropertyOp16
 70
     1
102
RTVSPropertyOp17
 70
     1
102
RTVSPropertyOp18
 70
     1
102
RTVSPropertyOp19
 70
     1
102
RTVSPropertyOp20
 70
     1
102
RTVSPropertyOp21
 70
     1
102
RTVSPropertyOp22
 70
     1
102
RTVSPropertyOp23
 70
     1
102
RTVSPropertyOp24
 70
     1
102
RTVSPropertyOp25
 70
     1
102
RTVSPropertyOp26
 70
     1
102
RTVSPropertyOp27
 70
     1
102
RTVSPropertyOp28
 70
     1
102
RTVSPropertyOp29
 70
     1
102
RTVSPropertyOp30
 70
     1
102
RTVSPropertyOp31
 70
     1
102
RTVSPropertyOp32
 70
     1
102
RTVSPropertyOp33
 70
     1
102
RTVSPropertyOp34
 70
     1
102
RTVSPropertyOp35
 70
     1
102
RTVSPropertyOp36
 70
     1
102
RTVSPropertyOp37
 70
     1
102
RTVSPropertyOp38
 70
     1
102
RTVSPropertyOp39
 70
     1
102
RTVSPropertyOp40
 70
     1
102
RTVSPropertyOp41
 70
     1
102
RTVSPropertyOp42
 70
     1
102
RTVSPropertyOp43
 70
     1
102
RTVSPropertyOp44
 70
     1
102
RTVSPropertyOp45
 70
     1
102
RTVSPropertyOp46
 70
     1
102
RTVSPropertyOp47
 70
     1
102
RTVSPropertyOp48
 70
     1
102
RTVSPropertyOp49
 70
     1
102
RTVSPropertyOp50
 70
     1
102
RTVSPropertyOp51
 70
     0
102
RTVSPropertyOp52
 70
     0
102
RTVSPropertyOp53
 70
     1
102
RTVSPropertyOp54
 70
     1
102
RTVSPropertyOp55
 70
     1
102
RTVSPropertyOp56
 70
     1
102
RTVSPropertyOp57
 70
     1
102
RTVSPropertyOp58
 70
     1
102
RTVSPropertyOp59
 70
     1
102
RTVSPropertyOp60
 70
     1
102
RTVSPropertyOp61
 70
     1
102
RTVSPropertyOp62
 70
     1
  0
XRECORD
  5
84D4
102
{ACAD_REACTORS
330
84D3
102
}
330
84D3
100
AcDbXrecord
280
     1
102
RTVSPost2010Prop28
280
     0
102
RTVSPost2010PropOp28
 70
     1
102
RTVSPost2010Prop29
280
     1
102
RTVSPost2010PropOp29
 70
     1
102
RTVSPost2010Prop30
280
     1
102
RTVSPost2010PropOp30
 70
     1
102
RTVSPost2010Prop31
280
     0
102
RTVSPost2010PropOp31
 70
     1
102
RTVSPost2010Prop32
280
     0
102
RTVSPost2010PropOp32
 70
     1
102
RTVSPost2010Prop33
280
     0
102
RTVSPost2010PropOp33
 70
     1
102
RTVSPost2010Prop34
280
     0
102
RTVSPost2010PropOp34
 70
     1
102
RTVSPost2010Prop35
280
     0
102
RTVSPost2010PropOp35
 70
     1
102
RTVSPost2010Prop36
280
     0
102
RTVSPost2010PropOp36
 70
     1
102
RTVSPost2010Prop37
 90
       50
102
RTVSPost2010PropOp37
 70
     1
102
RTVSPost2010Prop38
140
0.0
102
RTVSPost2010PropOp38
 70
     1
102
RTVSPost2010Prop39
140
1.0
102
RTVSPost2010PropOp39
 70
     1
102
RTVSPost2010Prop40
 90
        0
102
RTVSPost2010PropOp40
 70
     1
102
RTVSPost2010Prop41ColorIndex
 90
       18
102
RTVSPost2010Prop41ColorRGB
 90
        0
102
RTVSPost2010PropOp41
 70
     1
102
RTVSPost2010Prop42
 90
       50
102
RTVSPost2010PropOp42
 70
     1
102
RTVSPost2010Prop43
 90
        3
102
RTVSPost2010PropOp43
 70
     1
102
RTVSPost2010Prop44ColorIndex
 90
        5
102
RTVSPost2010Prop44ColorRGB
 90
      255
102
RTVSPost2010PropOp44
 70
     1
102
RTVSPost2010Prop45
280
     0
102
RTVSPost2010PropOp45
 70
     1
102
RTVSPost2010Prop46
 90
       50
102
RTVSPost2010PropOp46
 70
     1
102
RTVSPost2010Prop47
 90
       50
102
RTVSPost2010PropOp47
 70
     1
102
RTVSPost2010Prop48
 90
       50
102
RTVSPost2010PropOp48
 70
     1
102
RTVSPost2010Prop49
280
     0
102
RTVSPost2010PropOp49
 70
     1
102
RTVSPost2010Prop50
 90
       50
102
RTVSPost2010PropOp50
 70
     1
102
RTVSPost2010Prop51ColorIndex
 90
      256
102
RTVSPost2010Prop51ColorRGB
 90
-16777216
102
RTVSPost2010PropOp51
 70
     0
102
RTVSPost2010Prop52
140
1.0
102
RTVSPost2010PropOp52
 70
     0
102
RTVSPost2010Prop53
 90
        2
102
RTVSPost2010PropOp53
 70
     1
102
RTVSPost2010Prop54
  1
strokes_ogs.tif
102
RTVSPost2010PropOp54
 70
     1
102
RTVSPost2010Prop55
280
     0
102
RTVSPost2010PropOp55
 70
     1
102
RTVSPost2010Prop56
140
1.0
102
RTVSPost2010PropOp56
 70
     1
102
RTVSPost2010Prop57
140
1.0
102
RTVSPost2010PropOp57
 70
     1
102
RTVSPropertyOp0
 70
     1
102
RTVSPropertyOp1
 70
     1
102
RTVSPropertyOp2
 70
     1
102
RTVSPropertyOp3
 70
     1
102
RTVSPropertyOp4
 70
     1
102
RTVSPropertyOp5
 70
     1
102
RTVSPropertyOp6
 70
     1
102
RTVSPropertyOp7
 70
     1
102
RTVSPropertyOp8
 70
     1
102
RTVSPropertyOp9
 70
     1
102
RTVSPropertyOp10
 70
     1
102
RTVSPropertyOp11
 70
     1
102
RTVSPropertyOp12
 70
     1
102
RTVSPropertyOp13
 70
     1
102
RTVSPropertyOp14
 70
     1
102
RTVSPropertyOp15
 70
     1
102
RTVSPropertyOp16
 70
     1
102
RTVSPropertyOp17
 70
     1
102
RTVSPropertyOp18
 70
     1
102
RTVSPropertyOp19
 70
     1
102
RTVSPropertyOp20
 70
     1
102
RTVSPropertyOp21
 70
     1
102
RTVSPropertyOp22
 70
     1
102
RTVSPropertyOp23
 70
     1
102
RTVSPropertyOp24
 70
     1
102
RTVSPropertyOp25
 70
     1
102
RTVSPropertyOp26
 70
     1
102
RTVSPropertyOp27
 70
     1
102
RTVSPropertyOp28
 70
     1
102
RTVSPropertyOp29
 70
     1
102
RTVSPropertyOp30
 70
     1
102
RTVSPropertyOp31
 70
     1
102
RTVSPropertyOp32
 70
     1
102
RTVSPropertyOp33
 70
     1
102
RTVSPropertyOp34
 70
     1
102
RTVSPropertyOp35
 70
     1
102
RTVSPropertyOp36
 70
     1
102
RTVSPropertyOp37
 70
     1
102
RTVSPropertyOp38
 70
     1
102
RTVSPropertyOp39
 70
     1
102
RTVSPropertyOp40
 70
     1
102
RTVSPropertyOp41
 70
     1
102
RTVSPropertyOp42
 70
     1
102
RTVSPropertyOp43
 70
     1
102
RTVSPropertyOp44
 70
     1
102
RTVSPropertyOp45
 70
     1
102
RTVSPropertyOp46
 70
     1
102
RTVSPropertyOp47
 70
     1
102
RTVSPropertyOp48
 70
     1
102
RTVSPropertyOp49
 70
     1
102
RTVSPropertyOp50
 70
     1
102
RTVSPropertyOp51
 70
     0
102
RTVSPropertyOp52
 70
     0
102
RTVSPropertyOp53
 70
     1
102
RTVSPropertyOp54
 70
     1
102
RTVSPropertyOp55
 70
     1
102
RTVSPropertyOp56
 70
     1
102
RTVSPropertyOp57
 70
     1
102
RTVSPropertyOp58
 70
     1
102
RTVSPropertyOp59
 70
     1
102
RTVSPropertyOp60
 70
     1
102
RTVSPropertyOp61
 70
     1
102
RTVSPropertyOp62
 70
     1
  0
XRECORD
  5
84D6
102
{ACAD_REACTORS
330
84D5
102
}
330
84D5
100
AcDbXrecord
280
     1
102
RTVSPost2010Prop28
280
     0
102
RTVSPost2010PropOp28
 70
     1
102
RTVSPost2010Prop29
280
     1
102
RTVSPost2010PropOp29
 70
     1
102
RTVSPost2010Prop30
280
     1
102
RTVSPost2010PropOp30
 70
     1
102
RTVSPost2010Prop31
280
     0
102
RTVSPost2010PropOp31
 70
     1
102
RTVSPost2010Prop32
280
     0
102
RTVSPost2010PropOp32
 70
     1
102
RTVSPost2010Prop33
280
     0
102
RTVSPost2010PropOp33
 70
     1
102
RTVSPost2010Prop34
280
     0
102
RTVSPost2010PropOp34
 70
     1
102
RTVSPost2010Prop35
280
     0
102
RTVSPost2010PropOp35
 70
     1
102
RTVSPost2010Prop36
280
     0
102
RTVSPost2010PropOp36
 70
     1
102
RTVSPost2010Prop37
 90
       50
102
RTVSPost2010PropOp37
 70
     1
102
RTVSPost2010Prop38
140
0.0
102
RTVSPost2010PropOp38
 70
     1
102
RTVSPost2010Prop39
140
1.0
102
RTVSPost2010PropOp39
 70
     1
102
RTVSPost2010Prop40
 90
        0
102
RTVSPost2010PropOp40
 70
     1
102
RTVSPost2010Prop41ColorIndex
 90
       18
102
RTVSPost2010Prop41ColorRGB
 90
        0
102
RTVSPost2010PropOp41
 70
     1
102
RTVSPost2010Prop42
 90
       50
102
RTVSPost2010PropOp42
 70
     1
102
RTVSPost2010Prop43
 90
        3
102
RTVSPost2010PropOp43
 70
     1
102
RTVSPost2010Prop44ColorIndex
 90
        5
102
RTVSPost2010Prop44ColorRGB
 90
      255
102
RTVSPost2010PropOp44
 70
     1
102
RTVSPost2010Prop45
280
     0
102
RTVSPost2010PropOp45
 70
     1
102
RTVSPost2010Prop46
 90
       50
102
RTVSPost2010PropOp46
 70
     1
102
RTVSPost2010Prop47
 90
       50
102
RTVSPost2010PropOp47
 70
     1
102
RTVSPost2010Prop48
 90
       50
102
RTVSPost2010PropOp48
 70
     1
102
RTVSPost2010Prop49
280
     0
102
RTVSPost2010PropOp49
 70
     1
102
RTVSPost2010Prop50
 90
       50
102
RTVSPost2010PropOp50
 70
     1
102
RTVSPost2010Prop51ColorIndex
 90
      256
102
RTVSPost2010Prop51ColorRGB
 90
-16777216
102
RTVSPost2010PropOp51
 70
     0
102
RTVSPost2010Prop52
140
1.0
102
RTVSPost2010PropOp52
 70
     0
102
RTVSPost2010Prop53
 90
        2
102
RTVSPost2010PropOp53
 70
     1
102
RTVSPost2010Prop54
  1
strokes_ogs.tif
102
RTVSPost2010PropOp54
 70
     1
102
RTVSPost2010Prop55
280
     0
102
RTVSPost2010PropOp55
 70
     1
102
RTVSPost2010Prop56
140
1.0
102
RTVSPost2010PropOp56
 70
     1
102
RTVSPost2010Prop57
140
1.0
102
RTVSPost2010PropOp57
 70
     1
102
RTVSPropertyOp0
 70
     1
102
RTVSPropertyOp1
 70
     1
102
RTVSPropertyOp2
 70
     1
102
RTVSPropertyOp3
 70
     1
102
RTVSPropertyOp4
 70
     1
102
RTVSPropertyOp5
 70
     1
102
RTVSPropertyOp6
 70
     1
102
RTVSPropertyOp7
 70
     1
102
RTVSPropertyOp8
 70
     1
102
RTVSPropertyOp9
 70
     1
102
RTVSPropertyOp10
 70
     1
102
RTVSPropertyOp11
 70
     1
102
RTVSPropertyOp12
 70
     1
102
RTVSPropertyOp13
 70
     1
102
RTVSPropertyOp14
 70
     1
102
RTVSPropertyOp15
 70
     1
102
RTVSPropertyOp16
 70
     1
102
RTVSPropertyOp17
 70
     1
102
RTVSPropertyOp18
 70
     1
102
RTVSPropertyOp19
 70
     1
102
RTVSPropertyOp20
 70
     1
102
RTVSPropertyOp21
 70
     1
102
RTVSPropertyOp22
 70
     1
102
RTVSPropertyOp23
 70
     1
102
RTVSPropertyOp24
 70
     1
102
RTVSPropertyOp25
 70
     1
102
RTVSPropertyOp26
 70
     1
102
RTVSPropertyOp27
 70
     1
102
RTVSPropertyOp28
 70
     1
102
RTVSPropertyOp29
 70
     1
102
RTVSPropertyOp30
 70
     1
102
RTVSPropertyOp31
 70
     1
102
RTVSPropertyOp32
 70
     1
102
RTVSPropertyOp33
 70
     1
102
RTVSPropertyOp34
 70
     1
102
RTVSPropertyOp35
 70
     1
102
RTVSPropertyOp36
 70
     1
102
RTVSPropertyOp37
 70
     1
102
RTVSPropertyOp38
 70
     1
102
RTVSPropertyOp39
 70
     1
102
RTVSPropertyOp40
 70
     1
102
RTVSPropertyOp41
 70
     1
102
RTVSPropertyOp42
 70
     1
102
RTVSPropertyOp43
 70
     1
102
RTVSPropertyOp44
 70
     1
102
RTVSPropertyOp45
 70
     1
102
RTVSPropertyOp46
 70
     1
102
RTVSPropertyOp47
 70
     1
102
RTVSPropertyOp48
 70
     1
102
RTVSPropertyOp49
 70
     1
102
RTVSPropertyOp50
 70
     1
102
RTVSPropertyOp51
 70
     0
102
RTVSPropertyOp52
 70
     0
102
RTVSPropertyOp53
 70
     1
102
RTVSPropertyOp54
 70
     1
102
RTVSPropertyOp55
 70
     1
102
RTVSPropertyOp56
 70
     1
102
RTVSPropertyOp57
 70
     1
102
RTVSPropertyOp58
 70
     1
102
RTVSPropertyOp59
 70
     1
102
RTVSPropertyOp60
 70
     1
102
RTVSPropertyOp61
 70
     1
102
RTVSPropertyOp62
 70
     1
  0
XRECORD
  5
84D8
102
{ACAD_REACTORS
330
84D7
102
}
330
84D7
100
AcDbXrecord
280
     1
102
RTVSPost2010Prop28
280
     0
102
RTVSPost2010PropOp28
 70
     1
102
RTVSPost2010Prop29
280
     1
102
RTVSPost2010PropOp29
 70
     1
102
RTVSPost2010Prop30
280
     1
102
RTVSPost2010PropOp30
 70
     1
102
RTVSPost2010Prop31
280
     0
102
RTVSPost2010PropOp31
 70
     1
102
RTVSPost2010Prop32
280
     0
102
RTVSPost2010PropOp32
 70
     1
102
RTVSPost2010Prop33
280
     0
102
RTVSPost2010PropOp33
 70
     1
102
RTVSPost2010Prop34
280
     0
102
RTVSPost2010PropOp34
 70
     1
102
RTVSPost2010Prop35
280
     0
102
RTVSPost2010PropOp35
 70
     1
102
RTVSPost2010Prop36
280
     0
102
RTVSPost2010PropOp36
 70
     1
102
RTVSPost2010Prop37
 90
       50
102
RTVSPost2010PropOp37
 70
     1
102
RTVSPost2010Prop38
140
0.0
102
RTVSPost2010PropOp38
 70
     1
102
RTVSPost2010Prop39
140
1.0
102
RTVSPost2010PropOp39
 70
     1
102
RTVSPost2010Prop40
 90
        0
102
RTVSPost2010PropOp40
 70
     1
102
RTVSPost2010Prop41ColorIndex
 90
       18
102
RTVSPost2010Prop41ColorRGB
 90
        0
102
RTVSPost2010PropOp41
 70
     1
102
RTVSPost2010Prop42
 90
       50
102
RTVSPost2010PropOp42
 70
     1
102
RTVSPost2010Prop43
 90
        3
102
RTVSPost2010PropOp43
 70
     1
102
RTVSPost2010Prop44ColorIndex
 90
        5
102
RTVSPost2010Prop44ColorRGB
 90
      255
102
RTVSPost2010PropOp44
 70
     1
102
RTVSPost2010Prop45
280
     0
102
RTVSPost2010PropOp45
 70
     1
102
RTVSPost2010Prop46
 90
       50
102
RTVSPost2010PropOp46
 70
     1
102
RTVSPost2010Prop47
 90
       50
102
RTVSPost2010PropOp47
 70
     1
102
RTVSPost2010Prop48
 90
       50
102
RTVSPost2010PropOp48
 70
     1
102
RTVSPost2010Prop49
280
     0
102
RTVSPost2010PropOp49
 70
     1
102
RTVSPost2010Prop50
 90
       50
102
RTVSPost2010PropOp50
 70
     1
102
RTVSPost2010Prop51ColorIndex
 90
      256
102
RTVSPost2010Prop51ColorRGB
 90
-16777216
102
RTVSPost2010PropOp51
 70
     0
102
RTVSPost2010Prop52
140
1.0
102
RTVSPost2010PropOp52
 70
     0
102
RTVSPost2010Prop53
 90
        2
102
RTVSPost2010PropOp53
 70
     1
102
RTVSPost2010Prop54
  1
strokes_ogs.tif
102
RTVSPost2010PropOp54
 70
     1
102
RTVSPost2010Prop55
280
     0
102
RTVSPost2010PropOp55
 70
     1
102
RTVSPost2010Prop56
140
1.0
102
RTVSPost2010PropOp56
 70
     1
102
RTVSPost2010Prop57
140
1.0
102
RTVSPost2010PropOp57
 70
     1
102
RTVSPropertyOp0
 70
     1
102
RTVSPropertyOp1
 70
     1
102
RTVSPropertyOp2
 70
     1
102
RTVSPropertyOp3
 70
     1
102
RTVSPropertyOp4
 70
     1
102
RTVSPropertyOp5
 70
     1
102
RTVSPropertyOp6
 70
     1
102
RTVSPropertyOp7
 70
     1
102
RTVSPropertyOp8
 70
     1
102
RTVSPropertyOp9
 70
     1
102
RTVSPropertyOp10
 70
     1
102
RTVSPropertyOp11
 70
     1
102
RTVSPropertyOp12
 70
     1
102
RTVSPropertyOp13
 70
     1
102
RTVSPropertyOp14
 70
     1
102
RTVSPropertyOp15
 70
     1
102
RTVSPropertyOp16
 70
     1
102
RTVSPropertyOp17
 70
     1
102
RTVSPropertyOp18
 70
     1
102
RTVSPropertyOp19
 70
     1
102
RTVSPropertyOp20
 70
     1
102
RTVSPropertyOp21
 70
     1
102
RTVSPropertyOp22
 70
     1
102
RTVSPropertyOp23
 70
     1
102
RTVSPropertyOp24
 70
     1
102
RTVSPropertyOp25
 70
     1
102
RTVSPropertyOp26
 70
     1
102
RTVSPropertyOp27
 70
     1
102
RTVSPropertyOp28
 70
     1
102
RTVSPropertyOp29
 70
     1
102
RTVSPropertyOp30
 70
     1
102
RTVSPropertyOp31
 70
     1
102
RTVSPropertyOp32
 70
     1
102
RTVSPropertyOp33
 70
     1
102
RTVSPropertyOp34
 70
     1
102
RTVSPropertyOp35
 70
     1
102
RTVSPropertyOp36
 70
     1
102
RTVSPropertyOp37
 70
     1
102
RTVSPropertyOp38
 70
     1
102
RTVSPropertyOp39
 70
     1
102
RTVSPropertyOp40
 70
     1
102
RTVSPropertyOp41
 70
     1
102
RTVSPropertyOp42
 70
     1
102
RTVSPropertyOp43
 70
     1
102
RTVSPropertyOp44
 70
     1
102
RTVSPropertyOp45
 70
     1
102
RTVSPropertyOp46
 70
     1
102
RTVSPropertyOp47
 70
     1
102
RTVSPropertyOp48
 70
     1
102
RTVSPropertyOp49
 70
     1
102
RTVSPropertyOp50
 70
     1
102
RTVSPropertyOp51
 70
     0
102
RTVSPropertyOp52
 70
     0
102
RTVSPropertyOp53
 70
     1
102
RTVSPropertyOp54
 70
     1
102
RTVSPropertyOp55
 70
     1
102
RTVSPropertyOp56
 70
     1
102
RTVSPropertyOp57
 70
     1
102
RTVSPropertyOp58
 70
     1
102
RTVSPropertyOp59
 70
     1
102
RTVSPropertyOp60
 70
     1
102
RTVSPropertyOp61
 70
     1
102
RTVSPropertyOp62
 70
     1
  0
XRECORD
  5
84E0
102
{ACAD_REACTORS
330
84DF
102
}
330
84DF
100
AcDbXrecord
280
     1
102
RTVSPost2010Prop28
280
     0
102
RTVSPost2010PropOp28
 70
     1
102
RTVSPost2010Prop29
280
     1
102
RTVSPost2010PropOp29
 70
     1
102
RTVSPost2010Prop30
280
     1
102
RTVSPost2010PropOp30
 70
     1
102
RTVSPost2010Prop31
280
     0
102
RTVSPost2010PropOp31
 70
     1
102
RTVSPost2010Prop32
280
     0
102
RTVSPost2010PropOp32
 70
     1
102
RTVSPost2010Prop33
280
     0
102
RTVSPost2010PropOp33
 70
     1
102
RTVSPost2010Prop34
280
     0
102
RTVSPost2010PropOp34
 70
     1
102
RTVSPost2010Prop35
280
     0
102
RTVSPost2010PropOp35
 70
     1
102
RTVSPost2010Prop36
280
     0
102
RTVSPost2010PropOp36
 70
     1
102
RTVSPost2010Prop37
 90
       50
102
RTVSPost2010PropOp37
 70
     1
102
RTVSPost2010Prop38
140
0.0
102
RTVSPost2010PropOp38
 70
     1
102
RTVSPost2010Prop39
140
1.0
102
RTVSPost2010PropOp39
 70
     1
102
RTVSPost2010Prop40
 90
        0
102
RTVSPost2010PropOp40
 70
     1
102
RTVSPost2010Prop41ColorIndex
 90
       18
102
RTVSPost2010Prop41ColorRGB
 90
        0
102
RTVSPost2010PropOp41
 70
     1
102
RTVSPost2010Prop42
 90
       50
102
RTVSPost2010PropOp42
 70
     1
102
RTVSPost2010Prop43
 90
        3
102
RTVSPost2010PropOp43
 70
     1
102
RTVSPost2010Prop44ColorIndex
 90
        5
102
RTVSPost2010Prop44ColorRGB
 90
      255
102
RTVSPost2010PropOp44
 70
     1
102
RTVSPost2010Prop45
280
     0
102
RTVSPost2010PropOp45
 70
     1
102
RTVSPost2010Prop46
 90
       50
102
RTVSPost2010PropOp46
 70
     1
102
RTVSPost2010Prop47
 90
       50
102
RTVSPost2010PropOp47
 70
     1
102
RTVSPost2010Prop48
 90
       50
102
RTVSPost2010PropOp48
 70
     1
102
RTVSPost2010Prop49
280
     0
102
RTVSPost2010PropOp49
 70
     1
102
RTVSPost2010Prop50
 90
       50
102
RTVSPost2010PropOp50
 70
     1
102
RTVSPost2010Prop51ColorIndex
 90
      256
102
RTVSPost2010Prop51ColorRGB
 90
-16777216
102
RTVSPost2010PropOp51
 70
     0
102
RTVSPost2010Prop52
140
1.0
102
RTVSPost2010PropOp52
 70
     0
102
RTVSPost2010Prop53
 90
        2
102
RTVSPost2010PropOp53
 70
     1
102
RTVSPost2010Prop54
  1
strokes_ogs.tif
102
RTVSPost2010PropOp54
 70
     1
102
RTVSPost2010Prop55
280
     0
102
RTVSPost2010PropOp55
 70
     1
102
RTVSPost2010Prop56
140
1.0
102
RTVSPost2010PropOp56
 70
     1
102
RTVSPost2010Prop57
140
1.0
102
RTVSPost2010PropOp57
 70
     1
102
RTVSPropertyOp0
 70
     1
102
RTVSPropertyOp1
 70
     1
102
RTVSPropertyOp2
 70
     1
102
RTVSPropertyOp3
 70
     1
102
RTVSPropertyOp4
 70
     1
102
RTVSPropertyOp5
 70
     1
102
RTVSPropertyOp6
 70
     1
102
RTVSPropertyOp7
 70
     1
102
RTVSPropertyOp8
 70
     1
102
RTVSPropertyOp9
 70
     1
102
RTVSPropertyOp10
 70
     1
102
RTVSPropertyOp11
 70
     1
102
RTVSPropertyOp12
 70
     1
102
RTVSPropertyOp13
 70
     1
102
RTVSPropertyOp14
 70
     1
102
RTVSPropertyOp15
 70
     1
102
RTVSPropertyOp16
 70
     1
102
RTVSPropertyOp17
 70
     1
102
RTVSPropertyOp18
 70
     1
102
RTVSPropertyOp19
 70
     1
102
RTVSPropertyOp20
 70
     1
102
RTVSPropertyOp21
 70
     1
102
RTVSPropertyOp22
 70
     1
102
RTVSPropertyOp23
 70
     1
102
RTVSPropertyOp24
 70
     1
102
RTVSPropertyOp25
 70
     1
102
RTVSPropertyOp26
 70
     1
102
RTVSPropertyOp27
 70
     1
102
RTVSPropertyOp28
 70
     1
102
RTVSPropertyOp29
 70
     1
102
RTVSPropertyOp30
 70
     1
102
RTVSPropertyOp31
 70
     1
102
RTVSPropertyOp32
 70
     1
102
RTVSPropertyOp33
 70
     1
102
RTVSPropertyOp34
 70
     1
102
RTVSPropertyOp35
 70
     1
102
RTVSPropertyOp36
 70
     1
102
RTVSPropertyOp37
 70
     1
102
RTVSPropertyOp38
 70
     1
102
RTVSPropertyOp39
 70
     1
102
RTVSPropertyOp40
 70
     1
102
RTVSPropertyOp41
 70
     1
102
RTVSPropertyOp42
 70
     1
102
RTVSPropertyOp43
 70
     1
102
RTVSPropertyOp44
 70
     1
102
RTVSPropertyOp45
 70
     1
102
RTVSPropertyOp46
 70
     1
102
RTVSPropertyOp47
 70
     1
102
RTVSPropertyOp48
 70
     1
102
RTVSPropertyOp49
 70
     1
102
RTVSPropertyOp50
 70
     1
102
RTVSPropertyOp51
 70
     0
102
RTVSPropertyOp52
 70
     0
102
RTVSPropertyOp53
 70
     1
102
RTVSPropertyOp54
 70
     1
102
RTVSPropertyOp55
 70
     1
102
RTVSPropertyOp56
 70
     1
102
RTVSPropertyOp57
 70
     1
102
RTVSPropertyOp58
 70
     1
102
RTVSPropertyOp59
 70
     1
102
RTVSPropertyOp60
 70
     1
102
RTVSPropertyOp61
 70
     1
102
RTVSPropertyOp62
 70
     1
  0
XRECORD
  5
84FC
102
{ACAD_REACTORS
330
84FB
102
}
330
84FB
100
AcDbXrecord
280
     1
102
RTVSPost2010Prop28
280
     0
102
RTVSPost2010PropOp28
 70
     0
102
RTVSPost2010Prop29
280
     1
102
RTVSPost2010PropOp29
 70
     0
102
RTVSPost2010Prop30
280
     1
102
RTVSPost2010PropOp30
 70
     0
102
RTVSPost2010Prop31
280
     0
102
RTVSPost2010PropOp31
 70
     0
102
RTVSPost2010Prop32
280
     0
102
RTVSPost2010PropOp32
 70
     0
102
RTVSPost2010Prop33
280
     0
102
RTVSPost2010PropOp33
 70
     0
102
RTVSPost2010Prop34
280
     0
102
RTVSPost2010PropOp34
 70
     0
102
RTVSPost2010Prop35
280
     0
102
RTVSPost2010PropOp35
 70
     0
102
RTVSPost2010Prop36
280
     0
102
RTVSPost2010PropOp36
 70
     0
102
RTVSPost2010Prop37
 90
       50
102
RTVSPost2010PropOp37
 70
     0
102
RTVSPost2010Prop38
140
0.0
102
RTVSPost2010PropOp38
 70
     0
102
RTVSPost2010Prop39
140
1.0
102
RTVSPost2010PropOp39
 70
     0
102
RTVSPost2010Prop40
 90
        0
102
RTVSPost2010PropOp40
 70
     0
102
RTVSPost2010Prop41ColorIndex
 90
       18
102
RTVSPost2010Prop41ColorRGB
 90
        0
102
RTVSPost2010PropOp41
 70
     0
102
RTVSPost2010Prop42
 90
       50
102
RTVSPost2010PropOp42
 70
     0
102
RTVSPost2010Prop43
 90
        3
102
RTVSPost2010PropOp43
 70
     0
102
RTVSPost2010Prop44ColorIndex
 90
        5
102
RTVSPost2010Prop44ColorRGB
 90
      255
102
RTVSPost2010PropOp44
 70
     0
102
RTVSPost2010Prop45
280
     0
102
RTVSPost2010PropOp45
 70
     0
102
RTVSPost2010Prop46
 90
       50
102
RTVSPost2010PropOp46
 70
     0
102
RTVSPost2010Prop47
 90
       50
102
RTVSPost2010PropOp47
 70
     0
102
RTVSPost2010Prop48
 90
       50
102
RTVSPost2010PropOp48
 70
     0
102
RTVSPost2010Prop49
280
     0
102
RTVSPost2010PropOp49
 70
     0
102
RTVSPost2010Prop50
 90
       50
102
RTVSPost2010PropOp50
 70
     0
102
RTVSPost2010Prop51ColorIndex
 90
      256
102
RTVSPost2010Prop51ColorRGB
 90
-16777216
102
RTVSPost2010PropOp51
 70
     0
102
RTVSPost2010Prop52
140
1.0
102
RTVSPost2010PropOp52
 70
     0
102
RTVSPost2010Prop53
 90
        2
102
RTVSPost2010PropOp53
 70
     0
102
RTVSPost2010Prop54
  1
strokes_ogs.tif
102
RTVSPost2010PropOp54
 70
     0
102
RTVSPost2010Prop55
280
     0
102
RTVSPost2010PropOp55
 70
     0
102
RTVSPost2010Prop56
140
1.0
102
RTVSPost2010PropOp56
 70
     0
102
RTVSPost2010Prop57
140
1.0
102
RTVSPost2010PropOp57
 70
     0
102
RTVSPropertyOp0
 70
     0
102
RTVSPropertyOp1
 70
     0
102
RTVSPropertyOp2
 70
     0
102
RTVSPropertyOp3
 70
     0
102
RTVSPropertyOp4
 70
     0
102
RTVSPropertyOp5
 70
     0
102
RTVSPropertyOp6
 70
     0
102
RTVSPropertyOp7
 70
     0
102
RTVSPropertyOp8
 70
     0
102
RTVSPropertyOp9
 70
     0
102
RTVSPropertyOp10
 70
     0
102
RTVSPropertyOp11
 70
     0
102
RTVSPropertyOp12
 70
     0
102
RTVSPropertyOp13
 70
     0
102
RTVSPropertyOp14
 70
     2
102
RTVSPropertyOp15
 70
     0
102
RTVSPropertyOp16
 70
     0
102
RTVSPropertyOp17
 70
     0
102
RTVSPropertyOp18
 70
     0
102
RTVSPropertyOp19
 70
     0
102
RTVSPropertyOp20
 70
     0
102
RTVSPropertyOp21
 70
     0
102
RTVSPropertyOp22
 70
     0
102
RTVSPropertyOp23
 70
     0
102
RTVSPropertyOp24
 70
     0
102
RTVSPropertyOp25
 70
     0
102
RTVSPropertyOp26
 70
     0
102
RTVSPropertyOp27
 70
     0
102
RTVSPropertyOp28
 70
     0
102
RTVSPropertyOp29
 70
     0
102
RTVSPropertyOp30
 70
     0
102
RTVSPropertyOp31
 70
     0
102
RTVSPropertyOp32
 70
     0
102
RTVSPropertyOp33
 70
     0
102
RTVSPropertyOp34
 70
     0
102
RTVSPropertyOp35
 70
     0
102
RTVSPropertyOp36
 70
     0
102
RTVSPropertyOp37
 70
     0
102
RTVSPropertyOp38
 70
     0
102
RTVSPropertyOp39
 70
     0
102
RTVSPropertyOp40
 70
     0
102
RTVSPropertyOp41
 70
     0
102
RTVSPropertyOp42
 70
     0
102
RTVSPropertyOp43
 70
     0
102
RTVSPropertyOp44
 70
     0
102
RTVSPropertyOp45
 70
     0
102
RTVSPropertyOp46
 70
     0
102
RTVSPropertyOp47
 70
     0
102
RTVSPropertyOp48
 70
     0
102
RTVSPropertyOp49
 70
     0
102
RTVSPropertyOp50
 70
     0
102
RTVSPropertyOp51
 70
     0
102
RTVSPropertyOp52
 70
     0
102
RTVSPropertyOp53
 70
     0
102
RTVSPropertyOp54
 70
     0
102
RTVSPropertyOp55
 70
     0
102
RTVSPropertyOp56
 70
     0
102
RTVSPropertyOp57
 70
     0
102
RTVSPropertyOp58
 70
     1
102
RTVSPropertyOp59
 70
     1
102
RTVSPropertyOp60
 70
     1
102
RTVSPropertyOp61
 70
     1
102
RTVSPropertyOp62
 70
     1
  0
XRECORD
  5
84EC
102
{ACAD_REACTORS
330
84EB
102
}
330
84EB
100
AcDbXrecord
280
     1
102
RTVSPost2010Prop28
280
     0
102
RTVSPost2010PropOp28
 70
     1
102
RTVSPost2010Prop29
280
     1
102
RTVSPost2010PropOp29
 70
     1
102
RTVSPost2010Prop30
280
     1
102
RTVSPost2010PropOp30
 70
     1
102
RTVSPost2010Prop31
280
     0
102
RTVSPost2010PropOp31
 70
     1
102
RTVSPost2010Prop32
280
     0
102
RTVSPost2010PropOp32
 70
     1
102
RTVSPost2010Prop33
280
     0
102
RTVSPost2010PropOp33
 70
     1
102
RTVSPost2010Prop34
280
     0
102
RTVSPost2010PropOp34
 70
     1
102
RTVSPost2010Prop35
280
     0
102
RTVSPost2010PropOp35
 70
     1
102
RTVSPost2010Prop36
280
     0
102
RTVSPost2010PropOp36
 70
     1
102
RTVSPost2010Prop37
 90
       50
102
RTVSPost2010PropOp37
 70
     1
102
RTVSPost2010Prop38
140
0.0
102
RTVSPost2010PropOp38
 70
     1
102
RTVSPost2010Prop39
140
1.0
102
RTVSPost2010PropOp39
 70
     1
102
RTVSPost2010Prop40
 90
        0
102
RTVSPost2010PropOp40
 70
     1
102
RTVSPost2010Prop41ColorIndex
 90
       18
102
RTVSPost2010Prop41ColorRGB
 90
        0
102
RTVSPost2010PropOp41
 70
     1
102
RTVSPost2010Prop42
 90
       50
102
RTVSPost2010PropOp42
 70
     1
102
RTVSPost2010Prop43
 90
        3
102
RTVSPost2010PropOp43
 70
     1
102
RTVSPost2010Prop44ColorIndex
 90
        5
102
RTVSPost2010Prop44ColorRGB
 90
      255
102
RTVSPost2010PropOp44
 70
     1
102
RTVSPost2010Prop45
280
     0
102
RTVSPost2010PropOp45
 70
     1
102
RTVSPost2010Prop46
 90
       50
102
RTVSPost2010PropOp46
 70
     1
102
RTVSPost2010Prop47
 90
       50
102
RTVSPost2010PropOp47
 70
     1
102
RTVSPost2010Prop48
 90
       50
102
RTVSPost2010PropOp48
 70
     1
102
RTVSPost2010Prop49
280
     0
102
RTVSPost2010PropOp49
 70
     1
102
RTVSPost2010Prop50
 90
       50
102
RTVSPost2010PropOp50
 70
     1
102
RTVSPost2010Prop51ColorIndex
 90
      256
102
RTVSPost2010Prop51ColorRGB
 90
-16777216
102
RTVSPost2010PropOp51
 70
     0
102
RTVSPost2010Prop52
140
1.0
102
RTVSPost2010PropOp52
 70
     0
102
RTVSPost2010Prop53
 90
        2
102
RTVSPost2010PropOp53
 70
     1
102
RTVSPost2010Prop54
  1
strokes_ogs.tif
102
RTVSPost2010PropOp54
 70
     1
102
RTVSPost2010Prop55
280
     0
102
RTVSPost2010PropOp55
 70
     1
102
RTVSPost2010Prop56
140
1.0
102
RTVSPost2010PropOp56
 70
     1
102
RTVSPost2010Prop57
140
1.0
102
RTVSPost2010PropOp57
 70
     1
102
RTVSPropertyOp0
 70
     1
102
RTVSPropertyOp1
 70
     1
102
RTVSPropertyOp2
 70
     1
102
RTVSPropertyOp3
 70
     1
102
RTVSPropertyOp4
 70
     1
102
RTVSPropertyOp5
 70
     1
102
RTVSPropertyOp6
 70
     1
102
RTVSPropertyOp7
 70
     1
102
RTVSPropertyOp8
 70
     1
102
RTVSPropertyOp9
 70
     1
102
RTVSPropertyOp10
 70
     1
102
RTVSPropertyOp11
 70
     1
102
RTVSPropertyOp12
 70
     1
102
RTVSPropertyOp13
 70
     1
102
RTVSPropertyOp14
 70
     1
102
RTVSPropertyOp15
 70
     1
102
RTVSPropertyOp16
 70
     1
102
RTVSPropertyOp17
 70
     1
102
RTVSPropertyOp18
 70
     1
102
RTVSPropertyOp19
 70
     1
102
RTVSPropertyOp20
 70
     1
102
RTVSPropertyOp21
 70
     1
102
RTVSPropertyOp22
 70
     1
102
RTVSPropertyOp23
 70
     1
102
RTVSPropertyOp24
 70
     1
102
RTVSPropertyOp25
 70
     1
102
RTVSPropertyOp26
 70
     1
102
RTVSPropertyOp27
 70
     1
102
RTVSPropertyOp28
 70
     1
102
RTVSPropertyOp29
 70
     1
102
RTVSPropertyOp30
 70
     1
102
RTVSPropertyOp31
 70
     1
102
RTVSPropertyOp32
 70
     1
102
RTVSPropertyOp33
 70
     1
102
RTVSPropertyOp34
 70
     1
102
RTVSPropertyOp35
 70
     1
102
RTVSPropertyOp36
 70
     1
102
RTVSPropertyOp37
 70
     1
102
RTVSPropertyOp38
 70
     1
102
RTVSPropertyOp39
 70
     1
102
RTVSPropertyOp40
 70
     1
102
RTVSPropertyOp41
 70
     1
102
RTVSPropertyOp42
 70
     1
102
RTVSPropertyOp43
 70
     1
102
RTVSPropertyOp44
 70
     1
102
RTVSPropertyOp45
 70
     1
102
RTVSPropertyOp46
 70
     1
102
RTVSPropertyOp47
 70
     1
102
RTVSPropertyOp48
 70
     1
102
RTVSPropertyOp49
 70
     1
102
RTVSPropertyOp50
 70
     1
102
RTVSPropertyOp51
 70
     0
102
RTVSPropertyOp52
 70
     0
102
RTVSPropertyOp53
 70
     1
102
RTVSPropertyOp54
 70
     1
102
RTVSPropertyOp55
 70
     1
102
RTVSPropertyOp56
 70
     1
102
RTVSPropertyOp57
 70
     1
102
RTVSPropertyOp58
 70
     1
102
RTVSPropertyOp59
 70
     1
102
RTVSPropertyOp60
 70
     1
102
RTVSPropertyOp61
 70
     1
102
RTVSPropertyOp62
 70
     1
  0
XRECORD
  5
84FE
102
{ACAD_REACTORS
330
84FD
102
}
330
84FD
100
AcDbXrecord
280
     1
102
RTVSPost2010Prop28
280
     0
102
RTVSPost2010PropOp28
 70
     0
102
RTVSPost2010Prop29
280
     1
102
RTVSPost2010PropOp29
 70
     0
102
RTVSPost2010Prop30
280
     1
102
RTVSPost2010PropOp30
 70
     0
102
RTVSPost2010Prop31
280
     0
102
RTVSPost2010PropOp31
 70
     0
102
RTVSPost2010Prop32
280
     0
102
RTVSPost2010PropOp32
 70
     0
102
RTVSPost2010Prop33
280
     0
102
RTVSPost2010PropOp33
 70
     0
102
RTVSPost2010Prop34
280
     0
102
RTVSPost2010PropOp34
 70
     0
102
RTVSPost2010Prop35
280
     0
102
RTVSPost2010PropOp35
 70
     0
102
RTVSPost2010Prop36
280
     0
102
RTVSPost2010PropOp36
 70
     0
102
RTVSPost2010Prop37
 90
       50
102
RTVSPost2010PropOp37
 70
     0
102
RTVSPost2010Prop38
140
0.0
102
RTVSPost2010PropOp38
 70
     0
102
RTVSPost2010Prop39
140
1.0
102
RTVSPost2010PropOp39
 70
     0
102
RTVSPost2010Prop40
 90
        0
102
RTVSPost2010PropOp40
 70
     0
102
RTVSPost2010Prop41ColorIndex
 90
       18
102
RTVSPost2010Prop41ColorRGB
 90
        0
102
RTVSPost2010PropOp41
 70
     0
102
RTVSPost2010Prop42
 90
       50
102
RTVSPost2010PropOp42
 70
     0
102
RTVSPost2010Prop43
 90
        3
102
RTVSPost2010PropOp43
 70
     0
102
RTVSPost2010Prop44ColorIndex
 90
        5
102
RTVSPost2010Prop44ColorRGB
 90
      255
102
RTVSPost2010PropOp44
 70
     0
102
RTVSPost2010Prop45
280
     0
102
RTVSPost2010PropOp45
 70
     0
102
RTVSPost2010Prop46
 90
       50
102
RTVSPost2010PropOp46
 70
     0
102
RTVSPost2010Prop47
 90
       50
102
RTVSPost2010PropOp47
 70
     0
102
RTVSPost2010Prop48
 90
       50
102
RTVSPost2010PropOp48
 70
     0
102
RTVSPost2010Prop49
280
     0
102
RTVSPost2010PropOp49
 70
     0
102
RTVSPost2010Prop50
 90
       50
102
RTVSPost2010PropOp50
 70
     0
102
RTVSPost2010Prop51ColorIndex
 90
      256
102
RTVSPost2010Prop51ColorRGB
 90
-16777216
102
RTVSPost2010PropOp51
 70
     0
102
RTVSPost2010Prop52
140
1.0
102
RTVSPost2010PropOp52
 70
     0
102
RTVSPost2010Prop53
 90
        2
102
RTVSPost2010PropOp53
 70
     0
102
RTVSPost2010Prop54
  1
strokes_ogs.tif
102
RTVSPost2010PropOp54
 70
     0
102
RTVSPost2010Prop55
280
     0
102
RTVSPost2010PropOp55
 70
     0
102
RTVSPost2010Prop56
140
1.0
102
RTVSPost2010PropOp56
 70
     0
102
RTVSPost2010Prop57
140
1.0
102
RTVSPost2010PropOp57
 70
     0
102
RTVSPropertyOp0
 70
     0
102
RTVSPropertyOp1
 70
     0
102
RTVSPropertyOp2
 70
     0
102
RTVSPropertyOp3
 70
     0
102
RTVSPropertyOp4
 70
     0
102
RTVSPropertyOp5
 70
     0
102
RTVSPropertyOp6
 70
     0
102
RTVSPropertyOp7
 70
     0
102
RTVSPropertyOp8
 70
     0
102
RTVSPropertyOp9
 70
     0
102
RTVSPropertyOp10
 70
     0
102
RTVSPropertyOp11
 70
     0
102
RTVSPropertyOp12
 70
     0
102
RTVSPropertyOp13
 70
     0
102
RTVSPropertyOp14
 70
     2
102
RTVSPropertyOp15
 70
     0
102
RTVSPropertyOp16
 70
     0
102
RTVSPropertyOp17
 70
     0
102
RTVSPropertyOp18
 70
     0
102
RTVSPropertyOp19
 70
     0
102
RTVSPropertyOp20
 70
     0
102
RTVSPropertyOp21
 70
     0
102
RTVSPropertyOp22
 70
     0
102
RTVSPropertyOp23
 70
     0
102
RTVSPropertyOp24
 70
     0
102
RTVSPropertyOp25
 70
     0
102
RTVSPropertyOp26
 70
     0
102
RTVSPropertyOp27
 70
     0
102
RTVSPropertyOp28
 70
     0
102
RTVSPropertyOp29
 70
     0
102
RTVSPropertyOp30
 70
     0
102
RTVSPropertyOp31
 70
     0
102
RTVSPropertyOp32
 70
     0
102
RTVSPropertyOp33
 70
     0
102
RTVSPropertyOp34
 70
     0
102
RTVSPropertyOp35
 70
     0
102
RTVSPropertyOp36
 70
     0
102
RTVSPropertyOp37
 70
     0
102
RTVSPropertyOp38
 70
     0
102
RTVSPropertyOp39
 70
     0
102
RTVSPropertyOp40
 70
     0
102
RTVSPropertyOp41
 70
     0
102
RTVSPropertyOp42
 70
     0
102
RTVSPropertyOp43
 70
     0
102
RTVSPropertyOp44
 70
     0
102
RTVSPropertyOp45
 70
     0
102
RTVSPropertyOp46
 70
     0
102
RTVSPropertyOp47
 70
     0
102
RTVSPropertyOp48
 70
     0
102
RTVSPropertyOp49
 70
     0
102
RTVSPropertyOp50
 70
     0
102
RTVSPropertyOp51
 70
     0
102
RTVSPropertyOp52
 70
     0
102
RTVSPropertyOp53
 70
     0
102
RTVSPropertyOp54
 70
     0
102
RTVSPropertyOp55
 70
     0
102
RTVSPropertyOp56
 70
     0
102
RTVSPropertyOp57
 70
     0
102
RTVSPropertyOp58
 70
     1
102
RTVSPropertyOp59
 70
     1
102
RTVSPropertyOp60
 70
     1
102
RTVSPropertyOp61
 70
     1
102
RTVSPropertyOp62
 70
     1
  0
XRECORD
  5
84E4
102
{ACAD_REACTORS
330
84E3
102
}
330
84E3
100
AcDbXrecord
280
     1
102
RTVSPost2010Prop28
280
     0
102
RTVSPost2010PropOp28
 70
     1
102
RTVSPost2010Prop29
280
     1
102
RTVSPost2010PropOp29
 70
     1
102
RTVSPost2010Prop30
280
     1
102
RTVSPost2010PropOp30
 70
     1
102
RTVSPost2010Prop31
280
     0
102
RTVSPost2010PropOp31
 70
     1
102
RTVSPost2010Prop32
280
     0
102
RTVSPost2010PropOp32
 70
     1
102
RTVSPost2010Prop33
280
     0
102
RTVSPost2010PropOp33
 70
     1
102
RTVSPost2010Prop34
280
     0
102
RTVSPost2010PropOp34
 70
     1
102
RTVSPost2010Prop35
280
     0
102
RTVSPost2010PropOp35
 70
     1
102
RTVSPost2010Prop36
280
     0
102
RTVSPost2010PropOp36
 70
     1
102
RTVSPost2010Prop37
 90
       50
102
RTVSPost2010PropOp37
 70
     1
102
RTVSPost2010Prop38
140
0.0
102
RTVSPost2010PropOp38
 70
     1
102
RTVSPost2010Prop39
140
1.0
102
RTVSPost2010PropOp39
 70
     1
102
RTVSPost2010Prop40
 90
        0
102
RTVSPost2010PropOp40
 70
     1
102
RTVSPost2010Prop41ColorIndex
 90
       18
102
RTVSPost2010Prop41ColorRGB
 90
        0
102
RTVSPost2010PropOp41
 70
     1
102
RTVSPost2010Prop42
 90
       50
102
RTVSPost2010PropOp42
 70
     1
102
RTVSPost2010Prop43
 90
        3
102
RTVSPost2010PropOp43
 70
     1
102
RTVSPost2010Prop44ColorIndex
 90
        5
102
RTVSPost2010Prop44ColorRGB
 90
      255
102
RTVSPost2010PropOp44
 70
     1
102
RTVSPost2010Prop45
280
     0
102
RTVSPost2010PropOp45
 70
     1
102
RTVSPost2010Prop46
 90
       50
102
RTVSPost2010PropOp46
 70
     1
102
RTVSPost2010Prop47
 90
       50
102
RTVSPost2010PropOp47
 70
     1
102
RTVSPost2010Prop48
 90
       50
102
RTVSPost2010PropOp48
 70
     1
102
RTVSPost2010Prop49
280
     0
102
RTVSPost2010PropOp49
 70
     1
102
RTVSPost2010Prop50
 90
       50
102
RTVSPost2010PropOp50
 70
     1
102
RTVSPost2010Prop51ColorIndex
 90
      256
102
RTVSPost2010Prop51ColorRGB
 90
-16777216
102
RTVSPost2010PropOp51
 70
     0
102
RTVSPost2010Prop52
140
1.0
102
RTVSPost2010PropOp52
 70
     0
102
RTVSPost2010Prop53
 90
        2
102
RTVSPost2010PropOp53
 70
     1
102
RTVSPost2010Prop54
  1
strokes_ogs.tif
102
RTVSPost2010PropOp54
 70
     1
102
RTVSPost2010Prop55
280
     0
102
RTVSPost2010PropOp55
 70
     1
102
RTVSPost2010Prop56
140
1.0
102
RTVSPost2010PropOp56
 70
     1
102
RTVSPost2010Prop57
140
1.0
102
RTVSPost2010PropOp57
 70
     1
102
RTVSPropertyOp0
 70
     1
102
RTVSPropertyOp1
 70
     1
102
RTVSPropertyOp2
 70
     1
102
RTVSPropertyOp3
 70
     1
102
RTVSPropertyOp4
 70
     1
102
RTVSPropertyOp5
 70
     1
102
RTVSPropertyOp6
 70
     1
102
RTVSPropertyOp7
 70
     1
102
RTVSPropertyOp8
 70
     1
102
RTVSPropertyOp9
 70
     1
102
RTVSPropertyOp10
 70
     1
102
RTVSPropertyOp11
 70
     1
102
RTVSPropertyOp12
 70
     1
102
RTVSPropertyOp13
 70
     1
102
RTVSPropertyOp14
 70
     1
102
RTVSPropertyOp15
 70
     1
102
RTVSPropertyOp16
 70
     1
102
RTVSPropertyOp17
 70
     1
102
RTVSPropertyOp18
 70
     1
102
RTVSPropertyOp19
 70
     1
102
RTVSPropertyOp20
 70
     1
102
RTVSPropertyOp21
 70
     1
102
RTVSPropertyOp22
 70
     1
102
RTVSPropertyOp23
 70
     1
102
RTVSPropertyOp24
 70
     1
102
RTVSPropertyOp25
 70
     1
102
RTVSPropertyOp26
 70
     1
102
RTVSPropertyOp27
 70
     1
102
RTVSPropertyOp28
 70
     1
102
RTVSPropertyOp29
 70
     1
102
RTVSPropertyOp30
 70
     1
102
RTVSPropertyOp31
 70
     1
102
RTVSPropertyOp32
 70
     1
102
RTVSPropertyOp33
 70
     1
102
RTVSPropertyOp34
 70
     1
102
RTVSPropertyOp35
 70
     1
102
RTVSPropertyOp36
 70
     1
102
RTVSPropertyOp37
 70
     1
102
RTVSPropertyOp38
 70
     1
102
RTVSPropertyOp39
 70
     1
102
RTVSPropertyOp40
 70
     1
102
RTVSPropertyOp41
 70
     1
102
RTVSPropertyOp42
 70
     1
102
RTVSPropertyOp43
 70
     1
102
RTVSPropertyOp44
 70
     1
102
RTVSPropertyOp45
 70
     1
102
RTVSPropertyOp46
 70
     1
102
RTVSPropertyOp47
 70
     1
102
RTVSPropertyOp48
 70
     1
102
RTVSPropertyOp49
 70
     1
102
RTVSPropertyOp50
 70
     1
102
RTVSPropertyOp51
 70
     0
102
RTVSPropertyOp52
 70
     0
102
RTVSPropertyOp53
 70
     1
102
RTVSPropertyOp54
 70
     1
102
RTVSPropertyOp55
 70
     1
102
RTVSPropertyOp56
 70
     1
102
RTVSPropertyOp57
 70
     1
102
RTVSPropertyOp58
 70
     1
102
RTVSPropertyOp59
 70
     1
102
RTVSPropertyOp60
 70
     1
102
RTVSPropertyOp61
 70
     1
102
RTVSPropertyOp62
 70
     1
  0
XRECORD
  5
84FA
102
{ACAD_REACTORS
330
84F9
102
}
330
84F9
100
AcDbXrecord
280
     1
102
RTVSPost2010Prop28
280
     0
102
RTVSPost2010PropOp28
 70
     1
102
RTVSPost2010Prop29
280
     1
102
RTVSPost2010PropOp29
 70
     1
102
RTVSPost2010Prop30
280
     1
102
RTVSPost2010PropOp30
 70
     1
102
RTVSPost2010Prop31
280
     0
102
RTVSPost2010PropOp31
 70
     1
102
RTVSPost2010Prop32
280
     0
102
RTVSPost2010PropOp32
 70
     1
102
RTVSPost2010Prop33
280
     0
102
RTVSPost2010PropOp33
 70
     1
102
RTVSPost2010Prop34
280
     0
102
RTVSPost2010PropOp34
 70
     1
102
RTVSPost2010Prop35
280
     0
102
RTVSPost2010PropOp35
 70
     1
102
RTVSPost2010Prop36
280
     0
102
RTVSPost2010PropOp36
 70
     1
102
RTVSPost2010Prop37
 90
       50
102
RTVSPost2010PropOp37
 70
     1
102
RTVSPost2010Prop38
140
0.0
102
RTVSPost2010PropOp38
 70
     1
102
RTVSPost2010Prop39
140
1.0
102
RTVSPost2010PropOp39
 70
     1
102
RTVSPost2010Prop40
 90
        0
102
RTVSPost2010PropOp40
 70
     1
102
RTVSPost2010Prop41ColorIndex
 90
       18
102
RTVSPost2010Prop41ColorRGB
 90
        0
102
RTVSPost2010PropOp41
 70
     1
102
RTVSPost2010Prop42
 90
       50
102
RTVSPost2010PropOp42
 70
     1
102
RTVSPost2010Prop43
 90
        3
102
RTVSPost2010PropOp43
 70
     1
102
RTVSPost2010Prop44ColorIndex
 90
        5
102
RTVSPost2010Prop44ColorRGB
 90
      255
102
RTVSPost2010PropOp44
 70
     1
102
RTVSPost2010Prop45
280
     0
102
RTVSPost2010PropOp45
 70
     1
102
RTVSPost2010Prop46
 90
       50
102
RTVSPost2010PropOp46
 70
     1
102
RTVSPost2010Prop47
 90
       50
102
RTVSPost2010PropOp47
 70
     1
102
RTVSPost2010Prop48
 90
       50
102
RTVSPost2010PropOp48
 70
     1
102
RTVSPost2010Prop49
280
     0
102
RTVSPost2010PropOp49
 70
     1
102
RTVSPost2010Prop50
 90
       50
102
RTVSPost2010PropOp50
 70
     1
102
RTVSPost2010Prop51ColorIndex
 90
      256
102
RTVSPost2010Prop51ColorRGB
 90
-16777216
102
RTVSPost2010PropOp51
 70
     0
102
RTVSPost2010Prop52
140
1.0
102
RTVSPost2010PropOp52
 70
     0
102
RTVSPost2010Prop53
 90
        2
102
RTVSPost2010PropOp53
 70
     1
102
RTVSPost2010Prop54
  1
strokes_ogs.tif
102
RTVSPost2010PropOp54
 70
     1
102
RTVSPost2010Prop55
280
     0
102
RTVSPost2010PropOp55
 70
     1
102
RTVSPost2010Prop56
140
1.0
102
RTVSPost2010PropOp56
 70
     1
102
RTVSPost2010Prop57
140
1.0
102
RTVSPost2010PropOp57
 70
     1
102
RTVSPropertyOp0
 70
     1
102
RTVSPropertyOp1
 70
     1
102
RTVSPropertyOp2
 70
     1
102
RTVSPropertyOp3
 70
     1
102
RTVSPropertyOp4
 70
     1
102
RTVSPropertyOp5
 70
     1
102
RTVSPropertyOp6
 70
     1
102
RTVSPropertyOp7
 70
     1
102
RTVSPropertyOp8
 70
     1
102
RTVSPropertyOp9
 70
     1
102
RTVSPropertyOp10
 70
     1
102
RTVSPropertyOp11
 70
     1
102
RTVSPropertyOp12
 70
     1
102
RTVSPropertyOp13
 70
     1
102
RTVSPropertyOp14
 70
     1
102
RTVSPropertyOp15
 70
     1
102
RTVSPropertyOp16
 70
     1
102
RTVSPropertyOp17
 70
     1
102
RTVSPropertyOp18
 70
     1
102
RTVSPropertyOp19
 70
     1
102
RTVSPropertyOp20
 70
     1
102
RTVSPropertyOp21
 70
     1
102
RTVSPropertyOp22
 70
     1
102
RTVSPropertyOp23
 70
     1
102
RTVSPropertyOp24
 70
     1
102
RTVSPropertyOp25
 70
     1
102
RTVSPropertyOp26
 70
     1
102
RTVSPropertyOp27
 70
     1
102
RTVSPropertyOp28
 70
     1
102
RTVSPropertyOp29
 70
     1
102
RTVSPropertyOp30
 70
     1
102
RTVSPropertyOp31
 70
     1
102
RTVSPropertyOp32
 70
     1
102
RTVSPropertyOp33
 70
     1
102
RTVSPropertyOp34
 70
     1
102
RTVSPropertyOp35
 70
     1
102
RTVSPropertyOp36
 70
     1
102
RTVSPropertyOp37
 70
     1
102
RTVSPropertyOp38
 70
     1
102
RTVSPropertyOp39
 70
     1
102
RTVSPropertyOp40
 70
     1
102
RTVSPropertyOp41
 70
     1
102
RTVSPropertyOp42
 70
     1
102
RTVSPropertyOp43
 70
     1
102
RTVSPropertyOp44
 70
     1
102
RTVSPropertyOp45
 70
     1
102
RTVSPropertyOp46
 70
     1
102
RTVSPropertyOp47
 70
     1
102
RTVSPropertyOp48
 70
     1
102
RTVSPropertyOp49
 70
     1
102
RTVSPropertyOp50
 70
     1
102
RTVSPropertyOp51
 70
     0
102
RTVSPropertyOp52
 70
     0
102
RTVSPropertyOp53
 70
     1
102
RTVSPropertyOp54
 70
     1
102
RTVSPropertyOp55
 70
     1
102
RTVSPropertyOp56
 70
     1
102
RTVSPropertyOp57
 70
     1
102
RTVSPropertyOp58
 70
     1
102
RTVSPropertyOp59
 70
     1
102
RTVSPropertyOp60
 70
     1
102
RTVSPropertyOp61
 70
     1
102
RTVSPropertyOp62
 70
     1
  0
XRECORD
  5
84F8
102
{ACAD_REACTORS
330
84F7
102
}
330
84F7
100
AcDbXrecord
280
     1
102
RTVSPost2010Prop28
280
     0
102
RTVSPost2010PropOp28
 70
     1
102
RTVSPost2010Prop29
280
     1
102
RTVSPost2010PropOp29
 70
     1
102
RTVSPost2010Prop30
280
     1
102
RTVSPost2010PropOp30
 70
     1
102
RTVSPost2010Prop31
280
     0
102
RTVSPost2010PropOp31
 70
     1
102
RTVSPost2010Prop32
280
     0
102
RTVSPost2010PropOp32
 70
     1
102
RTVSPost2010Prop33
280
     0
102
RTVSPost2010PropOp33
 70
     1
102
RTVSPost2010Prop34
280
     0
102
RTVSPost2010PropOp34
 70
     1
102
RTVSPost2010Prop35
280
     0
102
RTVSPost2010PropOp35
 70
     1
102
RTVSPost2010Prop36
280
     0
102
RTVSPost2010PropOp36
 70
     1
102
RTVSPost2010Prop37
 90
       50
102
RTVSPost2010PropOp37
 70
     1
102
RTVSPost2010Prop38
140
0.0
102
RTVSPost2010PropOp38
 70
     1
102
RTVSPost2010Prop39
140
1.0
102
RTVSPost2010PropOp39
 70
     1
102
RTVSPost2010Prop40
 90
        0
102
RTVSPost2010PropOp40
 70
     1
102
RTVSPost2010Prop41ColorIndex
 90
       18
102
RTVSPost2010Prop41ColorRGB
 90
        0
102
RTVSPost2010PropOp41
 70
     1
102
RTVSPost2010Prop42
 90
       50
102
RTVSPost2010PropOp42
 70
     1
102
RTVSPost2010Prop43
 90
        3
102
RTVSPost2010PropOp43
 70
     1
102
RTVSPost2010Prop44ColorIndex
 90
        5
102
RTVSPost2010Prop44ColorRGB
 90
      255
102
RTVSPost2010PropOp44
 70
     1
102
RTVSPost2010Prop45
280
     0
102
RTVSPost2010PropOp45
 70
     1
102
RTVSPost2010Prop46
 90
       50
102
RTVSPost2010PropOp46
 70
     1
102
RTVSPost2010Prop47
 90
       50
102
RTVSPost2010PropOp47
 70
     1
102
RTVSPost2010Prop48
 90
       50
102
RTVSPost2010PropOp48
 70
     1
102
RTVSPost2010Prop49
280
     0
102
RTVSPost2010PropOp49
 70
     1
102
RTVSPost2010Prop50
 90
       50
102
RTVSPost2010PropOp50
 70
     1
102
RTVSPost2010Prop51ColorIndex
 90
      256
102
RTVSPost2010Prop51ColorRGB
 90
-16777216
102
RTVSPost2010PropOp51
 70
     0
102
RTVSPost2010Prop52
140
1.0
102
RTVSPost2010PropOp52
 70
     0
102
RTVSPost2010Prop53
 90
        2
102
RTVSPost2010PropOp53
 70
     1
102
RTVSPost2010Prop54
  1
strokes_ogs.tif
102
RTVSPost2010PropOp54
 70
     1
102
RTVSPost2010Prop55
280
     0
102
RTVSPost2010PropOp55
 70
     1
102
RTVSPost2010Prop56
140
1.0
102
RTVSPost2010PropOp56
 70
     1
102
RTVSPost2010Prop57
140
1.0
102
RTVSPost2010PropOp57
 70
     1
102
RTVSPropertyOp0
 70
     1
102
RTVSPropertyOp1
 70
     1
102
RTVSPropertyOp2
 70
     1
102
RTVSPropertyOp3
 70
     1
102
RTVSPropertyOp4
 70
     1
102
RTVSPropertyOp5
 70
     1
102
RTVSPropertyOp6
 70
     1
102
RTVSPropertyOp7
 70
     1
102
RTVSPropertyOp8
 70
     1
102
RTVSPropertyOp9
 70
     1
102
RTVSPropertyOp10
 70
     1
102
RTVSPropertyOp11
 70
     1
102
RTVSPropertyOp12
 70
     1
102
RTVSPropertyOp13
 70
     1
102
RTVSPropertyOp14
 70
     1
102
RTVSPropertyOp15
 70
     1
102
RTVSPropertyOp16
 70
     1
102
RTVSPropertyOp17
 70
     1
102
RTVSPropertyOp18
 70
     1
102
RTVSPropertyOp19
 70
     1
102
RTVSPropertyOp20
 70
     1
102
RTVSPropertyOp21
 70
     1
102
RTVSPropertyOp22
 70
     1
102
RTVSPropertyOp23
 70
     1
102
RTVSPropertyOp24
 70
     1
102
RTVSPropertyOp25
 70
     1
102
RTVSPropertyOp26
 70
     1
102
RTVSPropertyOp27
 70
     1
102
RTVSPropertyOp28
 70
     1
102
RTVSPropertyOp29
 70
     1
102
RTVSPropertyOp30
 70
     1
102
RTVSPropertyOp31
 70
     1
102
RTVSPropertyOp32
 70
     1
102
RTVSPropertyOp33
 70
     1
102
RTVSPropertyOp34
 70
     1
102
RTVSPropertyOp35
 70
     1
102
RTVSPropertyOp36
 70
     1
102
RTVSPropertyOp37
 70
     1
102
RTVSPropertyOp38
 70
     1
102
RTVSPropertyOp39
 70
     1
102
RTVSPropertyOp40
 70
     1
102
RTVSPropertyOp41
 70
     1
102
RTVSPropertyOp42
 70
     1
102
RTVSPropertyOp43
 70
     1
102
RTVSPropertyOp44
 70
     1
102
RTVSPropertyOp45
 70
     1
102
RTVSPropertyOp46
 70
     1
102
RTVSPropertyOp47
 70
     1
102
RTVSPropertyOp48
 70
     1
102
RTVSPropertyOp49
 70
     1
102
RTVSPropertyOp50
 70
     1
102
RTVSPropertyOp51
 70
     0
102
RTVSPropertyOp52
 70
     0
102
RTVSPropertyOp53
 70
     1
102
RTVSPropertyOp54
 70
     1
102
RTVSPropertyOp55
 70
     1
102
RTVSPropertyOp56
 70
     1
102
RTVSPropertyOp57
 70
     1
102
RTVSPropertyOp58
 70
     1
102
RTVSPropertyOp59
 70
     1
102
RTVSPropertyOp60
 70
     1
102
RTVSPropertyOp61
 70
     1
102
RTVSPropertyOp62
 70
     1
  0
XRECORD
  5
84F2
102
{ACAD_REACTORS
330
84F1
102
}
330
84F1
100
AcDbXrecord
280
     1
102
RTVSPost2010Prop28
280
     0
102
RTVSPost2010PropOp28
 70
     1
102
RTVSPost2010Prop29
280
     1
102
RTVSPost2010PropOp29
 70
     1
102
RTVSPost2010Prop30
280
     1
102
RTVSPost2010PropOp30
 70
     1
102
RTVSPost2010Prop31
280
     0
102
RTVSPost2010PropOp31
 70
     1
102
RTVSPost2010Prop32
280
     0
102
RTVSPost2010PropOp32
 70
     1
102
RTVSPost2010Prop33
280
     0
102
RTVSPost2010PropOp33
 70
     1
102
RTVSPost2010Prop34
280
     0
102
RTVSPost2010PropOp34
 70
     1
102
RTVSPost2010Prop35
280
     0
102
RTVSPost2010PropOp35
 70
     1
102
RTVSPost2010Prop36
280
     0
102
RTVSPost2010PropOp36
 70
     1
102
RTVSPost2010Prop37
 90
       50
102
RTVSPost2010PropOp37
 70
     1
102
RTVSPost2010Prop38
140
0.0
102
RTVSPost2010PropOp38
 70
     1
102
RTVSPost2010Prop39
140
1.0
102
RTVSPost2010PropOp39
 70
     1
102
RTVSPost2010Prop40
 90
        0
102
RTVSPost2010PropOp40
 70
     1
102
RTVSPost2010Prop41ColorIndex
 90
       18
102
RTVSPost2010Prop41ColorRGB
 90
        0
102
RTVSPost2010PropOp41
 70
     1
102
RTVSPost2010Prop42
 90
       50
102
RTVSPost2010PropOp42
 70
     1
102
RTVSPost2010Prop43
 90
        3
102
RTVSPost2010PropOp43
 70
     1
102
RTVSPost2010Prop44ColorIndex
 90
        5
102
RTVSPost2010Prop44ColorRGB
 90
      255
102
RTVSPost2010PropOp44
 70
     1
102
RTVSPost2010Prop45
280
     0
102
RTVSPost2010PropOp45
 70
     1
102
RTVSPost2010Prop46
 90
       50
102
RTVSPost2010PropOp46
 70
     1
102
RTVSPost2010Prop47
 90
       50
102
RTVSPost2010PropOp47
 70
     1
102
RTVSPost2010Prop48
 90
       50
102
RTVSPost2010PropOp48
 70
     1
102
RTVSPost2010Prop49
280
     0
102
RTVSPost2010PropOp49
 70
     1
102
RTVSPost2010Prop50
 90
       50
102
RTVSPost2010PropOp50
 70
     1
102
RTVSPost2010Prop51ColorIndex
 90
      256
102
RTVSPost2010Prop51ColorRGB
 90
-16777216
102
RTVSPost2010PropOp51
 70
     0
102
RTVSPost2010Prop52
140
1.0
102
RTVSPost2010PropOp52
 70
     0
102
RTVSPost2010Prop53
 90
        2
102
RTVSPost2010PropOp53
 70
     1
102
RTVSPost2010Prop54
  1
strokes_ogs.tif
102
RTVSPost2010PropOp54
 70
     1
102
RTVSPost2010Prop55
280
     0
102
RTVSPost2010PropOp55
 70
     1
102
RTVSPost2010Prop56
140
1.0
102
RTVSPost2010PropOp56
 70
     1
102
RTVSPost2010Prop57
140
1.0
102
RTVSPost2010PropOp57
 70
     1
102
RTVSPropertyOp0
 70
     1
102
RTVSPropertyOp1
 70
     1
102
RTVSPropertyOp2
 70
     1
102
RTVSPropertyOp3
 70
     1
102
RTVSPropertyOp4
 70
     1
102
RTVSPropertyOp5
 70
     1
102
RTVSPropertyOp6
 70
     1
102
RTVSPropertyOp7
 70
     1
102
RTVSPropertyOp8
 70
     1
102
RTVSPropertyOp9
 70
     1
102
RTVSPropertyOp10
 70
     1
102
RTVSPropertyOp11
 70
     1
102
RTVSPropertyOp12
 70
     1
102
RTVSPropertyOp13
 70
     1
102
RTVSPropertyOp14
 70
     1
102
RTVSPropertyOp15
 70
     1
102
RTVSPropertyOp16
 70
     1
102
RTVSPropertyOp17
 70
     1
102
RTVSPropertyOp18
 70
     1
102
RTVSPropertyOp19
 70
     1
102
RTVSPropertyOp20
 70
     1
102
RTVSPropertyOp21
 70
     1
102
RTVSPropertyOp22
 70
     1
102
RTVSPropertyOp23
 70
     1
102
RTVSPropertyOp24
 70
     1
102
RTVSPropertyOp25
 70
     1
102
RTVSPropertyOp26
 70
     1
102
RTVSPropertyOp27
 70
     1
102
RTVSPropertyOp28
 70
     1
102
RTVSPropertyOp29
 70
     1
102
RTVSPropertyOp30
 70
     1
102
RTVSPropertyOp31
 70
     1
102
RTVSPropertyOp32
 70
     1
102
RTVSPropertyOp33
 70
     1
102
RTVSPropertyOp34
 70
     1
102
RTVSPropertyOp35
 70
     1
102
RTVSPropertyOp36
 70
     1
102
RTVSPropertyOp37
 70
     1
102
RTVSPropertyOp38
 70
     1
102
RTVSPropertyOp39
 70
     1
102
RTVSPropertyOp40
 70
     1
102
RTVSPropertyOp41
 70
     1
102
RTVSPropertyOp42
 70
     1
102
RTVSPropertyOp43
 70
     1
102
RTVSPropertyOp44
 70
     1
102
RTVSPropertyOp45
 70
     1
102
RTVSPropertyOp46
 70
     1
102
RTVSPropertyOp47
 70
     1
102
RTVSPropertyOp48
 70
     1
102
RTVSPropertyOp49
 70
     1
102
RTVSPropertyOp50
 70
     1
102
RTVSPropertyOp51
 70
     0
102
RTVSPropertyOp52
 70
     0
102
RTVSPropertyOp53
 70
     1
102
RTVSPropertyOp54
 70
     1
102
RTVSPropertyOp55
 70
     1
102
RTVSPropertyOp56
 70
     1
102
RTVSPropertyOp57
 70
     1
102
RTVSPropertyOp58
 70
     1
102
RTVSPropertyOp59
 70
     1
102
RTVSPropertyOp60
 70
     1
102
RTVSPropertyOp61
 70
     1
102
RTVSPropertyOp62
 70
     1
  0
XRECORD
  5
84F4
102
{ACAD_REACTORS
330
84F3
102
}
330
84F3
100
AcDbXrecord
280
     1
102
RTVSPost2010Prop28
280
     0
102
RTVSPost2010PropOp28
 70
     1
102
RTVSPost2010Prop29
280
     1
102
RTVSPost2010PropOp29
 70
     1
102
RTVSPost2010Prop30
280
     1
102
RTVSPost2010PropOp30
 70
     1
102
RTVSPost2010Prop31
280
     0
102
RTVSPost2010PropOp31
 70
     1
102
RTVSPost2010Prop32
280
     0
102
RTVSPost2010PropOp32
 70
     1
102
RTVSPost2010Prop33
280
     0
102
RTVSPost2010PropOp33
 70
     1
102
RTVSPost2010Prop34
280
     0
102
RTVSPost2010PropOp34
 70
     1
102
RTVSPost2010Prop35
280
     0
102
RTVSPost2010PropOp35
 70
     1
102
RTVSPost2010Prop36
280
     0
102
RTVSPost2010PropOp36
 70
     1
102
RTVSPost2010Prop37
 90
       50
102
RTVSPost2010PropOp37
 70
     1
102
RTVSPost2010Prop38
140
0.0
102
RTVSPost2010PropOp38
 70
     1
102
RTVSPost2010Prop39
140
1.0
102
RTVSPost2010PropOp39
 70
     1
102
RTVSPost2010Prop40
 90
        0
102
RTVSPost2010PropOp40
 70
     1
102
RTVSPost2010Prop41ColorIndex
 90
       18
102
RTVSPost2010Prop41ColorRGB
 90
        0
102
RTVSPost2010PropOp41
 70
     1
102
RTVSPost2010Prop42
 90
       50
102
RTVSPost2010PropOp42
 70
     1
102
RTVSPost2010Prop43
 90
        3
102
RTVSPost2010PropOp43
 70
     1
102
RTVSPost2010Prop44ColorIndex
 90
        5
102
RTVSPost2010Prop44ColorRGB
 90
      255
102
RTVSPost2010PropOp44
 70
     1
102
RTVSPost2010Prop45
280
     0
102
RTVSPost2010PropOp45
 70
     1
102
RTVSPost2010Prop46
 90
       50
102
RTVSPost2010PropOp46
 70
     1
102
RTVSPost2010Prop47
 90
       50
102
RTVSPost2010PropOp47
 70
     1
102
RTVSPost2010Prop48
 90
       50
102
RTVSPost2010PropOp48
 70
     1
102
RTVSPost2010Prop49
280
     0
102
RTVSPost2010PropOp49
 70
     1
102
RTVSPost2010Prop50
 90
       50
102
RTVSPost2010PropOp50
 70
     1
102
RTVSPost2010Prop51ColorIndex
 90
      256
102
RTVSPost2010Prop51ColorRGB
 90
-16777216
102
RTVSPost2010PropOp51
 70
     0
102
RTVSPost2010Prop52
140
1.0
102
RTVSPost2010PropOp52
 70
     0
102
RTVSPost2010Prop53
 90
        2
102
RTVSPost2010PropOp53
 70
     1
102
RTVSPost2010Prop54
  1
strokes_ogs.tif
102
RTVSPost2010PropOp54
 70
     1
102
RTVSPost2010Prop55
280
     0
102
RTVSPost2010PropOp55
 70
     1
102
RTVSPost2010Prop56
140
1.0
102
RTVSPost2010PropOp56
 70
     1
102
RTVSPost2010Prop57
140
1.0
102
RTVSPost2010PropOp57
 70
     1
102
RTVSPropertyOp0
 70
     1
102
RTVSPropertyOp1
 70
     1
102
RTVSPropertyOp2
 70
     1
102
RTVSPropertyOp3
 70
     1
102
RTVSPropertyOp4
 70
     1
102
RTVSPropertyOp5
 70
     1
102
RTVSPropertyOp6
 70
     1
102
RTVSPropertyOp7
 70
     1
102
RTVSPropertyOp8
 70
     1
102
RTVSPropertyOp9
 70
     1
102
RTVSPropertyOp10
 70
     1
102
RTVSPropertyOp11
 70
     1
102
RTVSPropertyOp12
 70
     1
102
RTVSPropertyOp13
 70
     1
102
RTVSPropertyOp14
 70
     1
102
RTVSPropertyOp15
 70
     1
102
RTVSPropertyOp16
 70
     1
102
RTVSPropertyOp17
 70
     1
102
RTVSPropertyOp18
 70
     1
102
RTVSPropertyOp19
 70
     1
102
RTVSPropertyOp20
 70
     1
102
RTVSPropertyOp21
 70
     1
102
RTVSPropertyOp22
 70
     1
102
RTVSPropertyOp23
 70
     1
102
RTVSPropertyOp24
 70
     1
102
RTVSPropertyOp25
 70
     1
102
RTVSPropertyOp26
 70
     1
102
RTVSPropertyOp27
 70
     1
102
RTVSPropertyOp28
 70
     1
102
RTVSPropertyOp29
 70
     1
102
RTVSPropertyOp30
 70
     1
102
RTVSPropertyOp31
 70
     1
102
RTVSPropertyOp32
 70
     1
102
RTVSPropertyOp33
 70
     1
102
RTVSPropertyOp34
 70
     1
102
RTVSPropertyOp35
 70
     1
102
RTVSPropertyOp36
 70
     1
102
RTVSPropertyOp37
 70
     1
102
RTVSPropertyOp38
 70
     1
102
RTVSPropertyOp39
 70
     1
102
RTVSPropertyOp40
 70
     1
102
RTVSPropertyOp41
 70
     1
102
RTVSPropertyOp42
 70
     1
102
RTVSPropertyOp43
 70
     1
102
RTVSPropertyOp44
 70
     1
102
RTVSPropertyOp45
 70
     1
102
RTVSPropertyOp46
 70
     1
102
RTVSPropertyOp47
 70
     1
102
RTVSPropertyOp48
 70
     1
102
RTVSPropertyOp49
 70
     1
102
RTVSPropertyOp50
 70
     1
102
RTVSPropertyOp51
 70
     0
102
RTVSPropertyOp52
 70
     0
102
RTVSPropertyOp53
 70
     1
102
RTVSPropertyOp54
 70
     1
102
RTVSPropertyOp55
 70
     1
102
RTVSPropertyOp56
 70
     1
102
RTVSPropertyOp57
 70
     1
102
RTVSPropertyOp58
 70
     1
102
RTVSPropertyOp59
 70
     1
102
RTVSPropertyOp60
 70
     1
102
RTVSPropertyOp61
 70
     1
102
RTVSPropertyOp62
 70
     1
  0
XRECORD
  5
84EA
102
{ACAD_REACTORS
330
84E9
102
}
330
84E9
100
AcDbXrecord
280
     1
102
RTVSPost2010Prop28
280
     0
102
RTVSPost2010PropOp28
 70
     1
102
RTVSPost2010Prop29
280
     1
102
RTVSPost2010PropOp29
 70
     1
102
RTVSPost2010Prop30
280
     1
102
RTVSPost2010PropOp30
 70
     1
102
RTVSPost2010Prop31
280
     0
102
RTVSPost2010PropOp31
 70
     1
102
RTVSPost2010Prop32
280
     0
102
RTVSPost2010PropOp32
 70
     1
102
RTVSPost2010Prop33
280
     0
102
RTVSPost2010PropOp33
 70
     1
102
RTVSPost2010Prop34
280
     0
102
RTVSPost2010PropOp34
 70
     1
102
RTVSPost2010Prop35
280
     0
102
RTVSPost2010PropOp35
 70
     1
102
RTVSPost2010Prop36
280
     0
102
RTVSPost2010PropOp36
 70
     1
102
RTVSPost2010Prop37
 90
       50
102
RTVSPost2010PropOp37
 70
     1
102
RTVSPost2010Prop38
140
0.0
102
RTVSPost2010PropOp38
 70
     1
102
RTVSPost2010Prop39
140
1.0
102
RTVSPost2010PropOp39
 70
     1
102
RTVSPost2010Prop40
 90
        0
102
RTVSPost2010PropOp40
 70
     1
102
RTVSPost2010Prop41ColorIndex
 90
       18
102
RTVSPost2010Prop41ColorRGB
 90
        0
102
RTVSPost2010PropOp41
 70
     1
102
RTVSPost2010Prop42
 90
       50
102
RTVSPost2010PropOp42
 70
     1
102
RTVSPost2010Prop43
 90
        3
102
RTVSPost2010PropOp43
 70
     1
102
RTVSPost2010Prop44ColorIndex
 90
        5
102
RTVSPost2010Prop44ColorRGB
 90
      255
102
RTVSPost2010PropOp44
 70
     1
102
RTVSPost2010Prop45
280
     0
102
RTVSPost2010PropOp45
 70
     1
102
RTVSPost2010Prop46
 90
       50
102
RTVSPost2010PropOp46
 70
     1
102
RTVSPost2010Prop47
 90
       50
102
RTVSPost2010PropOp47
 70
     1
102
RTVSPost2010Prop48
 90
       50
102
RTVSPost2010PropOp48
 70
     1
102
RTVSPost2010Prop49
280
     0
102
RTVSPost2010PropOp49
 70
     1
102
RTVSPost2010Prop50
 90
       50
102
RTVSPost2010PropOp50
 70
     1
102
RTVSPost2010Prop51ColorIndex
 90
      256
102
RTVSPost2010Prop51ColorRGB
 90
-16777216
102
RTVSPost2010PropOp51
 70
     0
102
RTVSPost2010Prop52
140
1.0
102
RTVSPost2010PropOp52
 70
     0
102
RTVSPost2010Prop53
 90
        2
102
RTVSPost2010PropOp53
 70
     1
102
RTVSPost2010Prop54
  1
strokes_ogs.tif
102
RTVSPost2010PropOp54
 70
     1
102
RTVSPost2010Prop55
280
     0
102
RTVSPost2010PropOp55
 70
     1
102
RTVSPost2010Prop56
140
1.0
102
RTVSPost2010PropOp56
 70
     1
102
RTVSPost2010Prop57
140
1.0
102
RTVSPost2010PropOp57
 70
     1
102
RTVSPropertyOp0
 70
     1
102
RTVSPropertyOp1
 70
     1
102
RTVSPropertyOp2
 70
     1
102
RTVSPropertyOp3
 70
     1
102
RTVSPropertyOp4
 70
     1
102
RTVSPropertyOp5
 70
     1
102
RTVSPropertyOp6
 70
     1
102
RTVSPropertyOp7
 70
     1
102
RTVSPropertyOp8
 70
     1
102
RTVSPropertyOp9
 70
     1
102
RTVSPropertyOp10
 70
     1
102
RTVSPropertyOp11
 70
     1
102
RTVSPropertyOp12
 70
     1
102
RTVSPropertyOp13
 70
     1
102
RTVSPropertyOp14
 70
     1
102
RTVSPropertyOp15
 70
     1
102
RTVSPropertyOp16
 70
     1
102
RTVSPropertyOp17
 70
     1
102
RTVSPropertyOp18
 70
     1
102
RTVSPropertyOp19
 70
     1
102
RTVSPropertyOp20
 70
     1
102
RTVSPropertyOp21
 70
     1
102
RTVSPropertyOp22
 70
     1
102
RTVSPropertyOp23
 70
     1
102
RTVSPropertyOp24
 70
     1
102
RTVSPropertyOp25
 70
     1
102
RTVSPropertyOp26
 70
     1
102
RTVSPropertyOp27
 70
     1
102
RTVSPropertyOp28
 70
     1
102
RTVSPropertyOp29
 70
     1
102
RTVSPropertyOp30
 70
     1
102
RTVSPropertyOp31
 70
     1
102
RTVSPropertyOp32
 70
     1
102
RTVSPropertyOp33
 70
     1
102
RTVSPropertyOp34
 70
     1
102
RTVSPropertyOp35
 70
     1
102
RTVSPropertyOp36
 70
     1
102
RTVSPropertyOp37
 70
     1
102
RTVSPropertyOp38
 70
     1
102
RTVSPropertyOp39
 70
     1
102
RTVSPropertyOp40
 70
     1
102
RTVSPropertyOp41
 70
     1
102
RTVSPropertyOp42
 70
     1
102
RTVSPropertyOp43
 70
     1
102
RTVSPropertyOp44
 70
     1
102
RTVSPropertyOp45
 70
     1
102
RTVSPropertyOp46
 70
     1
102
RTVSPropertyOp47
 70
     1
102
RTVSPropertyOp48
 70
     1
102
RTVSPropertyOp49
 70
     1
102
RTVSPropertyOp50
 70
     1
102
RTVSPropertyOp51
 70
     0
102
RTVSPropertyOp52
 70
     0
102
RTVSPropertyOp53
 70
     1
102
RTVSPropertyOp54
 70
     1
102
RTVSPropertyOp55
 70
     1
102
RTVSPropertyOp56
 70
     1
102
RTVSPropertyOp57
 70
     1
102
RTVSPropertyOp58
 70
     1
102
RTVSPropertyOp59
 70
     1
102
RTVSPropertyOp60
 70
     1
102
RTVSPropertyOp61
 70
     1
102
RTVSPropertyOp62
 70
     1
  0
XRECORD
  5
84DE
102
{ACAD_REACTORS
330
84DD
102
}
330
84DD
100
AcDbXrecord
280
     1
102
RTVSPost2010Prop28
280
     0
102
RTVSPost2010PropOp28
 70
     1
102
RTVSPost2010Prop29
280
     1
102
RTVSPost2010PropOp29
 70
     1
102
RTVSPost2010Prop30
280
     1
102
RTVSPost2010PropOp30
 70
     1
102
RTVSPost2010Prop31
280
     0
102
RTVSPost2010PropOp31
 70
     1
102
RTVSPost2010Prop32
280
     0
102
RTVSPost2010PropOp32
 70
     1
102
RTVSPost2010Prop33
280
     0
102
RTVSPost2010PropOp33
 70
     1
102
RTVSPost2010Prop34
280
     0
102
RTVSPost2010PropOp34
 70
     1
102
RTVSPost2010Prop35
280
     0
102
RTVSPost2010PropOp35
 70
     1
102
RTVSPost2010Prop36
280
     0
102
RTVSPost2010PropOp36
 70
     1
102
RTVSPost2010Prop37
 90
       50
102
RTVSPost2010PropOp37
 70
     1
102
RTVSPost2010Prop38
140
0.0
102
RTVSPost2010PropOp38
 70
     1
102
RTVSPost2010Prop39
140
1.0
102
RTVSPost2010PropOp39
 70
     1
102
RTVSPost2010Prop40
 90
        0
102
RTVSPost2010PropOp40
 70
     1
102
RTVSPost2010Prop41ColorIndex
 90
       18
102
RTVSPost2010Prop41ColorRGB
 90
        0
102
RTVSPost2010PropOp41
 70
     1
102
RTVSPost2010Prop42
 90
       50
102
RTVSPost2010PropOp42
 70
     1
102
RTVSPost2010Prop43
 90
        3
102
RTVSPost2010PropOp43
 70
     1
102
RTVSPost2010Prop44ColorIndex
 90
        5
102
RTVSPost2010Prop44ColorRGB
 90
      255
102
RTVSPost2010PropOp44
 70
     1
102
RTVSPost2010Prop45
280
     0
102
RTVSPost2010PropOp45
 70
     1
102
RTVSPost2010Prop46
 90
       50
102
RTVSPost2010PropOp46
 70
     1
102
RTVSPost2010Prop47
 90
       50
102
RTVSPost2010PropOp47
 70
     1
102
RTVSPost2010Prop48
 90
       50
102
RTVSPost2010PropOp48
 70
     1
102
RTVSPost2010Prop49
280
     0
102
RTVSPost2010PropOp49
 70
     1
102
RTVSPost2010Prop50
 90
       50
102
RTVSPost2010PropOp50
 70
     1
102
RTVSPost2010Prop51ColorIndex
 90
      256
102
RTVSPost2010Prop51ColorRGB
 90
-16777216
102
RTVSPost2010PropOp51
 70
     0
102
RTVSPost2010Prop52
140
1.0
102
RTVSPost2010PropOp52
 70
     0
102
RTVSPost2010Prop53
 90
        2
102
RTVSPost2010PropOp53
 70
     1
102
RTVSPost2010Prop54
  1
strokes_ogs.tif
102
RTVSPost2010PropOp54
 70
     1
102
RTVSPost2010Prop55
280
     0
102
RTVSPost2010PropOp55
 70
     1
102
RTVSPost2010Prop56
140
1.0
102
RTVSPost2010PropOp56
 70
     1
102
RTVSPost2010Prop57
140
1.0
102
RTVSPost2010PropOp57
 70
     1
102
RTVSPropertyOp0
 70
     1
102
RTVSPropertyOp1
 70
     1
102
RTVSPropertyOp2
 70
     1
102
RTVSPropertyOp3
 70
     1
102
RTVSPropertyOp4
 70
     1
102
RTVSPropertyOp5
 70
     1
102
RTVSPropertyOp6
 70
     1
102
RTVSPropertyOp7
 70
     1
102
RTVSPropertyOp8
 70
     1
102
RTVSPropertyOp9
 70
     1
102
RTVSPropertyOp10
 70
     1
102
RTVSPropertyOp11
 70
     1
102
RTVSPropertyOp12
 70
     1
102
RTVSPropertyOp13
 70
     1
102
RTVSPropertyOp14
 70
     1
102
RTVSPropertyOp15
 70
     1
102
RTVSPropertyOp16
 70
     1
102
RTVSPropertyOp17
 70
     1
102
RTVSPropertyOp18
 70
     1
102
RTVSPropertyOp19
 70
     1
102
RTVSPropertyOp20
 70
     1
102
RTVSPropertyOp21
 70
     1
102
RTVSPropertyOp22
 70
     1
102
RTVSPropertyOp23
 70
     1
102
RTVSPropertyOp24
 70
     1
102
RTVSPropertyOp25
 70
     1
102
RTVSPropertyOp26
 70
     1
102
RTVSPropertyOp27
 70
     1
102
RTVSPropertyOp28
 70
     1
102
RTVSPropertyOp29
 70
     1
102
RTVSPropertyOp30
 70
     1
102
RTVSPropertyOp31
 70
     1
102
RTVSPropertyOp32
 70
     1
102
RTVSPropertyOp33
 70
     1
102
RTVSPropertyOp34
 70
     1
102
RTVSPropertyOp35
 70
     1
102
RTVSPropertyOp36
 70
     1
102
RTVSPropertyOp37
 70
     1
102
RTVSPropertyOp38
 70
     1
102
RTVSPropertyOp39
 70
     1
102
RTVSPropertyOp40
 70
     1
102
RTVSPropertyOp41
 70
     1
102
RTVSPropertyOp42
 70
     1
102
RTVSPropertyOp43
 70
     1
102
RTVSPropertyOp44
 70
     1
102
RTVSPropertyOp45
 70
     1
102
RTVSPropertyOp46
 70
     1
102
RTVSPropertyOp47
 70
     1
102
RTVSPropertyOp48
 70
     1
102
RTVSPropertyOp49
 70
     1
102
RTVSPropertyOp50
 70
     1
102
RTVSPropertyOp51
 70
     0
102
RTVSPropertyOp52
 70
     0
102
RTVSPropertyOp53
 70
     1
102
RTVSPropertyOp54
 70
     1
102
RTVSPropertyOp55
 70
     1
102
RTVSPropertyOp56
 70
     1
102
RTVSPropertyOp57
 70
     1
102
RTVSPropertyOp58
 70
     1
102
RTVSPropertyOp59
 70
     1
102
RTVSPropertyOp60
 70
     1
102
RTVSPropertyOp61
 70
     1
102
RTVSPropertyOp62
 70
     1
  0
XRECORD
  5
84F6
102
{ACAD_REACTORS
330
84F5
102
}
330
84F5
100
AcDbXrecord
280
     1
102
RTVSPost2010Prop28
280
     0
102
RTVSPost2010PropOp28
 70
     1
102
RTVSPost2010Prop29
280
     1
102
RTVSPost2010PropOp29
 70
     1
102
RTVSPost2010Prop30
280
     1
102
RTVSPost2010PropOp30
 70
     1
102
RTVSPost2010Prop31
280
     0
102
RTVSPost2010PropOp31
 70
     1
102
RTVSPost2010Prop32
280
     0
102
RTVSPost2010PropOp32
 70
     1
102
RTVSPost2010Prop33
280
     0
102
RTVSPost2010PropOp33
 70
     1
102
RTVSPost2010Prop34
280
     0
102
RTVSPost2010PropOp34
 70
     1
102
RTVSPost2010Prop35
280
     0
102
RTVSPost2010PropOp35
 70
     1
102
RTVSPost2010Prop36
280
     0
102
RTVSPost2010PropOp36
 70
     1
102
RTVSPost2010Prop37
 90
       50
102
RTVSPost2010PropOp37
 70
     1
102
RTVSPost2010Prop38
140
0.0
102
RTVSPost2010PropOp38
 70
     1
102
RTVSPost2010Prop39
140
1.0
102
RTVSPost2010PropOp39
 70
     1
102
RTVSPost2010Prop40
 90
        0
102
RTVSPost2010PropOp40
 70
     1
102
RTVSPost2010Prop41ColorIndex
 90
       18
102
RTVSPost2010Prop41ColorRGB
 90
        0
102
RTVSPost2010PropOp41
 70
     1
102
RTVSPost2010Prop42
 90
       50
102
RTVSPost2010PropOp42
 70
     1
102
RTVSPost2010Prop43
 90
        3
102
RTVSPost2010PropOp43
 70
     1
102
RTVSPost2010Prop44ColorIndex
 90
        5
102
RTVSPost2010Prop44ColorRGB
 90
      255
102
RTVSPost2010PropOp44
 70
     1
102
RTVSPost2010Prop45
280
     0
102
RTVSPost2010PropOp45
 70
     1
102
RTVSPost2010Prop46
 90
       50
102
RTVSPost2010PropOp46
 70
     1
102
RTVSPost2010Prop47
 90
       50
102
RTVSPost2010PropOp47
 70
     1
102
RTVSPost2010Prop48
 90
       50
102
RTVSPost2010PropOp48
 70
     1
102
RTVSPost2010Prop49
280
     0
102
RTVSPost2010PropOp49
 70
     1
102
RTVSPost2010Prop50
 90
       50
102
RTVSPost2010PropOp50
 70
     1
102
RTVSPost2010Prop51ColorIndex
 90
      256
102
RTVSPost2010Prop51ColorRGB
 90
-16777216
102
RTVSPost2010PropOp51
 70
     0
102
RTVSPost2010Prop52
140
1.0
102
RTVSPost2010PropOp52
 70
     0
102
RTVSPost2010Prop53
 90
        2
102
RTVSPost2010PropOp53
 70
     1
102
RTVSPost2010Prop54
  1
strokes_ogs.tif
102
RTVSPost2010PropOp54
 70
     1
102
RTVSPost2010Prop55
280
     0
102
RTVSPost2010PropOp55
 70
     1
102
RTVSPost2010Prop56
140
1.0
102
RTVSPost2010PropOp56
 70
     1
102
RTVSPost2010Prop57
140
1.0
102
RTVSPost2010PropOp57
 70
     1
102
RTVSPropertyOp0
 70
     1
102
RTVSPropertyOp1
 70
     1
102
RTVSPropertyOp2
 70
     1
102
RTVSPropertyOp3
 70
     1
102
RTVSPropertyOp4
 70
     1
102
RTVSPropertyOp5
 70
     1
102
RTVSPropertyOp6
 70
     1
102
RTVSPropertyOp7
 70
     1
102
RTVSPropertyOp8
 70
     1
102
RTVSPropertyOp9
 70
     1
102
RTVSPropertyOp10
 70
     1
102
RTVSPropertyOp11
 70
     1
102
RTVSPropertyOp12
 70
     1
102
RTVSPropertyOp13
 70
     1
102
RTVSPropertyOp14
 70
     1
102
RTVSPropertyOp15
 70
     1
102
RTVSPropertyOp16
 70
     1
102
RTVSPropertyOp17
 70
     1
102
RTVSPropertyOp18
 70
     1
102
RTVSPropertyOp19
 70
     1
102
RTVSPropertyOp20
 70
     1
102
RTVSPropertyOp21
 70
     1
102
RTVSPropertyOp22
 70
     1
102
RTVSPropertyOp23
 70
     1
102
RTVSPropertyOp24
 70
     1
102
RTVSPropertyOp25
 70
     1
102
RTVSPropertyOp26
 70
     1
102
RTVSPropertyOp27
 70
     1
102
RTVSPropertyOp28
 70
     1
102
RTVSPropertyOp29
 70
     1
102
RTVSPropertyOp30
 70
     1
102
RTVSPropertyOp31
 70
     1
102
RTVSPropertyOp32
 70
     1
102
RTVSPropertyOp33
 70
     1
102
RTVSPropertyOp34
 70
     1
102
RTVSPropertyOp35
 70
     1
102
RTVSPropertyOp36
 70
     1
102
RTVSPropertyOp37
 70
     1
102
RTVSPropertyOp38
 70
     1
102
RTVSPropertyOp39
 70
     1
102
RTVSPropertyOp40
 70
     1
102
RTVSPropertyOp41
 70
     1
102
RTVSPropertyOp42
 70
     1
102
RTVSPropertyOp43
 70
     1
102
RTVSPropertyOp44
 70
     1
102
RTVSPropertyOp45
 70
     1
102
RTVSPropertyOp46
 70
     1
102
RTVSPropertyOp47
 70
     1
102
RTVSPropertyOp48
 70
     1
102
RTVSPropertyOp49
 70
     1
102
RTVSPropertyOp50
 70
     1
102
RTVSPropertyOp51
 70
     0
102
RTVSPropertyOp52
 70
     0
102
RTVSPropertyOp53
 70
     1
102
RTVSPropertyOp54
 70
     1
102
RTVSPropertyOp55
 70
     1
102
RTVSPropertyOp56
 70
     1
102
RTVSPropertyOp57
 70
     1
102
RTVSPropertyOp58
 70
     1
102
RTVSPropertyOp59
 70
     1
102
RTVSPropertyOp60
 70
     1
102
RTVSPropertyOp61
 70
     1
102
RTVSPropertyOp62
 70
     1
  0
ENDSEC
  0
EOF
