  0
SECTION
  2
HEADER
  9
$ACADVER
  1
AC1015
  9
$ACADMAINTVER
 70
    20
  9
$DWGCODEPAGE
  3
ANSI_932
  9
$INSBASE
 10
0.0
 20
0.0
 30
0.0
  9
$EXTMIN
 10
0.0
 20
0.0
 30
0.0
  9
$EXTMAX
 10
4200.0
 20
5900.0
 30
0.0
  9
$LIMMIN
 10
0.0
 20
0.0
  9
$LIMMAX
 10
297.0
 20
210.0
  9
$ORTHOMODE
 70
     1
  9
$REGENMODE
 70
     1
  9
$FILLMODE
 70
     0
  9
$QTEXTMODE
 70
     0
  9
$MIRRTEXT
 70
     1
  9
$LTSCALE
 40
100.0
  9
$ATTMODE
 70
     1
  9
$TEXTSIZE
 40
180.0
  9
$TRACEWID
 40
0.05
  9
$TEXTSTYLE
  7
STANDARD
  9
$CLAYER
  8
3
  9
$CELTYPE
  6
BYLAYER
  9
$CECOLOR
 62
   256
  9
$CELTSCALE
 40
1.0
  9
$DISPSILH
 70
     0
  9
$DIMSCALE
 40
20.0
  9
$DIMASZ
 40
2.0
  9
$DIMEXO
 40
0.5
  9
$DIMDLI
 40
10.0
  9
$DIMRND
 40
0.0
  9
$DIMDLE
 40
0.0
  9
$DIMEXE
 40
1.0
  9
$DIMTP
 40
1.0
  9
$DIMTM
 40
1.0
  9
$DIMTXT
 40
3.0
  9
$DIMCEN
 40
0.0
  9
$DIMTSZ
 40
0.0
  9
$DIMTOL
 70
     0
  9
$DIMLIM
 70
     0
  9
$DIMTIH
 70
     0
  9
$DIMTOH
 70
     0
  9
$DIMSE1
 70
     0
  9
$DIMSE2
 70
     0
  9
$DIMTAD
 70
     1
  9
$DIMZIN
 70
     8
  9
$DIMBLK
  1

  9
$DIMASO
 70
     1
  9
$DIMSHO
 70
     1
  9
$DIMPOST
  1
(<>)
  9
$DIMAPOST
  1

  9
$DIMALT
 70
     0
  9
$DIMALTD
 70
     2
  9
$DIMALTF
 40
0.039
  9
$DIMLFAC
 40
1.0
  9
$DIMTOFL
 70
     1
  9
$DIMTVP
 40
0.0
  9
$DIMTIX
 70
     0
  9
$DIMSOXD
 70
     0
  9
$DIMSAH
 70
     1
  9
$DIMBLK1
  1
OPEN
  9
$DIMBLK2
  1
OPEN
  9
$DIMSTYLE
  2
IGA
  9
$DIMCLRD
 70
     0
  9
$DIMCLRE
 70
     0
  9
$DIMCLRT
 70
     0
  9
$DIMTFAC
 40
10.0
  9
$DIMGAP
 40
1.0
  9
$DIMJUST
 70
     0
  9
$DIMSD1
 70
     0
  9
$DIMSD2
 70
     0
  9
$DIMTOLJ
 70
     1
  9
$DIMTZIN
 70
     8
  9
$DIMALTZ
 70
     0
  9
$DIMALTTZ
 70
     0
  9
$DIMUPT
 70
     0
  9
$DIMDEC
 70
     0
  9
$DIMTDEC
 70
     0
  9
$DIMALTU
 70
     2
  9
$DIMALTTD
 70
     2
  9
$DIMTXSTY
  7
STANDARD
  9
$DIMAUNIT
 70
     0
  9
$DIMADEC
 70
     0
  9
$DIMALTRND
 40
0.0
  9
$DIMAZIN
 70
     0
  9
$DIMDSEP
 70
    46
  9
$DIMATFIT
 70
     3
  9
$DIMFRAC
 70
     0
  9
$DIMLDRBLK
  1
OPEN
  9
$DIMLUNIT
 70
     2
  9
$DIMLWD
 70
    -2
  9
$DIMLWE
 70
    -2
  9
$DIMTMOVE
 70
     0
  9
$LUNITS
 70
     2
  9
$LUPREC
 70
     3
  9
$SKETCHINC
 40
0.1
  9
$FILLETRAD
 40
50.0
  9
$AUNITS
 70
     0
  9
$AUPREC
 70
     0
  9
$MENU
  1
acad
  9
$ELEVATION
 40
0.0
  9
$PELEVATION
 40
0.0
  9
$THICKNESS
 40
0.0
  9
$LIMCHECK
 70
     0
  9
$CHAMFERA
 40
0.0
  9
$CHAMFERB
 40
0.0
  9
$CHAMFERC
 40
20.0
  9
$CHAMFERD
 40
0.0
  9
$SKPOLY
 70
     0
  9
$TDCREATE
 40
2452773.622829630
  9
$TDUCREATE
 40
2452773.247829630
  9
$TDUPDATE
 40
2458829.629771436
  9
$TDUUPDATE
 40
2458829.254771435
  9
$TDINDWG
 40
0.1810505903
  9
$TDUSRTIMER
 40
0.1810505903
  9
$USRTIMER
 70
     1
  9
$ANGBASE
 50
0.0
  9
$ANGDIR
 70
     0
  9
$PDMODE
 70
     0
  9
$PDSIZE
 40
0.0
  9
$PLINEWID
 40
0.0
  9
$SPLFRAME
 70
     0
  9
$SPLINETYPE
 70
     6
  9
$SPLINESEGS
 70
     8
  9
$HANDSEED
  5
84E6
  9
$SURFTAB1
 70
     6
  9
$SURFTAB2
 70
     6
  9
$SURFTYPE
 70
     6
  9
$SURFU
 70
     6
  9
$SURFV
 70
     6
  9
$UCSBASE
  2

  9
$UCSNAME
  2

  9
$UCSORG
 10
0.0
 20
0.0
 30
0.0
  9
$UCSXDIR
 10
1.0
 20
0.0
 30
0.0
  9
$UCSYDIR
 10
0.0
 20
1.0
 30
0.0
  9
$UCSORTHOREF
  2

  9
$UCSORTHOVIEW
 70
     0
  9
$UCSORGTOP
 10
0.0
 20
0.0
 30
0.0
  9
$UCSORGBOTTOM
 10
0.0
 20
0.0
 30
0.0
  9
$UCSORGLEFT
 10
0.0
 20
0.0
 30
0.0
  9
$UCSORGRIGHT
 10
0.0
 20
0.0
 30
0.0
  9
$UCSORGFRONT
 10
0.0
 20
0.0
 30
0.0
  9
$UCSORGBACK
 10
0.0
 20
0.0
 30
0.0
  9
$PUCSBASE
  2

  9
$PUCSNAME
  2

  9
$PUCSORG
 10
0.0
 20
0.0
 30
0.0
  9
$PUCSXDIR
 10
1.0
 20
0.0
 30
0.0
  9
$PUCSYDIR
 10
0.0
 20
1.0
 30
0.0
  9
$PUCSORTHOREF
  2

  9
$PUCSORTHOVIEW
 70
     0
  9
$PUCSORGTOP
 10
0.0
 20
0.0
 30
0.0
  9
$PUCSORGBOTTOM
 10
0.0
 20
0.0
 30
0.0
  9
$PUCSORGLEFT
 10
0.0
 20
0.0
 30
0.0
  9
$PUCSORGRIGHT
 10
0.0
 20
0.0
 30
0.0
  9
$PUCSORGFRONT
 10
0.0
 20
0.0
 30
0.0
  9
$PUCSORGBACK
 10
0.0
 20
0.0
 30
0.0
  9
$USERI1
 70
     0
  9
$USERI2
 70
     0
  9
$USERI3
 70
     0
  9
$USERI4
 70
     0
  9
$USERI5
 70
     0
  9
$USERR1
 40
0.0
  9
$USERR2
 40
0.0
  9
$USERR3
 40
0.0
  9
$USERR4
 40
0.0
  9
$USERR5
 40
0.0
  9
$WORLDVIEW
 70
     1
  9
$SHADEDGE
 70
     3
  9
$SHADEDIF
 70
    70
  9
$TILEMODE
 70
     1
  9
$MAXACTVP
 70
    16
  9
$PINSBASE
 10
0.0
 20
0.0
 30
0.0
  9
$PLIMCHECK
 70
     0
  9
$PEXTMIN
 10
1.000000000000000E+20
 20
1.000000000000000E+20
 30
1.000000000000000E+20
  9
$PEXTMAX
 10
-1.000000000000000E+20
 20
-1.000000000000000E+20
 30
-1.000000000000000E+20
  9
$PLIMMIN
 10
0.0
 20
0.0
  9
$PLIMMAX
 10
12.0
 20
9.0
  9
$UNITMODE
 70
     0
  9
$VISRETAIN
 70
     0
  9
$PLINEGEN
 70
     0
  9
$PSLTSCALE
 70
     1
  9
$TREEDEPTH
 70
  3020
  9
$CMLSTYLE
  2
STANDARD
  9
$CMLJUST
 70
     0
  9
$CMLSCALE
 40
20.0
  9
$PROXYGRAPHICS
 70
     1
  9
$MEASUREMENT
 70
     1
  9
$CELWEIGHT
370
    -1
  9
$ENDCAPS
280
     0
  9
$JOINSTYLE
280
     0
  9
$LWDISPLAY
290
     0
  9
$INSUNITS
 70
     0
  9
$HYPERLINKBASE
  1

  9
$STYLESHEET
  1
monochrome.ctb
  9
$XEDIT
290
     1
  9
$CEPSNTYPE
380
     0
  9
$PSTYLEMODE
290
     1
  9
$FINGERPRINTGUID
  2
{09FD4758-5495-4003-BC47-727B8D448364}
  9
$VERSIONGUID
  2
{9A0CC132-FA28-46EE-B32D-E9C04AD87216}
  9
$EXTNAMES
290
     1
  9
$PSVPSCALE
 40
0.0
  9
$OLESTARTUP
290
     0
  0
ENDSEC
  0
SECTION
  2
CLASSES
  0
CLASS
  1
ACDBDICTIONARYWDFLT
  2
AcDbDictionaryWithDefault
  3
ObjectDBX Classes
 90
        0
280
     0
281
     0
  0
CLASS
  1
ACDBPLACEHOLDER
  2
AcDbPlaceHolder
  3
ObjectDBX Classes
 90
        0
280
     0
281
     0
  0
CLASS
  1
LAYOUT
  2
AcDbLayout
  3
ObjectDBX Classes
 90
        0
280
     0
281
     0
  0
CLASS
  1
DICTIONARYVAR
  2
AcDbDictionaryVar
  3
ObjectDBX Classes
 90
        0
280
     0
281
     0
  0
CLASS
  1
MATERIAL
  2
AcDbMaterial
  3
ObjectDBX Classes
 90
     1153
280
     0
281
     0
  0
CLASS
  1
VISUALSTYLE
  2
AcDbVisualStyle
  3
ObjectDBX Classes
 90
     4095
280
     0
281
     0
  0
CLASS
  1
TABLESTYLE
  2
AcDbTableStyle
  3
ObjectDBX Classes
 90
     4095
280
     0
281
     0
  0
CLASS
  1
SCALE
  2
AcDbScale
  3
ObjectDBX Classes
 90
     1153
280
     0
281
     0
  0
CLASS
  1
MLEADERSTYLE
  2
AcDbMLeaderStyle
  3
ACDB_MLEADERSTYLE_CLASS
 90
     4095
280
     0
281
     0
  0
CLASS
  1
ACDBSECTIONVIEWSTYLE
  2
AcDbSectionViewStyle
  3
ObjectDBX Classes
 90
     1025
280
     0
281
     0
  0
CLASS
  1
ACDBDETAILVIEWSTYLE
  2
AcDbDetailViewStyle
  3
ObjectDBX Classes
 90
     1025
280
     0
281
     0
  0
CLASS
  1
CELLSTYLEMAP
  2
AcDbCellStyleMap
  3
ObjectDBX Classes
 90
     1152
280
     0
281
     0
  0
ENDSEC
  0
SECTION
  2
TABLES
  0
TABLE
  2
VPORT
  5
8
330
0
100
AcDbSymbolTable
 70
     1
  0
VPORT
  5
8120
330
8
100
AcDbSymbolTableRecord
100
AcDbViewportTableRecord
  2
*Active
 70
     0
 10
0.0
 20
0.0
 11
1.0
 21
1.0
 12
2100.000009778887
 22
2950.000013737006
 13
0.0
 23
0.0
 14
10.0
 24
10.0
 15
10.0
 25
10.0
 16
0.0
 26
0.0
 36
1.0
 17
0.0
 27
0.0
 37
0.0
 40
5943.692005396019
 41
1.915441176470588
 42
50.0
 43
0.0
 44
0.0
 50
0.0
 51
0.0
 71
     0
 72
   100
 73
     1
 74
     0
 75
     0
 76
     0
 77
     0
 78
     0
281
     0
 65
     1
110
0.0
120
0.0
130
0.0
111
1.0
121
0.0
131
0.0
112
0.0
122
1.0
132
0.0
 79
     0
146
0.0
1001
ACAD_NAV_VCDISPLAY
1070
     3
  0
ENDTAB
  0
TABLE
  2
LTYPE
  5
5
330
0
100
AcDbSymbolTable
 70
     2
  0
LTYPE
  5
13
330
5
100
AcDbSymbolTableRecord
100
AcDbLinetypeTableRecord
  2
BYBLOCK
 70
     0
  3

 72
    65
 73
     0
 40
0.0
  0
LTYPE
  5
14
330
5
100
AcDbSymbolTableRecord
100
AcDbLinetypeTableRecord
  2
BYLAYER
 70
     0
  3

 72
    65
 73
     0
 40
0.0
  0
LTYPE
  5
15
330
5
100
AcDbSymbolTableRecord
100
AcDbLinetypeTableRecord
  2
CONTINUOUS
 70
     0
  3
Solid line
 72
    65
 73
     0
 40
0.0
  0
LTYPE
  5
1F
330
5
100
AcDbSymbolTableRecord
100
AcDbLinetypeTableRecord
  2
CENTER
 70
     0
  3
____ _ ____ _ ____ _ ____ _ ____ _ ____ _ ____ 
 72
    65
 73
     4
 40
2.0
 49
1.25
 74
     0
 49
-0.25
 74
     0
 49
0.25
 74
     0
 49
-0.25
 74
     0
  0
ENDTAB
  0
TABLE
  2
LAYER
  5
2
102
{ACAD_XDICTIONARY
360
81C6
102
}
330
0
100
AcDbSymbolTable
 70
     6
  0
LAYER
  5
F
102
{ACAD_XDICTIONARY
360
8172
102
}
330
2
100
AcDbSymbolTableRecord
100
AcDbLayerTableRecord
  2
0
 70
     0
 62
     7
  6
CONTINUOUS
370
    -3
390
8040
  0
LAYER
  5
31
102
{ACAD_XDICTIONARY
360
8174
102
}
330
2
100
AcDbSymbolTableRecord
100
AcDbLayerTableRecord
  2
3
 70
     0
 62
     2
  6
CONTINUOUS
370
    -3
390
8040
  0
LAYER
  5
76D0
102
{ACAD_XDICTIONARY
360
8176
102
}
330
2
100
AcDbSymbolTableRecord
100
AcDbLayerTableRecord
  2
2
 70
     0
 62
     3
  6
CENTER
370
    -3
390
8040
  0
LAYER
  5
76D1
102
{ACAD_XDICTIONARY
360
8178
102
}
330
2
100
AcDbSymbolTableRecord
100
AcDbLayerTableRecord
  2
1
 70
     0
 62
     4
  6
CONTINUOUS
370
    -3
390
8040
  0
LAYER
  5
76D2
102
{ACAD_XDICTIONARY
360
817A
102
}
330
2
100
AcDbSymbolTableRecord
100
AcDbLayerTableRecord
  2
4
 70
     0
 62
     7
  6
CONTINUOUS
370
    -3
390
8040
  0
LAYER
  5
7A08
330
2
100
AcDbSymbolTableRecord
100
AcDbLayerTableRecord
  2
DEFPOINTS
 70
     0
 62
     7
  6
CONTINUOUS
290
     0
370
    -3
390
8040
  0
ENDTAB
  0
TABLE
  2
STYLE
  5
3
330
0
100
AcDbSymbolTable
 70
     1
  0
STYLE
  5
10
330
3
100
AcDbSymbolTableRecord
100
AcDbTextStyleTableRecord
  2
STANDARD
 70
     0
 40
0.0
 41
1.0
 50
0.0
 71
     0
 42
180.0
  3
simplex.shx
  4
extfont.shx
  0
ENDTAB
  0
TABLE
  2
VIEW
  5
6
330
0
100
AcDbSymbolTable
 70
     0
  0
ENDTAB
  0
TABLE
  2
UCS
  5
7
330
0
100
AcDbSymbolTable
 70
     0
  0
ENDTAB
  0
TABLE
  2
APPID
  5
9
330
0
100
AcDbSymbolTable
 70
     6
  0
APPID
  5
11
330
9
100
AcDbSymbolTableRecord
100
AcDbRegAppTableRecord
  2
ACAD
 70
     0
  0
APPID
  5
817C
330
9
100
AcDbSymbolTableRecord
100
AcDbRegAppTableRecord
  2
ACAD_PSEXT
 70
     0
  0
APPID
  5
8187
330
9
100
AcDbSymbolTableRecord
100
AcDbRegAppTableRecord
  2
ACAD_NAV_VCDISPLAY
 70
     0
  0
APPID
  5
8460
330
9
100
AcDbSymbolTableRecord
100
AcDbRegAppTableRecord
  2
AcadAnnoMonitorAlertIconDisabled
 70
     0
  0
APPID
  5
8461
330
9
100
AcDbSymbolTableRecord
100
AcDbRegAppTableRecord
  2
ACAD_EXEMPT_FROM_CAD_STANDARDS
 70
     0
  0
APPID
  5
84E1
330
9
100
AcDbSymbolTableRecord
100
AcDbRegAppTableRecord
  2
ACAD_MLEADERVER
 70
     0
  0
ENDTAB
  0
TABLE
  2
DIMSTYLE
  5
A
330
0
100
AcDbSymbolTable
 70
     1
100
AcDbDimStyleTable
 71
     1
340
1D
  0
DIMSTYLE
105
1D
102
{ACAD_REACTORS
330
7CC8
330
7CD5
330
7CEC
330
7DA4
330
7DB3
330
7DCC
330
7DE4
330
7E6E
330
7E7A
330
7EA3
330
7F9A
330
7FA7
330
7FB4
330
7FC1
330
7FD0
330
8027
330
8034
330
83EE
330
83EF
102
}
330
A
100
AcDbSymbolTableRecord
100
AcDbDimStyleTableRecord
  2
IGA
 70
     0
 40
2.0
 41
2.0
 42
0.5
 43
10.0
 44
1.0
 47
1.0
 48
1.0
 73
     0
 74
     0
 77
     1
 78
     8
140
3.0
141
0.0
143
0.03937
146
10.0
147
1.0
173
     1
271
     1
272
     0
279
     2
284
     8
340
10
341
79FC
343
79FC
344
79FC
  0
ENDTAB
  0
TABLE
  2
BLOCK_RECORD
  5
1
330
0
100
AcDbSymbolTable
 70
    31
  0
BLOCK_RECORD
  5
19
102
{ACAD_XDICTIONARY
360
806E
102
}
330
1
100
AcDbSymbolTableRecord
100
AcDbBlockTableRecord
  2
*MODEL_SPACE
340
8043
  0
BLOCK_RECORD
  5
16
102
{ACAD_XDICTIONARY
360
806C
102
}
330
1
100
AcDbSymbolTableRecord
100
AcDbBlockTableRecord
  2
*PAPER_SPACE
340
8044
  0
BLOCK_RECORD
  5
79FC
330
1
100
AcDbSymbolTableRecord
100
AcDbBlockTableRecord
  2
_OPEN
340
0
102
{BLKREFS
331
8022
331
8077
331
8078
331
8080
331
8081
331
8089
331
808A
331
8092
331
8093
331
809B
331
809C
331
80AC
331
80AD
331
80B4
331
80B5
331
80BC
331
80BD
331
80C5
331
80C6
331
80D1
331
80D2
331
80DA
331
80DB
331
80E3
331
80E4
331
80EC
331
80ED
331
80F8
331
8112
331
8113
331
8451
331
8452
331
845A
331
845B
331
846D
331
846E
102
}
  0
BLOCK_RECORD
  5
7CBC
330
1
100
AcDbSymbolTableRecord
100
AcDbBlockTableRecord
  2
*D1
340
0
  0
BLOCK_RECORD
  5
7CC9
330
1
100
AcDbSymbolTableRecord
100
AcDbBlockTableRecord
  2
*D2
340
0
  0
BLOCK_RECORD
  5
7CE1
330
1
100
AcDbSymbolTableRecord
100
AcDbBlockTableRecord
  2
*D3
340
0
  0
BLOCK_RECORD
  5
7D46
330
1
100
AcDbSymbolTableRecord
100
AcDbBlockTableRecord
  2
_DOT
340
0
102
{BLKREFS
331
8021
331
80F7
102
}
  0
BLOCK_RECORD
  5
7D98
330
1
100
AcDbSymbolTableRecord
100
AcDbBlockTableRecord
  2
*D5
340
0
  0
BLOCK_RECORD
  5
7DA5
330
1
100
AcDbSymbolTableRecord
100
AcDbBlockTableRecord
  2
*D6
340
0
  0
BLOCK_RECORD
  5
7DC1
330
1
100
AcDbSymbolTableRecord
100
AcDbBlockTableRecord
  2
*D7
340
0
  0
BLOCK_RECORD
  5
7DD8
330
1
100
AcDbSymbolTableRecord
100
AcDbBlockTableRecord
  2
*D8
340
0
  0
BLOCK_RECORD
  5
7E63
330
1
100
AcDbSymbolTableRecord
100
AcDbBlockTableRecord
  2
*D9
340
0
  0
BLOCK_RECORD
  5
7E6F
330
1
100
AcDbSymbolTableRecord
100
AcDbBlockTableRecord
  2
*D10
340
0
  0
BLOCK_RECORD
  5
7E97
330
1
100
AcDbSymbolTableRecord
100
AcDbBlockTableRecord
  2
*D11
340
0
  0
BLOCK_RECORD
  5
7F8E
330
1
100
AcDbSymbolTableRecord
100
AcDbBlockTableRecord
  2
*D12
340
0
  0
BLOCK_RECORD
  5
7F9B
330
1
100
AcDbSymbolTableRecord
100
AcDbBlockTableRecord
  2
*D13
340
0
  0
BLOCK_RECORD
  5
7FA8
330
1
100
AcDbSymbolTableRecord
100
AcDbBlockTableRecord
  2
*D14
340
0
  0
BLOCK_RECORD
  5
7FB5
330
1
100
AcDbSymbolTableRecord
100
AcDbBlockTableRecord
  2
*D15
340
0
  0
BLOCK_RECORD
  5
7FC2
330
1
100
AcDbSymbolTableRecord
100
AcDbBlockTableRecord
  2
*D16
340
0
  0
BLOCK_RECORD
  5
8019
330
1
100
AcDbSymbolTableRecord
100
AcDbBlockTableRecord
  2
*D19
340
0
  0
BLOCK_RECORD
  5
8028
330
1
100
AcDbSymbolTableRecord
100
AcDbBlockTableRecord
  2
*D20
340
0
  0
BLOCK_RECORD
  5
83FA
330
1
100
AcDbSymbolTableRecord
100
AcDbBlockTableRecord
  2
*D29
340
0
  0
BLOCK_RECORD
  5
8406
330
1
100
AcDbSymbolTableRecord
100
AcDbBlockTableRecord
  2
*D30
340
0
  0
ENDTAB
  0
ENDSEC
  0
SECTION
  2
BLOCKS
  0
BLOCK
  5
1A
330
19
100
AcDbEntity
  8
0
100
AcDbBlockBegin
  2
*MODEL_SPACE
 70
     0
 10
0.0
 20
0.0
 30
0.0
  3
*MODEL_SPACE
  1

  0
ENDBLK
  5
1B
330
19
100
AcDbEntity
  8
0
100
AcDbBlockEnd
  0
BLOCK
  5
17
330
16
100
AcDbEntity
 67
     1
  8
0
100
AcDbBlockBegin
  2
*PAPER_SPACE
 70
     0
 10
0.0
 20
0.0
 30
0.0
  3
*PAPER_SPACE
  1

  0
ENDBLK
  5
18
330
16
100
AcDbEntity
 67
     1
  8
0
100
AcDbBlockEnd
  0
BLOCK
  5
7A00
330
79FC
100
AcDbEntity
  8
0
100
AcDbBlockBegin
  2
_OPEN
 70
     0
 10
0.0
 20
0.0
 30
0.0
  3
_OPEN
  1

  0
LINE
  5
79FD
330
79FC
100
AcDbEntity
  8
0
  6
ByBlock
 62
     0
100
AcDbLine
 10
-1.0
 20
0.1666666666666666
 30
0.0
 11
0.0
 21
0.0
 31
0.0
  0
LINE
  5
79FE
330
79FC
100
AcDbEntity
  8
0
  6
ByBlock
 62
     0
100
AcDbLine
 10
0.0
 20
0.0
 30
0.0
 11
-1.0
 21
-0.1666666666666666
 31
0.0
  0
LINE
  5
79FF
330
79FC
100
AcDbEntity
  8
0
  6
ByBlock
 62
     0
100
AcDbLine
 10
0.0
 20
0.0
 30
0.0
 11
-1.0
 21
0.0
 31
0.0
  0
ENDBLK
  5
7A01
330
79FC
100
AcDbEntity
  8
0
100
AcDbBlockEnd
  0
BLOCK
  5
7F27
330
7CBC
100
AcDbEntity
  8
0
100
AcDbBlockBegin
  2
*D1
 70
     1
 10
0.0
 20
0.0
 30
0.0
  3
*D1
  1

  0
LINE
  5
8074
330
7CBC
100
AcDbEntity
  8
3
 62
     0
100
AcDbLine
 10
745.8090247007576
 20
2553.599298936085
 30
0.0
 11
745.8090247007576
 21
2741.164317456654
 31
0.0
  0
LINE
  5
8075
330
7CBC
100
AcDbEntity
  8
3
 62
     0
100
AcDbLine
 10
1283.809024700758
 20
2610.91349883602
 30
0.0
 11
1283.809024700758
 21
2741.164317456654
 31
0.0
  0
LINE
  5
8076
330
7CBC
100
AcDbEntity
  8
3
 62
     0
100
AcDbLine
 10
785.8090247007575
 20
2721.164317456654
 30
0.0
 11
1243.809024700758
 21
2721.164317456654
 31
0.0
  0
INSERT
  5
8077
330
7CBC
100
AcDbEntity
  8
3
 62
     0
100
AcDbBlockReference
  2
_OPEN
 10
745.8090247007576
 20
2721.164317456654
 30
0.0
 41
40.0
 42
40.0
 43
40.0
 50
180.0
  0
INSERT
  5
8078
330
7CBC
100
AcDbEntity
  8
3
 62
     0
100
AcDbBlockReference
  2
_OPEN
 10
1283.809024700758
 20
2721.164317456654
 30
0.0
 41
40.0
 42
40.0
 43
40.0
  0
MTEXT
  5
8079
330
7CBC
100
AcDbEntity
  8
3
 62
     0
100
AcDbMText
 10
1031.077822496437
 20
2771.164317456654
 30
0.0
 40
60.0
 41
0.0
 71
     5
 72
     5
  1
\A1;538
 73
     1
 44
1.0
1001
ACAD
1000
MTEXTBEGIN
1070
    73
1070
     1
1070
    44
1040
1.0
1070
    74
1070
     0
1000
MTEXTEND
  0
POINT
  5
807A
330
7CBC
100
AcDbEntity
  8
DEFPOINTS
 62
     0
100
AcDbPoint
 10
745.8090247007576
 20
2543.599298936085
 30
0.0
  0
POINT
  5
807B
330
7CBC
100
AcDbEntity
  8
DEFPOINTS
 62
     0
100
AcDbPoint
 10
1283.809024700758
 20
2600.913498836019
 30
0.0
  0
POINT
  5
807C
330
7CBC
100
AcDbEntity
  8
DEFPOINTS
 62
     0
100
AcDbPoint
 10
1283.809024700758
 20
2721.164317456654
 30
0.0
  0
ENDBLK
  5
7F31
330
7CBC
100
AcDbEntity
  8
0
100
AcDbBlockEnd
  0
BLOCK
  5
7F1C
330
7CC9
100
AcDbEntity
  8
0
100
AcDbBlockBegin
  2
*D2
 70
     1
 10
0.0
 20
0.0
 30
0.0
  3
*D2
  1

  0
LINE
  5
807D
330
7CC9
100
AcDbEntity
  8
3
 62
     0
100
AcDbLine
 10
745.8090247007576
 20
2553.599298936085
 30
0.0
 11
745.8090247007576
 21
2622.797735104884
 31
0.0
  0
LINE
  5
807E
330
7CC9
100
AcDbEntity
  8
3
 62
     0
100
AcDbLine
 10
1257.809024700758
 20
2553.599298936081
 30
0.0
 11
1257.809024700758
 21
2622.797735104884
 31
0.0
  0
LINE
  5
807F
330
7CC9
100
AcDbEntity
  8
3
 62
     0
100
AcDbLine
 10
785.8090247007575
 20
2602.797735104884
 30
0.0
 11
1217.809024700758
 21
2602.797735104884
 31
0.0
  0
INSERT
  5
8080
330
7CC9
100
AcDbEntity
  8
3
 62
     0
100
AcDbBlockReference
  2
_OPEN
 10
745.8090247007576
 20
2602.797735104884
 30
0.0
 41
40.0
 42
40.0
 43
40.0
 50
180.0
  0
INSERT
  5
8081
330
7CC9
100
AcDbEntity
  8
3
 62
     0
100
AcDbBlockReference
  2
_OPEN
 10
1257.809024700758
 20
2602.797735104884
 30
0.0
 41
40.0
 42
40.0
 43
40.0
  0
MTEXT
  5
8082
330
7CC9
100
AcDbEntity
  8
3
 62
     0
100
AcDbMText
 10
1005.423218279721
 20
2652.797735104884
 30
0.0
 40
60.0
 41
0.0
 71
     5
 72
     5
  1
\A1;512
 73
     1
 44
1.0
1001
ACAD
1000
MTEXTBEGIN
1070
    73
1070
     1
1070
    44
1040
1.0
1070
    74
1070
     0
1000
MTEXTEND
  0
POINT
  5
8083
330
7CC9
100
AcDbEntity
  8
DEFPOINTS
 62
     0
100
AcDbPoint
 10
745.8090247007576
 20
2543.599298936085
 30
0.0
  0
POINT
  5
8084
330
7CC9
100
AcDbEntity
  8
DEFPOINTS
 62
     0
100
AcDbPoint
 10
1257.809024700758
 20
2543.599298936082
 30
0.0
  0
POINT
  5
8085
330
7CC9
100
AcDbEntity
  8
DEFPOINTS
 62
     0
100
AcDbPoint
 10
1257.809024700758
 20
2602.797735104884
 30
0.0
  0
ENDBLK
  5
7F26
330
7CC9
100
AcDbEntity
  8
0
100
AcDbBlockEnd
  0
BLOCK
  5
7F11
330
7CE1
100
AcDbEntity
  8
0
100
AcDbBlockBegin
  2
*D3
 70
     1
 10
0.0
 20
0.0
 30
0.0
  3
*D3
  1

  0
LINE
  5
8086
330
7CE1
100
AcDbEntity
  8
3
 62
     0
100
AcDbLine
 10
1711.123224600693
 20
2183.599298936078
 30
0.0
 11
1841.374043221327
 21
2183.599298936078
 31
0.0
  0
LINE
  5
8087
330
7CE1
100
AcDbEntity
  8
3
 62
     0
100
AcDbLine
 10
1603.809024700752
 20
1663.599298936079
 30
0.0
 11
1841.374043221327
 21
1663.599298936079
 31
0.0
  0
LINE
  5
8088
330
7CE1
100
AcDbEntity
  8
3
 62
     0
100
AcDbLine
 10
1821.374043221327
 20
2143.599298936078
 30
0.0
 11
1821.374043221327
 21
1703.599298936079
 31
0.0
  0
INSERT
  5
8089
330
7CE1
100
AcDbEntity
  8
3
 62
     0
100
AcDbBlockReference
  2
_OPEN
 10
1821.374043221327
 20
2183.599298936078
 30
0.0
 41
40.0
 42
40.0
 43
40.0
 50
90.0
  0
INSERT
  5
808A
330
7CE1
100
AcDbEntity
  8
3
 62
     0
100
AcDbBlockReference
  2
_OPEN
 10
1821.374043221327
 20
1663.599298936079
 30
0.0
 41
40.0
 42
40.0
 43
40.0
 50
270.0
  0
MTEXT
  5
808B
330
7CE1
100
AcDbEntity
  8
3
 62
     0
100
AcDbMText
 10
1771.374043221327
 20
1923.599298936079
 30
0.0
 40
60.0
 41
0.0
 71
     5
 72
     5
  1
\A1;520
 11
0.0000000000000001
 21
1.0
 31
0.0
 73
     1
 44
1.0
1001
ACAD
1000
MTEXTBEGIN
1070
    73
1070
     1
1070
    44
1040
1.0
1070
    74
1070
     0
1000
MTEXTEND
  0
POINT
  5
808C
330
7CE1
100
AcDbEntity
  8
DEFPOINTS
 62
     0
100
AcDbPoint
 10
1701.123224600693
 20
2183.599298936078
 30
0.0
  0
POINT
  5
808D
330
7CE1
100
AcDbEntity
  8
DEFPOINTS
 62
     0
100
AcDbPoint
 10
1593.809024700752
 20
1663.599298936079
 30
0.0
  0
POINT
  5
808E
330
7CE1
100
AcDbEntity
  8
DEFPOINTS
 62
     0
100
AcDbPoint
 10
1821.374043221327
 20
1663.599298936079
 30
0.0
  0
ENDBLK
  5
7F1B
330
7CE1
100
AcDbEntity
  8
0
100
AcDbBlockEnd
  0
BLOCK
  5
7D47
330
7D46
100
AcDbEntity
  8
0
100
AcDbBlockBegin
  2
_DOT
 70
     0
 10
0.0
 20
0.0
 30
0.0
  3
_DOT
  1

  0
LINE
  5
7EC4
330
7D46
100
AcDbEntity
  8
0
  6
ByBlock
 62
     0
100
AcDbLine
 10
0.0
 20
0.0
 30
0.0
 11
-1.0
 21
-0.0000000000000284
 31
0.0
  0
LWPOLYLINE
  5
7EC5
330
7D46
100
AcDbEntity
  8
0
  6
ByBlock
 62
     0
100
AcDbPolyline
 90
        2
 70
     1
 43
0.1666666666666666
 10
-0.0833333333333286
 20
-0.0000000000000284
 42
1.0
 10
0.0833333333333286
 20
-0.0000000000000284
 42
1.0
  0
ENDBLK
  5
7D4D
330
7D46
100
AcDbEntity
  8
0
100
AcDbBlockEnd
  0
BLOCK
  5
7D99
330
7D98
100
AcDbEntity
  8
0
100
AcDbBlockBegin
  2
*D5
 70
     1
 10
0.0
 20
0.0
 30
0.0
  3
*D5
  1

  0
LINE
  5
808F
330
7D98
100
AcDbEntity
  8
3
 62
     0
100
AcDbLine
 10
2964.330537805764
 20
2520.845516482221
 30
0.0
 11
2964.330537805764
 21
2664.53908781836
 31
0.0
  0
LINE
  5
8090
330
7D98
100
AcDbEntity
  8
3
 62
     0
100
AcDbLine
 10
3339.330537805765
 20
2520.845516482221
 30
0.0
 11
3339.330537805765
 21
2664.53908781836
 31
0.0
  0
LINE
  5
8091
330
7D98
100
AcDbEntity
  8
3
 62
     0
100
AcDbLine
 10
3004.330537805764
 20
2644.53908781836
 30
0.0
 11
3299.330537805765
 21
2644.53908781836
 31
0.0
  0
INSERT
  5
8092
330
7D98
100
AcDbEntity
  8
3
 62
     0
100
AcDbBlockReference
  2
_OPEN
 10
2964.330537805764
 20
2644.53908781836
 30
0.0
 41
40.0
 42
40.0
 43
40.0
 50
180.0
  0
INSERT
  5
8093
330
7D98
100
AcDbEntity
  8
3
 62
     0
100
AcDbBlockReference
  2
_OPEN
 10
3339.330537805765
 20
2644.53908781836
 30
0.0
 41
40.0
 42
40.0
 43
40.0
  0
MTEXT
  5
8094
330
7D98
100
AcDbEntity
  8
3
 62
     0
100
AcDbMText
 10
3152.435655190933
 20
2694.539087818359
 30
0.0
 40
60.0
 41
0.0
 71
     5
 72
     5
  1
\A1;375
 73
     1
 44
1.0
1001
ACAD
1000
MTEXTBEGIN
1070
    73
1070
     1
1070
    44
1040
1.0
1070
    74
1070
     0
1000
MTEXTEND
  0
POINT
  5
8095
330
7D98
100
AcDbEntity
  8
DEFPOINTS
 62
     0
100
AcDbPoint
 10
2964.330537805764
 20
2510.845516482221
 30
0.0
  0
POINT
  5
8096
330
7D98
100
AcDbEntity
  8
DEFPOINTS
 62
     0
100
AcDbPoint
 10
3339.330537805765
 20
2510.845516482221
 30
0.0
  0
POINT
  5
8097
330
7D98
100
AcDbEntity
  8
DEFPOINTS
 62
     0
100
AcDbPoint
 10
3339.330537805765
 20
2644.53908781836
 30
0.0
  0
ENDBLK
  5
7DA3
330
7D98
100
AcDbEntity
  8
0
100
AcDbBlockEnd
  0
BLOCK
  5
7EAF
330
7DA5
100
AcDbEntity
  8
0
100
AcDbBlockBegin
  2
*D6
 70
     1
 10
0.0
 20
0.0
 30
0.0
  3
*D6
  1

  0
LINE
  5
8098
330
7DA5
100
AcDbEntity
  8
3
 62
     0
100
AcDbLine
 10
3151.830537805766
 20
2723.745452400541
 30
0.0
 11
3151.830537805766
 21
2782.114798567218
 31
0.0
  0
LINE
  5
8099
330
7DA5
100
AcDbEntity
  8
3
 62
     0
100
AcDbLine
 10
3343.630537805765
 20
2473.599298936083
 30
0.0
 11
3343.630537805765
 21
2782.114798567218
 31
0.0
  0
LINE
  5
809A
330
7DA5
100
AcDbEntity
  8
3
 62
     0
100
AcDbLine
 10
3191.830537805766
 20
2762.114798567218
 30
0.0
 11
3303.630537805766
 21
2762.114798567218
 31
0.0
  0
INSERT
  5
809B
330
7DA5
100
AcDbEntity
  8
3
 62
     0
100
AcDbBlockReference
  2
_OPEN
 10
3151.830537805766
 20
2762.114798567218
 30
0.0
 41
40.0
 42
40.0
 43
40.0
 50
180.0
  0
INSERT
  5
809C
330
7DA5
100
AcDbEntity
  8
3
 62
     0
100
AcDbBlockReference
  2
_OPEN
 10
3343.630537805765
 20
2762.114798567218
 30
0.0
 41
40.0
 42
40.0
 43
40.0
  0
MTEXT
  5
809D
330
7DA5
100
AcDbEntity
  8
3
 62
     0
100
AcDbMText
 10
3247.730537805766
 20
2812.114798567219
 30
0.0
 40
60.0
 41
0.0
 71
     5
 72
     5
  1
\A1;192
 73
     1
 44
1.0
1001
ACAD
1000
MTEXTBEGIN
1070
    73
1070
     1
1070
    44
1040
1.0
1070
    74
1070
     0
1000
MTEXTEND
  0
POINT
  5
809E
330
7DA5
100
AcDbEntity
  8
DEFPOINTS
 62
     0
100
AcDbPoint
 10
3151.830537805766
 20
2713.74545240054
 30
0.0
  0
POINT
  5
809F
330
7DA5
100
AcDbEntity
  8
DEFPOINTS
 62
     0
100
AcDbPoint
 10
3343.630537805765
 20
2463.599298936083
 30
0.0
  0
POINT
  5
80A0
330
7DA5
100
AcDbEntity
  8
DEFPOINTS
 62
     0
100
AcDbPoint
 10
3343.630537805765
 20
2762.114798567218
 30
0.0
  0
ENDBLK
  5
7EBB
330
7DA5
100
AcDbEntity
  8
0
100
AcDbBlockEnd
  0
BLOCK
  5
7EA5
330
7DC1
100
AcDbEntity
  8
0
100
AcDbBlockBegin
  2
*D7
 70
     1
 10
0.0
 20
0.0
 30
0.0
  3
*D7
  1

  0
LINE
  5
846B
330
7DC1
100
AcDbEntity
  8
3
 62
     0
370
    -2
100
AcDbLine
 10
2618.590299456254
 20
2413.599298936083
 30
0.0
 11
2618.590299456254
 21
2782.114798567218
 31
0.0
  0
LINE
  5
846C
330
7DC1
100
AcDbEntity
  8
3
 62
     0
370
    -2
100
AcDbLine
 10
3111.830537805766
 20
2762.114798567218
 30
0.0
 11
2658.590299456254
 21
2762.114798567218
 31
0.0
  0
INSERT
  5
846D
330
7DC1
100
AcDbEntity
  8
3
 62
     0
370
    -2
100
AcDbBlockReference
  2
_OPEN
 10
3151.830537805766
 20
2762.114798567218
 30
0.0
 41
40.0
 42
40.0
 43
40.0
  0
INSERT
  5
846E
330
7DC1
100
AcDbEntity
  8
3
 62
     0
370
    -2
100
AcDbBlockReference
  2
_OPEN
 10
2618.590299456254
 20
2762.114798567218
 30
0.0
 41
40.0
 42
40.0
 43
40.0
 50
180.0
  0
MTEXT
  5
846F
330
7DC1
100
AcDbEntity
  8
3
 62
     0
100
AcDbMText
 10
2885.21041863101
 20
2827.829084281504
 30
0.0
 40
60.0
 41
0.0
 71
     5
 72
     1
  1
\A1;(560)
 73
     1
 44
1.0
1001
ACAD
1000
MTEXTBEGIN
1070
    73
1070
     1
1070
    44
1040
1.0
1070
    74
1070
     0
1000
MTEXTEND
  0
POINT
  5
8470
330
7DC1
100
AcDbEntity
  8
DEFPOINTS
 62
     0
100
AcDbPoint
 10
3151.830537805766
 20
2713.74545240054
 30
0.0
  0
POINT
  5
8471
330
7DC1
100
AcDbEntity
  8
DEFPOINTS
 62
     0
100
AcDbPoint
 10
2618.590299456254
 20
2403.599298936082
 30
0.0
  0
POINT
  5
8472
330
7DC1
100
AcDbEntity
  8
DEFPOINTS
 62
     0
100
AcDbPoint
 10
2618.590299456254
 20
2762.114798567218
 30
0.0
  0
ENDBLK
  5
7EAE
330
7DC1
100
AcDbEntity
  8
0
100
AcDbBlockEnd
  0
BLOCK
  5
7DE5
330
7DD8
100
AcDbEntity
  8
0
100
AcDbBlockBegin
  2
*D8
 70
     1
 10
0.0
 20
0.0
 30
0.0
  3
*D8
  1

  0
LINE
  5
80A9
330
7DD8
100
AcDbEntity
  8
3
 62
     0
100
AcDbLine
 10
3381.830537805765
 20
2433.599298936083
 30
0.0
 11
3563.286756674447
 21
2433.599298936083
 31
0.0
  0
LINE
  5
80AA
330
7DD8
100
AcDbEntity
  8
3
 62
     0
100
AcDbLine
 10
3381.830537805765
 20
1933.599298936083
 30
0.0
 11
3563.286756674447
 21
1933.599298936083
 31
0.0
  0
LINE
  5
80AB
330
7DD8
100
AcDbEntity
  8
3
 62
     0
100
AcDbLine
 10
3543.286756674447
 20
2393.599298936083
 30
0.0
 11
3543.286756674447
 21
1973.599298936083
 31
0.0
  0
INSERT
  5
80AC
330
7DD8
100
AcDbEntity
  8
3
 62
     0
100
AcDbBlockReference
  2
_OPEN
 10
3543.286756674447
 20
2433.599298936083
 30
0.0
 41
40.0
 42
40.0
 43
40.0
 50
90.0
  0
INSERT
  5
80AD
330
7DD8
100
AcDbEntity
  8
3
 62
     0
100
AcDbBlockReference
  2
_OPEN
 10
3543.286756674447
 20
1933.599298936083
 30
0.0
 41
40.0
 42
40.0
 43
40.0
 50
270.0
  0
MTEXT
  5
80AE
330
7DD8
100
AcDbEntity
  8
3
 62
     0
100
AcDbMText
 10
3493.286756674446
 20
2183.339885117799
 30
0.0
 40
60.0
 41
0.0
 71
     5
 72
     5
  1
\A1;\U+03C6500
 11
0.0000000000000001
 21
1.0
 31
0.0
 73
     1
 44
1.0
1001
ACAD
1000
MTEXTBEGIN
1070
    73
1070
     1
1070
    44
1040
1.0
1070
    74
1070
     0
1000
MTEXTEND
  0
POINT
  5
80AF
330
7DD8
100
AcDbEntity
  8
DEFPOINTS
 62
     0
100
AcDbPoint
 10
3371.830537805765
 20
2433.599298936083
 30
0.0
  0
POINT
  5
80B0
330
7DD8
100
AcDbEntity
  8
DEFPOINTS
 62
     0
100
AcDbPoint
 10
3371.830537805765
 20
1933.599298936083
 30
0.0
  0
POINT
  5
80B1
330
7DD8
100
AcDbEntity
  8
DEFPOINTS
 62
     0
100
AcDbPoint
 10
3543.286756674447
 20
1933.599298936083
 30
0.0
  0
ENDBLK
  5
7DEF
330
7DD8
100
AcDbEntity
  8
0
100
AcDbBlockEnd
  0
BLOCK
  5
7EEE
330
7E63
100
AcDbEntity
  8
0
100
AcDbBlockBegin
  2
*D9
 70
     1
 10
0.0
 20
0.0
 30
0.0
  3
*D9
  1

  0
LINE
  5
80B2
330
7E63
100
AcDbEntity
  8
3
 62
     0
100
AcDbLine
 10
1299.409024700758
 20
2543.599298936082
 30
0.0
 11
1841.374043221327
 21
2543.599298936082
 31
0.0
  0
LINE
  5
80B3
330
7E63
100
AcDbEntity
  8
3
 62
     0
100
AcDbLine
 10
1821.374043221327
 20
2223.599298936077
 30
0.0
 11
1821.374043221327
 21
2503.599298936081
 31
0.0
  0
INSERT
  5
80B4
330
7E63
100
AcDbEntity
  8
3
 62
     0
100
AcDbBlockReference
  2
_OPEN
 10
1821.374043221327
 20
2183.599298936078
 30
0.0
 41
40.0
 42
40.0
 43
40.0
 50
270.0
  0
INSERT
  5
80B5
330
7E63
100
AcDbEntity
  8
3
 62
     0
100
AcDbBlockReference
  2
_OPEN
 10
1821.374043221327
 20
2543.599298936082
 30
0.0
 41
40.0
 42
40.0
 43
40.0
 50
90.0
  0
MTEXT
  5
80B6
330
7E63
100
AcDbEntity
  8
3
 62
     0
100
AcDbMText
 10
1771.374043221327
 20
2363.59929893608
 30
0.0
 40
60.0
 41
0.0
 71
     5
 72
     5
  1
\A1;360
 11
0.0000000000000001
 21
1.0
 31
0.0
 73
     1
 44
1.0
1001
ACAD
1000
MTEXTBEGIN
1070
    73
1070
     1
1070
    44
1040
1.0
1070
    74
1070
     0
1000
MTEXTEND
  0
POINT
  5
80B7
330
7E63
100
AcDbEntity
  8
DEFPOINTS
 62
     0
100
AcDbPoint
 10
1701.123224600693
 20
2183.599298936078
 30
0.0
  0
POINT
  5
80B8
330
7E63
100
AcDbEntity
  8
DEFPOINTS
 62
     0
100
AcDbPoint
 10
1289.409024700758
 20
2543.599298936082
 30
0.0
  0
POINT
  5
80B9
330
7E63
100
AcDbEntity
  8
DEFPOINTS
 62
     0
100
AcDbPoint
 10
1821.374043221327
 20
2543.599298936082
 30
0.0
  0
ENDBLK
  5
7EF7
330
7E63
100
AcDbEntity
  8
0
100
AcDbBlockEnd
  0
BLOCK
  5
7F47
330
7E6F
100
AcDbEntity
  8
0
100
AcDbBlockBegin
  2
*D10
 70
     1
 10
0.0
 20
0.0
 30
0.0
  3
*D10
  1

  0
LINE
  5
80BA
330
7E6F
100
AcDbEntity
  8
3
 62
     0
100
AcDbLine
 10
1646.257015508615
 20
2156.599298936081
 30
0.0
 11
1646.257015508615
 21
2741.164317456654
 31
0.0
  0
LINE
  5
80BB
330
7E6F
100
AcDbEntity
  8
3
 62
     0
100
AcDbLine
 10
1323.809024700758
 20
2721.164317456654
 30
0.0
 11
1606.257015508615
 21
2721.164317456654
 31
0.0
  0
INSERT
  5
80BC
330
7E6F
100
AcDbEntity
  8
3
 62
     0
100
AcDbBlockReference
  2
_OPEN
 10
1283.809024700758
 20
2721.164317456654
 30
0.0
 41
40.0
 42
40.0
 43
40.0
 50
180.0
  0
INSERT
  5
80BD
330
7E6F
100
AcDbEntity
  8
3
 62
     0
100
AcDbBlockReference
  2
_OPEN
 10
1646.257015508615
 20
2721.164317456654
 30
0.0
 41
40.0
 42
40.0
 43
40.0
  0
MTEXT
  5
80BE
330
7E6F
100
AcDbEntity
  8
3
 62
     0
100
AcDbMText
 10
1465.033020104687
 20
2771.164317456654
 30
0.0
 40
60.0
 41
0.0
 71
     5
 72
     5
  1
\A1;362
 73
     1
 44
1.0
1001
ACAD
1000
MTEXTBEGIN
1070
    73
1070
     1
1070
    44
1040
1.0
1070
    74
1070
     0
1000
MTEXTEND
  0
POINT
  5
80BF
330
7E6F
100
AcDbEntity
  8
DEFPOINTS
 62
     0
100
AcDbPoint
 10
1283.809024700758
 20
2600.913498836019
 30
0.0
  0
POINT
  5
80C0
330
7E6F
100
AcDbEntity
  8
DEFPOINTS
 62
     0
100
AcDbPoint
 10
1646.257015508615
 20
2146.599298936081
 30
0.0
  0
POINT
  5
80C1
330
7E6F
100
AcDbEntity
  8
DEFPOINTS
 62
     0
100
AcDbPoint
 10
1646.257015508615
 20
2721.164317456654
 30
0.0
  0
ENDBLK
  5
7F50
330
7E6F
100
AcDbEntity
  8
0
100
AcDbBlockEnd
  0
BLOCK
  5
7ED8
330
7E97
100
AcDbEntity
  8
0
100
AcDbBlockBegin
  2
*D11
 70
     1
 10
0.0
 20
0.0
 30
0.0
  3
*D11
  1

  0
LINE
  5
80C2
330
7E97
100
AcDbEntity
  8
3
 62
     0
100
AcDbLine
 10
1646.257015508615
 20
2156.599298936081
 30
0.0
 11
1646.257015508615
 21
2909.871433251416
 31
0.0
  0
LINE
  5
80C3
330
7E97
100
AcDbEntity
  8
3
 62
     0
100
AcDbLine
 10
473.809024700753
 20
1738.599298936088
 30
0.0
 11
473.8090247007531
 21
2909.871433251416
 31
0.0
  0
LINE
  5
80C4
330
7E97
100
AcDbEntity
  8
3
 62
     0
100
AcDbLine
 10
1606.257015508615
 20
2889.871433251416
 30
0.0
 11
513.809024700753
 21
2889.871433251416
 31
0.0
  0
INSERT
  5
80C5
330
7E97
100
AcDbEntity
  8
3
 62
     0
100
AcDbBlockReference
  2
_OPEN
 10
1646.257015508615
 20
2889.871433251416
 30
0.0
 41
40.0
 42
40.0
 43
40.0
  0
INSERT
  5
80C6
330
7E97
100
AcDbEntity
  8
3
 62
     0
100
AcDbBlockReference
  2
_OPEN
 10
473.8090247007531
 20
2889.871433251416
 30
0.0
 41
40.0
 42
40.0
 43
40.0
 50
180.0
  0
MTEXT
  5
80C7
330
7E97
100
AcDbEntity
  8
3
 62
     0
100
AcDbMText
 10
1065.516343294282
 20
2939.871433251416
 30
0.0
 40
60.0
 41
0.0
 71
     5
 72
     5
  1
\A1;1172
 73
     1
 44
1.0
1001
ACAD
1000
MTEXTBEGIN
1070
    73
1070
     1
1070
    44
1040
1.0
1070
    74
1070
     0
1000
MTEXTEND
  0
POINT
  5
80C8
330
7E97
100
AcDbEntity
  8
DEFPOINTS
 62
     0
100
AcDbPoint
 10
1646.257015508615
 20
2146.599298936081
 30
0.0
  0
POINT
  5
80C9
330
7E97
100
AcDbEntity
  8
DEFPOINTS
 62
     0
100
AcDbPoint
 10
473.809024700753
 20
1728.599298936088
 30
0.0
  0
POINT
  5
80CA
330
7E97
100
AcDbEntity
  8
DEFPOINTS
 62
     0
100
AcDbPoint
 10
473.8090247007531
 20
2889.871433251416
 30
0.0
  0
ENDBLK
  5
7EE2
330
7E97
100
AcDbEntity
  8
0
100
AcDbBlockEnd
  0
BLOCK
  5
7F8F
330
7F8E
100
AcDbEntity
  8
0
100
AcDbBlockBegin
  2
*D12
 70
     1
 10
0.0
 20
0.0
 30
0.0
  3
*D12
  1

  0
LINE
  5
80CE
330
7F8E
100
AcDbEntity
  8
3
 62
     0
100
AcDbLine
 10
2566.830537805765
 20
1443.599298936091
 30
0.0
 11
2566.830537805765
 21
1295.662819623625
 31
0.0
  0
LINE
  5
80CF
330
7F8E
100
AcDbEntity
  8
3
 62
     0
100
AcDbLine
 10
3151.830537805764
 20
1443.599298936091
 30
0.0
 11
3151.830537805764
 21
1295.662819623625
 31
0.0
  0
LINE
  5
80D0
330
7F8E
100
AcDbEntity
  8
3
 62
     0
100
AcDbLine
 10
2606.830537805765
 20
1315.662819623625
 30
0.0
 11
3111.830537805764
 21
1315.662819623625
 31
0.0
  0
INSERT
  5
80D1
330
7F8E
100
AcDbEntity
  8
3
 62
     0
100
AcDbBlockReference
  2
_OPEN
 10
2566.830537805765
 20
1315.662819623625
 30
0.0
 41
40.0
 42
40.0
 43
40.0
 50
180.0
  0
INSERT
  5
80D2
330
7F8E
100
AcDbEntity
  8
3
 62
     0
100
AcDbBlockReference
  2
_OPEN
 10
3151.830537805764
 20
1315.662819623625
 30
0.0
 41
40.0
 42
40.0
 43
40.0
  0
MTEXT
  5
80D3
330
7F8E
100
AcDbEntity
  8
3
 62
     0
100
AcDbMText
 10
2859.330537805764
 20
1365.662819623625
 30
0.0
 40
60.0
 41
0.0
 71
     5
 72
     5
  1
\A1;585
 73
     1
 44
1.0
1001
ACAD
1000
MTEXTBEGIN
1070
    73
1070
     1
1070
    44
1040
1.0
1070
    74
1070
     0
1000
MTEXTEND
  0
POINT
  5
80D4
330
7F8E
100
AcDbEntity
  8
DEFPOINTS
 62
     0
100
AcDbPoint
 10
2566.830537805765
 20
1453.599298936091
 30
0.0
  0
POINT
  5
80D5
330
7F8E
100
AcDbEntity
  8
DEFPOINTS
 62
     0
100
AcDbPoint
 10
3151.830537805764
 20
1453.599298936091
 30
0.0
  0
POINT
  5
80D6
330
7F8E
100
AcDbEntity
  8
DEFPOINTS
 62
     0
100
AcDbPoint
 10
3151.830537805764
 20
1315.662819623625
 30
0.0
  0
ENDBLK
  5
7F99
330
7F8E
100
AcDbEntity
  8
0
100
AcDbBlockEnd
  0
BLOCK
  5
7F9C
330
7F9B
100
AcDbEntity
  8
0
100
AcDbBlockBegin
  2
*D13
 70
     1
 10
0.0
 20
0.0
 30
0.0
  3
*D13
  1

  0
LINE
  5
80D7
330
7F9B
100
AcDbEntity
  8
3
 62
     0
100
AcDbLine
 10
3151.830537805764
 20
1443.599298936091
 30
0.0
 11
3151.830537805764
 21
1295.662819623625
 31
0.0
  0
LINE
  5
80D8
330
7F9B
100
AcDbEntity
  8
3
 62
     0
100
AcDbLine
 10
3451.830537805764
 20
1443.599298936091
 30
0.0
 11
3451.830537805764
 21
1295.662819623625
 31
0.0
  0
LINE
  5
80D9
330
7F9B
100
AcDbEntity
  8
3
 62
     0
100
AcDbLine
 10
3191.830537805764
 20
1315.662819623625
 30
0.0
 11
3411.830537805764
 21
1315.662819623625
 31
0.0
  0
INSERT
  5
80DA
330
7F9B
100
AcDbEntity
  8
3
 62
     0
100
AcDbBlockReference
  2
_OPEN
 10
3151.830537805764
 20
1315.662819623625
 30
0.0
 41
40.0
 42
40.0
 43
40.0
 50
180.0
  0
INSERT
  5
80DB
330
7F9B
100
AcDbEntity
  8
3
 62
     0
100
AcDbBlockReference
  2
_OPEN
 10
3451.830537805764
 20
1315.662819623625
 30
0.0
 41
40.0
 42
40.0
 43
40.0
  0
MTEXT
  5
80DC
330
7F9B
100
AcDbEntity
  8
3
 62
     0
100
AcDbMText
 10
3301.830537805764
 20
1365.662819623625
 30
0.0
 40
60.0
 41
0.0
 71
     5
 72
     5
  1
\A1;300
 73
     1
 44
1.0
1001
ACAD
1000
MTEXTBEGIN
1070
    73
1070
     1
1070
    44
1040
1.0
1070
    74
1070
     0
1000
MTEXTEND
  0
POINT
  5
80DD
330
7F9B
100
AcDbEntity
  8
DEFPOINTS
 62
     0
100
AcDbPoint
 10
3151.830537805764
 20
1453.599298936091
 30
0.0
  0
POINT
  5
80DE
330
7F9B
100
AcDbEntity
  8
DEFPOINTS
 62
     0
100
AcDbPoint
 10
3451.830537805764
 20
1453.599298936091
 30
0.0
  0
POINT
  5
80DF
330
7F9B
100
AcDbEntity
  8
DEFPOINTS
 62
     0
100
AcDbPoint
 10
3451.830537805764
 20
1315.662819623625
 30
0.0
  0
ENDBLK
  5
7FA6
330
7F9B
100
AcDbEntity
  8
0
100
AcDbBlockEnd
  0
BLOCK
  5
7FA9
330
7FA8
100
AcDbEntity
  8
0
100
AcDbBlockBegin
  2
*D14
 70
     1
 10
0.0
 20
0.0
 30
0.0
  3
*D14
  1

  0
LINE
  5
80E0
330
7FA8
100
AcDbEntity
  8
3
 62
     0
100
AcDbLine
 10
1283.809024700749
 20
1493.599298936081
 30
0.0
 11
1283.809024700749
 21
1295.662819623625
 31
0.0
  0
LINE
  5
80E1
330
7FA8
100
AcDbEntity
  8
3
 62
     0
100
AcDbLine
 10
1597.809024700751
 20
1453.599298936079
 30
0.0
 11
1597.809024700751
 21
1295.662819623625
 31
0.0
  0
LINE
  5
80E2
330
7FA8
100
AcDbEntity
  8
3
 62
     0
100
AcDbLine
 10
1323.809024700749
 20
1315.662819623625
 30
0.0
 11
1557.809024700751
 21
1315.662819623625
 31
0.0
  0
INSERT
  5
80E3
330
7FA8
100
AcDbEntity
  8
3
 62
     0
100
AcDbBlockReference
  2
_OPEN
 10
1283.809024700749
 20
1315.662819623625
 30
0.0
 41
40.0
 42
40.0
 43
40.0
 50
180.0
  0
INSERT
  5
80E4
330
7FA8
100
AcDbEntity
  8
3
 62
     0
100
AcDbBlockReference
  2
_OPEN
 10
1597.809024700751
 20
1315.662819623625
 30
0.0
 41
40.0
 42
40.0
 43
40.0
  0
MTEXT
  5
80E5
330
7FA8
100
AcDbEntity
  8
3
 62
     0
100
AcDbMText
 10
1440.80902470075
 20
1365.662819623625
 30
0.0
 40
60.0
 41
0.0
 71
     5
 72
     5
  1
\A1;314
 73
     1
 44
1.0
1001
ACAD
1000
MTEXTBEGIN
1070
    73
1070
     1
1070
    44
1040
1.0
1070
    74
1070
     0
1000
MTEXTEND
  0
POINT
  5
80E6
330
7FA8
100
AcDbEntity
  8
DEFPOINTS
 62
     0
100
AcDbPoint
 10
1283.809024700749
 20
1503.599298936081
 30
0.0
  0
POINT
  5
80E7
330
7FA8
100
AcDbEntity
  8
DEFPOINTS
 62
     0
100
AcDbPoint
 10
1597.809024700751
 20
1463.599298936079
 30
0.0
  0
POINT
  5
80E8
330
7FA8
100
AcDbEntity
  8
DEFPOINTS
 62
     0
100
AcDbPoint
 10
1597.809024700751
 20
1315.662819623625
 30
0.0
  0
ENDBLK
  5
7FB3
330
7FA8
100
AcDbEntity
  8
0
100
AcDbBlockEnd
  0
BLOCK
  5
7FB6
330
7FB5
100
AcDbEntity
  8
0
100
AcDbBlockBegin
  2
*D15
 70
     1
 10
0.0
 20
0.0
 30
0.0
  3
*D15
  1

  0
LINE
  5
80E9
330
7FB5
100
AcDbEntity
  8
3
 62
     0
100
AcDbLine
 10
1283.809024700749
 20
1493.599298936081
 30
0.0
 11
1283.809024700749
 21
1295.662819623625
 31
0.0
  0
LINE
  5
80EA
330
7FB5
100
AcDbEntity
  8
3
 62
     0
100
AcDbLine
 10
469.8090247007512
 20
1453.599298936088
 30
0.0
 11
469.8090247007512
 21
1295.662819623625
 31
0.0
  0
LINE
  5
80EB
330
7FB5
100
AcDbEntity
  8
3
 62
     0
100
AcDbLine
 10
1243.809024700749
 20
1315.662819623625
 30
0.0
 11
509.8090247007512
 21
1315.662819623625
 31
0.0
  0
INSERT
  5
80EC
330
7FB5
100
AcDbEntity
  8
3
 62
     0
100
AcDbBlockReference
  2
_OPEN
 10
1283.809024700749
 20
1315.662819623625
 30
0.0
 41
40.0
 42
40.0
 43
40.0
  0
INSERT
  5
80ED
330
7FB5
100
AcDbEntity
  8
3
 62
     0
100
AcDbBlockReference
  2
_OPEN
 10
469.8090247007512
 20
1315.662819623625
 30
0.0
 41
40.0
 42
40.0
 43
40.0
 50
180.0
  0
MTEXT
  5
80EE
330
7FB5
100
AcDbEntity
  8
3
 62
     0
100
AcDbMText
 10
876.8090247007505
 20
1365.662819623625
 30
0.0
 40
60.0
 41
0.0
 71
     5
 72
     5
  1
\A1;814
 73
     1
 44
1.0
1001
ACAD
1000
MTEXTBEGIN
1070
    73
1070
     1
1070
    44
1040
1.0
1070
    74
1070
     0
1000
MTEXTEND
  0
POINT
  5
80EF
330
7FB5
100
AcDbEntity
  8
DEFPOINTS
 62
     0
100
AcDbPoint
 10
1283.809024700749
 20
1503.599298936081
 30
0.0
  0
POINT
  5
80F0
330
7FB5
100
AcDbEntity
  8
DEFPOINTS
 62
     0
100
AcDbPoint
 10
469.8090247007512
 20
1463.599298936088
 30
0.0
  0
POINT
  5
80F1
330
7FB5
100
AcDbEntity
  8
DEFPOINTS
 62
     0
100
AcDbPoint
 10
469.8090247007512
 20
1315.662819623625
 30
0.0
  0
ENDBLK
  5
7FC0
330
7FB5
100
AcDbEntity
  8
0
100
AcDbBlockEnd
  0
BLOCK
  5
7FC3
330
7FC2
100
AcDbEntity
  8
0
100
AcDbBlockBegin
  2
*D16
 70
     1
 10
0.0
 20
0.0
 30
0.0
  3
*D16
  1

  0
LINE
  5
80F2
330
7FC2
100
AcDbEntity
  8
3
 62
     0
100
AcDbLine
 10
1603.809024700752
 20
1568.599298936079
 30
0.0
 11
1842.484114997449
 21
1568.599298936079
 31
0.0
  0
LINE
  5
80F3
330
7FC2
100
AcDbEntity
  8
3
 62
     0
100
AcDbLine
 10
1607.809024700751
 20
1463.599298936079
 30
0.0
 11
1842.484114997449
 21
1463.599298936079
 31
0.0
  0
LINE
  5
80F4
330
7FC2
100
AcDbEntity
  8
3
 62
     0
100
AcDbLine
 10
1822.484114997449
 20
1608.599298936079
 30
0.0
 11
1822.484114997449
 21
1648.599298936079
 31
0.0
  0
LINE
  5
80F5
330
7FC2
100
AcDbEntity
  8
3
 62
     0
100
AcDbLine
 10
1822.484114997449
 20
1423.599298936079
 30
0.0
 11
1822.484114997449
 21
1200.742156078936
 31
0.0
  0
LINE
  5
80F6
330
7FC2
100
AcDbEntity
  8
3
 62
     0
100
AcDbLine
 10
1822.484114997449
 20
1568.599298936079
 30
0.0
 11
1822.484114997449
 21
1463.599298936079
 31
0.0
  0
INSERT
  5
80F7
330
7FC2
100
AcDbEntity
  8
3
 62
     0
100
AcDbBlockReference
  2
_DOT
 10
1822.484114997449
 20
1568.599298936079
 30
0.0
 41
40.0
 42
40.0
 43
40.0
 50
270.0
  0
INSERT
  5
80F8
330
7FC2
100
AcDbEntity
  8
3
 62
     0
100
AcDbBlockReference
  2
_OPEN
 10
1822.484114997449
 20
1463.599298936079
 30
0.0
 41
40.0
 42
40.0
 43
40.0
 50
90.0
  0
MTEXT
  5
80F9
330
7FC2
100
AcDbEntity
  8
3
 62
     0
100
AcDbMText
 10
1772.484114997449
 20
1292.170727507508
 30
0.0
 40
60.0
 41
0.0
 71
     5
 72
     5
  1
\A1;105
 11
0.0000000000000001
 21
1.0
 31
0.0
 73
     1
 44
1.0
1001
ACAD
1000
MTEXTBEGIN
1070
    73
1070
     1
1070
    44
1040
1.0
1070
    74
1070
     0
1000
MTEXTEND
  0
POINT
  5
80FA
330
7FC2
100
AcDbEntity
  8
DEFPOINTS
 62
     0
100
AcDbPoint
 10
1593.809024700752
 20
1568.599298936079
 30
0.0
  0
POINT
  5
80FB
330
7FC2
100
AcDbEntity
  8
DEFPOINTS
 62
     0
100
AcDbPoint
 10
1597.809024700751
 20
1463.599298936079
 30
0.0
  0
POINT
  5
80FC
330
7FC2
100
AcDbEntity
  8
DEFPOINTS
 62
     0
100
AcDbPoint
 10
1822.484114997449
 20
1463.599298936079
 30
0.0
  0
ENDBLK
  5
7FCF
330
7FC2
100
AcDbEntity
  8
0
100
AcDbBlockEnd
  0
BLOCK
  5
801A
330
8019
100
AcDbEntity
  8
0
100
AcDbBlockBegin
  2
*D19
 70
     1
 10
0.0
 20
0.0
 30
0.0
  3
*D19
  1

  0
LINE
  5
801B
330
8019
100
AcDbEntity
  8
0
  6
ByBlock
 62
     0
100
AcDbLine
 10
1603.809024700752
 20
1568.599298936079
 30
0.0
 11
1843.053913547479
 21
1568.599298936079
 31
0.0
  0
LINE
  5
801C
330
8019
100
AcDbEntity
  8
0
  6
ByBlock
 62
     0
100
AcDbLine
 10
1603.809024700752
 20
1663.599298936079
 30
0.0
 11
1843.053913547479
 21
1663.599298936079
 31
0.0
  0
LINE
  5
801D
330
8019
100
AcDbEntity
  8
0
  6
ByBlock
 62
     0
100
AcDbLine
 10
1823.053913547479
 20
1528.599298936079
 30
0.0
 11
1823.053913547479
 21
1488.599298936079
 31
0.0
  0
LINE
  5
801E
330
8019
100
AcDbEntity
  8
0
  6
ByBlock
 62
     0
100
AcDbLine
 10
1823.053913547479
 20
1703.599298936079
 30
0.0
 11
1823.053913547479
 21
1743.599298936079
 31
0.0
  0
MTEXT
  5
801F
330
8019
100
AcDbEntity
  8
0
  6
ByBlock
 62
     0
100
AcDbMText
 10
1918.768199261765
 20
1616.099298936079
 30
0.0
 40
60.0
 41
0.0
 71
     5
 72
     5
  1
\A1;(95)
 11
0.0
 21
1.0
 31
0.0
 73
     1
 44
1.0
1001
ACAD
1000
MTEXTBEGIN
1070
    73
1070
     1
1070
    44
1040
1.0
1070
    74
1070
     0
1000
MTEXTEND
  0
LINE
  5
8020
330
8019
100
AcDbEntity
  8
0
  6
ByBlock
 62
     0
100
AcDbLine
 10
1823.053913547479
 20
1568.599298936079
 30
0.0
 11
1823.053913547479
 21
1663.599298936079
 31
0.0
  0
INSERT
  5
8021
330
8019
100
AcDbEntity
  8
0
  6
ByBlock
 62
     0
100
AcDbBlockReference
  2
_DOT
 10
1823.053913547479
 20
1568.599298936079
 30
0.0
 41
40.0
 42
40.0
 43
40.0
 50
90.0
  0
INSERT
  5
8022
330
8019
100
AcDbEntity
  8
0
  6
ByBlock
 62
     0
100
AcDbBlockReference
  2
_OPEN
 10
1823.053913547479
 20
1663.599298936079
 30
0.0
 41
40.0
 42
40.0
 43
40.0
 50
270.0
  0
POINT
  5
8023
330
8019
100
AcDbEntity
  8
DEFPOINTS
  6
ByBlock
 62
     0
100
AcDbPoint
 10
1593.809024700752
 20
1568.599298936079
 30
0.0
  0
POINT
  5
8024
330
8019
100
AcDbEntity
  8
DEFPOINTS
  6
ByBlock
 62
     0
100
AcDbPoint
 10
1593.809024700752
 20
1663.599298936079
 30
0.0
  0
POINT
  5
8025
330
8019
100
AcDbEntity
  8
DEFPOINTS
  6
ByBlock
 62
     0
100
AcDbPoint
 10
1823.053913547479
 20
1663.599298936079
 30
0.0
  0
ENDBLK
  5
8026
330
8019
100
AcDbEntity
  8
0
100
AcDbBlockEnd
  0
BLOCK
  5
8029
330
8028
100
AcDbEntity
  8
0
100
AcDbBlockBegin
  2
*D20
 70
     1
 10
0.0
 20
0.0
 30
0.0
  3
*D20
  1

  0
LINE
  5
810F
330
8028
100
AcDbEntity
  8
3
 62
     0
100
AcDbLine
 10
1309.409024700758
 20
2543.599298936082
 30
0.0
 11
2034.378681027414
 21
2543.599298936082
 31
0.0
  0
LINE
  5
8110
330
8028
100
AcDbEntity
  8
3
 62
     0
100
AcDbLine
 10
1607.809024700751
 20
1463.599298936079
 30
0.0
 11
2034.378681027414
 21
1463.599298936079
 31
0.0
  0
LINE
  5
8111
330
8028
100
AcDbEntity
  8
3
 62
     0
100
AcDbLine
 10
2014.378681027414
 20
2503.599298936081
 30
0.0
 11
2014.378681027414
 21
1503.599298936079
 31
0.0
  0
INSERT
  5
8112
330
8028
100
AcDbEntity
  8
3
 62
     0
100
AcDbBlockReference
  2
_OPEN
 10
2014.378681027414
 20
2543.599298936082
 30
0.0
 41
40.0
 42
40.0
 43
40.0
 50
90.0
  0
INSERT
  5
8113
330
8028
100
AcDbEntity
  8
3
 62
     0
100
AcDbBlockReference
  2
_OPEN
 10
2014.378681027414
 20
1463.599298936079
 30
0.0
 41
40.0
 42
40.0
 43
40.0
 50
270.0
  0
MTEXT
  5
8114
330
8028
100
AcDbEntity
  8
3
 62
     0
100
AcDbMText
 10
1948.664395313128
 20
2003.59929893608
 30
0.0
 40
60.0
 41
0.0
 71
     5
 72
     5
  1
\A1;(1080)
 11
0.0000000000000001
 21
1.0
 31
0.0
 73
     1
 44
1.0
1001
ACAD
1000
MTEXTBEGIN
1070
    73
1070
     1
1070
    44
1040
1.0
1070
    74
1070
     0
1000
MTEXTEND
  0
POINT
  5
8115
330
8028
100
AcDbEntity
  8
DEFPOINTS
 62
     0
100
AcDbPoint
 10
1299.409024700758
 20
2543.599298936082
 30
0.0
  0
POINT
  5
8116
330
8028
100
AcDbEntity
  8
DEFPOINTS
 62
     0
100
AcDbPoint
 10
1597.809024700751
 20
1463.599298936079
 30
0.0
  0
POINT
  5
8117
330
8028
100
AcDbEntity
  8
DEFPOINTS
 62
     0
100
AcDbPoint
 10
2014.378681027414
 20
1463.599298936079
 30
0.0
  0
ENDBLK
  5
8033
330
8028
100
AcDbEntity
  8
0
100
AcDbBlockEnd
  0
BLOCK
  5
83FB
330
83FA
100
AcDbEntity
  8
0
100
AcDbBlockBegin
  2
*D29
 70
     1
 10
0.0
 20
0.0
 30
0.0
  3
*D29
  1

  0
LINE
  5
844E
330
83FA
100
AcDbEntity
  8
3
 62
     0
370
    -2
100
AcDbLine
 10
469.8090247007648
 20
4073.713410176739
 30
0.0
 11
469.8090247007648
 21
4203.739733797258
 31
0.0
  0
LINE
  5
844F
330
83FA
100
AcDbEntity
  8
3
 62
     0
370
    -2
100
AcDbLine
 10
1597.809024700764
 20
4073.713410176741
 30
0.0
 11
1597.809024700764
 21
4203.739733797258
 31
0.0
  0
LINE
  5
8450
330
83FA
100
AcDbEntity
  8
3
 62
     0
370
    -2
100
AcDbLine
 10
509.8090247007649
 20
4183.739733797258
 30
0.0
 11
1557.809024700764
 21
4183.739733797258
 31
0.0
  0
INSERT
  5
8451
330
83FA
100
AcDbEntity
  8
3
 62
     0
370
    -2
100
AcDbBlockReference
  2
_OPEN
 10
469.8090247007648
 20
4183.739733797258
 30
0.0
 41
40.0
 42
40.0
 43
40.0
 50
180.0
  0
INSERT
  5
8452
330
83FA
100
AcDbEntity
  8
3
 62
     0
370
    -2
100
AcDbBlockReference
  2
_OPEN
 10
1597.809024700764
 20
4183.739733797258
 30
0.0
 41
40.0
 42
40.0
 43
40.0
  0
MTEXT
  5
8453
330
83FA
100
AcDbEntity
  8
3
 62
     0
100
AcDbMText
 10
1033.809024700764
 20
4233.739733797258
 30
0.0
 40
60.0
 41
0.0
 71
     5
 72
     1
  1
\A1;1128
 73
     1
 44
1.0
1001
ACAD
1000
MTEXTBEGIN
1070
    73
1070
     1
1070
    44
1040
1.0
1070
    74
1070
     0
1000
MTEXTEND
  0
POINT
  5
8454
330
83FA
100
AcDbEntity
  8
DEFPOINTS
 62
     0
100
AcDbPoint
 10
469.8090247007648
 20
4063.713410176738
 30
0.0
  0
POINT
  5
8455
330
83FA
100
AcDbEntity
  8
DEFPOINTS
 62
     0
100
AcDbPoint
 10
1597.809024700764
 20
4063.713410176741
 30
0.0
  0
POINT
  5
8456
330
83FA
100
AcDbEntity
  8
DEFPOINTS
 62
     0
100
AcDbPoint
 10
1597.809024700764
 20
4183.739733797258
 30
0.0
  0
ENDBLK
  5
83FC
330
83FA
100
AcDbEntity
  8
0
100
AcDbBlockEnd
  0
BLOCK
  5
8407
330
8406
100
AcDbEntity
  8
0
100
AcDbBlockBegin
  2
*D30
 70
     1
 10
0.0
 20
0.0
 30
0.0
  3
*D30
  1

  0
LINE
  5
8457
330
8406
100
AcDbEntity
  8
3
 62
     0
370
    -2
100
AcDbLine
 10
459.8090247007649
 20
4063.713410176738
 30
0.0
 11
305.0139408357975
 21
4063.713410176738
 31
0.0
  0
LINE
  5
8458
330
8406
100
AcDbEntity
  8
3
 62
     0
370
    -2
100
AcDbLine
 10
459.8090247007576
 20
3178.713410176739
 30
0.0
 11
305.0139408357972
 21
3178.713410176739
 31
0.0
  0
LINE
  5
8459
330
8406
100
AcDbEntity
  8
3
 62
     0
370
    -2
100
AcDbLine
 10
325.0139408357975
 20
4023.713410176738
 30
0.0
 11
325.0139408357973
 21
3218.713410176739
 31
0.0
  0
INSERT
  5
845A
330
8406
100
AcDbEntity
  8
3
 62
     0
370
    -2
100
AcDbBlockReference
  2
_OPEN
 10
325.0139408357975
 20
4063.713410176738
 30
0.0
 41
40.0
 42
40.0
 43
40.0
 50
90.0
  0
INSERT
  5
845B
330
8406
100
AcDbEntity
  8
3
 62
     0
370
    -2
100
AcDbBlockReference
  2
_OPEN
 10
325.0139408357973
 20
3178.713410176739
 30
0.0
 41
40.0
 42
40.0
 43
40.0
 50
270.0
  0
MTEXT
  5
845C
330
8406
100
AcDbEntity
  8
3
 62
     0
100
AcDbMText
 10
275.0139408357968
 20
3621.213410176739
 30
0.0
 40
60.0
 41
0.0
 71
     5
 72
     1
  1
\A1;885
 11
0.0000000000000001
 21
1.0
 31
0.0
 73
     1
 44
1.0
1001
ACAD
1000
MTEXTBEGIN
1070
    73
1070
     1
1070
    44
1040
1.0
1070
    74
1070
     0
1000
MTEXTEND
  0
POINT
  5
845D
330
8406
100
AcDbEntity
  8
DEFPOINTS
 62
     0
100
AcDbPoint
 10
469.8090247007648
 20
4063.713410176738
 30
0.0
  0
POINT
  5
845E
330
8406
100
AcDbEntity
  8
DEFPOINTS
 62
     0
100
AcDbPoint
 10
469.8090247007576
 20
3178.713410176739
 30
0.0
  0
POINT
  5
845F
330
8406
100
AcDbEntity
  8
DEFPOINTS
 62
     0
100
AcDbPoint
 10
325.0139408357973
 20
3178.713410176739
 30
0.0
  0
ENDBLK
  5
8408
330
8406
100
AcDbEntity
  8
0
100
AcDbBlockEnd
  0
ENDSEC
  0
SECTION
  2
ENTITIES
  0
LINE
  5
7B33
330
19
100
AcDbEntity
  8
1
100
AcDbLine
 10
2757.330537805765
 20
2123.599298936083
 30
0.0
 11
2962.330537805766
 21
2123.599298936083
 31
0.0
  0
LINE
  5
7B34
330
19
100
AcDbEntity
  8
1
100
AcDbLine
 10
2756.830537805765
 20
1738.599298936091
 30
0.0
 11
3381.830537805765
 21
1738.599298936092
 31
0.0
  0
LINE
  5
7B35
330
19
100
AcDbEntity
  8
1
100
AcDbLine
 10
2756.830537805764
 20
1663.599298936091
 30
0.0
 11
3381.830537805765
 21
1663.599298936092
 31
0.0
  0
LINE
  5
7B36
330
19
100
AcDbEntity
  8
1
100
AcDbLine
 10
2757.330537805765
 20
2120.399298936082
 30
0.0
 11
2962.330537805766
 21
2120.399298936085
 31
0.0
  0
LINE
  5
7B37
330
19
100
AcDbEntity
  8
2
100
AcDbLine
 10
2581.252396568955
 20
2183.599298936083
 30
0.0
 11
3395.706797645881
 21
2183.599298936083
 31
0.0
1001
ACAD
1000
ASC_BOUNDS
1002
{
1070
    19
1002
}
  0
LINE
  5
7B38
330
19
100
AcDbEntity
  8
1
100
AcDbLine
 10
2791.830537805765
 20
1663.599298936091
 30
0.0
 11
3381.830537805765
 21
1663.599298936092
 31
0.0
  0
CIRCLE
  5
7B39
330
19
100
AcDbEntity
  8
1
100
AcDbCircle
 10
1283.809024700755
 20
2183.599298936081
 30
0.0
 40
139.7
  0
ARC
  5
7B3A
330
19
100
AcDbEntity
  8
1
100
AcDbCircle
 10
1314.809024700754
 20
2152.599298936081
 30
0.0
 40
331.1837981443563
100
AcDbArc
 50
5.042451069170437
 51
86.4511704959227
  0
LINE
  5
7B3B
330
19
100
AcDbEntity
  8
1
100
AcDbLine
 10
745.8090247007576
 20
2543.599298936085
 30
0.0
 11
774.8090247007549
 21
2183.599298936085
 31
0.0
  0
LINE
  5
7B3C
330
19
100
AcDbEntity
  8
1
100
AcDbLine
 10
2665.530537805764
 20
2323.299298936083
 30
0.0
 11
2665.530537805766
 21
2043.899298936082
 31
0.0
  0
LINE
  5
7B3D
330
19
100
AcDbEntity
  8
1
100
AcDbLine
 10
2705.530537805764
 20
2323.299298936083
 30
0.0
 11
2705.530537805766
 21
2043.899298936082
 31
0.0
  0
LINE
  5
7B3E
330
19
100
AcDbEntity
  8
1
100
AcDbLine
 10
2618.590299456254
 20
2403.599298936083
 30
0.0
 11
2618.590299456255
 21
1738.59929893609
 31
0.0
  0
LINE
  5
7B3F
330
19
100
AcDbEntity
  8
2
100
AcDbLine
 10
1701.123224600693
 20
2183.599298936078
 30
0.0
 11
751.1742264284075
 21
2183.599298936085
 31
0.0
  0
ARC
  5
7B40
330
19
100
AcDbEntity
  8
1
100
AcDbCircle
 10
1246.809024700756
 20
2220.599298936081
 30
0.0
 40
473.4479908078608
100
AcDbArc
 50
184.4822403704245
 51
269.9999999999995
  0
LINE
  5
7B41
330
19
100
AcDbEntity
  8
1
100
AcDbLine
 10
1593.809024700753
 20
1728.599298936079
 30
0.0
 11
473.809024700753
 21
1728.599298936088
 31
0.0
  0
LINE
  5
7B42
330
19
100
AcDbEntity
  8
1
100
AcDbLine
 10
1593.809024700752
 20
1663.599298936079
 30
0.0
 11
473.8090247007521
 21
1663.599298936088
 31
0.0
  0
CIRCLE
  5
7B43
330
19
100
AcDbEntity
  8
1
100
AcDbCircle
 10
633.8090247007539
 20
1851.599298936086
 30
0.0
 40
57.14999999999999
  0
LINE
  5
7B44
330
19
100
AcDbEntity
  8
1
100
AcDbLine
 10
633.8090247007531
 20
1782.615198936086
 30
0.0
 11
633.8090247007548
 21
1960.060398936087
 31
0.0
  0
LINE
  5
7B45
330
19
100
AcDbEntity
  8
1
100
AcDbLine
 10
510.0931301759392
 20
1728.599298936087
 30
0.0
 11
757.524919225565
 21
1728.599298936085
 31
0.0
  0
LINE
  5
7B46
330
19
100
AcDbEntity
  8
1
100
AcDbLine
 10
473.8090247007521
 20
1663.599298936088
 30
0.0
 11
473.809024700753
 21
1728.599298936088
 31
0.0
  0
ARC
  5
7B47
330
19
100
AcDbEntity
  8
1
100
AcDbCircle
 10
1246.809024700754
 20
2146.599298936081
 30
0.0
 40
399.4479908078606
100
AcDbArc
 50
269.9999999999995
 51
5.042451069170437
  0
LINE
  5
7B48
330
19
100
AcDbEntity
  8
2
100
AcDbLine
 10
1283.809024700757
 20
2570.697355126677
 30
0.0
 11
1283.809024700749
 21
1503.599298936081
 31
0.0
  0
LINE
  5
7B49
330
19
100
AcDbEntity
  8
1
100
AcDbLine
 10
1593.809024700752
 20
1663.599298936079
 30
0.0
 11
1593.809024700753
 21
1728.599298936079
 31
0.0
  0
LINE
  5
7B4A
330
19
100
AcDbEntity
  8
1
100
AcDbLine
 10
2665.530537805766
 20
2043.899298936082
 30
0.0
 11
2665.530537805766
 21
1792.449298936085
 31
0.0
  0
LINE
  5
7B4B
330
19
100
AcDbEntity
  8
1
100
AcDbLine
 10
2705.530537805766
 20
2043.899298936082
 30
0.0
 11
2705.530537805766
 21
1792.449298936085
 31
0.0
  0
LINE
  5
7B4C
330
19
100
AcDbEntity
  8
1
100
AcDbLine
 10
2757.330537805765
 20
2123.599298936083
 30
0.0
 11
2757.330537805767
 21
1738.599298936092
 31
0.0
  0
LINE
  5
7B4D
330
19
100
AcDbEntity
  8
1
100
AcDbLine
 10
2760.530537805765
 20
2120.399298936082
 30
0.0
 11
2760.530537805766
 21
1738.599298936091
 31
0.0
  0
LINE
  5
7B4E
330
19
100
AcDbEntity
  8
1
100
AcDbLine
 10
2665.530537805767
 20
1792.449298936085
 30
0.0
 11
2705.530537805766
 21
1792.449298936085
 31
0.0
  0
LINE
  5
7B4F
330
19
100
AcDbEntity
  8
1
100
AcDbLine
 10
2618.590299456255
 20
1738.59929893609
 30
0.0
 11
2740.590299456255
 21
1738.59929893609
 31
0.0
  0
LINE
  5
7B50
330
19
100
AcDbEntity
  8
1
100
AcDbLine
 10
2740.590299456255
 20
1758.599298936091
 30
0.0
 11
2740.590299456255
 21
1738.59929893609
 31
0.0
  0
LINE
  5
7B51
330
19
100
AcDbEntity
  8
1
100
AcDbLine
 10
2665.530537805766
 20
2043.899298936082
 30
0.0
 11
2705.530537805766
 21
2043.899298936082
 31
0.0
1001
ACAD
1000
ASC_BOUNDS
1002
{
1070
    19
1002
}
  0
LINE
  5
7B52
330
19
100
AcDbEntity
  8
1
100
AcDbLine
 10
2665.530537805767
 20
1906.749298936085
 30
0.0
 11
2705.530537805767
 21
1906.749298936085
 31
0.0
  0
LINE
  5
7B53
330
19
100
AcDbEntity
  8
1
100
AcDbLine
 10
2705.530537805765
 20
2202.599298936083
 30
0.0
 11
2735.530537805765
 21
2202.599298936082
 31
0.0
1001
ACAD
1000
ASC_BOUNDS
1002
{
1070
    19
1002
}
  0
LINE
  5
7B54
330
19
100
AcDbEntity
  8
1
100
AcDbLine
 10
2705.530537805766
 20
2164.599298936083
 30
0.0
 11
2735.530537805765
 21
2164.599298936083
 31
0.0
1001
ACAD
1000
ASC_BOUNDS
1002
{
1070
    19
1002
}
  0
LINE
  5
7B55
330
19
100
AcDbEntity
  8
1
100
AcDbLine
 10
2735.530537805765
 20
2206.099298936083
 30
0.0
 11
2735.530537805766
 21
2161.099298936083
 31
0.0
  0
LINE
  5
7B5A
330
19
100
AcDbEntity
  8
1
100
AcDbLine
 10
714.2038417374561
 20
2540.599298936086
 30
0.0
 11
1289.409024700758
 21
2540.599298936081
 31
0.0
  0
LINE
  5
7B5B
330
19
100
AcDbEntity
  8
1
100
AcDbLine
 10
745.8090247007576
 20
2543.599298936085
 30
0.0
 11
1257.809024700758
 21
2543.599298936082
 31
0.0
  0
LINE
  5
7B5C
330
19
100
AcDbEntity
  8
1
100
AcDbLine
 10
1267.809024700757
 20
2543.599298936082
 30
0.0
 11
735.7766311801124
 21
2543.599298936085
 31
0.0
  0
LINE
  5
7B5D
330
19
100
AcDbEntity
  8
1
100
AcDbLine
 10
714.2038417374542
 20
2513.599298936086
 30
0.0
 11
1289.409024700758
 21
2513.599298936081
 31
0.0
  0
LINE
  5
7B5E
330
19
100
AcDbEntity
  8
1
100
AcDbLine
 10
1289.409024700758
 20
2543.599298936082
 30
0.0
 11
714.2038417374542
 21
2543.599298936086
 31
0.0
  0
POINT
  5
7B61
330
19
100
AcDbEntity
  8
1
100
AcDbPoint
 10
744.2038417374542
 20
2543.599298936085
 30
0.0
  0
POINT
  5
7B62
330
19
100
AcDbEntity
  8
1
100
AcDbPoint
 10
745.8090247007576
 20
2543.599298936085
 30
0.0
  0
POINT
  5
7B63
330
19
100
AcDbEntity
  8
1
100
AcDbPoint
 10
745.8090247007576
 20
2543.599298936085
 30
0.0
  0
POINT
  5
7B64
330
19
100
AcDbEntity
  8
1
100
AcDbPoint
 10
745.8090247007576
 20
2543.599298936085
 30
0.0
  0
LINE
  5
7B65
330
19
100
AcDbEntity
  8
1
100
AcDbLine
 10
714.2038417374542
 20
2543.599298936086
 30
0.0
 11
714.2038417374542
 21
2513.599298936086
 31
0.0
  0
ARC
  5
7B69
330
19
100
AcDbEntity
  8
1
100
AcDbCircle
 10
1314.809024700754
 20
2214.599298936079
 30
0.0
 40
269.1837981443569
100
AcDbArc
 50
93.08781993650359
 51
102.2249984889334
  0
LINE
  5
7B6A
330
19
100
AcDbEntity
  8
1
100
AcDbLine
 10
1257.809024700757
 20
2477.67897732919
 30
0.0
 11
1257.809024700758
 21
2543.599298936082
 31
0.0
  0
POINT
  5
7B6B
330
19
100
AcDbEntity
  8
1
100
AcDbPoint
 10
1257.809024700758
 20
2543.599298936082
 30
0.0
  0
LINE
  5
7B6C
330
19
100
AcDbEntity
  8
1
100
AcDbLine
 10
1289.409024700758
 20
2513.599298936081
 30
0.0
 11
1289.409024700758
 21
2543.599298936082
 31
0.0
  0
LINE
  5
7B6D
330
19
100
AcDbEntity
  8
1
100
AcDbLine
 10
2740.590299456254
 20
2403.599298936083
 30
0.0
 11
2618.590299456254
 21
2403.599298936083
 31
0.0
  0
LINE
  5
7B6E
330
19
100
AcDbEntity
  8
1
100
AcDbLine
 10
2618.590299456254
 20
2403.599298936082
 30
0.0
 11
2740.590299456254
 21
2403.599298936082
 31
0.0
  0
LINE
  5
7B6F
330
19
100
AcDbEntity
  8
1
100
AcDbLine
 10
2665.530537805764
 20
2323.299298936083
 30
0.0
 11
2705.530537805764
 21
2323.299298936083
 31
0.0
1001
ACAD
1000
ASC_BOUNDS
1002
{
1070
    19
1002
}
  0
LINE
  5
7B70
330
19
100
AcDbEntity
  8
1
100
AcDbLine
 10
2740.590299456254
 20
2383.599298936083
 30
0.0
 11
2740.590299456254
 21
2403.599298936083
 31
0.0
  0
LINE
  5
7B71
330
19
100
AcDbEntity
  8
1
100
AcDbLine
 10
2964.330537805764
 20
2513.145516482221
 30
0.0
 11
2964.330537805766
 21
2183.599298936083
 31
0.0
  0
LINE
  5
7B72
330
19
100
AcDbEntity
  8
1
100
AcDbLine
 10
3339.330537805765
 20
2513.145516482221
 30
0.0
 11
3339.330537805766
 21
2183.599298936083
 31
0.0
  0
LINE
  5
7B73
330
19
100
AcDbEntity
  8
1
100
AcDbLine
 10
3343.630537805765
 20
2177.599298936083
 30
0.0
 11
3343.630537805765
 21
2433.599298936084
 31
0.0
  0
LINE
  5
7B74
330
19
100
AcDbEntity
  8
1
100
AcDbLine
 10
3373.630537805766
 20
1968.299298936083
 30
0.0
 11
3373.630537805766
 21
2433.599298936084
 31
0.0
  0
LINE
  5
7B76
330
19
100
AcDbEntity
  8
1
100
AcDbLine
 10
2964.330537805766
 20
2183.599298936083
 30
0.0
 11
2964.330537805767
 21
1738.599298936092
 31
0.0
  0
LINE
  5
7B77
330
19
100
AcDbEntity
  8
1
100
AcDbLine
 10
2860.830537805766
 20
2206.099298936083
 30
0.0
 11
2962.330537805766
 21
2206.099298936083
 31
0.0
1001
ACAD
1000
ASC_BOUNDS
1002
{
1070
    19
1002
}
  0
LINE
  5
7B78
330
19
100
AcDbEntity
  8
1
100
AcDbLine
 10
2735.530537805766
 20
2161.099298936083
 30
0.0
 11
2962.330537805766
 21
2161.099298936083
 31
0.0
1001
ACAD
1000
ASC_BOUNDS
1002
{
1070
    19
1002
}
  0
LINE
  5
7B79
330
19
100
AcDbEntity
  8
1
100
AcDbLine
 10
2864.958955167663
 20
2161.099298936083
 30
0.0
 11
2900.823645586267
 21
2161.099298936083
 31
0.0
1001
ACAD
1000
ASC_BOUNDS
1002
{
1070
    19
1002
}
  0
LINE
  5
7B7A
330
19
100
AcDbEntity
  8
1
100
AcDbLine
 10
2735.530537805765
 20
2206.099298936083
 30
0.0
 11
2900.823645586267
 21
2206.099298936083
 31
0.0
1001
ACAD
1000
ASC_BOUNDS
1002
{
1070
    19
1002
}
  0
LINE
  5
7B7B
330
19
100
AcDbEntity
  8
1
100
AcDbLine
 10
3343.630537805765
 20
1933.599298936083
 30
0.0
 11
3343.630537805765
 21
2177.599298936083
 31
0.0
  0
LINE
  5
7B7C
330
19
100
AcDbEntity
  8
1
100
AcDbLine
 10
3339.330537805766
 20
2183.599298936083
 30
0.0
 11
3339.330537805765
 21
1738.599298936092
 31
0.0
  0
LINE
  5
7B7D
330
19
100
AcDbEntity
  8
1
100
AcDbLine
 10
3381.830537805765
 20
1738.599298936092
 30
0.0
 11
3381.830537805765
 21
1663.599298936092
 31
0.0
  0
LINE
  5
7B7E
330
19
100
AcDbEntity
  8
1
100
AcDbLine
 10
3343.630537805765
 20
1903.599298936083
 30
0.0
 11
3339.330537805765
 21
1903.599298936083
 31
0.0
  0
LINE
  5
7B7F
330
19
100
AcDbEntity
  8
1
100
AcDbLine
 10
3343.630537805765
 20
1903.599298936083
 30
0.0
 11
3343.630537805765
 21
1933.599298936083
 31
0.0
  0
LINE
  5
7B80
330
19
100
AcDbEntity
  8
1
100
AcDbLine
 10
3343.630537805765
 20
2463.599298936083
 30
0.0
 11
3343.630537805765
 21
2433.599298936084
 31
0.0
  0
LINE
  5
7B81
330
19
100
AcDbEntity
  8
1
100
AcDbLine
 10
3343.630537805765
 20
2433.599298936084
 30
0.0
 11
3373.630537805766
 21
2433.599298936084
 31
0.0
  0
LINE
  5
7B82
330
19
100
AcDbEntity
  8
1
100
AcDbLine
 10
3343.630537805765
 20
2463.599298936083
 30
0.0
 11
3339.330537805765
 21
2463.599298936083
 31
0.0
  0
POINT
  5
7B83
330
19
100
AcDbEntity
  8
1
100
AcDbPoint
 10
3343.630537805765
 20
2458.599298936084
 30
0.0
  0
LINE
  5
7B84
330
19
100
AcDbEntity
  8
1
100
AcDbLine
 10
2964.330537805767
 20
1821.151308128229
 30
0.0
 11
3339.330537805764
 21
1821.15130812823
 31
0.0
  0
LINE
  5
7B85
330
19
100
AcDbEntity
  8
1
100
AcDbLine
 10
633.8090247007531
 20
1749.099298936086
 30
0.0
 11
633.8090247007548
 21
1926.659770243487
 31
0.0
  0
LINE
  5
7B86
330
19
100
AcDbEntity
  8
1
100
AcDbLine
 10
1224.172131585277
 20
2309.930336213281
 30
0.0
 11
604.9832055994766
 21
1900.184709955715
 31
0.0
  0
LINE
  5
7B87
330
19
100
AcDbEntity
  8
1
100
AcDbLine
 10
1283.809024700756
 20
2447.18211009213
 30
0.0
 11
533.8090247007531
 21
1931.428706083865
 31
0.0
  0
LINE
  5
7B88
330
19
100
AcDbEntity
  8
1
100
AcDbLine
 10
1312.510139026381
 20
2046.879380721992
 30
0.0
 11
657.3231722304345
 21
1799.510841808308
 31
0.0
  0
LINE
  5
7B89
330
19
100
AcDbEntity
  8
1
100
AcDbLine
 10
2931.830537805766
 20
2510.845516482221
 30
0.0
 11
3371.830537805767
 21
2510.845516482221
 31
0.0
1001
ACAD
1000
ASC_BOUNDS
1002
{
1070
    19
1002
}
  0
LINE
  5
7B8A
330
19
100
AcDbEntity
  8
1
100
AcDbLine
 10
2931.830537805766
 20
2542.845516482221
 30
0.0
 11
3371.830537805766
 21
2542.845516482221
 31
0.0
1001
ACAD
1000
ASC_BOUNDS
1002
{
1070
    19
1002
}
  0
LINE
  5
7B8B
330
19
100
AcDbEntity
  8
1
100
AcDbLine
 10
2931.830537805766
 20
2542.845516482221
 30
0.0
 11
2931.830537805766
 21
2510.845516482221
 31
0.0
  0
LINE
  5
7B8C
330
19
100
AcDbEntity
  8
1
100
AcDbLine
 10
3371.830537805766
 20
2542.845516482221
 30
0.0
 11
3371.830537805766
 21
2510.84551648222
 31
0.0
  0
LINE
  5
7B8D
330
19
100
AcDbEntity
  8
2
100
AcDbLine
 10
3151.830537805766
 20
2627.096673032211
 30
0.0
 11
3151.830537805765
 21
1453.599298936091
 31
0.0
  0
LINE
  5
7B8E
330
19
100
AcDbEntity
  8
1
100
AcDbLine
 10
1597.809024700751
 20
1503.599298936079
 30
0.0
 11
469.8090247007512
 21
1503.599298936088
 31
0.0
  0
LINE
  5
7B8F
330
19
100
AcDbEntity
  8
1
100
AcDbLine
 10
1593.809024700752
 20
1568.599298936079
 30
0.0
 11
473.8090247007521
 21
1568.599298936088
 31
0.0
  0
LINE
  5
7B90
330
19
100
AcDbEntity
  8
1
100
AcDbLine
 10
1593.809024700751
 20
1503.599298936079
 30
0.0
 11
1593.809024700752
 21
1568.599298936079
 31
0.0
  0
LINE
  5
7B91
330
19
100
AcDbEntity
  8
1
100
AcDbLine
 10
473.8090247007512
 20
1503.599298936088
 30
0.0
 11
473.8090247007521
 21
1568.599298936088
 31
0.0
  0
LINE
  5
7B92
330
19
100
AcDbEntity
  8
1
100
AcDbLine
 10
1051.809024700754
 20
2132.099298936083
 30
0.0
 11
1051.809024700751
 21
1728.599298936083
 31
0.0
  0
LINE
  5
7B93
330
19
100
AcDbEntity
  8
1
100
AcDbLine
 10
1515.809024700754
 20
2132.099298936079
 30
0.0
 11
1515.809024700751
 21
1728.599298936079
 31
0.0
  0
LINE
  5
7B94
330
19
100
AcDbEntity
  8
1
100
AcDbLine
 10
1603.809024700754
 20
2132.099298936078
 30
0.0
 11
963.8090247007539
 21
2132.099298936084
 31
0.0
  0
LINE
  5
7B95
330
19
100
AcDbEntity
  8
1
100
AcDbLine
 10
963.8090247007548
 20
2167.099298936083
 30
0.0
 11
963.8090247007539
 21
2132.099298936084
 31
0.0
  0
LINE
  5
7B96
330
19
100
AcDbEntity
  8
1
100
AcDbLine
 10
1603.809024700755
 20
2167.099298936078
 30
0.0
 11
1603.809024700754
 21
2132.099298936078
 31
0.0
  0
LINE
  5
7B97
330
19
100
AcDbEntity
  8
1
100
AcDbLine
 10
1603.809024700754
 20
2167.099298936078
 30
0.0
 11
963.8090247007548
 21
2167.099298936083
 31
0.0
  0
LINE
  5
7B98
330
19
100
AcDbEntity
  8
1
100
AcDbLine
 10
1475.809024700754
 20
2132.09929893608
 30
0.0
 11
1475.809024700751
 21
1728.59929893608
 31
0.0
  0
LINE
  5
7B99
330
19
100
AcDbEntity
  8
1
100
AcDbLine
 10
1091.809024700754
 20
2132.099298936083
 30
0.0
 11
1091.809024700751
 21
1728.599298936083
 31
0.0
  0
LINE
  5
7B9A
330
19
100
AcDbEntity
  8
1
100
AcDbLine
 10
1523.809024700756
 20
2308.125332163859
 30
0.0
 11
1523.809024700751
 21
1728.599298936079
 31
0.0
  0
LINE
  5
7B9B
330
19
100
AcDbEntity
  8
1
100
AcDbLine
 10
1283.809024700756
 20
2447.18211009213
 30
0.0
 11
1523.809024700756
 21
2308.125332163859
 31
0.0
  0
LINE
  5
7B9C
330
19
100
AcDbEntity
  8
1
100
AcDbLine
 10
3381.330537805766
 20
1960.599298936083
 30
0.0
 11
3381.330537805764
 21
1738.599298936092
 31
0.0
  0
LINE
  5
7B9D
330
19
100
AcDbEntity
  8
1
100
AcDbLine
 10
3339.330537805765
 20
1968.599298936083
 30
0.0
 11
3373.330537805766
 21
1968.599298936083
 31
0.0
  0
LINE
  5
7B9E
330
19
100
AcDbEntity
  8
1
100
AcDbLine
 10
3373.330537805766
 20
1968.599298936083
 30
0.0
 11
3381.330537805766
 21
1960.599298936083
 31
0.0
  0
LINE
  5
7B9F
330
19
100
AcDbEntity
  8
1
100
AcDbLine
 10
2756.830537805765
 20
1738.599298936091
 30
0.0
 11
2756.830537805764
 21
1663.599298936091
 31
0.0
  0
LINE
  5
7BA0
330
19
100
AcDbEntity
  8
1
100
AcDbLine
 10
2566.830537805765
 20
1493.599298936091
 30
0.0
 11
3451.830537805765
 21
1493.599298936091
 31
0.0
  0
LINE
  5
7BA1
330
19
100
AcDbEntity
  8
1
100
AcDbLine
 10
2756.830537805765
 20
1568.599298936091
 30
0.0
 11
2756.830537805765
 21
1493.59929893609
 31
0.0
  0
LINE
  5
7BA2
330
19
100
AcDbEntity
  8
1
100
AcDbLine
 10
2756.830537805765
 20
1568.599298936091
 30
0.0
 11
3381.830537805766
 21
1568.599298936091
 31
0.0
  0
LINE
  5
7BA3
330
19
100
AcDbEntity
  8
1
100
AcDbLine
 10
3381.830537805766
 20
1568.599298936091
 30
0.0
 11
3381.830537805766
 21
1493.599298936091
 31
0.0
  0
ARC
  5
7BA4
330
19
100
AcDbEntity
  8
1
100
AcDbCircle
 10
633.8090247007539
 20
1851.599298936086
 30
0.0
 40
100.8
100
AcDbArc
 50
180.0
 51
239.6067
  0
ARC
  5
7BA5
330
19
100
AcDbEntity
  8
1
100
AcDbCircle
 10
633.8090247007539
 20
1851.599298936086
 30
0.0
 40
100.8
100
AcDbArc
 50
300.3007
 51
180.0
  0
LINE
  5
7BA6
330
19
100
AcDbEntity
  8
1
100
AcDbLine
 10
568.8090247007539
 20
1771.599298936086
 30
0.0
 11
568.8090247007539
 21
1761.599298936086
 31
0.0
  0
LINE
  5
7BA7
330
19
100
AcDbEntity
  8
1
100
AcDbLine
 10
558.8090247007539
 20
1771.599298936086
 30
0.0
 11
558.8090247007539
 21
1761.599298936086
 31
0.0
  0
LINE
  5
7BA8
330
19
100
AcDbEntity
  8
1
100
AcDbLine
 10
563.8090247007539
 20
1757.232798936086
 30
0.0
 11
563.8090247007539
 21
1774.136198936087
 31
0.0
  0
LINE
  5
7BA9
330
19
100
AcDbEntity
  8
1
100
AcDbLine
 10
545.809024700754
 20
1761.599298936086
 30
0.0
 11
545.809024700754
 21
1769.599298936087
 31
0.0
  0
LINE
  5
7BAA
330
19
100
AcDbEntity
  8
1
100
AcDbLine
 10
698.809024700754
 20
1771.599298936086
 30
0.0
 11
698.809024700754
 21
1761.599298936086
 31
0.0
  0
LINE
  5
7BAB
330
19
100
AcDbEntity
  8
1
100
AcDbLine
 10
708.8090247007539
 20
1771.599298936086
 30
0.0
 11
708.8090247007539
 21
1761.599298936086
 31
0.0
  0
LINE
  5
7BAC
330
19
100
AcDbEntity
  8
1
100
AcDbLine
 10
703.809024700754
 20
1757.232798936086
 30
0.0
 11
703.809024700754
 21
1774.136198936087
 31
0.0
  0
LINE
  5
7BAD
330
19
100
AcDbEntity
  8
2
100
AcDbLine
 10
633.8090247007539
 20
1755.615198936087
 30
0.0
 11
633.8090247007539
 21
1960.060398936087
 31
0.0
  0
LINE
  5
7BAE
330
19
100
AcDbEntity
  8
1
100
AcDbLine
 10
721.8090247007539
 20
1761.599298936086
 30
0.0
 11
721.8090247007539
 21
1769.599298936087
 31
0.0
  0
ARC
  5
7BAF
330
19
100
AcDbEntity
  8
1
100
AcDbCircle
 10
633.8090247007539
 20
1851.599298936086
 30
0.0
 40
100.8
100
AcDbArc
 50
180.0
 51
239.6067
  0
LINE
  5
7BB0
330
19
100
AcDbEntity
  8
1
100
AcDbLine
 10
678.639524700754
 20
1765.599298936086
 30
0.0
 11
588.6851247007544
 21
1765.599298936086
 31
0.0
  0
LINE
  5
7BB1
330
19
100
AcDbEntity
  8
1
100
AcDbLine
 10
684.7331247007542
 20
1764.599298936087
 30
0.0
 11
582.778024700754
 21
1764.599298936087
 31
0.0
  0
LINE
  5
7BB2
330
19
100
AcDbEntity
  8
1
100
AcDbLine
 10
684.7331247007542
 20
1764.599298936087
 30
0.0
 11
582.778024700754
 21
1764.599298936087
 31
0.0
  0
LINE
  5
7BB3
330
19
100
AcDbEntity
  8
1
100
AcDbLine
 10
721.8090247007539
 20
1761.599298936086
 30
0.0
 11
681.8090247007539
 21
1761.599298936086
 31
0.0
  0
LINE
  5
7BB4
330
19
100
AcDbEntity
  8
1
100
AcDbLine
 10
681.8090247007539
 20
1764.572098936087
 30
0.0
 11
681.8090247007539
 21
1761.599298936086
 31
0.0
  0
LINE
  5
7BB5
330
19
100
AcDbEntity
  8
1
100
AcDbLine
 10
545.809024700754
 20
1761.599298936086
 30
0.0
 11
585.8090247007539
 21
1761.599298936086
 31
0.0
  0
LINE
  5
7BB6
330
19
100
AcDbEntity
  8
1
100
AcDbLine
 10
585.8090247007539
 20
1764.530298936087
 30
0.0
 11
585.8090247007539
 21
1761.599298936086
 31
0.0
  0
LINE
  5
7BB7
330
19
100
AcDbEntity
  8
2
100
AcDbLine
 10
738.2742247007536
 20
1851.599298936086
 30
0.0
 11
527.7062247007543
 21
1851.599298936086
 31
0.0
  0
LINE
  5
7BB8
330
19
100
AcDbEntity
  8
1
100
AcDbLine
 10
695.1330247007535
 20
1771.599298936086
 30
0.0
 11
719.809024700754
 21
1771.599298936086
 31
0.0
  0
LINE
  5
7BB9
330
19
100
AcDbEntity
  8
1
100
AcDbLine
 10
715.9555247007538
 20
1793.181998936086
 30
0.0
 11
721.8090247007539
 21
1769.599298936087
 31
0.0
  0
ARC
  5
7BBA
330
19
100
AcDbEntity
  8
1
100
AcDbCircle
 10
719.809024700754
 20
1769.599298936087
 30
0.0
 40
2.0
100
AcDbArc
 50
0.0
 51
90.0
  0
LINE
  5
7BBB
330
19
100
AcDbEntity
  8
1
100
AcDbLine
 10
572.5201247007535
 20
1771.599298936086
 30
0.0
 11
547.8090247007539
 21
1771.599298936086
 31
0.0
  0
LINE
  5
7BBC
330
19
100
AcDbEntity
  8
1
100
AcDbLine
 10
551.6624247007539
 20
1793.181998936086
 30
0.0
 11
545.809024700754
 21
1769.599298936087
 31
0.0
  0
ARC
  5
7BBD
330
19
100
AcDbEntity
  8
1
100
AcDbCircle
 10
547.8090247007539
 20
1769.599298936087
 30
0.0
 40
2.0
100
AcDbArc
 50
90.0
 51
180.0
  0
LINE
  5
7BBE
330
19
100
AcDbEntity
  8
1
100
AcDbLine
 10
510.0931301759401
 20
1728.599298936088
 30
0.0
 11
521.3090247007531
 21
1763.599298936088
 31
0.0
  0
LINE
  5
7BBF
330
19
100
AcDbEntity
  8
1
100
AcDbLine
 10
605.4062727842665
 20
1763.599298936087
 30
0.0
 11
605.4062727842665
 21
1757.302627301176
 31
0.0
  0
LINE
  5
7BC0
330
19
100
AcDbEntity
  8
1
100
AcDbLine
 10
662.2117766172387
 20
1757.302627301176
 30
0.0
 11
662.2117766172396
 21
1763.599298936086
 31
0.0
  0
LINE
  5
7BC1
330
19
100
AcDbEntity
  8
1
100
AcDbLine
 10
746.3090247007531
 20
1763.599298936085
 30
0.0
 11
757.524919225565
 21
1728.599298936085
 31
0.0
  0
LINE
  5
7BC2
330
19
100
AcDbEntity
  8
1
100
AcDbLine
 10
757.524919225565
 20
1728.599298936085
 30
0.0
 11
662.2117766172387
 21
1728.599298936086
 31
0.0
  0
LINE
  5
7BC3
330
19
100
AcDbEntity
  8
1
100
AcDbLine
 10
605.4062727842665
 20
1728.599298936087
 30
0.0
 11
510.0931301759401
 21
1728.599298936088
 31
0.0
  0
LINE
  5
7BC4
330
19
100
AcDbEntity
  8
1
100
AcDbLine
 10
662.2117766172387
 20
1735.739933712421
 30
0.0
 11
605.4062727842665
 21
1735.739933712421
 31
0.0
  0
LINE
  5
7BC5
330
19
100
AcDbEntity
  8
1
100
AcDbLine
 10
605.4062727842665
 20
1757.302627301176
 30
0.0
 11
662.2117766172387
 21
1757.302627301176
 31
0.0
  0
LINE
  5
7BC6
330
19
100
AcDbEntity
  8
1
100
AcDbLine
 10
662.2117766172387
 20
1728.599298936086
 30
0.0
 11
662.2117766172387
 21
1735.739933712421
 31
0.0
  0
LINE
  5
7BC7
330
19
100
AcDbEntity
  8
1
100
AcDbLine
 10
605.4062727842665
 20
1735.739933712421
 30
0.0
 11
605.4062727842665
 21
1728.599298936087
 31
0.0
  0
LINE
  5
7BC8
330
19
100
AcDbEntity
  8
1
100
AcDbLine
 10
662.2117766172396
 20
1763.599298936086
 30
0.0
 11
746.3090247007531
 21
1763.599298936085
 31
0.0
  0
LINE
  5
7BC9
330
19
100
AcDbEntity
  8
1
100
AcDbLine
 10
521.3090247007531
 20
1763.599298936088
 30
0.0
 11
605.4062727842665
 21
1763.599298936087
 31
0.0
  0
LINE
  5
7BCA
330
19
100
AcDbEntity
  8
1
100
AcDbLine
 10
533.8090247007531
 20
1931.428706083865
 30
0.0
 11
533.8090247007503
 21
1728.599298936087
 31
0.0
  0
LINE
  5
7BCB
330
19
100
AcDbEntity
  8
2
100
AcDbLine
 10
2581.252396568955
 20
1851.59929893609
 30
0.0
 11
2775.076048775758
 21
1851.59929893609
 31
0.0
  0
LINE
  5
7BD1
330
19
100
AcDbEntity
  8
1
100
AcDbLine
 10
2741.180595120523
 20
1888.099298936091
 30
0.0
 11
2741.180595120523
 21
1815.099298936091
 31
0.0
  0
LINE
  5
7BD2
330
19
100
AcDbEntity
  8
1
100
AcDbLine
 10
2751.180595120523
 20
1769.599398936091
 30
0.0
 11
2751.180595120521
 21
1933.599298936091
 31
0.0
  0
LINE
  5
7BD3
330
19
100
AcDbEntity
  8
1
100
AcDbLine
 10
2736.180595120523
 20
1863.59929893609
 30
0.0
 11
2686.180595120522
 21
1863.59929893609
 31
0.0
  0
LINE
  5
7BD4
330
19
100
AcDbEntity
  8
1
100
AcDbLine
 10
2736.180595120523
 20
1839.59929893609
 30
0.0
 11
2686.180595120522
 21
1839.59929893609
 31
0.0
  0
LINE
  5
7BD5
330
19
100
AcDbEntity
  8
1
100
AcDbLine
 10
2726.180595120523
 20
1866.599298936091
 30
0.0
 11
2686.180595120522
 21
1866.59929893609
 31
0.0
  0
LINE
  5
7BD6
330
19
100
AcDbEntity
  8
1
100
AcDbLine
 10
2686.180595120522
 20
1839.59929893609
 30
0.0
 11
2686.180595120522
 21
1866.59929893609
 31
0.0
  0
LINE
  5
7BD7
330
19
100
AcDbEntity
  8
1
100
AcDbLine
 10
2726.180595120523
 20
1863.59929893609
 30
0.0
 11
2726.180595120523
 21
1866.599298936091
 31
0.0
  0
LINE
  5
7BD8
330
19
100
AcDbEntity
  8
1
100
AcDbLine
 10
2757.330537805767
 20
1767.599298936091
 30
0.0
 11
2753.180595120523
 21
1767.599298936091
 31
0.0
  0
ARC
  5
7BD9
330
19
100
AcDbEntity
  8
1
100
AcDbCircle
 10
2753.180795120524
 20
1769.599398936091
 30
0.0
 40
2.0001
100
AcDbArc
 50
180.0035000000004
 51
269.9965000000005
  0
LINE
  5
7BDE
330
19
100
AcDbEntity
  8
1
100
AcDbLine
 10
2741.180595120523
 20
1864.099298936091
 30
0.0
 11
2736.180595120523
 21
1864.099298936091
 31
0.0
  0
LINE
  5
7BDF
330
19
100
AcDbEntity
  8
1
100
AcDbLine
 10
2741.180595120523
 20
1839.099298936091
 30
0.0
 11
2736.180595120523
 21
1839.099298936091
 31
0.0
  0
ARC
  5
7BE0
330
19
100
AcDbEntity
  8
1
100
AcDbCircle
 10
2742.180595120523
 20
1815.099398936091
 30
0.0
 40
1.000099999999999
100
AcDbArc
 50
180.0035000000004
 51
270.0000000000005
  0
ARC
  5
7BE1
330
19
100
AcDbEntity
  8
1
100
AcDbCircle
 10
2750.180595120523
 20
1813.099298936091
 30
0.0
 40
1.000099999999999
100
AcDbArc
 50
0.0035000000004913
 51
90.00000000000049
  0
LINE
  5
7BE2
330
19
100
AcDbEntity
  8
1
100
AcDbLine
 10
2742.180595120523
 20
1814.099298936091
 30
0.0
 11
2750.180595120523
 21
1814.099298936091
 31
0.0
  0
LINE
  5
7BE3
330
19
100
AcDbEntity
  8
1
100
AcDbLine
 10
2736.180595120523
 20
1839.099298936091
 30
0.0
 11
2736.180595120523
 21
1864.099298936091
 31
0.0
  0
LINE
  5
7BE4
330
19
100
AcDbEntity
  8
1
100
AcDbLine
 10
2757.330537805766
 20
1935.599298936091
 30
0.0
 11
2753.180595120522
 21
1935.599298936091
 31
0.0
  0
ARC
  5
7BE5
330
19
100
AcDbEntity
  8
1
100
AcDbCircle
 10
2753.180795120522
 20
1933.599198936091
 30
0.0
 40
2.0001
100
AcDbArc
 50
90.0035000000005
 51
179.9965000000005
  0
ARC
  5
7BE6
330
19
100
AcDbEntity
  8
1
100
AcDbCircle
 10
2742.180695120523
 20
1888.099298936091
 30
0.0
 40
1.000099999999999
100
AcDbArc
 50
90.0035000000005
 51
180.0000000000005
  0
ARC
  5
7BE7
330
19
100
AcDbEntity
  8
1
100
AcDbCircle
 10
2750.180595120522
 20
1890.099298936091
 30
0.0
 40
1.000099999999999
100
AcDbArc
 50
270.0035000000004
 51
0.0000000000004941
  0
LINE
  5
7BE8
330
19
100
AcDbEntity
  8
1
100
AcDbLine
 10
2742.180595120523
 20
1889.099298936091
 30
0.0
 11
2750.180595120522
 21
1889.099298936091
 31
0.0
  0
LINE
  5
7C13
330
19
100
AcDbEntity
  8
2
100
AcDbLine
 10
1692.859289039945
 20
3763.713410176741
 30
0.0
 11
818.6441091208017
 21
3763.71341017674
 31
0.0
  0
LINE
  5
7C1C
330
19
100
AcDbEntity
  8
2
100
AcDbLine
 10
1283.809024700763
 20
3237.930374257149
 30
0.0
 11
1283.809024700763
 21
4007.589670016855
 31
0.0
1001
ACAD
1000
ASC_BOUNDS
1002
{
1070
    19
1002
}
  0
LINE
  5
7C55
330
19
100
AcDbEntity
  8
4
100
AcDbLine
 10
3700.0
 20
1000.0
 30
0.0
 11
3700.0
 21
600.0
 31
0.0
  0
LINE
  5
7C56
330
19
100
AcDbEntity
  8
4
100
AcDbLine
 10
2300.0
 20
1000.0
 30
0.0
 11
2300.0
 21
600.0
 31
0.0
  0
LINE
  5
7C57
330
19
100
AcDbEntity
  8
4
100
AcDbLine
 10
1300.0
 20
1000.0
 30
0.0
 11
1300.0
 21
600.0
 31
0.0
  0
LINE
  5
7C5A
330
19
100
AcDbEntity
  8
4
100
AcDbLine
 10
1300.0
 20
600.0
 30
0.0
 11
3700.0
 21
600.0
 31
0.0
  0
LINE
  5
7C5B
330
19
100
AcDbEntity
  8
4
100
AcDbLine
 10
1300.0
 20
800.0
 30
0.0
 11
3700.0
 21
800.0
 31
0.0
  0
TEXT
  5
7C5C
330
19
100
AcDbEntity
  8
4
100
AcDbText
 10
1377.004161693803
 20
863.0860517332257
 30
0.0
 40
100.0
  1
機器名称
100
AcDbText
  0
TEXT
  5
7C5D
330
19
100
AcDbEntity
  8
4
100
AcDbText
 10
1372.516212049595
 20
643.2903134640219
 30
0.0
 40
100.0
  1
機器型番
100
AcDbText
  0
TEXT
  5
7C5E
330
19
100
AcDbEntity
  8
4
100
AcDbText
 10
2355.35749097533
 20
845.1435379151371
 30
0.0
 40
100.0
  1
ミツヤ厨房用ファン
100
AcDbText
  0
TEXT
  5
7C5F
330
19
100
AcDbEntity
  8
4
100
AcDbText
 10
2373.308991170961
 20
634.3191685598867
 30
0.0
 40
100.0
  1
MFK#3-1
100
AcDbText
  0
TEXT
  5
7C61
330
19
100
AcDbEntity
  8
4
100
AcDbText
 10
1632.99454860769
 20
4766.857682665031
 30
0.0
 40
108.0
  1
天吊防振ベット
100
AcDbText
  0
TEXT
  5
7C62
330
19
100
AcDbEntity
  8
4
100
AcDbText
 10
632.3351866588928
 20
5067.761952398596
 30
0.0
 40
144.0
  1
ベルト駆動式片吸込片持多翼ファン
100
AcDbText
  0
LINE
  5
7C63
330
19
100
AcDbEntity
  8
4
100
AcDbLine
 10
500.0
 20
4938.817508529609
 30
0.0
 11
3700.0
 21
4938.817508529609
 31
0.0
  0
LINE
  5
7C64
330
19
100
AcDbEntity
  8
4
100
AcDbLine
 10
500.0
 20
5338.81750852961
 30
0.0
 11
3700.0
 21
5338.81750852961
 31
0.0
  0
LINE
  5
7C65
330
19
100
AcDbEntity
  8
4
100
AcDbLine
 10
1300.0
 20
1000.0
 30
0.0
 11
3700.0
 21
1000.0
 31
0.0
  0
LINE
  5
7C66
330
19
100
AcDbEntity
  8
4
100
AcDbLine
 10
500.0
 20
5338.81750852961
 30
0.0
 11
500.0
 21
4938.817508529609
 31
0.0
  0
TEXT
  5
7C67
330
19
100
AcDbEntity
  8
4
100
AcDbText
 10
761.276884122286
 20
4764.638955092687
 30
0.0
 40
108.0
  1
右回転上向
100
AcDbText
  0
TEXT
  5
7C68
330
19
100
AcDbEntity
  8
4
100
AcDbText
 10
2937.93911849858
 20
5412.122162990618
 30
0.0
 40
112.0
  1
No.
100
AcDbText
  0
TEXT
  5
7C69
330
19
100
AcDbEntity
  8
4
100
AcDbText
 10
2622.592125200026
 20
4766.857682665031
 30
0.0
 40
108.0
  1
縮尺：1/20
100
AcDbText
  0
LINE
  5
7C6A
330
19
100
AcDbEntity
  8
4
100
AcDbLine
 10
3700.0
 20
5338.81750852961
 30
0.0
 11
3700.0
 21
4938.817508529609
 31
0.0
  0
LINE
  5
7C6B
330
19
100
AcDbEntity
  8
4
100
AcDbLine
 10
4200.0
 20
5900.0
 30
0.0
 11
4200.0
 21
5900.0
 31
0.0
  0
LINE
  5
7C6C
330
19
100
AcDbEntity
  8
4
100
AcDbLine
 10
2881.234844719729
 20
5362.527166250802
 30
0.0
 11
2881.234844719729
 21
5573.304523099505
 31
0.0
  0
LINE
  5
7C6D
330
19
100
AcDbEntity
  8
4
100
AcDbLine
 10
2881.234844719729
 20
5573.304523099505
 30
0.0
 11
3700.0
 21
5573.304523099505
 31
0.0
  0
LINE
  5
7C6E
330
19
100
AcDbEntity
  8
4
100
AcDbLine
 10
3700.0
 20
5573.304523099505
 30
0.0
 11
3700.0
 21
5362.527166250802
 31
0.0
  0
LINE
  5
7C6F
330
19
100
AcDbEntity
  8
4
100
AcDbLine
 10
3700.0
 20
5362.527166250802
 30
0.0
 11
2881.234844719729
 21
5362.527166250802
 31
0.0
  0
LINE
  5
7C70
330
19
100
AcDbEntity
  8
4
100
AcDbLine
 10
0.0
 20
0.0
 30
0.0
 11
0.0
 21
5900.0
 31
0.0
  0
LINE
  5
7C71
330
19
100
AcDbEntity
  8
4
100
AcDbLine
 10
0.0
 20
5900.0
 30
0.0
 11
4200.0
 21
5900.0
 31
0.0
  0
LINE
  5
7C72
330
19
100
AcDbEntity
  8
4
100
AcDbLine
 10
4200.0
 20
5900.0
 30
0.0
 11
4200.0
 21
0.0
 31
0.0
  0
LINE
  5
7C73
330
19
100
AcDbEntity
  8
4
100
AcDbLine
 10
4200.0
 20
0.0
 30
0.0
 11
0.0
 21
0.0
 31
0.0
  0
DIMENSION
  5
7CC8
330
19
100
AcDbEntity
  8
3
100
AcDbDimension
  2
*D1
 10
1283.809024700758
 20
2721.164317456654
 30
0.0
 11
1031.077822496437
 21
2721.164317456654
 31
0.0
 70
   160
 71
     5
 42
-1.0
  3
IGA
100
AcDbAlignedDimension
 13
745.8090247007576
 23
2543.599298936085
 33
0.0
 14
1283.809024700758
 24
2600.913498836019
 34
0.0
100
AcDbRotatedDimension
1001
ACAD
1000
DSTYLE
1002
{
1070
   287
1070
     3
1070
    40
1040
20.0
1070
   143
1040
0.039
1070
   172
1070
     1
1070
   271
1070
     0
1070
   279
1070
     0
1070
   288
1070
     1
1002
}
  0
DIMENSION
  5
7CD5
330
19
100
AcDbEntity
  8
3
100
AcDbDimension
  2
*D2
 10
1257.809024700758
 20
2602.797735104884
 30
0.0
 11
1005.423218279721
 21
2602.797735104884
 31
0.0
 70
   160
 71
     5
 42
-1.0
  3
IGA
100
AcDbAlignedDimension
 13
745.8090247007576
 23
2543.599298936085
 33
0.0
 14
1257.809024700758
 24
2543.599298936082
 34
0.0
100
AcDbRotatedDimension
1001
ACAD
1000
DSTYLE
1002
{
1070
   287
1070
     3
1070
    40
1040
20.0
1070
   143
1040
0.039
1070
   172
1070
     1
1070
   271
1070
     0
1070
   279
1070
     0
1070
   288
1070
     1
1002
}
  0
DIMENSION
  5
7CEC
330
19
100
AcDbEntity
  8
3
100
AcDbDimension
  2
*D3
 10
1821.374043221327
 20
1663.599298936079
 30
0.0
 11
1771.374043221327
 21
1923.599298936079
 31
0.0
 70
    32
 71
     5
 42
-1.0
  3
IGA
100
AcDbAlignedDimension
 13
1701.123224600693
 23
2183.599298936078
 33
0.0
 14
1593.809024700752
 24
1663.599298936079
 34
0.0
 50
270.0
100
AcDbRotatedDimension
1001
ACAD
1000
DSTYLE
1002
{
1070
   287
1070
     3
1070
    40
1040
20.0
1070
   143
1040
0.039
1070
   172
1070
     1
1070
   271
1070
     0
1070
   279
1070
     0
1070
   288
1070
     1
1002
}
  0
DIMENSION
  5
7DA4
330
19
100
AcDbEntity
  8
3
100
AcDbDimension
  2
*D5
 10
3339.330537805765
 20
2644.53908781836
 30
0.0
 11
3152.435655190933
 21
2644.53908781836
 31
0.0
 70
   160
 71
     5
 42
-1.0
  3
IGA
100
AcDbAlignedDimension
 13
2964.330537805764
 23
2510.845516482221
 33
0.0
 14
3339.330537805765
 24
2510.845516482221
 34
0.0
100
AcDbRotatedDimension
1001
ACAD
1000
DSTYLE
1002
{
1070
   287
1070
     3
1070
    40
1040
20.0
1070
   143
1040
0.039
1070
   172
1070
     1
1070
   271
1070
     0
1070
   279
1070
     0
1070
   288
1070
     1
1002
}
  0
DIMENSION
  5
7DB3
330
19
100
AcDbEntity
  8
3
100
AcDbDimension
  2
*D6
 10
3343.630537805765
 20
2762.114798567218
 30
0.0
 11
3247.730537805766
 21
2762.114798567218
 31
0.0
 70
   160
 71
     5
 42
-1.0
  3
IGA
100
AcDbAlignedDimension
 13
3151.830537805766
 23
2713.74545240054
 33
0.0
 14
3343.630537805765
 24
2463.599298936083
 34
0.0
100
AcDbRotatedDimension
1001
ACAD
1000
DSTYLE
1002
{
1070
   287
1070
     3
1070
    40
1040
20.0
1070
   143
1040
0.039
1070
   172
1070
     1
1070
   271
1070
     0
1070
   279
1070
     0
1070
   288
1070
     1
1002
}
  0
DIMENSION
  5
7DCC
330
19
100
AcDbEntity
  8
3
100
AcDbDimension
  2
*D7
 10
2618.590299456254
 20
2762.114798567218
 30
0.0
 11
2885.21041863101
 21
2827.829084281504
 31
0.0
 70
    32
  1
(560)
 71
     5
 42
533.2402383495118
  3
IGA
100
AcDbAlignedDimension
 13
3151.830537805766
 23
2713.74545240054
 33
0.0
 14
2618.590299456254
 24
2403.599298936082
 34
0.0
100
AcDbRotatedDimension
1001
ACAD
1000
DSTYLE
1002
{
1070
   287
1070
     4
1070
    40
1040
20.0
1070
    75
1070
     1
1070
   143
1040
0.039
1070
   172
1070
     1
1070
   271
1070
     0
1070
   279
1070
     1
1070
   288
1070
     1
1002
}
  0
DIMENSION
  5
7DE4
330
19
100
AcDbEntity
  8
3
100
AcDbDimension
  2
*D8
 10
3543.286756674447
 20
1933.599298936083
 30
0.0
 11
3543.286756674446
 21
2183.339885117799
 31
0.0
 70
   160
 71
     5
 42
-1.0
  3
IGA
100
AcDbAlignedDimension
 13
3371.830537805765
 23
2433.599298936083
 33
0.0
 14
3371.830537805765
 24
1933.599298936083
 34
0.0
 50
90.0
100
AcDbRotatedDimension
1001
ACAD
1000
DSTYLE
1002
{
1070
   287
1070
     3
1070
     3
1000
\U+03C6<>
1070
    40
1040
20.0
1070
   143
1040
0.039
1070
   172
1070
     1
1070
   271
1070
     0
1070
   279
1070
     0
1070
   288
1070
     1
1002
}
  0
DIMENSION
  5
7E6E
330
19
100
AcDbEntity
  8
3
100
AcDbDimension
  2
*D9
 10
1821.374043221327
 20
2543.599298936082
 30
0.0
 11
1771.374043221327
 21
2363.59929893608
 31
0.0
 70
    32
 71
     5
 42
-1.0
  3
IGA
100
AcDbAlignedDimension
 13
1701.123224600693
 23
2183.599298936078
 33
0.0
 14
1289.409024700758
 24
2543.599298936082
 34
0.0
 50
270.0
100
AcDbRotatedDimension
1001
ACAD
1000
DSTYLE
1002
{
1070
   287
1070
     4
1070
    40
1040
20.0
1070
    75
1070
     1
1070
   143
1040
0.039
1070
   172
1070
     1
1070
   271
1070
     0
1070
   279
1070
     1
1070
   288
1070
     1
1002
}
  0
DIMENSION
  5
7E7A
330
19
100
AcDbEntity
  8
3
100
AcDbDimension
  2
*D10
 10
1646.257015508615
 20
2721.164317456654
 30
0.0
 11
1465.033020104687
 21
2771.164317456654
 31
0.0
 70
    32
 71
     5
 42
-1.0
  3
IGA
100
AcDbAlignedDimension
 13
1283.809024700758
 23
2600.913498836019
 33
0.0
 14
1646.257015508615
 24
2146.599298936081
 34
0.0
100
AcDbRotatedDimension
1001
ACAD
1000
DSTYLE
1002
{
1070
   287
1070
     4
1070
    40
1040
20.0
1070
    75
1070
     1
1070
   143
1040
0.039
1070
   172
1070
     1
1070
   271
1070
     0
1070
   279
1070
     1
1070
   288
1070
     1
1002
}
  0
LINE
  5
7E7B
330
19
100
AcDbEntity
  8
1
100
AcDbLine
 10
802.9292386085616
 20
2223.242033224775
 30
0.0
 11
1042.929238608562
 21
2223.242033224775
 31
0.0
  0
LINE
  5
7E7C
330
19
100
AcDbEntity
  8
1
100
AcDbLine
 10
1042.929238608562
 20
2223.242033224775
 30
0.0
 11
1042.929238608562
 21
2423.242033224775
 31
0.0
  0
LINE
  5
7E7D
330
19
100
AcDbEntity
  8
1
100
AcDbLine
 10
1042.929238608562
 20
2423.242033224775
 30
0.0
 11
802.9292386085616
 21
2423.242033224775
 31
0.0
  0
LINE
  5
7E7E
330
19
100
AcDbEntity
  8
1
100
AcDbLine
 10
802.9292386085616
 20
2423.242033224775
 30
0.0
 11
802.9292386085616
 21
2223.242033224775
 31
0.0
  0
DIMENSION
  5
7EA3
330
19
100
AcDbEntity
  8
3
100
AcDbDimension
  2
*D11
 10
473.8090247007531
 20
2889.871433251416
 30
0.0
 11
1065.516343294282
 21
2889.871433251416
 31
0.0
 70
   160
 71
     5
 42
-1.0
  3
IGA
100
AcDbAlignedDimension
 13
1646.257015508615
 23
2146.599298936081
 33
0.0
 14
473.809024700753
 24
1728.599298936088
 34
0.0
100
AcDbRotatedDimension
1001
ACAD
1000
DSTYLE
1002
{
1070
   287
1070
     3
1070
    40
1040
20.0
1070
   143
1040
0.039
1070
   172
1070
     1
1070
   271
1070
     0
1070
   279
1070
     0
1070
   288
1070
     1
1002
}
  0
LINE
  5
7F87
330
19
100
AcDbEntity
  8
1
100
AcDbLine
 10
2566.830537805765
 20
1453.599298936091
 30
0.0
 11
3451.830537805765
 21
1453.599298936091
 31
0.0
  0
LINE
  5
7F88
330
19
100
AcDbEntity
  8
1
100
AcDbLine
 10
2566.830537805765
 20
1493.599298936091
 30
0.0
 11
2566.830537805764
 21
1453.599298936092
 31
0.0
  0
LINE
  5
7F89
330
19
100
AcDbEntity
  8
1
100
AcDbLine
 10
3451.830537805765
 20
1493.599298936091
 30
0.0
 11
3451.830537805764
 21
1453.599298936091
 31
0.0
  0
LINE
  5
7F8A
330
19
100
AcDbEntity
  8
1
100
AcDbLine
 10
1597.809024700751
 20
1503.599298936079
 30
0.0
 11
1597.809024700751
 21
1463.599298936079
 31
0.0
  0
LINE
  5
7F8B
330
19
100
AcDbEntity
  8
1
100
AcDbLine
 10
469.8090247007512
 20
1503.599298936088
 30
0.0
 11
469.8090247007512
 21
1463.599298936088
 31
0.0
  0
LINE
  5
7F8C
330
19
100
AcDbEntity
  8
1
100
AcDbLine
 10
1517.809024700751
 20
1503.599298936079
 30
0.0
 11
1517.809024700751
 21
1463.599298936079
 31
0.0
  0
LINE
  5
7F8D
330
19
100
AcDbEntity
  8
1
100
AcDbLine
 10
549.8090247007512
 20
1503.599298936088
 30
0.0
 11
549.8090247007512
 21
1463.599298936088
 31
0.0
  0
DIMENSION
  5
7F9A
330
19
100
AcDbEntity
  8
3
100
AcDbDimension
  2
*D12
 10
3151.830537805764
 20
1315.662819623625
 30
0.0
 11
2859.330537805764
 21
1365.662819623625
 31
0.0
 70
    32
 71
     5
 42
-1.0
  3
IGA
100
AcDbAlignedDimension
 13
2566.830537805765
 23
1453.599298936091
 33
0.0
 14
3151.830537805764
 24
1453.599298936091
 34
0.0
100
AcDbRotatedDimension
1001
ACAD
1000
DSTYLE
1002
{
1070
   287
1070
     3
1070
    40
1040
20.0
1070
   143
1040
0.039
1070
   172
1070
     1
1070
   271
1070
     0
1070
   279
1070
     0
1002
}
  0
DIMENSION
  5
7FA7
330
19
100
AcDbEntity
  8
3
100
AcDbDimension
  2
*D13
 10
3451.830537805764
 20
1315.662819623625
 30
0.0
 11
3301.830537805764
 21
1365.662819623625
 31
0.0
 70
    32
 71
     5
 42
-1.0
  3
IGA
100
AcDbAlignedDimension
 13
3151.830537805764
 23
1453.599298936091
 33
0.0
 14
3451.830537805764
 24
1453.599298936091
 34
0.0
100
AcDbRotatedDimension
1001
ACAD
1000
DSTYLE
1002
{
1070
   287
1070
     3
1070
    40
1040
20.0
1070
   143
1040
0.039
1070
   172
1070
     1
1070
   271
1070
     0
1070
   279
1070
     0
1002
}
  0
DIMENSION
  5
7FB4
330
19
100
AcDbEntity
  8
3
100
AcDbDimension
  2
*D14
 10
1597.809024700751
 20
1315.662819623625
 30
0.0
 11
1440.80902470075
 21
1365.662819623625
 31
0.0
 70
    32
 71
     5
 42
-1.0
  3
IGA
100
AcDbAlignedDimension
 13
1283.809024700749
 23
1503.599298936081
 33
0.0
 14
1597.809024700751
 24
1463.599298936079
 34
0.0
100
AcDbRotatedDimension
1001
ACAD
1000
DSTYLE
1002
{
1070
   287
1070
     3
1070
    40
1040
20.0
1070
   143
1040
0.039
1070
   172
1070
     1
1070
   271
1070
     0
1070
   279
1070
     0
1002
}
  0
DIMENSION
  5
7FC1
330
19
100
AcDbEntity
  8
3
100
AcDbDimension
  2
*D15
 10
469.8090247007512
 20
1315.662819623625
 30
0.0
 11
876.8090247007505
 21
1365.662819623625
 31
0.0
 70
    32
 71
     5
 42
-1.0
  3
IGA
100
AcDbAlignedDimension
 13
1283.809024700749
 23
1503.599298936081
 33
0.0
 14
469.8090247007512
 24
1463.599298936088
 34
0.0
100
AcDbRotatedDimension
1001
ACAD
1000
DSTYLE
1002
{
1070
   287
1070
     3
1070
    40
1040
20.0
1070
   143
1040
0.039
1070
   172
1070
     1
1070
   271
1070
     0
1070
   279
1070
     0
1002
}
  0
DIMENSION
  5
7FD0
330
19
100
AcDbEntity
  8
3
100
AcDbDimension
  2
*D16
 10
1822.484114997449
 20
1463.599298936079
 30
0.0
 11
1772.484114997449
 21
1292.170727507508
 31
0.0
 70
    32
 71
     5
 42
-1.0
  3
IGA
100
AcDbAlignedDimension
 13
1593.809024700752
 23
1568.599298936079
 33
0.0
 14
1597.809024700751
 24
1463.599298936079
 34
0.0
 50
90.0
100
AcDbRotatedDimension
1001
ACAD
1000
DSTYLE
1002
{
1070
   287
1070
     3
1070
    40
1040
20.0
1070
   143
1040
0.039
1070
   172
1070
     1
1070
   271
1070
     0
1070
   279
1070
     0
1070
     6
1000
DOT
1002
}
  0
DIMENSION
  5
8027
330
19
100
AcDbEntity
  8
3
100
AcDbDimension
  2
*D19
 10
1823.053913547479
 20
1663.599298936079
 30
0.0
 11
1918.768199261765
 21
1616.099298936079
 31
0.0
 70
    32
 71
     5
 42
-1.0
  3
IGA
100
AcDbAlignedDimension
 13
1593.809024700752
 23
1568.599298936079
 33
0.0
 14
1593.809024700752
 24
1663.599298936079
 34
0.0
 50
90.0
100
AcDbRotatedDimension
1001
ACAD
1000
DSTYLE
1002
{
1070
   172
1070
     1
1070
    40
1040
20.0
1070
     3
1000
(<>)
1070
   271
1070
     0
1070
     6
1000
_DOT
1070
   143
1040
0.039
1002
}
  0
DIMENSION
  5
8034
330
19
100
AcDbEntity
  8
3
100
AcDbDimension
  2
*D20
 10
2014.378681027414
 20
1463.599298936079
 30
0.0
 11
1948.664395313128
 21
2003.59929893608
 31
0.0
 70
    32
 71
     5
 42
-1.0
  3
IGA
100
AcDbAlignedDimension
 13
1299.409024700758
 23
2543.599298936082
 33
0.0
 14
1597.809024700751
 24
1463.599298936079
 34
0.0
 50
90.0
100
AcDbRotatedDimension
1001
ACAD
1000
DSTYLE
1002
{
1070
   287
1070
     3
1070
     3
1000
(<>)
1070
    40
1040
20.0
1070
   143
1040
0.039
1070
   172
1070
     1
1070
   271
1070
     0
1070
   279
1070
     0
1002
}
  0
LINE
  5
839F
330
19
100
AcDbEntity
  8
2
100
AcDbLine
 10
1692.859289039945
 20
3763.71341017674
 30
0.0
 11
818.6441091208017
 21
3763.713410176739
 31
0.0
  0
LINE
  5
83A0
330
19
100
AcDbEntity
  8
2
100
AcDbLine
 10
1283.809024700763
 20
3237.930374257148
 30
0.0
 11
1283.809024700763
 21
4007.589670016854
 31
0.0
1001
ACAD
1000
ASC_BOUNDS
1002
{
1070
    19
1002
}
  0
LINE
  5
83A1
330
19
100
AcDbEntity
  8
1
100
AcDbLine
 10
473.8090247007639
 20
3993.713410176749
 30
0.0
 11
1593.809024700764
 21
3993.713410176738
 31
0.0
  0
LINE
  5
83A2
330
19
100
AcDbEntity
  8
1
100
AcDbLine
 10
473.8090247007639
 20
3953.713410176749
 30
0.0
 11
714.2038417374542
 21
3953.713410176746
 31
0.0
  0
LINE
  5
83A3
330
19
100
AcDbEntity
  8
1
100
AcDbLine
 10
1290.203841737455
 20
3953.713410176741
 30
0.0
 11
1593.809024700764
 21
3953.713410176739
 31
0.0
  0
LINE
  5
83A4
330
19
100
AcDbEntity
  8
1
100
AcDbLine
 10
473.8090247007594
 20
3368.713410176748
 30
0.0
 11
513.0090247007601
 21
3368.713410176748
 31
0.0
  0
LINE
  5
83A5
330
19
100
AcDbEntity
  8
1
100
AcDbLine
 10
473.8090247007594
 20
3408.713410176748
 30
0.0
 11
513.0090247007601
 21
3408.713410176748
 31
0.0
  0
LINE
  5
83A6
330
19
100
AcDbEntity
  8
1
100
AcDbLine
 10
513.809024700764
 20
3953.713410176748
 30
0.0
 11
513.8090247007612
 21
3625.063467491501
 31
0.0
  0
LINE
  5
83A7
330
19
100
AcDbEntity
  8
1
100
AcDbLine
 10
473.8090247007639
 20
3953.713410176749
 30
0.0
 11
473.8090247007594
 21
3408.713410176748
 31
0.0
  0
LINE
  5
83A8
330
19
100
AcDbEntity
  8
1
100
AcDbLine
 10
473.8090247007594
 20
3368.713410176748
 30
0.0
 11
473.8090247007594
 21
3408.713410176748
 31
0.0
  0
LINE
  5
83A9
330
19
100
AcDbEntity
  8
1
100
AcDbLine
 10
473.8090247007639
 20
3953.713410176749
 30
0.0
 11
473.8090247007639
 21
3993.713410176749
 31
0.0
  0
LINE
  5
83AA
330
19
100
AcDbEntity
  8
1
100
AcDbLine
 10
1593.809024700759
 20
3368.713410176738
 30
0.0
 11
1593.809024700759
 21
3408.713410176738
 31
0.0
  0
LINE
  5
83AB
330
19
100
AcDbEntity
  8
1
100
AcDbLine
 10
1645.809024700763
 20
3951.213410176739
 30
0.0
 11
1290.203841737455
 21
3951.21341017674
 31
0.0
  0
LINE
  5
83AC
330
19
100
AcDbEntity
  8
1
100
AcDbLine
 10
1423.509024700763
 20
3317.413410176739
 30
0.0
 11
1144.109024700762
 21
3317.413410176741
 31
0.0
  0
LINE
  5
83AD
330
19
100
AcDbEntity
  8
1
100
AcDbLine
 10
1423.509024700763
 20
3277.413410176739
 30
0.0
 11
1144.109024700762
 21
3277.413410176741
 31
0.0
  0
LINE
  5
83AE
330
19
100
AcDbEntity
  8
1
100
AcDbLine
 10
1503.809024700763
 20
3230.473171827229
 30
0.0
 11
520.8090247007585
 21
3230.473171827232
 31
0.0
  0
LINE
  5
83AF
330
19
100
AcDbEntity
  8
1
100
AcDbLine
 10
1645.809024700763
 20
3576.213410176739
 30
0.0
 11
1290.203841737454
 21
3576.21341017674
 31
0.0
  0
LINE
  5
83B0
330
19
100
AcDbEntity
  8
2
100
AcDbLine
 10
633.8090247007603
 20
3629.000467491501
 30
0.0
 11
633.8090247007585
 21
3293.0288674915
 31
0.0
  0
LINE
  5
83B1
330
19
100
AcDbEntity
  8
1
100
AcDbLine
 10
621.8090247007585
 20
3348.0634674915
 30
0.0
 11
621.8090247007585
 21
3298.063467491501
 31
0.0
  0
LINE
  5
83B2
330
19
100
AcDbEntity
  8
1
100
AcDbLine
 10
645.8090247007585
 20
3348.0634674915
 30
0.0
 11
645.8090247007585
 21
3298.063467491501
 31
0.0
  0
LINE
  5
83B3
330
19
100
AcDbEntity
  8
1
100
AcDbLine
 10
633.8090247007585
 20
3251.378145476685
 30
0.0
 11
633.8090247007585
 21
3361.651049985493
 31
0.0
  0
LINE
  5
83B4
330
19
100
AcDbEntity
  8
1
100
AcDbLine
 10
1302.809024700763
 20
3317.413410176739
 30
0.0
 11
1302.809024700762
 21
3347.41341017674
 31
0.0
1001
ACAD
1000
ASC_BOUNDS
1002
{
1070
    19
1002
}
  0
LINE
  5
83B5
330
19
100
AcDbEntity
  8
1
100
AcDbLine
 10
1264.809024700763
 20
3317.41341017674
 30
0.0
 11
1264.809024700763
 21
3347.41341017674
 31
0.0
1001
ACAD
1000
ASC_BOUNDS
1002
{
1070
    19
1002
}
  0
LINE
  5
83B6
330
19
100
AcDbEntity
  8
1
100
AcDbLine
 10
520.8090247007585
 20
3230.473171827233
 30
0.0
 11
520.8090247007585
 21
3352.473171827233
 31
0.0
  0
LINE
  5
83B7
330
19
100
AcDbEntity
  8
1
100
AcDbLine
 10
621.8090247007585
 20
3298.063467491501
 30
0.0
 11
648.8090247007585
 21
3298.063467491501
 31
0.0
  0
LINE
  5
83B8
330
19
100
AcDbEntity
  8
1
100
AcDbLine
 10
1144.109024700762
 20
3277.413410176741
 30
0.0
 11
574.6590247007534
 21
3277.413410176743
 31
0.0
  0
LINE
  5
83B9
330
19
100
AcDbEntity
  8
1
100
AcDbLine
 10
1144.109024700762
 20
3317.413410176741
 30
0.0
 11
574.6590247007534
 21
3317.413410176742
 31
0.0
  0
LINE
  5
83BA
330
19
100
AcDbEntity
  8
1
100
AcDbLine
 10
574.6590247007534
 20
3277.413410176745
 30
0.0
 11
574.6590247007534
 21
3317.413410176744
 31
0.0
  0
LINE
  5
83BB
330
19
100
AcDbEntity
  8
1
100
AcDbLine
 10
688.9590247007527
 20
3277.413410176745
 30
0.0
 11
688.9590247007527
 21
3317.413410176744
 31
0.0
  0
LINE
  5
83BC
330
19
100
AcDbEntity
  8
1
100
AcDbLine
 10
648.8090247007585
 20
3338.063467491501
 30
0.0
 11
648.8090247007585
 21
3298.063467491501
 31
0.0
  0
LINE
  5
83BD
330
19
100
AcDbEntity
  8
1
100
AcDbLine
 10
645.8090247007585
 20
3338.063467491501
 30
0.0
 11
648.8090247007585
 21
3338.063467491501
 31
0.0
  0
LINE
  5
83BE
330
19
100
AcDbEntity
  8
1
100
AcDbLine
 10
1144.109024700762
 20
3277.413410176741
 30
0.0
 11
1144.109024700762
 21
3317.413410176741
 31
0.0
1001
ACAD
1000
ASC_BOUNDS
1002
{
1070
    19
1002
}
  0
LINE
  5
83BF
330
19
100
AcDbEntity
  8
1
100
AcDbLine
 10
621.3090247007585
 20
3348.0634674915
 30
0.0
 11
646.3090247007585
 21
3348.0634674915
 31
0.0
  0
LINE
  5
83C0
330
19
100
AcDbEntity
  8
1
100
AcDbLine
 10
513.0090247007601
 20
3363.063467491502
 30
0.0
 11
754.6090247007596
 21
3363.0634674915
 31
0.0
  0
LINE
  5
83C1
330
19
100
AcDbEntity
  8
1
100
AcDbLine
 10
670.3090247007585
 20
3353.0634674915
 30
0.0
 11
597.3090247007585
 21
3353.063467491501
 31
0.0
  0
LINE
  5
83C2
330
19
100
AcDbEntity
  8
1
100
AcDbLine
 10
540.8090247007585
 20
3352.473171827233
 30
0.0
 11
520.8090247007585
 21
3352.473171827233
 31
0.0
  0
LINE
  5
83C3
330
19
100
AcDbEntity
  8
1
100
AcDbLine
 10
596.3090247007585
 20
3354.063467491501
 30
0.0
 11
596.3090247007585
 21
3362.063467491501
 31
0.0
  0
ARC
  5
83C4
330
19
100
AcDbEntity
  8
1
100
AcDbCircle
 10
595.3090247007585
 20
3362.063467491501
 30
0.0
 40
1.000099999999999
100
AcDbArc
 50
0.0
 51
89.99650000001034
  0
ARC
  5
83C5
330
19
100
AcDbEntity
  8
1
100
AcDbCircle
 10
597.3091247007596
 20
3354.063467491501
 30
0.0
 40
1.000099999999999
100
AcDbArc
 50
180.0
 51
269.9965000000103
  0
LINE
  5
83C6
330
19
100
AcDbEntity
  8
1
100
AcDbLine
 10
621.3090247007585
 20
3353.063467491501
 30
0.0
 11
621.3090247007585
 21
3348.0634674915
 31
0.0
  0
LINE
  5
83C7
330
19
100
AcDbEntity
  8
1
100
AcDbLine
 10
1306.309024700763
 20
3347.41341017674
 30
0.0
 11
1306.309024700763
 21
3512.706517957242
 31
0.0
1001
ACAD
1000
ASC_BOUNDS
1002
{
1070
    19
1002
}
  0
LINE
  5
83C8
330
19
100
AcDbEntity
  8
1
100
AcDbLine
 10
1261.309024700763
 20
3347.41341017674
 30
0.0
 11
1261.309024700762
 21
3543.713410176736
 31
0.0
1001
ACAD
1000
ASC_BOUNDS
1002
{
1070
    19
1002
}
  0
LINE
  5
83C9
330
19
100
AcDbEntity
  8
1
100
AcDbLine
 10
671.3090247007585
 20
3354.0634674915
 30
0.0
 11
671.3090247007585
 21
3362.063467491501
 31
0.0
  0
ARC
  5
83CA
330
19
100
AcDbEntity
  8
1
100
AcDbCircle
 10
672.3090247007585
 20
3362.063467491501
 30
0.0
 40
1.000099999999999
100
AcDbArc
 50
90.0
 51
179.9965000000103
  0
ARC
  5
83CB
330
19
100
AcDbEntity
  8
1
100
AcDbCircle
 10
670.3090247007585
 20
3354.0635674915
 30
0.0
 40
1.000099999999999
100
AcDbArc
 50
270.0
 51
359.9964999999843
  0
LINE
  5
83CC
330
19
100
AcDbEntity
  8
1
100
AcDbLine
 10
646.3090247007585
 20
3353.063467491501
 30
0.0
 11
646.3090247007585
 21
3348.0634674915
 31
0.0
  0
LINE
  5
83CD
330
19
100
AcDbEntity
  8
1
100
AcDbLine
 10
1306.309024700763
 20
3347.41341017674
 30
0.0
 11
1261.309024700763
 21
3347.41341017674
 31
0.0
  0
LINE
  5
83CE
330
19
100
AcDbEntity
  8
1
100
AcDbLine
 10
1306.309024700763
 20
3472.713410176741
 30
0.0
 11
1306.309024700763
 21
3574.21341017674
 31
0.0
1001
ACAD
1000
ASC_BOUNDS
1002
{
1070
    19
1002
}
  0
LINE
  5
83CF
330
19
100
AcDbEntity
  8
1
100
AcDbLine
 10
1261.309024700763
 20
3476.841827538637
 30
0.0
 11
1261.309024700763
 21
3512.706517957242
 31
0.0
1001
ACAD
1000
ASC_BOUNDS
1002
{
1070
    19
1002
}
  0
LINE
  5
83D0
330
19
100
AcDbEntity
  8
1
100
AcDbLine
 10
513.009024700761
 20
3625.063467491502
 30
0.0
 11
714.2038417374542
 21
3625.063467491499
 31
0.0
  0
ARC
  5
83D1
330
19
100
AcDbEntity
  8
1
100
AcDbCircle
 10
549.7893247007614
 20
3624.063467491501
 30
0.0
 40
1.000099999999999
100
AcDbArc
 50
90.00349999998965
 51
178.8494999999924
  0
LINE
  5
83D2
330
19
100
AcDbEntity
  8
1
100
AcDbLine
 10
838.809024700772
 20
3993.71341017674
 30
0.0
 11
763.8090247007721
 21
3993.71341017674
 31
0.0
  0
LINE
  5
83D3
330
19
100
AcDbEntity
  8
1
100
AcDbLine
 10
1503.809024700763
 20
3352.473171827229
 30
0.0
 11
1503.809024700763
 21
3230.473171827229
 31
0.0
  0
LINE
  5
83D4
330
19
100
AcDbEntity
  8
1
100
AcDbLine
 10
1503.809024700762
 20
3230.473171827229
 30
0.0
 11
1503.809024700762
 21
3352.473171827229
 31
0.0
  0
LINE
  5
83D5
330
19
100
AcDbEntity
  8
1
100
AcDbLine
 10
1423.509024700763
 20
3277.413410176738
 30
0.0
 11
1423.509024700763
 21
3317.413410176739
 31
0.0
1001
ACAD
1000
ASC_BOUNDS
1002
{
1070
    19
1002
}
  0
LINE
  5
83D6
330
19
100
AcDbEntity
  8
1
100
AcDbLine
 10
1483.809024700763
 20
3352.473171827229
 30
0.0
 11
1503.809024700763
 21
3352.473171827229
 31
0.0
  0
LINE
  5
83D7
330
19
100
AcDbEntity
  8
1
100
AcDbLine
 10
1553.809024700763
 20
3951.213410176739
 30
0.0
 11
1553.809024700763
 21
3953.713410176739
 31
0.0
  0
LINE
  5
83D8
330
19
100
AcDbEntity
  8
1
100
AcDbLine
 10
1593.809024700764
 20
3951.21341017674
 30
0.0
 11
1593.809024700764
 21
3993.713410176737
 31
0.0
  0
LINE
  5
83D9
330
19
100
AcDbEntity
  8
1
100
AcDbLine
 10
754.6090247007596
 20
3363.0634674915
 30
0.0
 11
754.6090247007605
 21
3543.713410176736
 31
0.0
  0
LINE
  5
83DA
330
19
100
AcDbEntity
  8
1
100
AcDbLine
 10
513.0090247007601
 20
3363.063467491501
 30
0.0
 11
513.009024700761
 21
3625.0634674915
 31
0.0
  0
LINE
  5
83DB
330
19
100
AcDbEntity
  8
1
100
AcDbLine
 10
754.6090247007596
 20
3408.713410176746
 30
0.0
 11
1261.309024700763
 21
3408.713410176741
 31
0.0
  0
LINE
  5
83DC
330
19
100
AcDbEntity
  8
1
100
AcDbLine
 10
754.6090247007596
 20
3368.713410176745
 30
0.0
 11
1261.309024700763
 21
3368.713410176741
 31
0.0
  0
LINE
  5
83DD
330
19
100
AcDbEntity
  8
1
100
AcDbLine
 10
963.8090247007594
 20
3408.713410176743
 30
0.0
 11
963.8090247007594
 21
3543.713410176736
 31
0.0
  0
LINE
  5
83DE
330
19
100
AcDbEntity
  8
1
100
AcDbLine
 10
1603.809024700762
 20
3408.713410176741
 30
0.0
 11
1603.809024700763
 21
3576.21341017674
 31
0.0
  0
LINE
  5
83DF
330
19
100
AcDbEntity
  8
1
100
AcDbLine
 10
1306.309024700763
 20
3408.713410176741
 30
0.0
 11
1603.809024700762
 21
3408.713410176738
 31
0.0
  0
LINE
  5
83E0
330
19
100
AcDbEntity
  8
1
100
AcDbLine
 10
1306.309024700763
 20
3368.71341017674
 30
0.0
 11
1593.809024700759
 21
3368.713410176738
 31
0.0
  0
LINE
  5
83E1
330
19
100
AcDbEntity
  8
1
100
AcDbLine
 10
1645.809024700763
 20
3576.213410176738
 30
0.0
 11
1645.809024700763
 21
3951.21341017674
 31
0.0
1001
ACAD
1000
ASC_BOUNDS
1002
{
1070
    19
1002
}
  0
LINE
  5
83E2
330
19
100
AcDbEntity
  8
1
100
AcDbLine
 10
1597.809024700764
 20
4063.713410176738
 30
0.0
 11
1517.809024700764
 21
4063.713410176739
 31
0.0
  0
LINE
  5
83E3
330
19
100
AcDbEntity
  8
1
100
AcDbLine
 10
1597.809024700759
 20
3178.713410176741
 30
0.0
 11
1517.809024700759
 21
3178.71341017674
 31
0.0
  0
LINE
  5
83E4
330
19
100
AcDbEntity
  8
1
100
AcDbLine
 10
469.8090247007648
 20
4063.713410176738
 30
0.0
 11
469.8090247007576
 21
3178.713410176738
 31
0.0
  0
LINE
  5
83E5
330
19
100
AcDbEntity
  8
1
100
AcDbLine
 10
1597.809024700764
 20
3951.21341017674
 30
0.0
 11
1597.809024700764
 21
4063.713410176741
 31
0.0
  0
LINE
  5
83E6
330
19
100
AcDbEntity
  8
1
100
AcDbLine
 10
1597.809024700759
 20
3178.713410176741
 30
0.0
 11
1597.809024700759
 21
3408.713410176738
 31
0.0
  0
LINE
  5
83E7
330
19
100
AcDbEntity
  8
1
100
AcDbLine
 10
549.8090247007649
 20
4063.713410176738
 30
0.0
 11
549.8090247007639
 21
3993.713410176748
 31
0.0
  0
LINE
  5
83E8
330
19
100
AcDbEntity
  8
1
100
AcDbLine
 10
1517.809024700764
 20
3993.713410176738
 30
0.0
 11
1517.809024700764
 21
4063.713410176741
 31
0.0
  0
LINE
  5
83E9
330
19
100
AcDbEntity
  8
1
100
AcDbLine
 10
1517.809024700759
 20
3178.713410176741
 30
0.0
 11
1517.809024700758
 21
3368.713410176738
 31
0.0
  0
LINE
  5
83EA
330
19
100
AcDbEntity
  8
1
100
AcDbLine
 10
549.8090247007576
 20
3178.713410176739
 30
0.0
 11
469.8090247007576
 21
3178.713410176739
 31
0.0
  0
LINE
  5
83EB
330
19
100
AcDbEntity
  8
1
100
AcDbLine
 10
549.8090247007649
 20
4063.713410176738
 30
0.0
 11
469.8090247007648
 21
4063.713410176738
 31
0.0
  0
LINE
  5
83EC
330
19
100
AcDbEntity
  8
1
100
AcDbLine
 10
549.8090247007585
 20
3363.063467491502
 30
0.0
 11
549.8090247007576
 21
3178.713410176738
 31
0.0
  0
LINE
  5
83ED
330
19
100
AcDbEntity
  8
1
100
AcDbLine
 10
549.8090247007639
 20
3953.713410176748
 30
0.0
 11
549.8090247007612
 21
3625.063467491502
 31
0.0
  0
DIMENSION
  5
83EE
330
19
100
AcDbEntity
  8
3
100
AcDbDimension
  2
*D29
 10
1597.809024700764
 20
4183.739733797258
 30
0.0
 11
1033.809024700764
 21
4233.739733797258
 31
0.0
 70
    32
 71
     5
 42
1127.999999999999
  3
IGA
100
AcDbAlignedDimension
 13
469.8090247007648
 23
4063.713410176738
 33
0.0
 14
1597.809024700764
 24
4063.713410176741
 34
0.0
100
AcDbRotatedDimension
1001
ACAD
1000
DSTYLE
1002
{
1070
   287
1070
     3
1070
    40
1040
20.0
1070
   143
1040
0.039
1070
   172
1070
     1
1070
   271
1070
     0
1070
   279
1070
     0
1002
}
  0
DIMENSION
  5
83EF
330
19
100
AcDbEntity
  8
3
100
AcDbDimension
  2
*D30
 10
325.0139408357973
 20
3178.713410176739
 30
0.0
 11
275.0139408357968
 21
3621.213410176739
 31
0.0
 70
    32
 71
     5
 42
885.0
  3
IGA
100
AcDbAlignedDimension
 13
469.8090247007648
 23
4063.713410176738
 33
0.0
 14
469.8090247007576
 24
3178.713410176739
 34
0.0
 50
90.0
100
AcDbRotatedDimension
1001
ACAD
1000
DSTYLE
1002
{
1070
   287
1070
     3
1070
    40
1040
20.0
1070
   143
1040
0.039
1070
   172
1070
     1
1070
   271
1070
     0
1070
   279
1070
     0
1002
}
  0
LINE
  5
83F0
330
19
100
AcDbEntity
  8
1
100
AcDbLine
 10
714.2038417374542
 20
3983.713410176736
 30
0.0
 11
714.2038417374542
 21
3543.713410176736
 31
0.0
  0
LINE
  5
83F1
330
19
100
AcDbEntity
  8
1
100
AcDbLine
 10
1290.203841737454
 20
3543.713410176736
 30
0.0
 11
714.2038417374542
 21
3543.713410176736
 31
0.0
  0
LINE
  5
83F2
330
19
100
AcDbEntity
  8
1
100
AcDbLine
 10
1290.203841737454
 20
3983.713410176736
 30
0.0
 11
714.2038417374542
 21
3983.713410176736
 31
0.0
  0
LINE
  5
83F3
330
19
100
AcDbEntity
  8
1
100
AcDbLine
 10
1290.203841737454
 20
3543.713410176736
 30
0.0
 11
1290.203841737456
 21
3983.713410176736
 31
0.0
  0
LINE
  5
83F4
330
19
100
AcDbEntity
  8
1
100
AcDbLine
 10
744.2038417374542
 20
3573.713410176736
 30
0.0
 11
744.2038417374542
 21
3953.713410176737
 31
0.0
  0
LINE
  5
83F5
330
19
100
AcDbEntity
  8
1
100
AcDbLine
 10
1260.203841737454
 20
3573.713410176736
 30
0.0
 11
1260.203841737456
 21
3953.713410176737
 31
0.0
  0
LINE
  5
83F6
330
19
100
AcDbEntity
  8
1
100
AcDbLine
 10
1260.203841737454
 20
3573.713410176736
 30
0.0
 11
744.2038417374542
 21
3573.713410176736
 31
0.0
  0
LINE
  5
83F7
330
19
100
AcDbEntity
  8
1
100
AcDbLine
 10
1260.203841737454
 20
3953.713410176737
 30
0.0
 11
744.2038417374542
 21
3953.713410176737
 31
0.0
  0
LINE
  5
83F8
330
19
100
AcDbEntity
  8
1
100
AcDbLine
 10
744.2038417374542
 20
3573.713410176736
 30
0.0
 11
1260.203841737454
 21
3953.713410176737
 31
0.0
  0
LINE
  5
83F9
330
19
100
AcDbEntity
  8
1
100
AcDbLine
 10
744.2038417374542
 20
3953.713410176737
 30
0.0
 11
1260.203841737454
 21
3573.713410176736
 31
0.0
  0
ENDSEC
  0
SECTION
  2
OBJECTS
  0
DICTIONARY
  5
C
330
0
100
AcDbDictionary
281
     1
  3
ACAD_CIP_PREVIOUS_PRODUCT_INFO
350
8171
  3
ACAD_COLOR
350
8154
  3
ACAD_DETAILVIEWSTYLE
350
816D
  3
ACAD_GROUP
350
D
  3
ACAD_LAYOUT
350
8041
  3
ACAD_MATERIAL
350
8122
  3
ACAD_MLEADERSTYLE
350
8169
  3
ACAD_MLINESTYLE
350
E
  3
ACAD_PLOTSETTINGS
350
8042
  3
ACAD_PLOTSTYLENAME
350
803F
  3
ACAD_SCALELIST
350
8157
  3
ACAD_SECTIONVIEWSTYLE
350
816B
  3
ACAD_TABLESTYLE
350
8155
  3
ACAD_VISUALSTYLE
350
813B
  3
ACDB_RECOMPOSE_DATA
350
849F
  3
AcDbVariableDictionary
350
811A
  3
AcDsDecomposeData
350
84A6
  3
DWGPROPS
350
84A0
  0
DICTIONARY
  5
81C6
330
2
100
AcDbDictionary
280
     1
281
     1
  3
ACAD_LAYERSTATES
360
81C7
  0
DICTIONARY
  5
8172
330
F
100
AcDbDictionary
280
     1
281
     1
  3
ADSK_XREC_LAYER_RECONCILED
360
8173
  0
DICTIONARY
  5
8174
330
31
100
AcDbDictionary
280
     1
281
     1
  3
ADSK_XREC_LAYER_RECONCILED
360
8175
  0
DICTIONARY
  5
8176
330
76D0
100
AcDbDictionary
280
     1
281
     1
  3
ADSK_XREC_LAYER_RECONCILED
360
8177
  0
DICTIONARY
  5
8178
330
76D1
100
AcDbDictionary
280
     1
281
     1
  3
ADSK_XREC_LAYER_RECONCILED
360
8179
  0
DICTIONARY
  5
817A
330
76D2
100
AcDbDictionary
280
     1
281
     1
  3
ADSK_XREC_LAYER_RECONCILED
360
817B
  0
DICTIONARY
  5
806E
330
19
100
AcDbDictionary
280
     1
281
     1
  3
ACAD_LAYOUTSELFREF
360
806F
  0
DICTIONARY
  5
806C
330
16
100
AcDbDictionary
280
     1
281
     1
  3
ACAD_LAYOUTSELFREF
360
806D
  0
XRECORD
  5
8171
102
{ACAD_REACTORS
330
C
102
}
330
C
100
AcDbXrecord
280
     1
300
ACDLT
300
2015
300
INVLTS_F_S
  0
DICTIONARY
  5
8154
102
{ACAD_REACTORS
330
C
102
}
330
C
100
AcDbDictionary
281
     1
  0
DICTIONARY
  5
816D
102
{ACAD_REACTORS
330
C
102
}
330
C
100
AcDbDictionary
281
     1
  3
Metric50
350
816E
  0
DICTIONARY
  5
D
102
{ACAD_REACTORS
330
C
102
}
330
C
100
AcDbDictionary
281
     1
  0
DICTIONARY
  5
8041
102
{ACAD_REACTORS
330
C
102
}
330
C
100
AcDbDictionary
281
     1
  3
Model
350
8043
  3
ﾚｲｱｳﾄ1
350
8044
  0
DICTIONARY
  5
8122
102
{ACAD_REACTORS
330
C
102
}
330
C
100
AcDbDictionary
281
     1
  3
ByBlock
350
812B
  3
ByLayer
350
8123
  3
Global
350
8133
  0
DICTIONARY
  5
8169
102
{ACAD_REACTORS
330
C
102
}
330
C
100
AcDbDictionary
281
     1
  3
Standard
350
816A
  0
DICTIONARY
  5
E
102
{ACAD_REACTORS
330
C
102
}
330
C
100
AcDbDictionary
281
     1
  3
STANDARD
350
1C
  0
DICTIONARY
  5
8042
102
{ACAD_REACTORS
330
C
102
}
330
C
100
AcDbDictionary
281
     1
  0
ACDBDICTIONARYWDFLT
  5
803F
102
{ACAD_REACTORS
330
C
102
}
330
C
100
AcDbDictionary
281
     1
  3
Normal
350
8040
100
AcDbDictionaryWithDefault
340
8040
  0
DICTIONARY
  5
8157
102
{ACAD_REACTORS
330
C
102
}
330
C
100
AcDbDictionary
281
     1
  3
A0
350
8158
  3
A1
350
8159
  3
A2
350
815A
  3
A3
350
815B
  3
A4
350
815C
  3
A5
350
815D
  3
A6
350
815E
  3
A7
350
815F
  3
A8
350
8160
  3
A9
350
8161
  3
B0
350
8162
  3
B1
350
8163
  3
B2
350
8164
  3
B3
350
8165
  3
B4
350
8166
  3
B5
350
8167
  3
B6
350
8168
  0
DICTIONARY
  5
816B
102
{ACAD_REACTORS
330
C
102
}
330
C
100
AcDbDictionary
281
     1
  3
Metric50
350
816C
  0
DICTIONARY
  5
8155
102
{ACAD_REACTORS
330
C
102
}
330
C
100
AcDbDictionary
281
     1
  3
Standard
350
8156
  0
DICTIONARY
  5
813B
102
{ACAD_REACTORS
330
C
102
}
330
C
100
AcDbDictionary
281
     1
  3
2dWireframe
350
8141
  3
Basic
350
8140
  3
Brighten
350
8147
  3
ColorChange
350
814B
  3
Conceptual
350
8144
  3
Dim
350
8146
  3
EdgeColorOff
350
8153
  3
Facepattern
350
814A
  3
Flat
350
813C
  3
FlatWithEdges
350
813D
  3
Gouraud
350
813E
  3
GouraudWithEdges
350
813F
  3
Hidden
350
8143
  3
JitterOff
350
8151
  3
Linepattern
350
8149
  3
OverhangOff
350
8152
  3
Realistic
350
8145
  3
Shaded
350
8150
  3
Shaded with edges
350
814F
  3
Shades of Gray
350
814C
  3
Sketchy
350
814D
  3
Thicken
350
8148
  3
Wireframe
350
8142
  3
X-Ray
350
814E
  0
XRECORD
  5
849F
102
{ACAD_REACTORS
330
C
102
}
330
C
100
AcDbXrecord
280
     1
 90
        1
330
8156
  0
DICTIONARY
  5
811A
102
{ACAD_REACTORS
330
C
102
}
330
C
100
AcDbDictionary
281
     1
  3
CANNOSCALE
350
8492
  3
CMLEADERSTYLE
350
848E
  3
CTABLESTYLE
350
848D
  3
CVIEWDETAILSTYLE
350
848F
  3
CVIEWSECTIONSTYLE
350
8490
  3
DIMASSOC
350
811B
  3
INDEXCTL
350
849B
  3
LAYEREVAL
350
8494
  3
LAYERNOTIFY
350
8495
  3
LIGHTINGUNITS
350
8493
  3
MSLTSCALE
350
8491
  3
SORTENTS
350
849A
  3
XCLIPFRAME
350
849C
  0
DICTIONARY
  5
84A6
102
{ACAD_REACTORS
330
C
102
}
330
C
100
AcDbDictionary
281
     1
  3
AcDsRecords
350
84A8
  3
AcDsSchemas
350
84A7
1001
ACAD
1070
     2
  0
XRECORD
  5
84A0
102
{ACAD_REACTORS
330
C
102
}
330
C
100
AcDbXrecord
280
     1
  1
DWGPROPS COOKIE
  2

  3

  4

  6

  7

  8
reiko.miyawaki
  9

300
=
301
=
302
=
303
=
304
=
305
=
306
=
307
=
308
=
309
=
 40
0.1810494097222222
 41
2452773.62282963
 42
2458829.629771436
  1

 90
        0
  0
DICTIONARY
  5
81C7
102
{ACAD_REACTORS
330
81C6
102
}
330
81C6
100
AcDbDictionary
281
     1
  0
XRECORD
  5
8173
102
{ACAD_REACTORS
330
8172
102
}
330
8172
100
AcDbXrecord
280
     1
290
     1
  0
XRECORD
  5
8175
102
{ACAD_REACTORS
330
8174
102
}
330
8174
100
AcDbXrecord
280
     1
290
     1
  0
XRECORD
  5
8177
102
{ACAD_REACTORS
330
8176
102
}
330
8176
100
AcDbXrecord
280
     1
290
     1
  0
XRECORD
  5
8179
102
{ACAD_REACTORS
330
8178
102
}
330
8178
100
AcDbXrecord
280
     1
290
     1
  0
XRECORD
  5
817B
102
{ACAD_REACTORS
330
817A
102
}
330
817A
100
AcDbXrecord
280
     1
290
     1
  0
XRECORD
  5
806F
102
{ACAD_REACTORS
330
806E
102
}
330
806E
100
AcDbXrecord
280
     1
340
19
  0
XRECORD
  5
806D
102
{ACAD_REACTORS
330
806C
102
}
330
806C
100
AcDbXrecord
280
     1
340
16
  0
ACDBDETAILVIEWSTYLE
  5
816E
102
{ACAD_XDICTIONARY
360
848A
102
}
102
{ACAD_REACTORS
330
816D
102
}
330
816D
100
AcDbModelDocViewStyle
 70
     0
  3
Metric50
290
     0
100
AcDbDetailViewStyle
 70
     0
 71
     0
 90
        3
 71
     1
340
10
 40
5.0
340
0
 40
5.0
300

 40
0.0
280
     1
 71
     2
340
15
 90
       25
 71
     3
340
10
 40
5.0
 90
        0
 40
15.0
 90
        1
300
%<\AcVar ViewDetailId>% (%<\AcVar ViewScale \f "%sn">%)
 71
     4
340
15
 90
       25
340
15
 90
       25
280
     0
  0
LAYOUT
  5
8043
102
{ACAD_XDICTIONARY
360
84A9
102
}
102
{ACAD_REACTORS
330
8041
102
}
330
8041
100
AcDbPlotSettings
  1

  2
none_device
  4
ISO_A4_(210.00_x_297.00_MM)
  6

 40
7.5
 41
20.0
 42
7.5
 43
20.0
 44
210.0
 45
297.0
 46
0.0
 47
0.0
 48
0.0
 49
0.0
140
0.0
141
0.0
142
1.0
143
58.78083267923542
 70
 11952
 72
     1
 73
     1
 74
     0
  7
monochrome.ctb
 75
     0
147
0.0170123483186596
148
0.0
149
0.0
100
AcDbLayout
  1
Model
 70
     1
 71
     0
 10
0.0
 20
0.0
 11
12.0
 21
9.0
 12
0.0
 22
0.0
 32
0.0
 14
0.0
 24
0.0
 34
0.0
 15
0.0
 25
0.0
 35
0.0
146
0.0
 13
0.0
 23
0.0
 33
0.0
 16
1.0
 26
0.0
 36
0.0
 17
0.0
 27
1.0
 37
0.0
 76
     0
330
19
331
8120
1001
ACAD_PSEXT
1000
なし
1000
なし
1000
適切ではありません
1000
新しいプロッタ環境設定名を選択しない限り、レイアウトは印刷されません。
1070
     0
  0
LAYOUT
  5
8044
102
{ACAD_XDICTIONARY
360
84AB
102
}
102
{ACAD_REACTORS
330
8041
102
}
330
8041
100
AcDbPlotSettings
  1

  2
\\Txbo34x8944cqyd\EPSON LP-6100
  4

  6

 40
0.0
 41
0.0
 42
0.0
 43
0.0
 44
0.0
 45
0.0
 46
0.0
 47
0.0
 48
0.0
 49
0.0
140
0.0
141
0.0
142
1.0
143
1.0
 70
   688
 72
     0
 73
     0
 74
     5
  7
monochrome.ctb
 75
    16
147
1.0
148
0.0
149
0.0
100
AcDbLayout
  1
ﾚｲｱｳﾄ1
 70
     1
 71
     1
 10
0.0
 20
0.0
 11
12.0
 21
9.0
 12
0.0
 22
0.0
 32
0.0
 14
1.000000000000000E+20
 24
1.000000000000000E+20
 34
1.000000000000000E+20
 15
-1.000000000000000E+20
 25
-1.000000000000000E+20
 35
-1.000000000000000E+20
146
0.0
 13
0.0
 23
0.0
 33
0.0
 16
1.0
 26
0.0
 36
0.0
 17
0.0
 27
1.0
 37
0.0
 76
     0
330
16
  0
MATERIAL
  5
812B
102
{ACAD_XDICTIONARY
360
812C
102
}
102
{ACAD_REACTORS
330
8122
102
}
330
8122
100
AcDbMaterial
  1
ByBlock
 72
     0
 43
0.0208333333333333
 43
0.0
 43
0.0
 43
0.0
 43
0.0
 43
0.0208333333333333
 43
0.0
 43
0.0
 43
0.0
 43
0.0
 43
1.0
 43
0.0
 43
0.0
 43
0.0
 43
0.0
 43
1.0
 77
     0
 47
0.0208333333333333
 47
0.0
 47
0.0
 47
0.0
 47
0.0
 47
0.0208333333333333
 47
0.0
 47
0.0
 47
0.0
 47
0.0
 47
1.0
 47
0.0
 47
0.0
 47
0.0
 47
0.0
 47
1.0
171
     0
 49
0.0208333333333333
 49
0.0
 49
0.0
 49
0.0
 49
0.0
 49
0.0208333333333333
 49
0.0
 49
0.0
 49
0.0
 49
0.0
 49
1.0
 49
0.0
 49
0.0
 49
0.0
 49
0.0
 49
1.0
175
     0
142
0.0208333333333333
142
0.0
142
0.0
142
0.0
142
0.0
142
0.0208333333333333
142
0.0
142
0.0
142
0.0
142
0.0
142
1.0
142
0.0
142
0.0
142
0.0
142
0.0
142
1.0
179
     0
144
0.0208333333333333
144
0.0
144
0.0
144
0.0
144
0.0
144
0.0208333333333333
144
0.0
144
0.0
144
0.0
144
0.0
144
1.0
144
0.0
144
0.0
144
0.0
144
0.0
144
1.0
147
0.0208333333333333
147
0.0
147
0.0
147
0.0
147
0.0
147
0.0208333333333333
147
0.0
147
0.0
147
0.0
147
0.0
147
1.0
147
0.0
147
0.0
147
0.0
147
0.0
147
1.0
  0
MATERIAL
  5
8123
102
{ACAD_XDICTIONARY
360
8124
102
}
102
{ACAD_REACTORS
330
8122
102
}
330
8122
100
AcDbMaterial
  1
ByLayer
 72
     0
 43
0.0208333333333333
 43
0.0
 43
0.0
 43
0.0
 43
0.0
 43
0.0208333333333333
 43
0.0
 43
0.0
 43
0.0
 43
0.0
 43
1.0
 43
0.0
 43
0.0
 43
0.0
 43
0.0
 43
1.0
 77
     0
 47
0.0208333333333333
 47
0.0
 47
0.0
 47
0.0
 47
0.0
 47
0.0208333333333333
 47
0.0
 47
0.0
 47
0.0
 47
0.0
 47
1.0
 47
0.0
 47
0.0
 47
0.0
 47
0.0
 47
1.0
171
     0
 49
0.0208333333333333
 49
0.0
 49
0.0
 49
0.0
 49
0.0
 49
0.0208333333333333
 49
0.0
 49
0.0
 49
0.0
 49
0.0
 49
1.0
 49
0.0
 49
0.0
 49
0.0
 49
0.0
 49
1.0
175
     0
142
0.0208333333333333
142
0.0
142
0.0
142
0.0
142
0.0
142
0.0208333333333333
142
0.0
142
0.0
142
0.0
142
0.0
142
1.0
142
0.0
142
0.0
142
0.0
142
0.0
142
1.0
179
     0
144
0.0208333333333333
144
0.0
144
0.0
144
0.0
144
0.0
144
0.0208333333333333
144
0.0
144
0.0
144
0.0
144
0.0
144
1.0
144
0.0
144
0.0
144
0.0
144
0.0
144
1.0
147
0.0208333333333333
147
0.0
147
0.0
147
0.0
147
0.0
147
0.0208333333333333
147
0.0
147
0.0
147
0.0
147
0.0
147
1.0
147
0.0
147
0.0
147
0.0
147
0.0
147
1.0
  0
MATERIAL
  5
8133
102
{ACAD_XDICTIONARY
360
8134
102
}
102
{ACAD_REACTORS
330
8122
102
}
330
8122
100
AcDbMaterial
  1
Global
 72
     0
 43
0.0208333333333333
 43
0.0
 43
0.0
 43
0.0
 43
0.0
 43
0.0208333333333333
 43
0.0
 43
0.0
 43
0.0
 43
0.0
 43
1.0
 43
0.0
 43
0.0
 43
0.0
 43
0.0
 43
1.0
 77
     0
 47
0.0208333333333333
 47
0.0
 47
0.0
 47
0.0
 47
0.0
 47
0.0208333333333333
 47
0.0
 47
0.0
 47
0.0
 47
0.0
 47
1.0
 47
0.0
 47
0.0
 47
0.0
 47
0.0
 47
1.0
171
     0
 49
0.0208333333333333
 49
0.0
 49
0.0
 49
0.0
 49
0.0
 49
0.0208333333333333
 49
0.0
 49
0.0
 49
0.0
 49
0.0
 49
1.0
 49
0.0
 49
0.0
 49
0.0
 49
0.0
 49
1.0
175
     0
142
0.0208333333333333
142
0.0
142
0.0
142
0.0
142
0.0
142
0.0208333333333333
142
0.0
142
0.0
142
0.0
142
0.0
142
1.0
142
0.0
142
0.0
142
0.0
142
0.0
142
1.0
179
     0
144
0.0208333333333333
144
0.0
144
0.0
144
0.0
144
0.0
144
0.0208333333333333
144
0.0
144
0.0
144
0.0
144
0.0
144
1.0
144
0.0
144
0.0
144
0.0
144
0.0
144
1.0
147
0.0208333333333333
147
0.0
147
0.0
147
0.0
147
0.0
147
0.0208333333333333
147
0.0
147
0.0
147
0.0
147
0.0
147
1.0
147
0.0
147
0.0
147
0.0
147
0.0
147
1.0
  0
MLEADERSTYLE
  5
816A
102
{ACAD_XDICTIONARY
360
84E2
102
}
102
{ACAD_REACTORS
330
8169
102
}
330
8169
100
AcDbMLeaderStyle
170
     2
171
     1
172
     0
 90
        2
 40
0.0
 41
0.0
173
     1
 91
-1056964608
340
13
 92
       -2
290
     1
 42
2.0
291
     1
 43
0.36
  3
Standard
 44
4.0
300

342
10
174
     1
178
     6
175
     1
176
     0
 93
-1056964608
 45
4.0
292
     0
297
     0
 46
4.0
 94
-1056964608
 47
1.0
 49
1.0
140
1.0
293
     1
141
0.0
294
     1
177
     0
142
1.0
295
     0
296
     0
143
0.125
1001
ACAD_MLEADERVER
1070
     2
  0
MLINESTYLE
  5
1C
102
{ACAD_REACTORS
330
E
102
}
330
E
100
AcDbMlineStyle
  2
STANDARD
 70
     0
  3

 62
     0
 51
90.0
 52
90.0
 71
     2
 49
0.5
 62
   256
  6
BYLAYER
 49
-0.5
 62
   256
  6
BYLAYER
  0
ACDBPLACEHOLDER
  5
8040
102
{ACAD_REACTORS
330
803F
102
}
330
803F
  0
SCALE
  5
8158
102
{ACAD_REACTORS
330
8157
102
}
330
8157
100
AcDbScale
 70
     0
300
1:1
140
1.0
141
1.0
290
     1
  0
SCALE
  5
8159
102
{ACAD_REACTORS
330
8157
102
}
330
8157
100
AcDbScale
 70
     0
300
1:2
140
1.0
141
2.0
290
     0
  0
SCALE
  5
815A
102
{ACAD_REACTORS
330
8157
102
}
330
8157
100
AcDbScale
 70
     0
300
1:4
140
1.0
141
4.0
290
     0
  0
SCALE
  5
815B
102
{ACAD_REACTORS
330
8157
102
}
330
8157
100
AcDbScale
 70
     0
300
1:5
140
1.0
141
5.0
290
     0
  0
SCALE
  5
815C
102
{ACAD_REACTORS
330
8157
102
}
330
8157
100
AcDbScale
 70
     0
300
1:8
140
1.0
141
8.0
290
     0
  0
SCALE
  5
815D
102
{ACAD_REACTORS
330
8157
102
}
330
8157
100
AcDbScale
 70
     0
300
1:10
140
1.0
141
10.0
290
     0
  0
SCALE
  5
815E
102
{ACAD_REACTORS
330
8157
102
}
330
8157
100
AcDbScale
 70
     0
300
1:16
140
1.0
141
16.0
290
     0
  0
SCALE
  5
815F
102
{ACAD_REACTORS
330
8157
102
}
330
8157
100
AcDbScale
 70
     0
300
1:20
140
1.0
141
20.0
290
     0
  0
SCALE
  5
8160
102
{ACAD_REACTORS
330
8157
102
}
330
8157
100
AcDbScale
 70
     0
300
1:30
140
1.0
141
30.0
290
     0
  0
SCALE
  5
8161
102
{ACAD_REACTORS
330
8157
102
}
330
8157
100
AcDbScale
 70
     0
300
1:40
140
1.0
141
40.0
290
     0
  0
SCALE
  5
8162
102
{ACAD_REACTORS
330
8157
102
}
330
8157
100
AcDbScale
 70
     0
300
1:50
140
1.0
141
50.0
290
     0
  0
SCALE
  5
8163
102
{ACAD_REACTORS
330
8157
102
}
330
8157
100
AcDbScale
 70
     0
300
1:100
140
1.0
141
100.0
290
     0
  0
SCALE
  5
8164
102
{ACAD_REACTORS
330
8157
102
}
330
8157
100
AcDbScale
 70
     0
300
2:1
140
2.0
141
1.0
290
     0
  0
SCALE
  5
8165
102
{ACAD_REACTORS
330
8157
102
}
330
8157
100
AcDbScale
 70
     0
300
4:1
140
4.0
141
1.0
290
     0
  0
SCALE
  5
8166
102
{ACAD_REACTORS
330
8157
102
}
330
8157
100
AcDbScale
 70
     0
300
8:1
140
8.0
141
1.0
290
     0
  0
SCALE
  5
8167
102
{ACAD_REACTORS
330
8157
102
}
330
8157
100
AcDbScale
 70
     0
300
10:1
140
10.0
141
1.0
290
     0
  0
SCALE
  5
8168
102
{ACAD_REACTORS
330
8157
102
}
330
8157
100
AcDbScale
 70
     0
300
100:1
140
100.0
141
1.0
290
     0
  0
ACDBSECTIONVIEWSTYLE
  5
816C
102
{ACAD_XDICTIONARY
360
8488
102
}
102
{ACAD_REACTORS
330
816B
102
}
330
816B
100
AcDbModelDocViewStyle
 70
     0
  3
Metric50
290
     0
100
AcDbSectionViewStyle
 70
     0
 71
     0
 90
      102
 71
     1
340
10
 40
5.0
340
0
340
0
 40
5.0
300
I, O, Q, S, X, Z
 40
10.0
 90
        0
 40
2.5
 90
        0
 71
     2
340
15
 90
       25
340
15
 90
       50
 40
5.0
 40
2.5
 40
5.0
 71
     3
340
10
 40
5.0
 90
        0
 40
15.0
 90
        1
300
%<\AcVar ViewSectionStartId>%-%<\AcVar ViewSectionEndId>% (%<\AcVar ViewScale \f "%sn">%)
 71
     4
300
ANSI31
 40
1.0
 90
        0
290
     0
290
     0
 90
        6
 40
0.0
 40
1.570796326794896
 40
0.2617993877991494
 40
1.308996938995747
 40
-0.2617993877991494
 40
1.832595714594046
  0
TABLESTYLE
  5
8156
102
{ACAD_XDICTIONARY
360
849D
102
}
102
{ACAD_REACTORS
330
8155
102
}
330
8155
100
AcDbTableStyle
  3
Standard
 70
     0
 71
     0
 40
1.5
 41
1.5
280
     0
281
     0
  7
STANDARD
140
4.5
170
     2
 62
     0
 63
     7
283
     0
274
    -2
284
     1
 64
     0
275
    -2
285
     1
 65
     0
276
    -2
286
     1
 66
     0
277
    -2
287
     1
 67
     0
278
    -2
288
     1
 68
     0
279
    -2
289
     1
 69
     0
  7
STANDARD
140
6.0
170
     5
 62
     0
 63
     7
283
     0
274
    -2
284
     1
 64
     0
275
    -2
285
     1
 65
     0
276
    -2
286
     1
 66
     0
277
    -2
287
     1
 67
     0
278
    -2
288
     1
 68
     0
279
    -2
289
     1
 69
     0
  7
STANDARD
140
4.5
170
     5
 62
     0
 63
     7
283
     0
274
    -2
284
     1
 64
     0
275
    -2
285
     1
 65
     0
276
    -2
286
     1
 66
     0
277
    -2
287
     1
 67
     0
278
    -2
288
     1
 68
     0
279
    -2
289
     1
 69
     0
  0
VISUALSTYLE
  5
8141
102
{ACAD_XDICTIONARY
360
84BA
102
}
102
{ACAD_REACTORS
330
813B
102
}
330
813B
100
AcDbVisualStyle
  2
2dWireframe
 70
     4
 71
     0
 72
     2
 73
     0
 90
        0
 40
-0.6
 41
-30.0
 62
     5
 63
     7
 74
     1
 91
        4
 64
     7
 65
   257
 75
     1
175
     1
 42
1.0
 92
        0
 66
   257
 43
1.0
 76
     1
 77
     6
 78
     2
 67
     7
 79
     5
170
     0
171
     0
290
     0
174
     0
 93
        1
 44
0.0
173
     0
291
     0
 45
0.0
1001
ACAD
1000
AcDbSavedByObjectVersion
1070
     0
  0
VISUALSTYLE
  5
8140
102
{ACAD_XDICTIONARY
360
84B8
102
}
102
{ACAD_REACTORS
330
813B
102
}
330
813B
100
AcDbVisualStyle
  2
Basic
 70
     7
 71
     1
 72
     0
 73
     1
 90
        0
 40
-0.6
 41
-30.0
 62
     5
 63
     7
 74
     0
 91
        4
 64
     7
 65
   257
 75
     1
175
     1
 42
1.0
 92
        8
 66
     7
 43
1.0
 76
     1
 77
     6
 78
     2
 67
     7
 79
     5
170
     0
171
     0
290
     0
174
     0
 93
        1
 44
0.0
173
     0
291
     1
 45
0.0
1001
ACAD
1000
AcDbSavedByObjectVersion
1070
     0
  0
VISUALSTYLE
  5
8147
102
{ACAD_XDICTIONARY
360
84C6
102
}
102
{ACAD_REACTORS
330
813B
102
}
330
813B
100
AcDbVisualStyle
  2
Brighten
 70
    12
 71
     2
 72
     2
 73
     0
 90
        0
 40
-0.6
 41
-30.0
 62
     5
 63
     7
 74
     1
 91
        4
 64
     7
 65
   257
 75
     1
175
     1
 42
1.0
 92
        8
 66
     7
 43
1.0
 76
     1
 77
     6
 78
     2
 67
     7
 79
     5
170
     0
171
     0
290
     0
174
     0
 93
        1
 44
50.0
173
     0
291
     1
 45
0.0
1001
ACAD
1000
AcDbSavedByObjectVersion
1070
     0
  0
VISUALSTYLE
  5
814B
102
{ACAD_XDICTIONARY
360
84CE
102
}
102
{ACAD_REACTORS
330
813B
102
}
330
813B
100
AcDbVisualStyle
  2
ColorChange
 70
    16
 71
     2
 72
     2
 73
     3
 90
        0
 40
-0.6
 41
-30.0
 62
     5
 63
     8
 74
     1
 91
        4
 64
     7
 65
   257
 75
     1
175
     1
 42
1.0
 92
        8
 66
     8
 43
1.0
 76
     1
 77
     6
 78
     2
 67
     7
 79
     5
170
     0
171
     0
290
     0
174
     0
 93
        1
 44
0.0
173
     0
291
     1
 45
0.0
1001
ACAD
1000
AcDbSavedByObjectVersion
1070
     0
  0
VISUALSTYLE
  5
8144
102
{ACAD_XDICTIONARY
360
84C0
102
}
102
{ACAD_REACTORS
330
813B
102
}
330
813B
100
AcDbVisualStyle
  2
Conceptual
 70
     9
 71
     3
 72
     2
 73
     0
 90
        0
 40
-0.6
 41
-30.0
 62
     5
 63
     7
 74
     2
 91
        2
 64
     7
 65
   257
 75
     1
175
     1
 42
179.0
 92
        8
 66
     7
 43
1.0
 76
     1
 77
     6
 78
     2
 67
     7
 79
     3
170
     0
171
     0
290
     0
174
     0
 93
        1
 44
0.0
173
     0
291
     0
 45
0.0
1001
ACAD
1000
AcDbSavedByObjectVersion
1070
     0
  0
VISUALSTYLE
  5
8146
102
{ACAD_XDICTIONARY
360
84C4
102
}
102
{ACAD_REACTORS
330
813B
102
}
330
813B
100
AcDbVisualStyle
  2
Dim
 70
    11
 71
     2
 72
     2
 73
     0
 90
        0
 40
-0.6
 41
-30.0
 62
     5
 63
     7
 74
     1
 91
        4
 64
     7
 65
   257
 75
     1
175
     1
 42
1.0
 92
        8
 66
     7
 43
1.0
 76
     1
 77
     6
 78
     2
 67
     7
 79
     5
170
     0
171
     0
290
     0
174
     0
 93
        1
 44
-50.0
173
     0
291
     1
 45
0.0
1001
ACAD
1000
AcDbSavedByObjectVersion
1070
     0
  0
VISUALSTYLE
  5
8153
102
{ACAD_XDICTIONARY
360
84DE
102
}
102
{ACAD_REACTORS
330
813B
102
}
330
813B
100
AcDbVisualStyle
  2
EdgeColorOff
 70
    22
 71
     2
 72
     2
 73
     0
 90
        0
 40
-0.6
 41
-30.0
 62
     5
 63
     7
 74
     1
 91
        4
 64
     7
 65
   257
 75
     1
175
     1
 42
1.0
 92
        8
 66
     7
 43
1.0
 76
     1
 77
     6
 78
     2
 67
     7
 79
     5
170
     0
171
     0
290
     0
174
     0
 93
        1
 44
0.0
173
     0
291
     1
 45
0.0
1001
ACAD
1000
AcDbSavedByObjectVersion
1070
     0
  0
VISUALSTYLE
  5
814A
102
{ACAD_XDICTIONARY
360
84CC
102
}
102
{ACAD_REACTORS
330
813B
102
}
330
813B
100
AcDbVisualStyle
  2
Facepattern
 70
    15
 71
     2
 72
     2
 73
     0
 90
        0
 40
-0.6
 41
-30.0
 62
     5
 63
     7
 74
     1
 91
        4
 64
     7
 65
   257
 75
     1
175
     1
 42
1.0
 92
        8
 66
     7
 43
1.0
 76
     1
 77
     6
 78
     2
 67
     7
 79
     5
170
     0
171
     0
290
     0
174
     0
 93
        1
 44
0.0
173
     0
291
     1
 45
0.0
1001
ACAD
1000
AcDbSavedByObjectVersion
1070
     0
  0
VISUALSTYLE
  5
813C
102
{ACAD_XDICTIONARY
360
84B0
102
}
102
{ACAD_REACTORS
330
813B
102
}
330
813B
100
AcDbVisualStyle
  2
Flat
 70
     0
 71
     2
 72
     1
 73
     1
 90
        2
 40
-0.6
 41
30.0
 62
     5
 63
     7
 74
     0
 91
        0
 64
     7
 65
   257
 75
     1
175
     1
 42
1.0
 92
        8
 66
     7
 43
1.0
 76
     1
 77
     6
 78
     2
 67
     7
 79
     5
170
     0
171
     0
290
     0
174
     0
 93
       13
 44
0.0
173
     0
291
     1
 45
0.0
1001
ACAD
1000
AcDbSavedByObjectVersion
1070
     0
  0
VISUALSTYLE
  5
813D
102
{ACAD_XDICTIONARY
360
84B2
102
}
102
{ACAD_REACTORS
330
813B
102
}
330
813B
100
AcDbVisualStyle
  2
FlatWithEdges
 70
     1
 71
     2
 72
     1
 73
     1
 90
        2
 40
-0.6
 41
30.0
 62
     5
 63
     7
 74
     1
 91
        0
 64
     7
 65
   257
 75
     1
175
     1
 42
1.0
 92
        0
 66
   257
 43
1.0
 76
     1
 77
     6
 78
     2
 67
     7
 79
     5
170
     0
171
     0
290
     0
174
     0
 93
       13
 44
0.0
173
     0
291
     1
 45
0.0
1001
ACAD
1000
AcDbSavedByObjectVersion
1070
     0
  0
VISUALSTYLE
  5
813E
102
{ACAD_XDICTIONARY
360
84B4
102
}
102
{ACAD_REACTORS
330
813B
102
}
330
813B
100
AcDbVisualStyle
  2
Gouraud
 70
     2
 71
     2
 72
     2
 73
     1
 90
        2
 40
-0.6
 41
30.0
 62
     5
 63
     7
 74
     0
 91
        0
 64
     7
 65
   257
 75
     1
175
     1
 42
1.0
 92
        0
 66
     7
 43
1.0
 76
     1
 77
     6
 78
     2
 67
     7
 79
     5
170
     0
171
     0
290
     0
174
     0
 93
       13
 44
0.0
173
     0
291
     1
 45
0.0
1001
ACAD
1000
AcDbSavedByObjectVersion
1070
     0
  0
VISUALSTYLE
  5
813F
102
{ACAD_XDICTIONARY
360
84B6
102
}
102
{ACAD_REACTORS
330
813B
102
}
330
813B
100
AcDbVisualStyle
  2
GouraudWithEdges
 70
     3
 71
     2
 72
     2
 73
     1
 90
        2
 40
-0.6
 41
30.0
 62
     5
 63
     7
 74
     1
 91
        0
 64
     7
 65
   257
 75
     1
175
     1
 42
1.0
 92
        0
 66
   257
 43
1.0
 76
     1
 77
     6
 78
     2
 67
     7
 79
     5
170
     0
171
     0
290
     0
174
     0
 93
       13
 44
0.0
173
     0
291
     1
 45
0.0
1001
ACAD
1000
AcDbSavedByObjectVersion
1070
     0
  0
VISUALSTYLE
  5
8143
102
{ACAD_XDICTIONARY
360
84BE
102
}
102
{ACAD_REACTORS
330
813B
102
}
330
813B
100
AcDbVisualStyle
  2
Hidden
 70
     6
 71
     1
 72
     2
 73
     2
 90
        0
 40
-0.6
 41
-30.0
 62
     5
 63
     7
 74
     2
 91
        2
 64
     7
 65
   257
 75
     2
175
     1
 42
40.0
 92
        0
 66
   257
 43
1.0
 76
     1
 77
     6
 78
     2
 67
     7
 79
     3
170
     0
171
     0
290
     0
174
     0
 93
        1
 44
0.0
173
     0
291
     0
 45
0.0
1001
ACAD
1000
AcDbSavedByObjectVersion
1070
     0
  0
VISUALSTYLE
  5
8151
102
{ACAD_XDICTIONARY
360
84DA
102
}
102
{ACAD_REACTORS
330
813B
102
}
330
813B
100
AcDbVisualStyle
  2
JitterOff
 70
    20
 71
     2
 72
     2
 73
     0
 90
        0
 40
-0.6
 41
-30.0
 62
     5
 63
     7
 74
     1
 91
        4
 64
     7
 65
   257
 75
     1
175
     1
 42
1.0
 92
       10
 66
     7
 43
1.0
 76
     1
 77
     6
 78
     2
 67
     7
 79
     5
170
     0
171
     0
290
     0
174
     0
 93
        1
 44
0.0
173
     0
291
     1
 45
0.0
1001
ACAD
1000
AcDbSavedByObjectVersion
1070
     0
  0
VISUALSTYLE
  5
8149
102
{ACAD_XDICTIONARY
360
84CA
102
}
102
{ACAD_REACTORS
330
813B
102
}
330
813B
100
AcDbVisualStyle
  2
Linepattern
 70
    14
 71
     2
 72
     2
 73
     0
 90
        0
 40
-0.6
 41
-30.0
 62
     5
 63
     7
 74
     1
 91
        4
 64
     7
 65
   257
 75
     7
175
     7
 42
1.0
 92
        8
 66
     7
 43
1.0
 76
     1
 77
     6
 78
     2
 67
     7
 79
     5
170
     0
171
     0
290
     0
174
     0
 93
        1
 44
0.0
173
     0
291
     1
 45
0.0
1001
ACAD
1000
AcDbSavedByObjectVersion
1070
     0
  0
VISUALSTYLE
  5
8152
102
{ACAD_XDICTIONARY
360
84DC
102
}
102
{ACAD_REACTORS
330
813B
102
}
330
813B
100
AcDbVisualStyle
  2
OverhangOff
 70
    21
 71
     2
 72
     2
 73
     0
 90
        0
 40
-0.6
 41
-30.0
 62
     5
 63
     7
 74
     1
 91
        4
 64
     7
 65
   257
 75
     1
175
     1
 42
1.0
 92
        9
 66
     7
 43
1.0
 76
     1
 77
     6
 78
     2
 67
     7
 79
     5
170
     0
171
     0
290
     0
174
     0
 93
        1
 44
0.0
173
     0
291
     1
 45
0.0
1001
ACAD
1000
AcDbSavedByObjectVersion
1070
     0
  0
VISUALSTYLE
  5
8145
102
{ACAD_XDICTIONARY
360
84C2
102
}
102
{ACAD_REACTORS
330
813B
102
}
330
813B
100
AcDbVisualStyle
  2
Realistic
 70
     8
 71
     2
 72
     3
 73
     0
 90
        2
 40
-0.6
 41
30.0
 62
     5
 63
     7
 74
     0
 91
        0
 64
     7
 65
   257
 75
     1
175
     1
 42
1.0
 92
        8
 66
   257
 43
1.0
 76
     1
 77
     6
 78
     2
 67
     7
 79
     3
170
     0
171
     0
290
     0
174
     0
 93
       13
 44
0.0
173
     0
291
     0
 45
0.0
1001
ACAD
1000
AcDbSavedByObjectVersion
1070
     0
  0
VISUALSTYLE
  5
8150
102
{ACAD_XDICTIONARY
360
84D8
102
}
102
{ACAD_REACTORS
330
813B
102
}
330
813B
100
AcDbVisualStyle
  2
Shaded
 70
    27
 71
     2
 72
     2
 73
     1
 90
        2
 40
-0.6
 41
30.0
 62
     5
 63
     7
 74
     0
 91
        4
 64
     7
 65
   257
 75
     1
175
     1
 42
1.0
 92
        8
 66
   257
 43
1.0
 76
     1
 77
     6
 78
     2
 67
     8
 79
     3
170
     0
171
     0
290
     0
174
     0
 93
        5
 44
0.0
173
     0
291
     0
 45
0.0
1001
ACAD
1000
AcDbSavedByObjectVersion
1070
     0
  0
VISUALSTYLE
  5
814F
102
{ACAD_XDICTIONARY
360
84D6
102
}
102
{ACAD_REACTORS
330
813B
102
}
330
813B
100
AcDbVisualStyle
  2
Shaded with edges
 70
    26
 71
     2
 72
     2
 73
     1
 90
        2
 40
-0.6
 41
30.0
 62
     5
 63
     7
 74
     1
 91
       10
 64
     7
 65
   257
 75
     2
175
     1
 42
1.0
 92
        8
 66
   257
 43
1.0
 76
     1
 77
     6
 78
     2
 67
     7
 79
     3
170
     0
171
     0
290
     0
174
     0
 93
        5
 44
0.0
173
     0
291
     0
 45
0.0
1001
ACAD
1000
AcDbSavedByObjectVersion
1070
     0
  0
VISUALSTYLE
  5
814C
102
{ACAD_XDICTIONARY
360
84D0
102
}
102
{ACAD_REACTORS
330
813B
102
}
330
813B
100
AcDbVisualStyle
  2
Shades of Gray
 70
    23
 71
     2
 72
     2
 73
     3
 90
        0
 40
-0.6
 41
-30.0
 62
     5
 63
     7
 74
     2
 91
        2
 64
     7
 65
     7
 75
     1
175
     1
 42
40.0
 92
        8
 66
     7
 43
1.0
 76
     1
 77
     6
 78
     2
 67
     7
 79
     3
170
     0
171
     0
290
     0
174
     0
 93
        1
 44
0.0
173
     0
291
     0
 45
0.0
1001
ACAD
1000
AcDbSavedByObjectVersion
1070
     0
  0
VISUALSTYLE
  5
814D
102
{ACAD_XDICTIONARY
360
84D2
102
}
102
{ACAD_REACTORS
330
813B
102
}
330
813B
100
AcDbVisualStyle
  2
Sketchy
 70
    24
 71
     1
 72
     2
 73
     2
 90
        0
 40
-0.6
 41
-30.0
 62
     5
 63
     7
 74
     2
 91
        2
 64
     7
 65
     7
 75
     1
175
     1
 42
40.0
 92
       11
 66
     7
 43
1.0
 76
     1
 77
     6
 78
     2
 67
     7
 79
     6
170
     0
171
     0
290
     0
174
     0
 93
        1
 44
0.0
173
     0
291
     0
 45
0.0
1001
ACAD
1000
AcDbSavedByObjectVersion
1070
     0
  0
VISUALSTYLE
  5
8148
102
{ACAD_XDICTIONARY
360
84C8
102
}
102
{ACAD_REACTORS
330
813B
102
}
330
813B
100
AcDbVisualStyle
  2
Thicken
 70
    13
 71
     2
 72
     2
 73
     0
 90
        0
 40
-0.6
 41
-30.0
 62
     5
 63
     7
 74
     1
 91
        4
 64
     7
 65
   257
 75
     1
175
     1
 42
1.0
 92
       12
 66
     7
 43
1.0
 76
     1
 77
     6
 78
     2
 67
     7
 79
     5
170
     0
171
     0
290
     0
174
     0
 93
        1
 44
0.0
173
     0
291
     1
 45
0.0
1001
ACAD
1000
AcDbSavedByObjectVersion
1070
     0
  0
VISUALSTYLE
  5
8142
102
{ACAD_XDICTIONARY
360
84BC
102
}
102
{ACAD_REACTORS
330
813B
102
}
330
813B
100
AcDbVisualStyle
  2
Wireframe
 70
     5
 71
     0
 72
     2
 73
     0
 90
        0
 40
-0.6
 41
-30.0
 62
     5
 63
     7
 74
     1
 91
        4
 64
     7
 65
   257
 75
     1
175
     1
 42
1.0
 92
        0
 66
   257
 43
1.0
 76
     1
 77
     6
 78
     2
 67
     7
 79
     3
170
     0
171
     0
290
     0
174
     0
 93
        1
 44
0.0
173
     0
291
     0
 45
0.0
1001
ACAD
1000
AcDbSavedByObjectVersion
1070
     0
  0
VISUALSTYLE
  5
814E
102
{ACAD_XDICTIONARY
360
84D4
102
}
102
{ACAD_REACTORS
330
813B
102
}
330
813B
100
AcDbVisualStyle
  2
X-Ray
 70
    25
 71
     2
 72
     2
 73
     1
 90
        1
 40
0.5
 41
-30.0
 62
     5
 63
     7
 74
     1
 91
        0
 64
     7
 65
   257
 75
     1
175
     1
 42
1.0
 92
        8
 66
     7
 43
1.0
 76
     1
 77
     6
 78
     2
 67
     7
 79
     3
170
     0
171
     0
290
     0
174
     0
 93
       13
 44
0.0
173
     0
291
     0
 45
0.0
1001
ACAD
1000
AcDbSavedByObjectVersion
1070
     0
  0
DICTIONARYVAR
  5
8492
102
{ACAD_REACTORS
330
811A
102
}
330
811A
100
DictionaryVariables
280
     0
  1
1:1
  0
DICTIONARYVAR
  5
848E
102
{ACAD_REACTORS
330
811A
102
}
330
811A
100
DictionaryVariables
280
     0
  1
STANDARD
  0
DICTIONARYVAR
  5
848D
102
{ACAD_REACTORS
330
811A
102
}
330
811A
100
DictionaryVariables
280
     0
  1
STANDARD
  0
DICTIONARYVAR
  5
848F
102
{ACAD_REACTORS
330
811A
102
}
330
811A
100
DictionaryVariables
280
     0
  1
Metric50
  0
DICTIONARYVAR
  5
8490
102
{ACAD_REACTORS
330
811A
102
}
330
811A
100
DictionaryVariables
280
     0
  1
Metric50
  0
DICTIONARYVAR
  5
811B
102
{ACAD_REACTORS
330
811A
102
}
330
811A
100
DictionaryVariables
280
     0
  1
1
  0
DICTIONARYVAR
  5
849B
102
{ACAD_REACTORS
330
811A
102
}
330
811A
100
DictionaryVariables
280
     0
  1
0
  0
DICTIONARYVAR
  5
8494
102
{ACAD_REACTORS
330
811A
102
}
330
811A
100
DictionaryVariables
280
     0
  1
1
  0
DICTIONARYVAR
  5
8495
102
{ACAD_REACTORS
330
811A
102
}
330
811A
100
DictionaryVariables
280
     0
  1
15
  0
DICTIONARYVAR
  5
8493
102
{ACAD_REACTORS
330
811A
102
}
330
811A
100
DictionaryVariables
280
     0
  1
0
  0
DICTIONARYVAR
  5
8491
102
{ACAD_REACTORS
330
811A
102
}
330
811A
100
DictionaryVariables
280
     0
  1
0
  0
DICTIONARYVAR
  5
849A
102
{ACAD_REACTORS
330
811A
102
}
330
811A
100
DictionaryVariables
280
     0
  1
127
  0
DICTIONARYVAR
  5
849C
102
{ACAD_REACTORS
330
811A
102
}
330
811A
100
DictionaryVariables
280
     0
  1
2
  0
DICTIONARY
  5
84A8
102
{ACAD_REACTORS
330
84A6
102
}
330
84A6
100
AcDbDictionary
281
     1
  0
DICTIONARY
  5
84A7
102
{ACAD_REACTORS
330
84A6
102
}
330
84A6
100
AcDbDictionary
281
     1
  3
2129893512
350
84A1
  3
2129893520
350
84A2
  3
2129893528
350
84A3
  3
2129893536
350
84A4
  3
2129893544
350
84A5
  0
DICTIONARY
  5
848A
330
816E
100
AcDbDictionary
280
     1
281
     1
  3
ACAD_XREC_ROUNDTRIP
360
84E5
  0
DICTIONARY
  5
84A9
330
8043
100
AcDbDictionary
280
     1
281
     1
  3
ACAD_XREC_ROUNDTRIP
360
84AA
  0
DICTIONARY
  5
84AB
330
8044
100
AcDbDictionary
280
     1
281
     1
  3
ACAD_XREC_ROUNDTRIP
360
84AC
  0
DICTIONARY
  5
812C
330
812B
100
AcDbDictionary
280
     1
281
     1
  3
ACAD_XREC_ROUNDTRIP
360
84AE
  3
BUMPTILE
360
812E
  3
DIFFUSETILE
360
812D
  3
OPACITYTILE
360
8131
  3
REFLECTIONTILE
360
8130
  3
REFRACTIONTILE
360
8132
  3
SPECULARTILE
360
812F
  0
DICTIONARY
  5
8124
330
8123
100
AcDbDictionary
280
     1
281
     1
  3
ACAD_XREC_ROUNDTRIP
360
84AD
  3
BUMPTILE
360
8126
  3
DIFFUSETILE
360
8125
  3
OPACITYTILE
360
8129
  3
REFLECTIONTILE
360
8128
  3
REFRACTIONTILE
360
812A
  3
SPECULARTILE
360
8127
  0
DICTIONARY
  5
8134
330
8133
100
AcDbDictionary
280
     1
281
     1
  3
ACAD_XREC_ROUNDTRIP
360
84AF
  3
BUMPTILE
360
8136
  3
DIFFUSETILE
360
8135
  3
FBXASSET
360
8186
  3
OPACITYTILE
360
8139
  3
REFLECTIONTILE
360
8138
  3
REFRACTIONTILE
360
813A
  3
SPECULARTILE
360
8137
  0
DICTIONARY
  5
84E2
330
816A
100
AcDbDictionary
280
     1
281
     1
  3
ACAD_XREC_ROUNDTRIP
360
84E3
  0
DICTIONARY
  5
8488
330
816C
100
AcDbDictionary
280
     1
281
     1
  3
ACAD_XREC_ROUNDTRIP
360
84E4
  0
DICTIONARY
  5
849D
330
8156
100
AcDbDictionary
280
     1
281
     1
  3
ACAD_ROUNDTRIP_2008_TABLESTYLE_CELLSTYLEMAP
360
849E
  3
ACAD_XREC_ROUNDTRIP
360
84E0
  0
DICTIONARY
  5
84BA
330
8141
100
AcDbDictionary
280
     1
281
     1
  3
ACAD_XREC_ROUNDTRIP
360
84BB
  0
DICTIONARY
  5
84B8
330
8140
100
AcDbDictionary
280
     1
281
     1
  3
ACAD_XREC_ROUNDTRIP
360
84B9
  0
DICTIONARY
  5
84C6
330
8147
100
AcDbDictionary
280
     1
281
     1
  3
ACAD_XREC_ROUNDTRIP
360
84C7
  0
DICTIONARY
  5
84CE
330
814B
100
AcDbDictionary
280
     1
281
     1
  3
ACAD_XREC_ROUNDTRIP
360
84CF
  0
DICTIONARY
  5
84C0
330
8144
100
AcDbDictionary
280
     1
281
     1
  3
ACAD_XREC_ROUNDTRIP
360
84C1
  0
DICTIONARY
  5
84C4
330
8146
100
AcDbDictionary
280
     1
281
     1
  3
ACAD_XREC_ROUNDTRIP
360
84C5
  0
DICTIONARY
  5
84DE
330
8153
100
AcDbDictionary
280
     1
281
     1
  3
ACAD_XREC_ROUNDTRIP
360
84DF
  0
DICTIONARY
  5
84CC
330
814A
100
AcDbDictionary
280
     1
281
     1
  3
ACAD_XREC_ROUNDTRIP
360
84CD
  0
DICTIONARY
  5
84B0
330
813C
100
AcDbDictionary
280
     1
281
     1
  3
ACAD_XREC_ROUNDTRIP
360
84B1
  0
DICTIONARY
  5
84B2
330
813D
100
AcDbDictionary
280
     1
281
     1
  3
ACAD_XREC_ROUNDTRIP
360
84B3
  0
DICTIONARY
  5
84B4
330
813E
100
AcDbDictionary
280
     1
281
     1
  3
ACAD_XREC_ROUNDTRIP
360
84B5
  0
DICTIONARY
  5
84B6
330
813F
100
AcDbDictionary
280
     1
281
     1
  3
ACAD_XREC_ROUNDTRIP
360
84B7
  0
DICTIONARY
  5
84BE
330
8143
100
AcDbDictionary
280
     1
281
     1
  3
ACAD_XREC_ROUNDTRIP
360
84BF
  0
DICTIONARY
  5
84DA
330
8151
100
AcDbDictionary
280
     1
281
     1
  3
ACAD_XREC_ROUNDTRIP
360
84DB
  0
DICTIONARY
  5
84CA
330
8149
100
AcDbDictionary
280
     1
281
     1
  3
ACAD_XREC_ROUNDTRIP
360
84CB
  0
DICTIONARY
  5
84DC
330
8152
100
AcDbDictionary
280
     1
281
     1
  3
ACAD_XREC_ROUNDTRIP
360
84DD
  0
DICTIONARY
  5
84C2
330
8145
100
AcDbDictionary
280
     1
281
     1
  3
ACAD_XREC_ROUNDTRIP
360
84C3
  0
DICTIONARY
  5
84D8
330
8150
100
AcDbDictionary
280
     1
281
     1
  3
ACAD_XREC_ROUNDTRIP
360
84D9
  0
DICTIONARY
  5
84D6
330
814F
100
AcDbDictionary
280
     1
281
     1
  3
ACAD_XREC_ROUNDTRIP
360
84D7
  0
DICTIONARY
  5
84D0
330
814C
100
AcDbDictionary
280
     1
281
     1
  3
ACAD_XREC_ROUNDTRIP
360
84D1
  0
DICTIONARY
  5
84D2
330
814D
100
AcDbDictionary
280
     1
281
     1
  3
ACAD_XREC_ROUNDTRIP
360
84D3
  0
DICTIONARY
  5
84C8
330
8148
100
AcDbDictionary
280
     1
281
     1
  3
ACAD_XREC_ROUNDTRIP
360
84C9
  0
DICTIONARY
  5
84BC
330
8142
100
AcDbDictionary
280
     1
281
     1
  3
ACAD_XREC_ROUNDTRIP
360
84BD
  0
DICTIONARY
  5
84D4
330
814E
100
AcDbDictionary
280
     1
281
     1
  3
ACAD_XREC_ROUNDTRIP
360
84D5
  0
XRECORD
  5
84A1
102
{ACAD_REACTORS
330
84A7
102
}
330
84A7
100
AcDbXrecord
280
     1
  1
AcDb_Thumbnail_Schema
102
{ATTRRECORD
341
84A2
  2
AcDbDs::TreatedAsObjectData
280
     1
291
     1
102
ATTRRECORD}
102
{ATTRRECORD
341
84A3
  2
AcDbDs::Legacy
280
     1
291
     1
102
ATTRRECORD}
  2
AcDbDs::ID
280
    10
 91
        8
102
{ATTRRECORD
341
84A4
  2
AcDs:Indexable
280
     1
291
     1
102
ATTRRECORD}
102
{ATTRRECORD
341
84A5
  2
AcDbDs::HandleAttribute
280
     7
282
     1
102
ATTRRECORD}
  2
Thumbnail_Data
280
    15
 91
        0
  0
XRECORD
  5
84A2
102
{ACAD_REACTORS
330
84A7
102
}
330
84A7
100
AcDbXrecord
280
     1
  1
AcDbDs::TreatedAsObjectDataSchema
  2
AcDbDs::TreatedAsObjectData
280
     1
 91
        0
  0
XRECORD
  5
84A3
102
{ACAD_REACTORS
330
84A7
102
}
330
84A7
100
AcDbXrecord
280
     1
  1
AcDbDs::LegacySchema
  2
AcDbDs::Legacy
280
     1
 91
        0
  0
XRECORD
  5
84A4
102
{ACAD_REACTORS
330
84A7
102
}
330
84A7
100
AcDbXrecord
280
     1
  1
AcDbDs::IndexedPropertySchema
  2
AcDs:Indexable
280
     1
 91
        0
  0
XRECORD
  5
84A5
102
{ACAD_REACTORS
330
84A7
102
}
330
84A7
100
AcDbXrecord
280
     1
  1
AcDbDs::HandleAttributeSchema
  2
AcDbDs::HandleAttribute
280
     7
 91
        1
284
     1
  0
XRECORD
  5
84E5
102
{ACAD_REACTORS
330
848A
102
}
330
848A
100
AcDbXrecord
280
     1
102
DISPLAYNAME
  1
Metric50
102
FLAGS
 90
        0
  0
XRECORD
  5
84AA
102
{ACAD_REACTORS
330
84A9
102
}
330
84A9
100
AcDbXrecord
280
     1
102
SHADEPLOT
 70
     0
102
SHADEPLOTRESLEVEL
 70
     2
102
SHADEPLOTCUSTOMDPI
 70
   300
  0
XRECORD
  5
84AC
102
{ACAD_REACTORS
330
84AB
102
}
330
84AB
100
AcDbXrecord
280
     1
102
SHADEPLOT
 70
     0
102
SHADEPLOTRESLEVEL
 70
     2
102
SHADEPLOTCUSTOMDPI
 70
   300
  0
XRECORD
  5
84AE
102
{ACAD_REACTORS
330
812C
102
}
330
812C
100
AcDbXrecord
280
     1
102
MATERIAL
148
0.0
149
0.0
149
0.0
 93
        0
 94
      127
282
     0
 72
     0
 77
     0
171
     0
175
     0
179
     0
273
     0
  0
XRECORD
  5
812E
102
{ACAD_REACTORS
330
812C
102
}
330
812C
100
AcDbXrecord
280
     1
270
     1
271
     1
  0
XRECORD
  5
812D
102
{ACAD_REACTORS
330
812C
102
}
330
812C
100
AcDbXrecord
280
     1
270
     1
271
     1
  0
XRECORD
  5
8131
102
{ACAD_REACTORS
330
812C
102
}
330
812C
100
AcDbXrecord
280
     1
270
     1
271
     1
  0
XRECORD
  5
8130
102
{ACAD_REACTORS
330
812C
102
}
330
812C
100
AcDbXrecord
280
     1
270
     1
271
     1
  0
XRECORD
  5
8132
102
{ACAD_REACTORS
330
812C
102
}
330
812C
100
AcDbXrecord
280
     1
270
     1
271
     1
  0
XRECORD
  5
812F
102
{ACAD_REACTORS
330
812C
102
}
330
812C
100
AcDbXrecord
280
     1
270
     1
271
     1
  0
XRECORD
  5
84AD
102
{ACAD_REACTORS
330
8124
102
}
330
8124
100
AcDbXrecord
280
     1
102
MATERIAL
148
0.0
149
0.0
149
0.0
 93
        0
 94
      127
282
     0
 72
     0
 77
     0
171
     0
175
     0
179
     0
273
     0
  0
XRECORD
  5
8126
102
{ACAD_REACTORS
330
8124
102
}
330
8124
100
AcDbXrecord
280
     1
270
     1
271
     1
  0
XRECORD
  5
8125
102
{ACAD_REACTORS
330
8124
102
}
330
8124
100
AcDbXrecord
280
     1
270
     1
271
     1
  0
XRECORD
  5
8129
102
{ACAD_REACTORS
330
8124
102
}
330
8124
100
AcDbXrecord
280
     1
270
     1
271
     1
  0
XRECORD
  5
8128
102
{ACAD_REACTORS
330
8124
102
}
330
8124
100
AcDbXrecord
280
     1
270
     1
271
     1
  0
XRECORD
  5
812A
102
{ACAD_REACTORS
330
8124
102
}
330
8124
100
AcDbXrecord
280
     1
270
     1
271
     1
  0
XRECORD
  5
8127
102
{ACAD_REACTORS
330
8124
102
}
330
8124
100
AcDbXrecord
280
     1
270
     1
271
     1
  0
XRECORD
  5
84AF
102
{ACAD_REACTORS
330
8134
102
}
330
8134
100
AcDbXrecord
280
     1
102
MATERIAL
148
0.0
149
0.0
149
0.0
 93
        0
 94
      127
282
     0
 72
     0
 77
     0
171
     0
175
     0
179
     0
273
     0
  0
XRECORD
  5
8136
102
{ACAD_REACTORS
330
8134
102
}
330
8134
100
AcDbXrecord
280
     1
270
     1
271
     1
  0
XRECORD
  5
8135
102
{ACAD_REACTORS
330
8134
102
}
330
8134
100
AcDbXrecord
280
     1
270
     1
271
     1
  0
XRECORD
  5
8186
102
{ACAD_REACTORS
330
8134
102
}
330
8134
100
AcDbXrecord
280
     1
 70
     1
 90
1959938040
 71
     1
  1
BC801DD5-703D-4682-AD66-7B1FBBA83130
311
504B0304140006080800BA568B4F2E72C134D8000000200100004F00000034333531454635352D353037362D343333422D423742452D3138344344353934334433422F4173736574446174612F446566696E6974696F6E4974657261746F7250726F706572746965732E62696E454E3D4FC33010350C200686FE83AABB71CE
311
290D546D114A02135D6062A9AEEE3544729CCA76244646FE359C45514FF7EEFBDEDDB710E2E7281C8A33C617DB6BF6CFE4C8B7E6D57C5087E222556CBF457B79EA9D7398D28AF638D898B65EDA60C85A74D40F61741A1D7718990EED4D5ABA62FC17426268FE8EA5FB6B467A2979DC1DE60F1802C5A5DA6F3F55A5CB62A601
311
24C05D29A7D3A75A3EE6B35CD6455E970055A5EB42790AFDE00D05A555B639326F0EAEA1E5C478E23F769395CEE05E8266A237C8E6B739EBFB42C5B6A3D52244DFBA66ECB0FB05504B0304140006080800BA568B4F9776125007010000300200004500000034333531454635352D353037362D343333422D423742452D3138
311
344344353934334433422F4173736574446174612F496E7374616E636550726F706572746965732E62696EEB606060F80F0540260323103700495E20ED9E9A975A94991C9C9C919A9BA802147072B63030747131D535373076D13531B330D275743133D335773274737272B430363436604768046931363471713532B5D435
311
353131066A3132D475727372D13534373670367376B67474B5042A03DBCBA019D37FE8ABC6157B20CD04146B0062181F4C03F940F0C11EA29A8141C08141002C0426541C106CAC2CA046088033B02A030AC2157C6006F21A8018AAF50194E6010A610250382264E08660284CD9E98021862280A91564B406929A0FF62C401E
311
28B6F88038B83CB1243943D7A928312F2535052403033A408623102B31093214B129C284516890D9300164F5B7D86460C2701A00504B0304140006080800BA568B4F28BB58AF800100009E0500003D00000034333531454635352D353037362D343333422D423742452D3138344344353934334433422F536368656D61732F
311
436F6D6D6F6E536368656D612E786D6CBD544D4FC23018BEFB2B96DE15493C78601010A34B880709DEDFB52FD0D8B54BD70DF6EFED3AC0B12E6442E2716BFB3CEFF3D18E26FB440405EA8C2B1992E1C323095052C5B8DC842437EBFB673219DF8DA659866649B798C078B48AE6410122242F2A4994AC7F93815DF85C049C85
311
64CA0A901499DD886B2EB9B1E02448F358701A9235880C49A0119892A20C89D1B9FD768815CAD268CB5E0355B40B1E47F3E37A2020464BED06AA57CE8FCC20C3C3446D46761A2632A8C1283D07031EFF2AE7CCB1BFEEE916E406DFAC8E36FFD99A9D60A6944090EEDC3B670C7DC13DE86B6B2C5C240D6E503BB85ACD579D51
311
3F1B9F9A69DC9CC22AFA80C426D40AF0B21EA168559156B6276F0F726A6BFF04DCD513A87A62CAD41FB24FCB2858B3952E3D852084DA25B9303C15687973CC8E8AAE11DF2836C38C6A9E765E8C1BA1BFB1DC29CDFE518C8B5A7655A4ED7E77291ABEB80DBD82EC866ADE1B8D05AF9E35CF09D7A061F38A986D9EC412B8F0F6
311
5E5D81534D9B231D1E5A8FE577A241F3A5FD01504B0304140006080800BA568B4F2CCEBD668A040000E01200003E00000034333531454635352D353037362D343333422D423742452D3138344344353934334433422F536368656D61732F47656E65726963536368656D612E786D6CD5586D6FDB380CFE7EBF42F0F7A649B7
311
0E1B90744856B4970F450FCD7A5F05459613EDE4174872DADCAF3F522F8ED3B88D2F1D06AC4050DBA2493EE4438AF2F8EB73AEC8466823CB62928C06C384888297A92C5693A4B6D9D9E7E4EBD51FE3A931C22EF85AE4EC6AFC38BF261BA626C9AD288496DC3F4FCEAFC63366845F7A10452AF41DB320C0D44EC26EAB209187
311
35565582695670811A6A49643A49A6E9069FA4604A64B29016DC4B48552F95E4932463CA888468C1D2B250DB4962750DF7CE273069CE8363F1FF4EDB00E0A21999574AE4A2B00C353B93F3BD4777B8A61ED8F604ABFEDD79CE56A2B7BDFBDBC50996E0ADDE16FED26223C5D30956C29BDF4A55EA686E5E58B112DA45CE67F7
311
6F4FA27EFA3FB672FD7372FC388FAECDCA5209E693CAD167BADCD272F943701B3812F8A3D852008B1D2E32DB927B2F833C6EA95879925356D254582695095A3CE982924720BE5774A3CB9CDCDB350427D2DF20DA1B5532EBE2D5D6288D75D4F7E4FD9890A0EF8E3D93EBB8F8BA4758158EF6FB90A6F9520281C93DE7AAC6D2
311
4607DA296BB96018123F821A7D6A5C5884050C475DA4865442732C8B95684A50165CBB3A32F25F783A4A480ED59AD7F924B968AEA50131F46303223E6A397B0E52976030DC1DCA81D7E7C1EDEEA42C19FF27635C505E2BD5198A599020DF50A2330FCB3AAF28CB0124108429553EF1B228802E2265D8F7CC2401042B155BCC
311
7070F1E5C55F13B4A9577362CCCE46C32174E010C3C378C44841A4BDA00FE3A12006CE11EE6AEC59894D3526DDE1CD59D503ECC324017F8061B7F162162FA62EDD81AE3308617770796DCBDAD2B2625C5AE8A63DE20B2C8AA5E95E76E5730823955956E33E705425A2187C185D36489A1B44D3DCEC2172F6BA2105C3546287
311
A7194B2331768EBBE64F6E70A9930ABE0ADEA89E9E2C38523B810287AD67A54A039C1606EAFE68F8304610BB9093DBDDABC0B2AE4E290DCDA15376D7E39F72B556F0B32EAB5D3D498B4C41ABADEC3A1434C422D87E8025A84BDCB2B1417ED750FAE4DA8976863974C577C7F902D3F156AD354DEA3540DE6BEAE2BEA52F7A2E
311
B4CA43802ECE5BF2CE2EDC9347179FFB023CE412E60BE16DA0BE29B374988A553F561DC04615DD35F7D2C8979F60E5955CE93DF29DED8AFA1EE6642D53418086C03C47C377910F75F7E8F5EF665F70B60FFB22AEDF897D119E8423C773E819A3C1E55E550599EE6EDCA34D0C86FD72057DF2CD46F16A470682471C164E4346
311
D5306BF12D7D12D82CFF673D41636C347443FEB51B50D72EA171A8E4A58623A4A16E0FA2B8B10A0D23268D87C33896EE8FB73305A74BF224EDBADFA0BD674AB354D63DB7BD5D83426761C077DE767728235446A552754EB93B755891C3C4CC6CADE37CF0E912A7BB38DBA010F9DE1282EDF470CA69A9CDA482E334C4A6EA41
311
07987980B17E72F31730EBF88BBD39E7C629F56797A3C0009C2C5AE7951D9A05A02773440F02EEB4DE396A3B6A570C72CCFBCD823B0B8ED3F1D5CEDDFED772FA70236C83FB7D86C385D570B87107535572A60A96035F8F7C6A7192F13007246BBE0521855E6AC46F3E27689CEE7D186A6FD679D98CDCAD13333E04EBE7ED6F
311
55FF01504B0304140006080800BA568B4F6180134D5F0100006B0300004500000034333531454635352D353037362D343333422D423742452D3138344344353934334433422F536368656D61732F52656E6465724D6174657269616C536368656D612E786D6CA5934D6FC2300C86EFFB1551EEE343DBA41D1A103009551ADA
311
D40EAE28A4A68D9426284961FCFBE5A340113B2071746D3F765EBF4DC6BFB5407BD0862B49F0B037C0082453059725C18DDD3EBFE3F1E829991803366715D474942CD30FB4A782E00C64017A412D684E454CE3FE28995203B162A6EA5AC94B66997D225E109CD63B0135484BAD1B3C07E9080CA35DB3119C11BCA5C200461A
311
68A1A438126C75E3E230D40FF81FB3F03C91D1E3A3A0AF79FE28E25BC39EC3E17E4C2A2D94A0833A51AF55BCCA7D88572FCBAC529C4140B020FC3AAFA886621DCED7EAD7664CC86024E806DC297DA1BB393E4156543457A4537DB8817349A70F8ACBF09B3EEE2CB2F33E91B65D60786E4E3B39B77E3FEEEF5650424525DA65
311
7FB8B46BE6BF064646F0A0F7327C0BC1BC1B4CBBC1C419FA3CCB23500007872A2580CAAE5461865565294E4EDB4617B62FF579DF9A5B2F54E834076A597573A020912FED777F9B3F504B0304140006080800BA568B4FF4E0B7F151000000570000004700000034333531454635352D353037362D343333422D423742452D31
311
38344344353934334433422F4173736574446174612F41737365745461626C654F66436F6E74656E74732E62696E536160607072B63030747131D535373076D13531B330D275743133D335773274737272B4303634361002AACB4D2C492DCA4CCC492C28484D2C4ACC4B4E050A82012F90744FCD03CA26072767A4E6260200
311
504B0304140006080800BA568B4FF865834058000000680000004500000034333531454635352D353037362D343333422D423742452D3138344344353934334433422F4173736574446174612F53747265616D56657273696F6E5461626C652E696E66558CBD0A80300C06F73E4B117FB66E451741D041DC5BF98480A492E4
311
FDD18EAEC7DD4555D89EF28DF51A0B1BD8340C4DE7DD848B988C0ACF0649566493F2408C508DDEBB99D5129FF8F1AF8CF5B9503E20FAE5A16B5AF702504B0304140006080800BA568B4F0DE23627330100009A0400003600000034333531454635352D353037362D343333422D423742452D3138344344353934334433422F
311
4173736574446174612F636E782E786D6CCD54B14EC33010FD95C87BECB8080990E30AC1D209242A06B6AB7329561D3BB22F08FE1E3BCD002A62EA50C9D3F3BBBBE727BF53EBCFC1551F18930DBE659237AC426F4267FDBE6513F5F50DABD65AC510E8078D551E066C59819956FB18A671813AEC61720575D61F16F03E25A4
311
2DEC1C3EF50FC1137A4AAC320E526A5932EF380087894287E9C03B20E092474C618A067327B2032E9D4C4420EC985E35F2B696AB5ACAAD6CEEAEAFF27953A230B5DA85E016BECDC362182B739CCA74A344B9D66A8A76E194B730FD9746BEB35E89CCD42A51CC9E2C15F435E60A1847670D50B64E0443487526210C4A1CC95A
311
89E2C12F271EB1B7DE96924D160614E2739687912C5E9C23FF693DBF331B9F08BCC1CBF5E354E1F95D78997FD0EB319073622E2D27A70AB9F5FD195222E635924353B68AFE06504B0304140006080800BA568B4F8296C402070100004F0300003400000034333531454635352D353037362D343333422D423742452D313834
311
4344353934334433422F536368656D61732F636E782E786D6CCD93BD4E442110855F85D02F5CD698A8E1B28585958D5AD921CCAE6481B9E1C7E8DB0B578ADDC44E8B4D28E0F06532E730C8DD67F0E403527618672AD844094483D6C5C34C6BD96F6E28D9299910CB094649D40166DA65AAE421615D866461AFABEFAA77F138
311
C47B0C01E3B37987A029315EE73CD3BC1E99AE052DE423B3BA682658828C351968158A0B302A9804BA80A56A3B89DB8DD86E847811D3DDF5555BAF927752C937443F78170B245C88C1B689AD9D49F27EAD644D6E30DD0355A7BDB19686E48D503297D4321864F95A1AA997C53BA34B8B8AAFE00FA324EF56CF0C3F4084E4CC
311
653A3E6BEEDF2C3F41B4901EDB2B25A7FD653AFFADC7BF05C0D7D96F23D0BF82FA06504B0304140006080800BA568B4F410A3D5871000000A40000002C00000034333531454635352D353037362D343333422D423742452D3138344344353934334433422F636E782E786D6C55CC4D0E82301086E1AB34B31774E7A22D31F1
311
069E60020334B633A63FC6E34B0909B07DDE2F9FEE7EC1AB2FC5E4840DDC9A2B28E25E06C7938192C7CB1D54677514C9871928C640062A83D55394F2D968A0118BAFEA1DBF377CA444F98919176EAB9FEAAB9F2960DA5BBB1E2ED3FA6FFF504B0304140006080800BA568B4FDE4FAE937E000000A300000007000000636E78
311
2E786D6C4D8CD10A832018465F45FE7BB7445D0DD4C06AEF11CB42661A2E638F3F1D5DECEA83C3778E683FAB4387896F1BBC0472A90019FF0C93F58B84B4CFB801D42A1143D8FF6E80FCB81A090583124B0C693BD164E631B9429DF5AF1332CAC9F0E01CF3AABE6146A9C6BAD603260DEB7A7E67B4A73A1BD7A2E4F9F5F296
311
BCFA02504B0304140006080800BA568B4F16E99B5DA600000035010000130000005B436F6E74656E745F54797065735D2E786D6C9590410E82301045AFD2740F4517C6180A0BF5065E60AC53688469D30E066F6F91AD9AB89CF9FFFD3F99BA9DC7413C3026E749CB4D59498164FCCD51A7E5C4B6D84BD136F5E5193089ECA5
311
A465CF1C0E4A25D3E308A9F401292BD6C711388FB15301CC1D3A54DBAADA29E38991B8E0254336F5092D4C038BF39CD76B6FC6A538AEBEA54A4B08617006389FA516557DE4AE8E7E70DE30729138228C5F021CD93F02D4FB0DCD0B504B0304140006080800BA568B4F3DEE336E64000000790000001B0000006175746F6465
311
736B2D64657369676E2D7061636B6167652E786D6C35CBC10E83200C00D05F21DCA56CA76D41FC96062B120735B69A7DBE268BB7777961F8D5AF396893C2ADB70FE7ADA196782C2DF776D7A97B5933C430F15651E5469C55D70F80A4992A3ADC954792C525AE70A1E4D6AD9816CC044FEFDF01FE3FDE907802504B03041400
311
06080800BA568B4FB4343B9FF9000000960100003700000034333531454635352D353037362D343333422D423742452D3138344344353934334433422F4173736574446174612F636F72652E786D6C8550CB6E833010FC15B477038642D3C838E251BEA0A7DE2CDBA156828DFCA8FAF9B50395DA53254B6BCDCECCEE0EB97C
311
ADF7EC535AA78CEE00E72564527323945E3A08FE8A4E905D28B1C6F85F34C8345B650709064A166BC27640DC682F7542B511F2009973D243C6EFF1D381E31F7265390B3E32DC2DDF18BFB145E638DF799484A0C4215522BAA9AB92166835BE3E976DD3A3716C7BF4D4CE0D1ADAFA84A66618FA7E9ACB793C91228929F16AFD
311
99CEAD645E8AA82FF10BC215C2F80D97E7A68EEF9D14894989F336DE7C0C4DD701EDD3D613F38C147BF78F6BD8C4FFAE41695F5787EBAE7040715CF2D1A0A44829C5F28830D69428FD06504B0304140006080800BA568B4F2CDEBC02F7000000940100003500000034333531454635352D353037362D343333422D42374245
311
2D3138344344353934334433422F536368656D61732F636F72652E786D6C85505D6F842010FC2B66DF51D16AAF0D7251AFFE81F6A96F04384BEE04C347D39F5F509BB44F4D4896CCCECCEE0E397F2DF7EC535AA78CEE00E72564527323949E3B08FE8A4E909D29B1C6F85F34C8345B640709064A666BC27A40DC682F7542B5
311
11F2009973D243C6EFF1D381E31F7261390B3E32DC2D5F19BFB159E638DF799484A0C4215522BAA9AB92166835BE3C966DD3A3716C7BF4D04E0D1ADAFA842ECD30F4FD652AA7F1448A24A6C4ABE5673AB7927929A2BEC44F085708E3375C3E37757CEFA4484C4A9CB7F1E66368BA0EE8EBB6A723C5DEFBE31956F1BF6750DA
311
D7D5E1B92B1C501C57DC1A941429A358B600634D79D26F504B0304140006080800BA568B4FEA17AF3501010000D70100002D00000034333531454635352D353037362D343333422D423742452D3138344344353934334433422F636F72652E786D6C9591DD4EC42010855FA5997BDA528ABB6B289BD45D9FC02BEFB0CC56B2
311
5B68F8313EBED4D6A8779A90400EDF193833E2F83EDD8A37F4C138DB012D6B28D00E4E1B3B7690E285ECA1384AE19D8B3F3028AC9AB08345062946EFD2BC4983B311EDA25AA77113550818A1186EF9D041185E7152A54A3113E15ACE6AB8AA114B5AAE9C14D14C5FD6C1A38AA84136353D10DA104A9F687DCF595ECFA25A48
311
2992B19135DB6338BDA02EDC1C7324905C54EB6DA692D11B6374FEA3B918F4205BC6E9F99173C2EBDD1D6919EB49BFEBCF84EEDB87133FB4ECC4FA5C249BA508D1E7CE6C45961EFCD5BE1A7F254BB3FE67B2D51140D2EF50D5D26629AACF19E47D1989FC00504B0304140006080800BA568B4FFFCD085408010000B2010000
311
08000000636F72652E786D6C8D505D6F842010FC2B847714B45ADB2017F5EA2FE853DFA870969C82E1E3D2FEFBC26993F6AD09C992D9999DD9A5A7CF750137699D32BA8524C310483D19A1F4DCC2E02FA881E0C4A835C6FFA241A0F92A5B9860C8E86C4DD80E6832DA4B9D506D843C40EE9CF4104C4BFCB4D04D1F72E5190F
311
3E32DC35DBF874E5B3CC48B6F318F56AFD914E56722F056405264F8814889057829FAB32BE379A2726A3212871582911DDD545491B25C3CB23AEAB0E0D43DDA1877AAC505F970D3A577DDF75E7118F4343F32466D4791B773E86C49C1E387E4BBE34DF5B8CBE1BB31C84184A00A3972FC830CD53E34FE8B0897F8456DA97C5
311
31705738C8480C746F44E374C158EEE78D355D9B7D03504B01021400140006080800BA568B4F2E72C134D8000000200100004F000000000000000000000000000000000034333531454635352D353037362D343333422D423742452D3138344344353934334433422F4173736574446174612F446566696E6974696F6E4974
311
657261746F7250726F706572746965732E62696E504B01021400140006080800BA568B4F97761250070100003002000045000000000000000000000000004501000034333531454635352D353037362D343333422D423742452D3138344344353934334433422F4173736574446174612F496E7374616E636550726F706572
311
746965732E62696E504B01021400140006080800BA568B4F28BB58AF800100009E0500003D00000000000000000000000000AF02000034333531454635352D353037362D343333422D423742452D3138344344353934334433422F536368656D61732F436F6D6D6F6E536368656D612E786D6C504B01021400140006080800
311
BA568B4F2CCEBD668A040000E01200003E000000000000000000000000008A04000034333531454635352D353037362D343333422D423742452D3138344344353934334433422F536368656D61732F47656E65726963536368656D612E786D6C504B01021400140006080800BA568B4F6180134D5F0100006B030000450000
311
00000000000000000000007009000034333531454635352D353037362D343333422D423742452D3138344344353934334433422F536368656D61732F52656E6465724D6174657269616C536368656D612E786D6C504B01021400140006080800BA568B4FF4E0B7F15100000057000000470000000000000000000000000032
311
0B000034333531454635352D353037362D343333422D423742452D3138344344353934334433422F4173736574446174612F41737365745461626C654F66436F6E74656E74732E62696E504B01021400140006080800BA568B4FF865834058000000680000004500000000000000000000000000E80B000034333531454635
311
352D353037362D343333422D423742452D3138344344353934334433422F4173736574446174612F53747265616D56657273696F6E5461626C652E696E66504B01021400140006080800BA568B4F0DE23627330100009A0400003600000000000000000000000000A30C000034333531454635352D353037362D343333422D
311
423742452D3138344344353934334433422F4173736574446174612F636E782E786D6C504B01021400140006080800BA568B4F8296C402070100004F03000034000000000000000000000000002A0E000034333531454635352D353037362D343333422D423742452D3138344344353934334433422F536368656D61732F63
311
6E782E786D6C504B01021400140006080800BA568B4F410A3D5871000000A40000002C00000000000000000000000000830F000034333531454635352D353037362D343333422D423742452D3138344344353934334433422F636E782E786D6C504B01021400140006080800BA568B4FDE4FAE937E000000A3000000070000
311
00000000000000000000003E100000636E782E786D6C504B01021400140006080800BA568B4F16E99B5DA6000000350100001300000000000000000000000000E11000005B436F6E74656E745F54797065735D2E786D6C504B01021400140006080800BA568B4F3DEE336E64000000790000001B0000000000000000000000
311
0000B81100006175746F6465736B2D64657369676E2D7061636B6167652E786D6C504B01021400140006080800BA568B4FB4343B9FF90000009601000037000000000000000000000000005512000034333531454635352D353037362D343333422D423742452D3138344344353934334433422F4173736574446174612F63
311
6F72652E786D6C504B01021400140006080800BA568B4F2CDEBC02F7000000940100003500000000000000000000000000A313000034333531454635352D353037362D343333422D423742452D3138344344353934334433422F536368656D61732F636F72652E786D6C504B01021400140006080800BA568B4FEA17AF3501
311
010000D70100002D00000000000000000000000000ED14000034333531454635352D353037362D343333422D423742452D3138344344353934334433422F636F72652E786D6C504B01021400140006080800BA568B4FFFCD085408010000B2010000080000000000000000000000000039160000636F72652E786D6C504B05
311
0600000000110011005A060000671700000000
310
504B0304140006080800BA568B4F000000000000000000000000370000006662782F31373633334331422D374445332D343835452D384542352D4136433039364433463332462F617474726962757465732E62696E504B0304140006080800BA568B4F000000000000000000000000350000006662782F3137363333433142
310
2D374445332D343835452D384542352D4136433039364433463332462F76657274696365732E62696E504B0304140006080800BA568B4FF270F1330600000004000000360000006662782F31373633334331422D374445332D343835452D384542352D4136433039364433463332462F747269616E676C65732E62696E6366
310
60600000504B0304140006080800BA568B4F51464CB48900000043010000360000006662782F31373633334331422D374445332D343835452D384542352D4136433039364433463332462F6469726563746F72792E786D6C9D8F310EC2300C45AF127987122606C71DD918B841D4B851A43646695A717C52A85029031293A5
310
A76FBF6FACEF7DA7264E43906840EF0FA03836E242F406C6DCEE4EA06AC22492573150D1F66C60C640E8938CB705396EEDD86DE9B5042FE27813D640EA63BB001C722AF6E55CB61E4863F58284D5D3F53DD715CE1C3985E63FD7F1B7EBDD617E9F1E504B0304140006080800BA568B4F0FC42B8E320700001A1C0000340000
310
006662782F31373633334331422D374445332D343835452D384542352D4136433039364433463332462F6F626A656374732E786D6CDD59EB6FE23810FF57ACDCE7BC08D0B2A2AC0AB4153A7577B5684FF72D32C1505F9D879CA48FFBEB6FECD8214E03A4FB905647A5121C673CF39BF764FAF12566E889F09CA6C995E53B9E
310
854812A55B9AECAFACB2D8D99716FA3843539EA645639F85121C932B4B2C5BB3E99EA765A696B664874BD65EBD9DFF8DF28824C44211C3797E65E5D10389B183CB22DD92FCD1D9E2023BFBDD8BE33BD54693EC9EE3ECA175548639490A6015D613A0A238F0CD9F20923B9BBA6283B12DE8B76D70629B2B053719A5495EE024
310
7AC355EBB8C111AE5AC705FE707933184DECD17018D8C3F1C0B7E7B7F3A5ED5F04DE62BC584CAE6F26169A4D3769CA6A056424D982165FAD993F75C59D5A7C854217DF519A24245268766DD812459792BC8D8901AC2F456B28A492B5B110F414FEC8B65EA0182C19686BE1F477D37AD3CD3F0042DEC74A794E8495E705075D
310
2BEC2B7FF0A66EB56AE885E628C605E11433C4E886630E0A82AD95820C32C25B04292430935AD4F49ABC82619FF7A52E2E772563C27FAD99F4B410FC9114B9E48CFE4BF881FBE669C013485BD2A4B854C216AF1990984C5DB958DD0B06EA660524DA31BC076B0131C5A660D0C26B2162C16A69CDFEBCDDBCAC457CE83E3CE3
310
694678212C4F3AB3F23BADC1866981F1F500A5C2D5D4DD0195AF00FD2740BEE6054D41739CBE0C5F865A768E937C97F218B4833C647BF0CF43E2F2CDD5D4AD1F9E2164C4CA639882DBFE244C0D318CB31B90CEA64F60F4290F9470EB0833B0E97B9A083F0743412C852588F7BBCD8B355B41308545780A33901EFEA6AEB844
310
F055D18178D3D25057F8EDA128ED306D3F3BE8EA0E6C86D3A8569521E3317C473F05DFEBE5FACF75C9773822F7CAB1976447135A4032ED66C800DD70F96FAB4FD223EF58BAC1ECF0B4B1298263F6A9881B1D6A592BB520A917E044A4E14A3372E59E82B73386139296B95AEF8A5351CA521E6E5EC3CA853BCFFA4BDB407598
310
3280CE5806C93DE23413985833A5AD3A103A0D41C1C2305716B8AFB41A6ECA380B719C968908B56F4DB1CD07C4196189405552D386ADBD5693DDD2DDAECC217875925C18402A7FD6842B0B1F421CEBE297931DC79044D324A49083C1593A4F300EA8C13BCD734ED82EA48C9571B8A30CF24818E3EC08FD9E123433D723797D
310
4EF9B693A06959DA27B50D09C015B01A249DADAA98AF74CAC9131565A6CC673A1B183B541D6ACD8647D285C8141D806A6394663E5F5C7AFE7239B22FBC600915D3E5C0BE5E8EC7F6C5DCBF9DCFAF2F033F38588944E010AD9AF90E5429CA1CC3FF8A8732DE249832B821C4C6DBECC347993DAF5C088DEE72B0B88012CDB77D
310
FF72610F87B737F675300EEC9B8BE066E10357839B0B97933C2D79447277E07AA136C92CD9B7D13B1F43A1AC399FECB4BEDAC2FC8F63683B27184AFC5D83686D951D0561DF202A1E6D87501C3D8A14154650F575BA4F2B88B6F9E88A73EF8CCB9E1378F2E3FB938137195C4EC6B5B19F0CD4F29C1F8E735D1244D077964598
310
6638A24577426DE1D2334EBF2BB738813F42804EFDBF3EE4749E51878434C67B12EEB0E8123A02E339093A73D89EA5794E1392CB2EEF4DF5D7A2E939504C9939B7C308691EC6A4C0DF637FB26D68D934C46616423F5A8889C0D9AAA03668D5811CA328BA5F48DC52FED730C771C6AA4EF71C06FE4043A07B9C2E8B134C8B23
310
9EC0DE425C84DE96C8C1C539EA35FBBA3EE8D45A9BFAE4BBC91F8147D735BF101E7D44FFD2C919F913F1B984A0321EF9C18556C439ACF45185E8E358099D67F41A3E13BA7FE85568F6D349A364AB8AEA82C4D0C6E2A2E4BDFC753CF2DE1CA4E242CB211A27BDB33894FD9BEEE0003DD9C01D2B6F1BC7401D4A139873F512E4
310
8D149D262C7521677A6274F50EBF3EA9EC26D51F8E97BFBC626E3A5F2C873FE771806AB90AC02AFA18357567D56DD443F9332E2208A46BF96DCFC123B6647B68CC0C725D25BAAE53CF55CF2B11506398D8621167EFC505FB8A41D5D03DE7EE5D55B4B9D5FA4A24360786D3073E0CA64D5A9FEFD62D2AB0D2FBE92F0223F2DC
310
A2A05617A21B3E41EADBEAD0F3B7282889BEAD4E3CFE5B74145A818D311A4C83F3945118CA932DDA9314B2378C1D7A741B3C26B9CCCA60BC2A48E937023D9E7EAA66AA05DE30FD74F4806130CD542F56463014858C7965A975F4078C41C524520EA79C4768C3540CB350C9E99505165B50E8B69C0D8CB3E4F050526F8D2BC1
310
B171B217F9BE7AAAFE7D784CA00351E92057BDA70F2E4A32C399A0B0CDE47B02A8FAAA1BB3E9F78BAED941B880CB4D59D4C21C160ED22810F40B814A3898FA3D2A785FA0A0382D97EFC83D0624BD26F327EDA0A26A1798EFE578BD81F7F5F28B2B26E3ABCF2863E55EA8F354F76B50B245D7CDCA6A0A3505C350626658D490
310
8B0FEE179EC22BA618DD5230027791C6719AA81FD7EA15155A3FC00BA7ADAB877DD0C07BFEC895FDBF1AE8871B9C13076FF3475800A5722AA6A215B886EAEB38DA50BDD685D0023C66EC5F2D91AA8A1AB39166C015C0C8693E0217126F7184C3343734468FE005C095BC79B8D00B5397C3F87BF61F504B0304140006080800
310
BA568B4F41A2BEC43D01000046050000300000006662782F31373633334331422D374445332D343835452D384542352D4136433039364433463332462F636E782E786D6CCD94C14EC42010865F85706F296B4CD45036F1E0137830DE289DADB82D343018F7ED8595AE1AB3C6C326BB090732FC24FF37F367C4FA7D1AC91BF8
310
609C6D29AF1B4AC06AD71B3BB434E2A6BAA1642D85770EBFC928B16A8296E6329562F02ECEA5D4C346C531574763B7A5A810BDE92242A0448F2A849606FD0293AA5544D743D8D6BD4255F3DA4370D16B48FFD14C50FE6B0F0AA1A772D5F0DB8AAF2ACE1F7973777D95CEB360592945E7DC58F4C622783713EDD2C526338D60
310
F9598AE84DD164022ABF9CD59DB182A5772942726B87A2C3DD9C75F33C1AAD30B589398D805512819A04FB144BC132EF0FEA87FBA7C501E98D078DCEEFCED4007EAC010763754AC2FFF8F7C2BFB15DF79A70CF35EDA3B0C5D6C95097B48614D7DFF34F295276182F2FF40763A7CF7C5A2568F4E5212FBE4E44CCF62B2F0D3D
310
6F40F901504B0304140006080800BA568B4F4CB990007F000000A30000000B0000006662782F636E782E786D6C4D8CD10E822018465F85FDF79444226D804BC5F77089CE89D0485A8F1F342FBAFAB6B3EF1C517F368BDE26BC16EF24905301C8B8871F17374B88FB8439A05A89E0FDFE7703E486CD48C8189498838FCF038D
310
661AA2CDD42E6E3D20A918A52D6970D5698AAFBCD498EBA6C477D61637D6D19E5EFA649CB392E6D74B9BF3EA0B504B0304140006080800BA568B4FA6D797065F0000008200000007000000636E782E786D6C4DCB3B0E80201045D1AD90E9FD7516806B51190811670C8A61F982B1B0BAC9C97B72CA7B1037C6D3332918DA1E
310
04D2CAC69353902EDB8C20262D23F3F59B81A079470595414B17391D1F19B4730A5583A7ED43BBE4025D9592775E5ADFFA01504B0304140006080800BA568B4F4FEB6A7CA0000000F4000000130000005B436F6E74656E745F54797065735D2E786D6C7D8F4B0EC2300C44AF1279DFA6B0400835ED02B8011730C16D239A8F
310
121795DB93D02D6269CFBC19BBED573B8B17C564BC53B0AB1B10E4B47F18372A5878A88E20FAAEBDBD032591BD2E299898C349CAA427B2986A1FC86565F0D122E7318E32A07EE24872DF3407A9BD63725C71C980AEBDD080CBCCE2BAE6F5D69B7110E7CD57AA146008B3D1C8F92C5954F993BB1BF787F39A89ABC491D09600
310
F9FDA2FB00504B0304140006080800BA568B4F3DEE336E64000000790000001B0000006175746F6465736B2D64657369676E2D7061636B6167652E786D6C35CBC10E83200C00D05F21DCA56CA76D41FC96062B120735B69A7DBE268BB7777961F8D5AF396893C2ADB70FE7ADA196782C2DF776D7A97B5933C430F15651E546
310
9C55D70F80A4992A3ADC954792C525AE70A1E4D6AD9816CC044FEFDF01FE3FDE907802504B0304140006080800BA568B4F475286FFF8000000960100003B0000006662782F31373633334331422D374445332D343835452D384542352D4136433039364433463332462F7265736F75726365732F636F72652E786D6C8550CB
310
6E833010FC15B4771E86D226957104097C414FBD59F6865A0936F2A3EAE7D70E546A4F952CAD353B33BB3BF4F4B5DCB34FB44E19DD01292AC8500B23959E3B08FE9A1F203B316A8DF1BF689069BE6007090646676BC2BA43C2688F3AA1DA48DC41EE1C7AC8C43D7E3A70E203175EF0E023C3DD8A958B1B9FB120C5C6633404
310
2577A992D14D5D155A602FC7761AC7F3391FFA4B9F3FF5ED941F9AE33127E43292E1B96D866AA2651233EAD5F2335D58E41E25B0BA22915C47FE1BA95EDB26BE775A2626A3CEDB78F33E345D07CCA233C10A74B4DCBA7F5CC32AFF770D4AFBA6DE5D37850346E2928F06A3654A29964784B1A644D937504B03041400060808
310
00BA568B4F3D9A4B87F2000000B1010000310000006662782F31373633334331422D374445332D343835452D384542352D4136433039364433463332462F636F72652E786D6C8D504B6EC32014BC8AC51EDB98DA712A4CD424CE09BAEA0EC18B8B1283C5A7EAF10BB12BB5BB48480F0D33CCBC6187EFF95E7C81F3DA9A0191
310
B2460518699536D38062B8E21E1507CE9CB5E10F0D1546CC30A00C23CE2667E3B241D29A0026A3C62AD840E13D0454C87BBA0CC8CB4F98452962480C7F2B17216F628292942B8FB3A0E75FA974200228C49B9AEC31693021EFA47E6D693A1FACCA4CCE62D46AB3D22AB9EBAB068738D975949EC811EFCE23C52F7D3BE27E3C
310
B6F8AD3BD5FBEE4C2FB4B9B02A8B39F3C1A59DB74FF276CFCA57E1BFCC71514F64D626D066335C153E79A63C8F07CEAA5C601A8F76D3CC65F31F504B0304140006080800BA568B4FC30DD79151010000DD0200000C0000006662782F636F72652E786D6C8D52D96E833010FC15E4770E436893CA38CAF9057DEA9B631C6A05
310
6C646C94CFEF9A4394871E02616B7666767704D93F9B3AE885E9A45605C2518202A1B82EA5AA0AE4EC3DDCA2604F89D1DA7EA3A140B14614C8C38892CA68D74E10D7CA0AE551A54B3181ACEB844501AFE152A08E7F8A8645CC5960748FA865FCC12A11E168E451E29C2C27A92CC14DDEA53088BEEEF2EBE5723A85C7C3F910
310
6E0EF935DC66BB5D88F1F9828F2F79764CAE24F6624AAC6CE6EEDC08664589689A6020A7C07FC7C95B9EC1FB4162CFA4A4B306769E9AFAED10BDDF9E241EF1959F6BCBBFFD9C54364B27BF51D1218A61BCA14049ECF38163086F9D213486FC2CBBD5F30A0F807AC1AD361BA894DA2DA59ED54E8075120C0F89C72A380F063F
310
F9A4BFF8FCEE01413155C168CCC2F5E6ACEFBE9EA91526ECED3350DA34AC5E861B475CBE4BA3D54AB39CEB5A9BFFA8E755E73063FF63D22F504B0304140006080800BA568B4F2413970108010000B201000008000000636F72652E786D6C8D50D16E842010FC15B2EFA8686DCF0B72D13BFD823EF58D0A67C92918814BFBF7
310
85D326ED5B139225B3B333B34B4F9FF384EE72B5CAE81A489201927A3042E9B106EFAEF800E8C4E86A8CFB4503A4F92C6B8830303AAEC62F3B3418EDA48EA83642EE20B7563A40C3143E35D8E143CE3CE1DE0586BD250B1F6E7C940949361EA34ECD3FA3C32AB99302589E910A931C13F24AB2635984F746D3C864D47B2576
310
2B2582BBBA2AB9027BA9CABEEBCE67DC3697063F35658F0F451554C8A523ED7359B4594FD338CCA8756BD8791709391DB2FC1E7D69BAB5187D3766DA09219440464F5FC0329AC6C69FD07E11FF08ADB42BF25D709BB0C04808F46804E378C1501EE70D355E9B7D03504B01021400140006080800BA568B4F00000000000000
310
00000000003700000000000000000000000000000000006662782F31373633334331422D374445332D343835452D384542352D4136433039364433463332462F617474726962757465732E62696E504B01021400140006080800BA568B4F000000000000000000000000350000000000000000000000000055000000666278
310
2F31373633334331422D374445332D343835452D384542352D4136433039364433463332462F76657274696365732E62696E504B01021400140006080800BA568B4FF270F13306000000040000003600000000000000000000000000A80000006662782F31373633334331422D374445332D343835452D384542352D413643
310
3039364433463332462F747269616E676C65732E62696E504B01021400140006080800BA568B4F51464CB489000000430100003600000000000000000000000000020100006662782F31373633334331422D374445332D343835452D384542352D4136433039364433463332462F6469726563746F72792E786D6C504B0102
310
1400140006080800BA568B4F0FC42B8E320700001A1C00003400000000000000000000000000DF0100006662782F31373633334331422D374445332D343835452D384542352D4136433039364433463332462F6F626A656374732E786D6C504B01021400140006080800BA568B4F41A2BEC43D010000460500003000000000
310
000000000000000000630900006662782F31373633334331422D374445332D343835452D384542352D4136433039364433463332462F636E782E786D6C504B01021400140006080800BA568B4F4CB990007F000000A30000000B00000000000000000000000000EE0A00006662782F636E782E786D6C504B01021400140006
310
080800BA568B4FA6D797065F000000820000000700000000000000000000000000960B0000636E782E786D6C504B01021400140006080800BA568B4F4FEB6A7CA0000000F400000013000000000000000000000000001A0C00005B436F6E74656E745F54797065735D2E786D6C504B01021400140006080800BA568B4F3DEE
310
336E64000000790000001B00000000000000000000000000EB0C00006175746F6465736B2D64657369676E2D7061636B6167652E786D6C504B01021400140006080800BA568B4F475286FFF8000000960100003B00000000000000000000000000880D00006662782F31373633334331422D374445332D343835452D384542
310
352D4136433039364433463332462F7265736F75726365732F636F72652E786D6C504B01021400140006080800BA568B4F3D9A4B87F2000000B10100003100000000000000000000000000D90E00006662782F31373633334331422D374445332D343835452D384542352D4136433039364433463332462F636F72652E786D
310
6C504B01021400140006080800BA568B4FC30DD79151010000DD0200000C000000000000000000000000001A1000006662782F636F72652E786D6C504B01021400140006080800BA568B4F2413970108010000B2010000080000000000000000000000000095110000636F72652E786D6C504B0506000000000E000E008004
310
0000C31200000000
  0
XRECORD
  5
8139
102
{ACAD_REACTORS
330
8134
102
}
330
8134
100
AcDbXrecord
280
     1
270
     1
271
     1
  0
XRECORD
  5
8138
102
{ACAD_REACTORS
330
8134
102
}
330
8134
100
AcDbXrecord
280
     1
270
     1
271
     1
  0
XRECORD
  5
813A
102
{ACAD_REACTORS
330
8134
102
}
330
8134
100
AcDbXrecord
280
     1
270
     1
271
     1
  0
XRECORD
  5
8137
102
{ACAD_REACTORS
330
8134
102
}
330
8134
100
AcDbXrecord
280
     1
270
     1
271
     1
  0
XRECORD
  5
84E3
102
{ACAD_REACTORS
330
84E2
102
}
330
84E2
100
AcDbXrecord
280
     1
102
ACAD_ROUNDTRIP_2012_MLEADER_STYLE
298
     1
  0
XRECORD
  5
84E4
102
{ACAD_REACTORS
330
8488
102
}
330
8488
100
AcDbXrecord
280
     1
102
DISPLAYNAME
  1
Metric50
102
FLAGS
 90
        0
  0
CELLSTYLEMAP
  5
849E
102
{ACAD_REACTORS
330
849D
102
}
330
849D
100
AcDbCellStyleMap
 90
        3
300
CELLSTYLE
  1
TABLEFORMAT_BEGIN
 90
        5
170
     1
 91
        0
 92
    32768
 62
   257
 93
        1
300
CONTENTFORMAT
  1
CONTENTFORMAT_BEGIN
 90
        0
 91
        0
 92
      512
 93
        0
300

 40
0.0
140
1.0
 94
        5
 62
     0
340
10
144
6.0
309
CONTENTFORMAT_END
171
     1
301
MARGIN
  1
CELLMARGIN_BEGIN
 40
1.5
 40
1.5
 40
1.5
 40
1.5
 40
4.5
 40
4.5
309
CELLMARGIN_END
 94
        6
 95
        1
302
GRIDFORMAT
  1
GRIDFORMAT_BEGIN
 90
        0
 91
        1
 62
     0
 92
       -2
340
0
 93
        0
 40
1.125
309
GRIDFORMAT_END
 95
        2
302
GRIDFORMAT
  1
GRIDFORMAT_BEGIN
 90
        0
 91
        1
 62
     0
 92
       -2
340
0
 93
        0
 40
1.125
309
GRIDFORMAT_END
 95
        4
302
GRIDFORMAT
  1
GRIDFORMAT_BEGIN
 90
        0
 91
        1
 62
     0
 92
       -2
340
0
 93
        0
 40
1.125
309
GRIDFORMAT_END
 95
        8
302
GRIDFORMAT
  1
GRIDFORMAT_BEGIN
 90
        0
 91
        1
 62
     0
 92
       -2
340
0
 93
        0
 40
1.125
309
GRIDFORMAT_END
 95
       16
302
GRIDFORMAT
  1
GRIDFORMAT_BEGIN
 90
        0
 91
        1
 62
     0
 92
       -2
340
0
 93
        0
 40
1.125
309
GRIDFORMAT_END
 95
       32
302
GRIDFORMAT
  1
GRIDFORMAT_BEGIN
 90
        0
 91
        1
 62
     0
 92
       -2
340
0
 93
        0
 40
1.125
309
GRIDFORMAT_END
309
TABLEFORMAT_END
  1
CELLSTYLE_BEGIN
 90
        1
 91
        1
300
_TITLE
309
CELLSTYLE_END
300
CELLSTYLE
  1
TABLEFORMAT_BEGIN
 90
        5
170
     1
 91
        0
 92
        0
 62
   257
 93
        1
300
CONTENTFORMAT
  1
CONTENTFORMAT_BEGIN
 90
        0
 91
        0
 92
      512
 93
        0
300

 40
0.0
140
1.0
 94
        5
 62
     0
340
10
144
4.5
309
CONTENTFORMAT_END
171
     1
301
MARGIN
  1
CELLMARGIN_BEGIN
 40
1.5
 40
1.5
 40
1.5
 40
1.5
 40
4.5
 40
4.5
309
CELLMARGIN_END
 94
        6
 95
        1
302
GRIDFORMAT
  1
GRIDFORMAT_BEGIN
 90
        0
 91
        1
 62
     0
 92
       -2
340
0
 93
        0
 40
1.125
309
GRIDFORMAT_END
 95
        2
302
GRIDFORMAT
  1
GRIDFORMAT_BEGIN
 90
        0
 91
        1
 62
     0
 92
       -2
340
0
 93
        0
 40
1.125
309
GRIDFORMAT_END
 95
        4
302
GRIDFORMAT
  1
GRIDFORMAT_BEGIN
 90
        0
 91
        1
 62
     0
 92
       -2
340
0
 93
        0
 40
1.125
309
GRIDFORMAT_END
 95
        8
302
GRIDFORMAT
  1
GRIDFORMAT_BEGIN
 90
        0
 91
        1
 62
     0
 92
       -2
340
0
 93
        0
 40
1.125
309
GRIDFORMAT_END
 95
       16
302
GRIDFORMAT
  1
GRIDFORMAT_BEGIN
 90
        0
 91
        1
 62
     0
 92
       -2
340
0
 93
        0
 40
1.125
309
GRIDFORMAT_END
 95
       32
302
GRIDFORMAT
  1
GRIDFORMAT_BEGIN
 90
        0
 91
        1
 62
     0
 92
       -2
340
0
 93
        0
 40
1.125
309
GRIDFORMAT_END
309
TABLEFORMAT_END
  1
CELLSTYLE_BEGIN
 90
        2
 91
        1
300
_HEADER
309
CELLSTYLE_END
300
CELLSTYLE
  1
TABLEFORMAT_BEGIN
 90
        5
170
     1
 91
        0
 92
        0
 62
   257
 93
        1
300
CONTENTFORMAT
  1
CONTENTFORMAT_BEGIN
 90
        0
 91
        0
 92
      512
 93
        0
300

 40
0.0
140
1.0
 94
        2
 62
     0
340
10
144
4.5
309
CONTENTFORMAT_END
171
     1
301
MARGIN
  1
CELLMARGIN_BEGIN
 40
1.5
 40
1.5
 40
1.5
 40
1.5
 40
4.5
 40
4.5
309
CELLMARGIN_END
 94
        6
 95
        1
302
GRIDFORMAT
  1
GRIDFORMAT_BEGIN
 90
        0
 91
        1
 62
     0
 92
       -2
340
0
 93
        0
 40
1.125
309
GRIDFORMAT_END
 95
        2
302
GRIDFORMAT
  1
GRIDFORMAT_BEGIN
 90
        0
 91
        1
 62
     0
 92
       -2
340
0
 93
        0
 40
1.125
309
GRIDFORMAT_END
 95
        4
302
GRIDFORMAT
  1
GRIDFORMAT_BEGIN
 90
        0
 91
        1
 62
     0
 92
       -2
340
0
 93
        0
 40
1.125
309
GRIDFORMAT_END
 95
        8
302
GRIDFORMAT
  1
GRIDFORMAT_BEGIN
 90
        0
 91
        1
 62
     0
 92
       -2
340
0
 93
        0
 40
1.125
309
GRIDFORMAT_END
 95
       16
302
GRIDFORMAT
  1
GRIDFORMAT_BEGIN
 90
        0
 91
        1
 62
     0
 92
       -2
340
0
 93
        0
 40
1.125
309
GRIDFORMAT_END
 95
       32
302
GRIDFORMAT
  1
GRIDFORMAT_BEGIN
 90
        0
 91
        1
 62
     0
 92
       -2
340
0
 93
        0
 40
1.125
309
GRIDFORMAT_END
309
TABLEFORMAT_END
  1
CELLSTYLE_BEGIN
 90
        3
 91
        2
300
_DATA
309
CELLSTYLE_END
  0
XRECORD
  5
84E0
102
{ACAD_REACTORS
330
849D
102
}
330
849D
100
AcDbXrecord
280
     1
102
ACAD_ROUNDTRIP_PRE2007_TABLESTYLE
 90
      512
 91
        0
  1

 92
      512
 93
        0
  2

 94
      512
 95
        0
  3

  0
XRECORD
  5
84BB
102
{ACAD_REACTORS
330
84BA
102
}
330
84BA
100
AcDbXrecord
280
     1
102
RTVSPost2010Prop28
280
     1
102
RTVSPost2010PropOp28
 70
     1
102
RTVSPost2010Prop29
280
     1
102
RTVSPost2010PropOp29
 70
     1
102
RTVSPost2010Prop30
280
     0
102
RTVSPost2010PropOp30
 70
     1
102
RTVSPost2010Prop31
280
     0
102
RTVSPost2010PropOp31
 70
     1
102
RTVSPost2010Prop32
280
     0
102
RTVSPost2010PropOp32
 70
     1
102
RTVSPost2010Prop33
280
     0
102
RTVSPost2010PropOp33
 70
     1
102
RTVSPost2010Prop34
280
     0
102
RTVSPost2010PropOp34
 70
     1
102
RTVSPost2010Prop35
280
     0
102
RTVSPost2010PropOp35
 70
     1
102
RTVSPost2010Prop36
280
     0
102
RTVSPost2010PropOp36
 70
     1
102
RTVSPost2010Prop37
 90
       50
102
RTVSPost2010PropOp37
 70
     1
102
RTVSPost2010Prop38
140
0.0
102
RTVSPost2010PropOp38
 70
     1
102
RTVSPost2010Prop39
140
1.0
102
RTVSPost2010PropOp39
 70
     1
102
RTVSPost2010Prop40
 90
        0
102
RTVSPost2010PropOp40
 70
     1
102
RTVSPost2010Prop41ColorIndex
 90
       18
102
RTVSPost2010Prop41ColorRGB
 90
        0
102
RTVSPost2010PropOp41
 70
     1
102
RTVSPost2010Prop42
 90
       50
102
RTVSPost2010PropOp42
 70
     1
102
RTVSPost2010Prop43
 90
        3
102
RTVSPost2010PropOp43
 70
     1
102
RTVSPost2010Prop44ColorIndex
 90
        5
102
RTVSPost2010Prop44ColorRGB
 90
      255
102
RTVSPost2010PropOp44
 70
     1
102
RTVSPost2010Prop45
280
     0
102
RTVSPost2010PropOp45
 70
     1
102
RTVSPost2010Prop46
 90
       50
102
RTVSPost2010PropOp46
 70
     1
102
RTVSPost2010Prop47
 90
       50
102
RTVSPost2010PropOp47
 70
     1
102
RTVSPost2010Prop48
 90
       50
102
RTVSPost2010PropOp48
 70
     1
102
RTVSPost2010Prop49
280
     0
102
RTVSPost2010PropOp49
 70
     1
102
RTVSPost2010Prop50
 90
       50
102
RTVSPost2010PropOp50
 70
     1
102
RTVSPost2010Prop51ColorIndex
 90
      256
102
RTVSPost2010Prop51ColorRGB
 90
-16777216
102
RTVSPost2010PropOp51
 70
     0
102
RTVSPost2010Prop52
140
1.0
102
RTVSPost2010PropOp52
 70
     0
102
RTVSPost2010Prop53
 90
        2
102
RTVSPost2010PropOp53
 70
     1
102
RTVSPost2010Prop54
  1
strokes_ogs.tif
102
RTVSPost2010PropOp54
 70
     1
102
RTVSPost2010Prop55
280
     0
102
RTVSPost2010PropOp55
 70
     1
102
RTVSPost2010Prop56
140
1.0
102
RTVSPost2010PropOp56
 70
     1
102
RTVSPost2010Prop57
140
1.0
102
RTVSPost2010PropOp57
 70
     1
102
RTVSPropertyOp0
 70
     1
102
RTVSPropertyOp1
 70
     1
102
RTVSPropertyOp2
 70
     1
102
RTVSPropertyOp3
 70
     1
102
RTVSPropertyOp4
 70
     1
102
RTVSPropertyOp5
 70
     1
102
RTVSPropertyOp6
 70
     1
102
RTVSPropertyOp7
 70
     1
102
RTVSPropertyOp8
 70
     1
102
RTVSPropertyOp9
 70
     1
102
RTVSPropertyOp10
 70
     1
102
RTVSPropertyOp11
 70
     1
102
RTVSPropertyOp12
 70
     1
102
RTVSPropertyOp13
 70
     1
102
RTVSPropertyOp14
 70
     1
102
RTVSPropertyOp15
 70
     1
102
RTVSPropertyOp16
 70
     1
102
RTVSPropertyOp17
 70
     1
102
RTVSPropertyOp18
 70
     1
102
RTVSPropertyOp19
 70
     1
102
RTVSPropertyOp20
 70
     1
102
RTVSPropertyOp21
 70
     1
102
RTVSPropertyOp22
 70
     1
102
RTVSPropertyOp23
 70
     1
102
RTVSPropertyOp24
 70
     1
102
RTVSPropertyOp25
 70
     1
102
RTVSPropertyOp26
 70
     1
102
RTVSPropertyOp27
 70
     1
102
RTVSPropertyOp28
 70
     1
102
RTVSPropertyOp29
 70
     1
102
RTVSPropertyOp30
 70
     1
102
RTVSPropertyOp31
 70
     1
102
RTVSPropertyOp32
 70
     1
102
RTVSPropertyOp33
 70
     1
102
RTVSPropertyOp34
 70
     1
102
RTVSPropertyOp35
 70
     1
102
RTVSPropertyOp36
 70
     1
102
RTVSPropertyOp37
 70
     1
102
RTVSPropertyOp38
 70
     1
102
RTVSPropertyOp39
 70
     1
102
RTVSPropertyOp40
 70
     1
102
RTVSPropertyOp41
 70
     1
102
RTVSPropertyOp42
 70
     1
102
RTVSPropertyOp43
 70
     1
102
RTVSPropertyOp44
 70
     1
102
RTVSPropertyOp45
 70
     1
102
RTVSPropertyOp46
 70
     1
102
RTVSPropertyOp47
 70
     1
102
RTVSPropertyOp48
 70
     1
102
RTVSPropertyOp49
 70
     1
102
RTVSPropertyOp50
 70
     1
102
RTVSPropertyOp51
 70
     0
102
RTVSPropertyOp52
 70
     0
102
RTVSPropertyOp53
 70
     1
102
RTVSPropertyOp54
 70
     1
102
RTVSPropertyOp55
 70
     1
102
RTVSPropertyOp56
 70
     1
102
RTVSPropertyOp57
 70
     1
102
RTVSPropertyOp58
 70
     1
102
RTVSPropertyOp59
 70
     1
102
RTVSPropertyOp60
 70
     1
102
RTVSPropertyOp61
 70
     1
102
RTVSPropertyOp62
 70
     1
  0
XRECORD
  5
84B9
102
{ACAD_REACTORS
330
84B8
102
}
330
84B8
100
AcDbXrecord
280
     1
102
RTVSPost2010Prop28
280
     0
102
RTVSPost2010PropOp28
 70
     1
102
RTVSPost2010Prop29
280
     1
102
RTVSPost2010PropOp29
 70
     1
102
RTVSPost2010Prop30
280
     1
102
RTVSPost2010PropOp30
 70
     1
102
RTVSPost2010Prop31
280
     0
102
RTVSPost2010PropOp31
 70
     1
102
RTVSPost2010Prop32
280
     0
102
RTVSPost2010PropOp32
 70
     1
102
RTVSPost2010Prop33
280
     0
102
RTVSPost2010PropOp33
 70
     1
102
RTVSPost2010Prop34
280
     0
102
RTVSPost2010PropOp34
 70
     1
102
RTVSPost2010Prop35
280
     0
102
RTVSPost2010PropOp35
 70
     1
102
RTVSPost2010Prop36
280
     0
102
RTVSPost2010PropOp36
 70
     1
102
RTVSPost2010Prop37
 90
       50
102
RTVSPost2010PropOp37
 70
     1
102
RTVSPost2010Prop38
140
0.0
102
RTVSPost2010PropOp38
 70
     1
102
RTVSPost2010Prop39
140
1.0
102
RTVSPost2010PropOp39
 70
     1
102
RTVSPost2010Prop40
 90
        0
102
RTVSPost2010PropOp40
 70
     1
102
RTVSPost2010Prop41ColorIndex
 90
       18
102
RTVSPost2010Prop41ColorRGB
 90
        0
102
RTVSPost2010PropOp41
 70
     1
102
RTVSPost2010Prop42
 90
       50
102
RTVSPost2010PropOp42
 70
     1
102
RTVSPost2010Prop43
 90
        3
102
RTVSPost2010PropOp43
 70
     1
102
RTVSPost2010Prop44ColorIndex
 90
        5
102
RTVSPost2010Prop44ColorRGB
 90
      255
102
RTVSPost2010PropOp44
 70
     1
102
RTVSPost2010Prop45
280
     0
102
RTVSPost2010PropOp45
 70
     1
102
RTVSPost2010Prop46
 90
       50
102
RTVSPost2010PropOp46
 70
     1
102
RTVSPost2010Prop47
 90
       50
102
RTVSPost2010PropOp47
 70
     1
102
RTVSPost2010Prop48
 90
       50
102
RTVSPost2010PropOp48
 70
     1
102
RTVSPost2010Prop49
280
     0
102
RTVSPost2010PropOp49
 70
     1
102
RTVSPost2010Prop50
 90
       50
102
RTVSPost2010PropOp50
 70
     1
102
RTVSPost2010Prop51ColorIndex
 90
      256
102
RTVSPost2010Prop51ColorRGB
 90
-16777216
102
RTVSPost2010PropOp51
 70
     0
102
RTVSPost2010Prop52
140
1.0
102
RTVSPost2010PropOp52
 70
     0
102
RTVSPost2010Prop53
 90
        2
102
RTVSPost2010PropOp53
 70
     1
102
RTVSPost2010Prop54
  1
strokes_ogs.tif
102
RTVSPost2010PropOp54
 70
     1
102
RTVSPost2010Prop55
280
     0
102
RTVSPost2010PropOp55
 70
     1
102
RTVSPost2010Prop56
140
1.0
102
RTVSPost2010PropOp56
 70
     1
102
RTVSPost2010Prop57
140
1.0
102
RTVSPost2010PropOp57
 70
     1
102
RTVSPropertyOp0
 70
     1
102
RTVSPropertyOp1
 70
     1
102
RTVSPropertyOp2
 70
     1
102
RTVSPropertyOp3
 70
     1
102
RTVSPropertyOp4
 70
     1
102
RTVSPropertyOp5
 70
     1
102
RTVSPropertyOp6
 70
     1
102
RTVSPropertyOp7
 70
     1
102
RTVSPropertyOp8
 70
     1
102
RTVSPropertyOp9
 70
     1
102
RTVSPropertyOp10
 70
     1
102
RTVSPropertyOp11
 70
     1
102
RTVSPropertyOp12
 70
     1
102
RTVSPropertyOp13
 70
     1
102
RTVSPropertyOp14
 70
     1
102
RTVSPropertyOp15
 70
     1
102
RTVSPropertyOp16
 70
     1
102
RTVSPropertyOp17
 70
     1
102
RTVSPropertyOp18
 70
     1
102
RTVSPropertyOp19
 70
     1
102
RTVSPropertyOp20
 70
     1
102
RTVSPropertyOp21
 70
     1
102
RTVSPropertyOp22
 70
     1
102
RTVSPropertyOp23
 70
     1
102
RTVSPropertyOp24
 70
     1
102
RTVSPropertyOp25
 70
     1
102
RTVSPropertyOp26
 70
     1
102
RTVSPropertyOp27
 70
     1
102
RTVSPropertyOp28
 70
     1
102
RTVSPropertyOp29
 70
     1
102
RTVSPropertyOp30
 70
     1
102
RTVSPropertyOp31
 70
     1
102
RTVSPropertyOp32
 70
     1
102
RTVSPropertyOp33
 70
     1
102
RTVSPropertyOp34
 70
     1
102
RTVSPropertyOp35
 70
     1
102
RTVSPropertyOp36
 70
     1
102
RTVSPropertyOp37
 70
     1
102
RTVSPropertyOp38
 70
     1
102
RTVSPropertyOp39
 70
     1
102
RTVSPropertyOp40
 70
     1
102
RTVSPropertyOp41
 70
     1
102
RTVSPropertyOp42
 70
     1
102
RTVSPropertyOp43
 70
     1
102
RTVSPropertyOp44
 70
     1
102
RTVSPropertyOp45
 70
     1
102
RTVSPropertyOp46
 70
     1
102
RTVSPropertyOp47
 70
     1
102
RTVSPropertyOp48
 70
     1
102
RTVSPropertyOp49
 70
     1
102
RTVSPropertyOp50
 70
     1
102
RTVSPropertyOp51
 70
     0
102
RTVSPropertyOp52
 70
     0
102
RTVSPropertyOp53
 70
     1
102
RTVSPropertyOp54
 70
     1
102
RTVSPropertyOp55
 70
     1
102
RTVSPropertyOp56
 70
     1
102
RTVSPropertyOp57
 70
     1
102
RTVSPropertyOp58
 70
     1
102
RTVSPropertyOp59
 70
     1
102
RTVSPropertyOp60
 70
     1
102
RTVSPropertyOp61
 70
     1
102
RTVSPropertyOp62
 70
     1
  0
XRECORD
  5
84C7
102
{ACAD_REACTORS
330
84C6
102
}
330
84C6
100
AcDbXrecord
280
     1
102
RTVSPost2010Prop28
280
     0
102
RTVSPost2010PropOp28
 70
     1
102
RTVSPost2010Prop29
280
     1
102
RTVSPost2010PropOp29
 70
     1
102
RTVSPost2010Prop30
280
     1
102
RTVSPost2010PropOp30
 70
     1
102
RTVSPost2010Prop31
280
     0
102
RTVSPost2010PropOp31
 70
     1
102
RTVSPost2010Prop32
280
     0
102
RTVSPost2010PropOp32
 70
     1
102
RTVSPost2010Prop33
280
     0
102
RTVSPost2010PropOp33
 70
     1
102
RTVSPost2010Prop34
280
     0
102
RTVSPost2010PropOp34
 70
     1
102
RTVSPost2010Prop35
280
     0
102
RTVSPost2010PropOp35
 70
     1
102
RTVSPost2010Prop36
280
     0
102
RTVSPost2010PropOp36
 70
     1
102
RTVSPost2010Prop37
 90
       50
102
RTVSPost2010PropOp37
 70
     1
102
RTVSPost2010Prop38
140
0.0
102
RTVSPost2010PropOp38
 70
     1
102
RTVSPost2010Prop39
140
1.0
102
RTVSPost2010PropOp39
 70
     1
102
RTVSPost2010Prop40
 90
        0
102
RTVSPost2010PropOp40
 70
     1
102
RTVSPost2010Prop41ColorIndex
 90
       18
102
RTVSPost2010Prop41ColorRGB
 90
        0
102
RTVSPost2010PropOp41
 70
     1
102
RTVSPost2010Prop42
 90
       50
102
RTVSPost2010PropOp42
 70
     1
102
RTVSPost2010Prop43
 90
        3
102
RTVSPost2010PropOp43
 70
     1
102
RTVSPost2010Prop44ColorIndex
 90
        5
102
RTVSPost2010Prop44ColorRGB
 90
      255
102
RTVSPost2010PropOp44
 70
     1
102
RTVSPost2010Prop45
280
     0
102
RTVSPost2010PropOp45
 70
     1
102
RTVSPost2010Prop46
 90
       50
102
RTVSPost2010PropOp46
 70
     1
102
RTVSPost2010Prop47
 90
       50
102
RTVSPost2010PropOp47
 70
     1
102
RTVSPost2010Prop48
 90
       50
102
RTVSPost2010PropOp48
 70
     1
102
RTVSPost2010Prop49
280
     0
102
RTVSPost2010PropOp49
 70
     1
102
RTVSPost2010Prop50
 90
       50
102
RTVSPost2010PropOp50
 70
     1
102
RTVSPost2010Prop51ColorIndex
 90
      256
102
RTVSPost2010Prop51ColorRGB
 90
-16777216
102
RTVSPost2010PropOp51
 70
     0
102
RTVSPost2010Prop52
140
1.0
102
RTVSPost2010PropOp52
 70
     0
102
RTVSPost2010Prop53
 90
        2
102
RTVSPost2010PropOp53
 70
     1
102
RTVSPost2010Prop54
  1
strokes_ogs.tif
102
RTVSPost2010PropOp54
 70
     1
102
RTVSPost2010Prop55
280
     0
102
RTVSPost2010PropOp55
 70
     1
102
RTVSPost2010Prop56
140
1.0
102
RTVSPost2010PropOp56
 70
     1
102
RTVSPost2010Prop57
140
1.0
102
RTVSPost2010PropOp57
 70
     1
102
RTVSPropertyOp0
 70
     1
102
RTVSPropertyOp1
 70
     1
102
RTVSPropertyOp2
 70
     1
102
RTVSPropertyOp3
 70
     1
102
RTVSPropertyOp4
 70
     1
102
RTVSPropertyOp5
 70
     1
102
RTVSPropertyOp6
 70
     1
102
RTVSPropertyOp7
 70
     1
102
RTVSPropertyOp8
 70
     1
102
RTVSPropertyOp9
 70
     1
102
RTVSPropertyOp10
 70
     1
102
RTVSPropertyOp11
 70
     1
102
RTVSPropertyOp12
 70
     1
102
RTVSPropertyOp13
 70
     1
102
RTVSPropertyOp14
 70
     1
102
RTVSPropertyOp15
 70
     1
102
RTVSPropertyOp16
 70
     1
102
RTVSPropertyOp17
 70
     1
102
RTVSPropertyOp18
 70
     1
102
RTVSPropertyOp19
 70
     1
102
RTVSPropertyOp20
 70
     1
102
RTVSPropertyOp21
 70
     1
102
RTVSPropertyOp22
 70
     1
102
RTVSPropertyOp23
 70
     1
102
RTVSPropertyOp24
 70
     1
102
RTVSPropertyOp25
 70
     1
102
RTVSPropertyOp26
 70
     1
102
RTVSPropertyOp27
 70
     1
102
RTVSPropertyOp28
 70
     1
102
RTVSPropertyOp29
 70
     1
102
RTVSPropertyOp30
 70
     1
102
RTVSPropertyOp31
 70
     1
102
RTVSPropertyOp32
 70
     1
102
RTVSPropertyOp33
 70
     1
102
RTVSPropertyOp34
 70
     1
102
RTVSPropertyOp35
 70
     1
102
RTVSPropertyOp36
 70
     1
102
RTVSPropertyOp37
 70
     1
102
RTVSPropertyOp38
 70
     1
102
RTVSPropertyOp39
 70
     1
102
RTVSPropertyOp40
 70
     1
102
RTVSPropertyOp41
 70
     1
102
RTVSPropertyOp42
 70
     1
102
RTVSPropertyOp43
 70
     1
102
RTVSPropertyOp44
 70
     1
102
RTVSPropertyOp45
 70
     1
102
RTVSPropertyOp46
 70
     1
102
RTVSPropertyOp47
 70
     1
102
RTVSPropertyOp48
 70
     1
102
RTVSPropertyOp49
 70
     1
102
RTVSPropertyOp50
 70
     1
102
RTVSPropertyOp51
 70
     0
102
RTVSPropertyOp52
 70
     0
102
RTVSPropertyOp53
 70
     1
102
RTVSPropertyOp54
 70
     1
102
RTVSPropertyOp55
 70
     1
102
RTVSPropertyOp56
 70
     1
102
RTVSPropertyOp57
 70
     1
102
RTVSPropertyOp58
 70
     1
102
RTVSPropertyOp59
 70
     1
102
RTVSPropertyOp60
 70
     1
102
RTVSPropertyOp61
 70
     1
102
RTVSPropertyOp62
 70
     1
  0
XRECORD
  5
84CF
102
{ACAD_REACTORS
330
84CE
102
}
330
84CE
100
AcDbXrecord
280
     1
102
RTVSPost2010Prop28
280
     0
102
RTVSPost2010PropOp28
 70
     1
102
RTVSPost2010Prop29
280
     1
102
RTVSPost2010PropOp29
 70
     1
102
RTVSPost2010Prop30
280
     1
102
RTVSPost2010PropOp30
 70
     1
102
RTVSPost2010Prop31
280
     0
102
RTVSPost2010PropOp31
 70
     1
102
RTVSPost2010Prop32
280
     0
102
RTVSPost2010PropOp32
 70
     1
102
RTVSPost2010Prop33
280
     0
102
RTVSPost2010PropOp33
 70
     1
102
RTVSPost2010Prop34
280
     0
102
RTVSPost2010PropOp34
 70
     1
102
RTVSPost2010Prop35
280
     0
102
RTVSPost2010PropOp35
 70
     1
102
RTVSPost2010Prop36
280
     0
102
RTVSPost2010PropOp36
 70
     1
102
RTVSPost2010Prop37
 90
       50
102
RTVSPost2010PropOp37
 70
     1
102
RTVSPost2010Prop38
140
0.0
102
RTVSPost2010PropOp38
 70
     1
102
RTVSPost2010Prop39
140
1.0
102
RTVSPost2010PropOp39
 70
     1
102
RTVSPost2010Prop40
 90
        0
102
RTVSPost2010PropOp40
 70
     1
102
RTVSPost2010Prop41ColorIndex
 90
       18
102
RTVSPost2010Prop41ColorRGB
 90
        0
102
RTVSPost2010PropOp41
 70
     1
102
RTVSPost2010Prop42
 90
       50
102
RTVSPost2010PropOp42
 70
     1
102
RTVSPost2010Prop43
 90
        3
102
RTVSPost2010PropOp43
 70
     1
102
RTVSPost2010Prop44ColorIndex
 90
        5
102
RTVSPost2010Prop44ColorRGB
 90
      255
102
RTVSPost2010PropOp44
 70
     1
102
RTVSPost2010Prop45
280
     0
102
RTVSPost2010PropOp45
 70
     1
102
RTVSPost2010Prop46
 90
       50
102
RTVSPost2010PropOp46
 70
     1
102
RTVSPost2010Prop47
 90
       50
102
RTVSPost2010PropOp47
 70
     1
102
RTVSPost2010Prop48
 90
       50
102
RTVSPost2010PropOp48
 70
     1
102
RTVSPost2010Prop49
280
     0
102
RTVSPost2010PropOp49
 70
     1
102
RTVSPost2010Prop50
 90
       50
102
RTVSPost2010PropOp50
 70
     1
102
RTVSPost2010Prop51ColorIndex
 90
      256
102
RTVSPost2010Prop51ColorRGB
 90
-16777216
102
RTVSPost2010PropOp51
 70
     0
102
RTVSPost2010Prop52
140
1.0
102
RTVSPost2010PropOp52
 70
     0
102
RTVSPost2010Prop53
 90
        2
102
RTVSPost2010PropOp53
 70
     1
102
RTVSPost2010Prop54
  1
strokes_ogs.tif
102
RTVSPost2010PropOp54
 70
     1
102
RTVSPost2010Prop55
280
     0
102
RTVSPost2010PropOp55
 70
     1
102
RTVSPost2010Prop56
140
1.0
102
RTVSPost2010PropOp56
 70
     1
102
RTVSPost2010Prop57
140
1.0
102
RTVSPost2010PropOp57
 70
     1
102
RTVSPropertyOp0
 70
     1
102
RTVSPropertyOp1
 70
     1
102
RTVSPropertyOp2
 70
     1
102
RTVSPropertyOp3
 70
     1
102
RTVSPropertyOp4
 70
     1
102
RTVSPropertyOp5
 70
     1
102
RTVSPropertyOp6
 70
     1
102
RTVSPropertyOp7
 70
     1
102
RTVSPropertyOp8
 70
     1
102
RTVSPropertyOp9
 70
     1
102
RTVSPropertyOp10
 70
     1
102
RTVSPropertyOp11
 70
     1
102
RTVSPropertyOp12
 70
     1
102
RTVSPropertyOp13
 70
     1
102
RTVSPropertyOp14
 70
     1
102
RTVSPropertyOp15
 70
     1
102
RTVSPropertyOp16
 70
     1
102
RTVSPropertyOp17
 70
     1
102
RTVSPropertyOp18
 70
     1
102
RTVSPropertyOp19
 70
     1
102
RTVSPropertyOp20
 70
     1
102
RTVSPropertyOp21
 70
     1
102
RTVSPropertyOp22
 70
     1
102
RTVSPropertyOp23
 70
     1
102
RTVSPropertyOp24
 70
     1
102
RTVSPropertyOp25
 70
     1
102
RTVSPropertyOp26
 70
     1
102
RTVSPropertyOp27
 70
     1
102
RTVSPropertyOp28
 70
     1
102
RTVSPropertyOp29
 70
     1
102
RTVSPropertyOp30
 70
     1
102
RTVSPropertyOp31
 70
     1
102
RTVSPropertyOp32
 70
     1
102
RTVSPropertyOp33
 70
     1
102
RTVSPropertyOp34
 70
     1
102
RTVSPropertyOp35
 70
     1
102
RTVSPropertyOp36
 70
     1
102
RTVSPropertyOp37
 70
     1
102
RTVSPropertyOp38
 70
     1
102
RTVSPropertyOp39
 70
     1
102
RTVSPropertyOp40
 70
     1
102
RTVSPropertyOp41
 70
     1
102
RTVSPropertyOp42
 70
     1
102
RTVSPropertyOp43
 70
     1
102
RTVSPropertyOp44
 70
     1
102
RTVSPropertyOp45
 70
     1
102
RTVSPropertyOp46
 70
     1
102
RTVSPropertyOp47
 70
     1
102
RTVSPropertyOp48
 70
     1
102
RTVSPropertyOp49
 70
     1
102
RTVSPropertyOp50
 70
     1
102
RTVSPropertyOp51
 70
     0
102
RTVSPropertyOp52
 70
     0
102
RTVSPropertyOp53
 70
     1
102
RTVSPropertyOp54
 70
     1
102
RTVSPropertyOp55
 70
     1
102
RTVSPropertyOp56
 70
     1
102
RTVSPropertyOp57
 70
     1
102
RTVSPropertyOp58
 70
     1
102
RTVSPropertyOp59
 70
     1
102
RTVSPropertyOp60
 70
     1
102
RTVSPropertyOp61
 70
     1
102
RTVSPropertyOp62
 70
     1
  0
XRECORD
  5
84C1
102
{ACAD_REACTORS
330
84C0
102
}
330
84C0
100
AcDbXrecord
280
     1
102
RTVSPost2010Prop28
280
     0
102
RTVSPost2010PropOp28
 70
     1
102
RTVSPost2010Prop29
280
     1
102
RTVSPost2010PropOp29
 70
     1
102
RTVSPost2010Prop30
280
     1
102
RTVSPost2010PropOp30
 70
     1
102
RTVSPost2010Prop31
280
     0
102
RTVSPost2010PropOp31
 70
     1
102
RTVSPost2010Prop32
280
     0
102
RTVSPost2010PropOp32
 70
     1
102
RTVSPost2010Prop33
280
     0
102
RTVSPost2010PropOp33
 70
     1
102
RTVSPost2010Prop34
280
     0
102
RTVSPost2010PropOp34
 70
     1
102
RTVSPost2010Prop35
280
     0
102
RTVSPost2010PropOp35
 70
     1
102
RTVSPost2010Prop36
280
     0
102
RTVSPost2010PropOp36
 70
     1
102
RTVSPost2010Prop37
 90
       50
102
RTVSPost2010PropOp37
 70
     1
102
RTVSPost2010Prop38
140
0.0
102
RTVSPost2010PropOp38
 70
     1
102
RTVSPost2010Prop39
140
1.0
102
RTVSPost2010PropOp39
 70
     1
102
RTVSPost2010Prop40
 90
        0
102
RTVSPost2010PropOp40
 70
     1
102
RTVSPost2010Prop41ColorIndex
 90
       18
102
RTVSPost2010Prop41ColorRGB
 90
        0
102
RTVSPost2010PropOp41
 70
     1
102
RTVSPost2010Prop42
 90
       50
102
RTVSPost2010PropOp42
 70
     1
102
RTVSPost2010Prop43
 90
        3
102
RTVSPost2010PropOp43
 70
     1
102
RTVSPost2010Prop44ColorIndex
 90
        5
102
RTVSPost2010Prop44ColorRGB
 90
      255
102
RTVSPost2010PropOp44
 70
     1
102
RTVSPost2010Prop45
280
     0
102
RTVSPost2010PropOp45
 70
     1
102
RTVSPost2010Prop46
 90
       50
102
RTVSPost2010PropOp46
 70
     1
102
RTVSPost2010Prop47
 90
       50
102
RTVSPost2010PropOp47
 70
     1
102
RTVSPost2010Prop48
 90
       50
102
RTVSPost2010PropOp48
 70
     1
102
RTVSPost2010Prop49
280
     0
102
RTVSPost2010PropOp49
 70
     1
102
RTVSPost2010Prop50
 90
       50
102
RTVSPost2010PropOp50
 70
     1
102
RTVSPost2010Prop51ColorIndex
 90
      256
102
RTVSPost2010Prop51ColorRGB
 90
-16777216
102
RTVSPost2010PropOp51
 70
     0
102
RTVSPost2010Prop52
140
1.0
102
RTVSPost2010PropOp52
 70
     0
102
RTVSPost2010Prop53
 90
        2
102
RTVSPost2010PropOp53
 70
     1
102
RTVSPost2010Prop54
  1
strokes_ogs.tif
102
RTVSPost2010PropOp54
 70
     1
102
RTVSPost2010Prop55
280
     0
102
RTVSPost2010PropOp55
 70
     1
102
RTVSPost2010Prop56
140
1.0
102
RTVSPost2010PropOp56
 70
     1
102
RTVSPost2010Prop57
140
1.0
102
RTVSPost2010PropOp57
 70
     1
102
RTVSPropertyOp0
 70
     1
102
RTVSPropertyOp1
 70
     1
102
RTVSPropertyOp2
 70
     1
102
RTVSPropertyOp3
 70
     1
102
RTVSPropertyOp4
 70
     1
102
RTVSPropertyOp5
 70
     1
102
RTVSPropertyOp6
 70
     1
102
RTVSPropertyOp7
 70
     1
102
RTVSPropertyOp8
 70
     1
102
RTVSPropertyOp9
 70
     1
102
RTVSPropertyOp10
 70
     1
102
RTVSPropertyOp11
 70
     1
102
RTVSPropertyOp12
 70
     1
102
RTVSPropertyOp13
 70
     1
102
RTVSPropertyOp14
 70
     1
102
RTVSPropertyOp15
 70
     1
102
RTVSPropertyOp16
 70
     1
102
RTVSPropertyOp17
 70
     1
102
RTVSPropertyOp18
 70
     1
102
RTVSPropertyOp19
 70
     1
102
RTVSPropertyOp20
 70
     1
102
RTVSPropertyOp21
 70
     1
102
RTVSPropertyOp22
 70
     1
102
RTVSPropertyOp23
 70
     1
102
RTVSPropertyOp24
 70
     1
102
RTVSPropertyOp25
 70
     1
102
RTVSPropertyOp26
 70
     1
102
RTVSPropertyOp27
 70
     1
102
RTVSPropertyOp28
 70
     1
102
RTVSPropertyOp29
 70
     1
102
RTVSPropertyOp30
 70
     1
102
RTVSPropertyOp31
 70
     1
102
RTVSPropertyOp32
 70
     1
102
RTVSPropertyOp33
 70
     1
102
RTVSPropertyOp34
 70
     1
102
RTVSPropertyOp35
 70
     1
102
RTVSPropertyOp36
 70
     1
102
RTVSPropertyOp37
 70
     1
102
RTVSPropertyOp38
 70
     1
102
RTVSPropertyOp39
 70
     1
102
RTVSPropertyOp40
 70
     1
102
RTVSPropertyOp41
 70
     1
102
RTVSPropertyOp42
 70
     1
102
RTVSPropertyOp43
 70
     1
102
RTVSPropertyOp44
 70
     1
102
RTVSPropertyOp45
 70
     1
102
RTVSPropertyOp46
 70
     1
102
RTVSPropertyOp47
 70
     1
102
RTVSPropertyOp48
 70
     1
102
RTVSPropertyOp49
 70
     1
102
RTVSPropertyOp50
 70
     1
102
RTVSPropertyOp51
 70
     0
102
RTVSPropertyOp52
 70
     0
102
RTVSPropertyOp53
 70
     1
102
RTVSPropertyOp54
 70
     1
102
RTVSPropertyOp55
 70
     1
102
RTVSPropertyOp56
 70
     1
102
RTVSPropertyOp57
 70
     1
102
RTVSPropertyOp58
 70
     1
102
RTVSPropertyOp59
 70
     1
102
RTVSPropertyOp60
 70
     1
102
RTVSPropertyOp61
 70
     1
102
RTVSPropertyOp62
 70
     1
  0
XRECORD
  5
84C5
102
{ACAD_REACTORS
330
84C4
102
}
330
84C4
100
AcDbXrecord
280
     1
102
RTVSPost2010Prop28
280
     0
102
RTVSPost2010PropOp28
 70
     1
102
RTVSPost2010Prop29
280
     1
102
RTVSPost2010PropOp29
 70
     1
102
RTVSPost2010Prop30
280
     1
102
RTVSPost2010PropOp30
 70
     1
102
RTVSPost2010Prop31
280
     0
102
RTVSPost2010PropOp31
 70
     1
102
RTVSPost2010Prop32
280
     0
102
RTVSPost2010PropOp32
 70
     1
102
RTVSPost2010Prop33
280
     0
102
RTVSPost2010PropOp33
 70
     1
102
RTVSPost2010Prop34
280
     0
102
RTVSPost2010PropOp34
 70
     1
102
RTVSPost2010Prop35
280
     0
102
RTVSPost2010PropOp35
 70
     1
102
RTVSPost2010Prop36
280
     0
102
RTVSPost2010PropOp36
 70
     1
102
RTVSPost2010Prop37
 90
       50
102
RTVSPost2010PropOp37
 70
     1
102
RTVSPost2010Prop38
140
0.0
102
RTVSPost2010PropOp38
 70
     1
102
RTVSPost2010Prop39
140
1.0
102
RTVSPost2010PropOp39
 70
     1
102
RTVSPost2010Prop40
 90
        0
102
RTVSPost2010PropOp40
 70
     1
102
RTVSPost2010Prop41ColorIndex
 90
       18
102
RTVSPost2010Prop41ColorRGB
 90
        0
102
RTVSPost2010PropOp41
 70
     1
102
RTVSPost2010Prop42
 90
       50
102
RTVSPost2010PropOp42
 70
     1
102
RTVSPost2010Prop43
 90
        3
102
RTVSPost2010PropOp43
 70
     1
102
RTVSPost2010Prop44ColorIndex
 90
        5
102
RTVSPost2010Prop44ColorRGB
 90
      255
102
RTVSPost2010PropOp44
 70
     1
102
RTVSPost2010Prop45
280
     0
102
RTVSPost2010PropOp45
 70
     1
102
RTVSPost2010Prop46
 90
       50
102
RTVSPost2010PropOp46
 70
     1
102
RTVSPost2010Prop47
 90
       50
102
RTVSPost2010PropOp47
 70
     1
102
RTVSPost2010Prop48
 90
       50
102
RTVSPost2010PropOp48
 70
     1
102
RTVSPost2010Prop49
280
     0
102
RTVSPost2010PropOp49
 70
     1
102
RTVSPost2010Prop50
 90
       50
102
RTVSPost2010PropOp50
 70
     1
102
RTVSPost2010Prop51ColorIndex
 90
      256
102
RTVSPost2010Prop51ColorRGB
 90
-16777216
102
RTVSPost2010PropOp51
 70
     0
102
RTVSPost2010Prop52
140
1.0
102
RTVSPost2010PropOp52
 70
     0
102
RTVSPost2010Prop53
 90
        2
102
RTVSPost2010PropOp53
 70
     1
102
RTVSPost2010Prop54
  1
strokes_ogs.tif
102
RTVSPost2010PropOp54
 70
     1
102
RTVSPost2010Prop55
280
     0
102
RTVSPost2010PropOp55
 70
     1
102
RTVSPost2010Prop56
140
1.0
102
RTVSPost2010PropOp56
 70
     1
102
RTVSPost2010Prop57
140
1.0
102
RTVSPost2010PropOp57
 70
     1
102
RTVSPropertyOp0
 70
     1
102
RTVSPropertyOp1
 70
     1
102
RTVSPropertyOp2
 70
     1
102
RTVSPropertyOp3
 70
     1
102
RTVSPropertyOp4
 70
     1
102
RTVSPropertyOp5
 70
     1
102
RTVSPropertyOp6
 70
     1
102
RTVSPropertyOp7
 70
     1
102
RTVSPropertyOp8
 70
     1
102
RTVSPropertyOp9
 70
     1
102
RTVSPropertyOp10
 70
     1
102
RTVSPropertyOp11
 70
     1
102
RTVSPropertyOp12
 70
     1
102
RTVSPropertyOp13
 70
     1
102
RTVSPropertyOp14
 70
     1
102
RTVSPropertyOp15
 70
     1
102
RTVSPropertyOp16
 70
     1
102
RTVSPropertyOp17
 70
     1
102
RTVSPropertyOp18
 70
     1
102
RTVSPropertyOp19
 70
     1
102
RTVSPropertyOp20
 70
     1
102
RTVSPropertyOp21
 70
     1
102
RTVSPropertyOp22
 70
     1
102
RTVSPropertyOp23
 70
     1
102
RTVSPropertyOp24
 70
     1
102
RTVSPropertyOp25
 70
     1
102
RTVSPropertyOp26
 70
     1
102
RTVSPropertyOp27
 70
     1
102
RTVSPropertyOp28
 70
     1
102
RTVSPropertyOp29
 70
     1
102
RTVSPropertyOp30
 70
     1
102
RTVSPropertyOp31
 70
     1
102
RTVSPropertyOp32
 70
     1
102
RTVSPropertyOp33
 70
     1
102
RTVSPropertyOp34
 70
     1
102
RTVSPropertyOp35
 70
     1
102
RTVSPropertyOp36
 70
     1
102
RTVSPropertyOp37
 70
     1
102
RTVSPropertyOp38
 70
     1
102
RTVSPropertyOp39
 70
     1
102
RTVSPropertyOp40
 70
     1
102
RTVSPropertyOp41
 70
     1
102
RTVSPropertyOp42
 70
     1
102
RTVSPropertyOp43
 70
     1
102
RTVSPropertyOp44
 70
     1
102
RTVSPropertyOp45
 70
     1
102
RTVSPropertyOp46
 70
     1
102
RTVSPropertyOp47
 70
     1
102
RTVSPropertyOp48
 70
     1
102
RTVSPropertyOp49
 70
     1
102
RTVSPropertyOp50
 70
     1
102
RTVSPropertyOp51
 70
     0
102
RTVSPropertyOp52
 70
     0
102
RTVSPropertyOp53
 70
     1
102
RTVSPropertyOp54
 70
     1
102
RTVSPropertyOp55
 70
     1
102
RTVSPropertyOp56
 70
     1
102
RTVSPropertyOp57
 70
     1
102
RTVSPropertyOp58
 70
     1
102
RTVSPropertyOp59
 70
     1
102
RTVSPropertyOp60
 70
     1
102
RTVSPropertyOp61
 70
     1
102
RTVSPropertyOp62
 70
     1
  0
XRECORD
  5
84DF
102
{ACAD_REACTORS
330
84DE
102
}
330
84DE
100
AcDbXrecord
280
     1
102
RTVSPost2010Prop28
280
     0
102
RTVSPost2010PropOp28
 70
     0
102
RTVSPost2010Prop29
280
     1
102
RTVSPost2010PropOp29
 70
     0
102
RTVSPost2010Prop30
280
     1
102
RTVSPost2010PropOp30
 70
     0
102
RTVSPost2010Prop31
280
     0
102
RTVSPost2010PropOp31
 70
     0
102
RTVSPost2010Prop32
280
     0
102
RTVSPost2010PropOp32
 70
     0
102
RTVSPost2010Prop33
280
     0
102
RTVSPost2010PropOp33
 70
     0
102
RTVSPost2010Prop34
280
     0
102
RTVSPost2010PropOp34
 70
     0
102
RTVSPost2010Prop35
280
     0
102
RTVSPost2010PropOp35
 70
     0
102
RTVSPost2010Prop36
280
     0
102
RTVSPost2010PropOp36
 70
     0
102
RTVSPost2010Prop37
 90
       50
102
RTVSPost2010PropOp37
 70
     0
102
RTVSPost2010Prop38
140
0.0
102
RTVSPost2010PropOp38
 70
     0
102
RTVSPost2010Prop39
140
1.0
102
RTVSPost2010PropOp39
 70
     0
102
RTVSPost2010Prop40
 90
        0
102
RTVSPost2010PropOp40
 70
     0
102
RTVSPost2010Prop41ColorIndex
 90
       18
102
RTVSPost2010Prop41ColorRGB
 90
        0
102
RTVSPost2010PropOp41
 70
     0
102
RTVSPost2010Prop42
 90
       50
102
RTVSPost2010PropOp42
 70
     0
102
RTVSPost2010Prop43
 90
        3
102
RTVSPost2010PropOp43
 70
     0
102
RTVSPost2010Prop44ColorIndex
 90
        5
102
RTVSPost2010Prop44ColorRGB
 90
      255
102
RTVSPost2010PropOp44
 70
     0
102
RTVSPost2010Prop45
280
     0
102
RTVSPost2010PropOp45
 70
     0
102
RTVSPost2010Prop46
 90
       50
102
RTVSPost2010PropOp46
 70
     0
102
RTVSPost2010Prop47
 90
       50
102
RTVSPost2010PropOp47
 70
     0
102
RTVSPost2010Prop48
 90
       50
102
RTVSPost2010PropOp48
 70
     0
102
RTVSPost2010Prop49
280
     0
102
RTVSPost2010PropOp49
 70
     0
102
RTVSPost2010Prop50
 90
       50
102
RTVSPost2010PropOp50
 70
     0
102
RTVSPost2010Prop51ColorIndex
 90
      256
102
RTVSPost2010Prop51ColorRGB
 90
-16777216
102
RTVSPost2010PropOp51
 70
     0
102
RTVSPost2010Prop52
140
1.0
102
RTVSPost2010PropOp52
 70
     0
102
RTVSPost2010Prop53
 90
        2
102
RTVSPost2010PropOp53
 70
     0
102
RTVSPost2010Prop54
  1
strokes_ogs.tif
102
RTVSPost2010PropOp54
 70
     0
102
RTVSPost2010Prop55
280
     0
102
RTVSPost2010PropOp55
 70
     0
102
RTVSPost2010Prop56
140
1.0
102
RTVSPost2010PropOp56
 70
     0
102
RTVSPost2010Prop57
140
1.0
102
RTVSPost2010PropOp57
 70
     0
102
RTVSPropertyOp0
 70
     0
102
RTVSPropertyOp1
 70
     0
102
RTVSPropertyOp2
 70
     0
102
RTVSPropertyOp3
 70
     0
102
RTVSPropertyOp4
 70
     0
102
RTVSPropertyOp5
 70
     0
102
RTVSPropertyOp6
 70
     0
102
RTVSPropertyOp7
 70
     0
102
RTVSPropertyOp8
 70
     0
102
RTVSPropertyOp9
 70
     0
102
RTVSPropertyOp10
 70
     0
102
RTVSPropertyOp11
 70
     0
102
RTVSPropertyOp12
 70
     0
102
RTVSPropertyOp13
 70
     0
102
RTVSPropertyOp14
 70
     2
102
RTVSPropertyOp15
 70
     0
102
RTVSPropertyOp16
 70
     0
102
RTVSPropertyOp17
 70
     0
102
RTVSPropertyOp18
 70
     0
102
RTVSPropertyOp19
 70
     0
102
RTVSPropertyOp20
 70
     0
102
RTVSPropertyOp21
 70
     0
102
RTVSPropertyOp22
 70
     0
102
RTVSPropertyOp23
 70
     0
102
RTVSPropertyOp24
 70
     0
102
RTVSPropertyOp25
 70
     0
102
RTVSPropertyOp26
 70
     0
102
RTVSPropertyOp27
 70
     0
102
RTVSPropertyOp28
 70
     0
102
RTVSPropertyOp29
 70
     0
102
RTVSPropertyOp30
 70
     0
102
RTVSPropertyOp31
 70
     0
102
RTVSPropertyOp32
 70
     0
102
RTVSPropertyOp33
 70
     0
102
RTVSPropertyOp34
 70
     0
102
RTVSPropertyOp35
 70
     0
102
RTVSPropertyOp36
 70
     0
102
RTVSPropertyOp37
 70
     0
102
RTVSPropertyOp38
 70
     0
102
RTVSPropertyOp39
 70
     0
102
RTVSPropertyOp40
 70
     0
102
RTVSPropertyOp41
 70
     0
102
RTVSPropertyOp42
 70
     0
102
RTVSPropertyOp43
 70
     0
102
RTVSPropertyOp44
 70
     0
102
RTVSPropertyOp45
 70
     0
102
RTVSPropertyOp46
 70
     0
102
RTVSPropertyOp47
 70
     0
102
RTVSPropertyOp48
 70
     0
102
RTVSPropertyOp49
 70
     0
102
RTVSPropertyOp50
 70
     0
102
RTVSPropertyOp51
 70
     0
102
RTVSPropertyOp52
 70
     0
102
RTVSPropertyOp53
 70
     0
102
RTVSPropertyOp54
 70
     0
102
RTVSPropertyOp55
 70
     0
102
RTVSPropertyOp56
 70
     0
102
RTVSPropertyOp57
 70
     0
102
RTVSPropertyOp58
 70
     1
102
RTVSPropertyOp59
 70
     1
102
RTVSPropertyOp60
 70
     1
102
RTVSPropertyOp61
 70
     1
102
RTVSPropertyOp62
 70
     1
  0
XRECORD
  5
84CD
102
{ACAD_REACTORS
330
84CC
102
}
330
84CC
100
AcDbXrecord
280
     1
102
RTVSPost2010Prop28
280
     0
102
RTVSPost2010PropOp28
 70
     1
102
RTVSPost2010Prop29
280
     1
102
RTVSPost2010PropOp29
 70
     1
102
RTVSPost2010Prop30
280
     1
102
RTVSPost2010PropOp30
 70
     1
102
RTVSPost2010Prop31
280
     0
102
RTVSPost2010PropOp31
 70
     1
102
RTVSPost2010Prop32
280
     0
102
RTVSPost2010PropOp32
 70
     1
102
RTVSPost2010Prop33
280
     0
102
RTVSPost2010PropOp33
 70
     1
102
RTVSPost2010Prop34
280
     0
102
RTVSPost2010PropOp34
 70
     1
102
RTVSPost2010Prop35
280
     0
102
RTVSPost2010PropOp35
 70
     1
102
RTVSPost2010Prop36
280
     0
102
RTVSPost2010PropOp36
 70
     1
102
RTVSPost2010Prop37
 90
       50
102
RTVSPost2010PropOp37
 70
     1
102
RTVSPost2010Prop38
140
0.0
102
RTVSPost2010PropOp38
 70
     1
102
RTVSPost2010Prop39
140
1.0
102
RTVSPost2010PropOp39
 70
     1
102
RTVSPost2010Prop40
 90
        0
102
RTVSPost2010PropOp40
 70
     1
102
RTVSPost2010Prop41ColorIndex
 90
       18
102
RTVSPost2010Prop41ColorRGB
 90
        0
102
RTVSPost2010PropOp41
 70
     1
102
RTVSPost2010Prop42
 90
       50
102
RTVSPost2010PropOp42
 70
     1
102
RTVSPost2010Prop43
 90
        3
102
RTVSPost2010PropOp43
 70
     1
102
RTVSPost2010Prop44ColorIndex
 90
        5
102
RTVSPost2010Prop44ColorRGB
 90
      255
102
RTVSPost2010PropOp44
 70
     1
102
RTVSPost2010Prop45
280
     0
102
RTVSPost2010PropOp45
 70
     1
102
RTVSPost2010Prop46
 90
       50
102
RTVSPost2010PropOp46
 70
     1
102
RTVSPost2010Prop47
 90
       50
102
RTVSPost2010PropOp47
 70
     1
102
RTVSPost2010Prop48
 90
       50
102
RTVSPost2010PropOp48
 70
     1
102
RTVSPost2010Prop49
280
     0
102
RTVSPost2010PropOp49
 70
     1
102
RTVSPost2010Prop50
 90
       50
102
RTVSPost2010PropOp50
 70
     1
102
RTVSPost2010Prop51ColorIndex
 90
      256
102
RTVSPost2010Prop51ColorRGB
 90
-16777216
102
RTVSPost2010PropOp51
 70
     0
102
RTVSPost2010Prop52
140
1.0
102
RTVSPost2010PropOp52
 70
     0
102
RTVSPost2010Prop53
 90
        2
102
RTVSPost2010PropOp53
 70
     1
102
RTVSPost2010Prop54
  1
strokes_ogs.tif
102
RTVSPost2010PropOp54
 70
     1
102
RTVSPost2010Prop55
280
     0
102
RTVSPost2010PropOp55
 70
     1
102
RTVSPost2010Prop56
140
1.0
102
RTVSPost2010PropOp56
 70
     1
102
RTVSPost2010Prop57
140
1.0
102
RTVSPost2010PropOp57
 70
     1
102
RTVSPropertyOp0
 70
     1
102
RTVSPropertyOp1
 70
     1
102
RTVSPropertyOp2
 70
     1
102
RTVSPropertyOp3
 70
     1
102
RTVSPropertyOp4
 70
     1
102
RTVSPropertyOp5
 70
     1
102
RTVSPropertyOp6
 70
     1
102
RTVSPropertyOp7
 70
     1
102
RTVSPropertyOp8
 70
     1
102
RTVSPropertyOp9
 70
     1
102
RTVSPropertyOp10
 70
     1
102
RTVSPropertyOp11
 70
     1
102
RTVSPropertyOp12
 70
     1
102
RTVSPropertyOp13
 70
     1
102
RTVSPropertyOp14
 70
     1
102
RTVSPropertyOp15
 70
     1
102
RTVSPropertyOp16
 70
     1
102
RTVSPropertyOp17
 70
     1
102
RTVSPropertyOp18
 70
     1
102
RTVSPropertyOp19
 70
     1
102
RTVSPropertyOp20
 70
     1
102
RTVSPropertyOp21
 70
     1
102
RTVSPropertyOp22
 70
     1
102
RTVSPropertyOp23
 70
     1
102
RTVSPropertyOp24
 70
     1
102
RTVSPropertyOp25
 70
     1
102
RTVSPropertyOp26
 70
     1
102
RTVSPropertyOp27
 70
     1
102
RTVSPropertyOp28
 70
     1
102
RTVSPropertyOp29
 70
     1
102
RTVSPropertyOp30
 70
     1
102
RTVSPropertyOp31
 70
     1
102
RTVSPropertyOp32
 70
     1
102
RTVSPropertyOp33
 70
     1
102
RTVSPropertyOp34
 70
     1
102
RTVSPropertyOp35
 70
     1
102
RTVSPropertyOp36
 70
     1
102
RTVSPropertyOp37
 70
     1
102
RTVSPropertyOp38
 70
     1
102
RTVSPropertyOp39
 70
     1
102
RTVSPropertyOp40
 70
     1
102
RTVSPropertyOp41
 70
     1
102
RTVSPropertyOp42
 70
     1
102
RTVSPropertyOp43
 70
     1
102
RTVSPropertyOp44
 70
     1
102
RTVSPropertyOp45
 70
     1
102
RTVSPropertyOp46
 70
     1
102
RTVSPropertyOp47
 70
     1
102
RTVSPropertyOp48
 70
     1
102
RTVSPropertyOp49
 70
     1
102
RTVSPropertyOp50
 70
     1
102
RTVSPropertyOp51
 70
     0
102
RTVSPropertyOp52
 70
     0
102
RTVSPropertyOp53
 70
     1
102
RTVSPropertyOp54
 70
     1
102
RTVSPropertyOp55
 70
     1
102
RTVSPropertyOp56
 70
     1
102
RTVSPropertyOp57
 70
     1
102
RTVSPropertyOp58
 70
     1
102
RTVSPropertyOp59
 70
     1
102
RTVSPropertyOp60
 70
     1
102
RTVSPropertyOp61
 70
     1
102
RTVSPropertyOp62
 70
     1
  0
XRECORD
  5
84B1
102
{ACAD_REACTORS
330
84B0
102
}
330
84B0
100
AcDbXrecord
280
     1
102
RTVSPost2010Prop28
280
     0
102
RTVSPost2010PropOp28
 70
     1
102
RTVSPost2010Prop29
280
     1
102
RTVSPost2010PropOp29
 70
     1
102
RTVSPost2010Prop30
280
     1
102
RTVSPost2010PropOp30
 70
     1
102
RTVSPost2010Prop31
280
     0
102
RTVSPost2010PropOp31
 70
     1
102
RTVSPost2010Prop32
280
     0
102
RTVSPost2010PropOp32
 70
     1
102
RTVSPost2010Prop33
280
     0
102
RTVSPost2010PropOp33
 70
     1
102
RTVSPost2010Prop34
280
     0
102
RTVSPost2010PropOp34
 70
     1
102
RTVSPost2010Prop35
280
     0
102
RTVSPost2010PropOp35
 70
     1
102
RTVSPost2010Prop36
280
     0
102
RTVSPost2010PropOp36
 70
     1
102
RTVSPost2010Prop37
 90
       50
102
RTVSPost2010PropOp37
 70
     1
102
RTVSPost2010Prop38
140
0.0
102
RTVSPost2010PropOp38
 70
     1
102
RTVSPost2010Prop39
140
1.0
102
RTVSPost2010PropOp39
 70
     1
102
RTVSPost2010Prop40
 90
        0
102
RTVSPost2010PropOp40
 70
     1
102
RTVSPost2010Prop41ColorIndex
 90
       18
102
RTVSPost2010Prop41ColorRGB
 90
        0
102
RTVSPost2010PropOp41
 70
     1
102
RTVSPost2010Prop42
 90
       50
102
RTVSPost2010PropOp42
 70
     1
102
RTVSPost2010Prop43
 90
        3
102
RTVSPost2010PropOp43
 70
     1
102
RTVSPost2010Prop44ColorIndex
 90
        5
102
RTVSPost2010Prop44ColorRGB
 90
      255
102
RTVSPost2010PropOp44
 70
     1
102
RTVSPost2010Prop45
280
     0
102
RTVSPost2010PropOp45
 70
     1
102
RTVSPost2010Prop46
 90
       50
102
RTVSPost2010PropOp46
 70
     1
102
RTVSPost2010Prop47
 90
       50
102
RTVSPost2010PropOp47
 70
     1
102
RTVSPost2010Prop48
 90
       50
102
RTVSPost2010PropOp48
 70
     1
102
RTVSPost2010Prop49
280
     0
102
RTVSPost2010PropOp49
 70
     1
102
RTVSPost2010Prop50
 90
       50
102
RTVSPost2010PropOp50
 70
     1
102
RTVSPost2010Prop51ColorIndex
 90
      256
102
RTVSPost2010Prop51ColorRGB
 90
-16777216
102
RTVSPost2010PropOp51
 70
     0
102
RTVSPost2010Prop52
140
1.0
102
RTVSPost2010PropOp52
 70
     0
102
RTVSPost2010Prop53
 90
        2
102
RTVSPost2010PropOp53
 70
     1
102
RTVSPost2010Prop54
  1
strokes_ogs.tif
102
RTVSPost2010PropOp54
 70
     1
102
RTVSPost2010Prop55
280
     0
102
RTVSPost2010PropOp55
 70
     1
102
RTVSPost2010Prop56
140
1.0
102
RTVSPost2010PropOp56
 70
     1
102
RTVSPost2010Prop57
140
1.0
102
RTVSPost2010PropOp57
 70
     1
102
RTVSPropertyOp0
 70
     1
102
RTVSPropertyOp1
 70
     1
102
RTVSPropertyOp2
 70
     1
102
RTVSPropertyOp3
 70
     1
102
RTVSPropertyOp4
 70
     1
102
RTVSPropertyOp5
 70
     1
102
RTVSPropertyOp6
 70
     1
102
RTVSPropertyOp7
 70
     1
102
RTVSPropertyOp8
 70
     1
102
RTVSPropertyOp9
 70
     1
102
RTVSPropertyOp10
 70
     1
102
RTVSPropertyOp11
 70
     1
102
RTVSPropertyOp12
 70
     1
102
RTVSPropertyOp13
 70
     1
102
RTVSPropertyOp14
 70
     1
102
RTVSPropertyOp15
 70
     1
102
RTVSPropertyOp16
 70
     1
102
RTVSPropertyOp17
 70
     1
102
RTVSPropertyOp18
 70
     1
102
RTVSPropertyOp19
 70
     1
102
RTVSPropertyOp20
 70
     1
102
RTVSPropertyOp21
 70
     1
102
RTVSPropertyOp22
 70
     1
102
RTVSPropertyOp23
 70
     1
102
RTVSPropertyOp24
 70
     1
102
RTVSPropertyOp25
 70
     1
102
RTVSPropertyOp26
 70
     1
102
RTVSPropertyOp27
 70
     1
102
RTVSPropertyOp28
 70
     1
102
RTVSPropertyOp29
 70
     1
102
RTVSPropertyOp30
 70
     1
102
RTVSPropertyOp31
 70
     1
102
RTVSPropertyOp32
 70
     1
102
RTVSPropertyOp33
 70
     1
102
RTVSPropertyOp34
 70
     1
102
RTVSPropertyOp35
 70
     1
102
RTVSPropertyOp36
 70
     1
102
RTVSPropertyOp37
 70
     1
102
RTVSPropertyOp38
 70
     1
102
RTVSPropertyOp39
 70
     1
102
RTVSPropertyOp40
 70
     1
102
RTVSPropertyOp41
 70
     1
102
RTVSPropertyOp42
 70
     1
102
RTVSPropertyOp43
 70
     1
102
RTVSPropertyOp44
 70
     1
102
RTVSPropertyOp45
 70
     1
102
RTVSPropertyOp46
 70
     1
102
RTVSPropertyOp47
 70
     1
102
RTVSPropertyOp48
 70
     1
102
RTVSPropertyOp49
 70
     1
102
RTVSPropertyOp50
 70
     1
102
RTVSPropertyOp51
 70
     0
102
RTVSPropertyOp52
 70
     0
102
RTVSPropertyOp53
 70
     1
102
RTVSPropertyOp54
 70
     1
102
RTVSPropertyOp55
 70
     1
102
RTVSPropertyOp56
 70
     1
102
RTVSPropertyOp57
 70
     1
102
RTVSPropertyOp58
 70
     1
102
RTVSPropertyOp59
 70
     1
102
RTVSPropertyOp60
 70
     1
102
RTVSPropertyOp61
 70
     1
102
RTVSPropertyOp62
 70
     1
  0
XRECORD
  5
84B3
102
{ACAD_REACTORS
330
84B2
102
}
330
84B2
100
AcDbXrecord
280
     1
102
RTVSPost2010Prop28
280
     0
102
RTVSPost2010PropOp28
 70
     1
102
RTVSPost2010Prop29
280
     1
102
RTVSPost2010PropOp29
 70
     1
102
RTVSPost2010Prop30
280
     1
102
RTVSPost2010PropOp30
 70
     1
102
RTVSPost2010Prop31
280
     0
102
RTVSPost2010PropOp31
 70
     1
102
RTVSPost2010Prop32
280
     0
102
RTVSPost2010PropOp32
 70
     1
102
RTVSPost2010Prop33
280
     0
102
RTVSPost2010PropOp33
 70
     1
102
RTVSPost2010Prop34
280
     0
102
RTVSPost2010PropOp34
 70
     1
102
RTVSPost2010Prop35
280
     0
102
RTVSPost2010PropOp35
 70
     1
102
RTVSPost2010Prop36
280
     0
102
RTVSPost2010PropOp36
 70
     1
102
RTVSPost2010Prop37
 90
       50
102
RTVSPost2010PropOp37
 70
     1
102
RTVSPost2010Prop38
140
0.0
102
RTVSPost2010PropOp38
 70
     1
102
RTVSPost2010Prop39
140
1.0
102
RTVSPost2010PropOp39
 70
     1
102
RTVSPost2010Prop40
 90
        0
102
RTVSPost2010PropOp40
 70
     1
102
RTVSPost2010Prop41ColorIndex
 90
       18
102
RTVSPost2010Prop41ColorRGB
 90
        0
102
RTVSPost2010PropOp41
 70
     1
102
RTVSPost2010Prop42
 90
       50
102
RTVSPost2010PropOp42
 70
     1
102
RTVSPost2010Prop43
 90
        3
102
RTVSPost2010PropOp43
 70
     1
102
RTVSPost2010Prop44ColorIndex
 90
        5
102
RTVSPost2010Prop44ColorRGB
 90
      255
102
RTVSPost2010PropOp44
 70
     1
102
RTVSPost2010Prop45
280
     0
102
RTVSPost2010PropOp45
 70
     1
102
RTVSPost2010Prop46
 90
       50
102
RTVSPost2010PropOp46
 70
     1
102
RTVSPost2010Prop47
 90
       50
102
RTVSPost2010PropOp47
 70
     1
102
RTVSPost2010Prop48
 90
       50
102
RTVSPost2010PropOp48
 70
     1
102
RTVSPost2010Prop49
280
     0
102
RTVSPost2010PropOp49
 70
     1
102
RTVSPost2010Prop50
 90
       50
102
RTVSPost2010PropOp50
 70
     1
102
RTVSPost2010Prop51ColorIndex
 90
      256
102
RTVSPost2010Prop51ColorRGB
 90
-16777216
102
RTVSPost2010PropOp51
 70
     0
102
RTVSPost2010Prop52
140
1.0
102
RTVSPost2010PropOp52
 70
     0
102
RTVSPost2010Prop53
 90
        2
102
RTVSPost2010PropOp53
 70
     1
102
RTVSPost2010Prop54
  1
strokes_ogs.tif
102
RTVSPost2010PropOp54
 70
     1
102
RTVSPost2010Prop55
280
     0
102
RTVSPost2010PropOp55
 70
     1
102
RTVSPost2010Prop56
140
1.0
102
RTVSPost2010PropOp56
 70
     1
102
RTVSPost2010Prop57
140
1.0
102
RTVSPost2010PropOp57
 70
     1
102
RTVSPropertyOp0
 70
     1
102
RTVSPropertyOp1
 70
     1
102
RTVSPropertyOp2
 70
     1
102
RTVSPropertyOp3
 70
     1
102
RTVSPropertyOp4
 70
     1
102
RTVSPropertyOp5
 70
     1
102
RTVSPropertyOp6
 70
     1
102
RTVSPropertyOp7
 70
     1
102
RTVSPropertyOp8
 70
     1
102
RTVSPropertyOp9
 70
     1
102
RTVSPropertyOp10
 70
     1
102
RTVSPropertyOp11
 70
     1
102
RTVSPropertyOp12
 70
     1
102
RTVSPropertyOp13
 70
     1
102
RTVSPropertyOp14
 70
     1
102
RTVSPropertyOp15
 70
     1
102
RTVSPropertyOp16
 70
     1
102
RTVSPropertyOp17
 70
     1
102
RTVSPropertyOp18
 70
     1
102
RTVSPropertyOp19
 70
     1
102
RTVSPropertyOp20
 70
     1
102
RTVSPropertyOp21
 70
     1
102
RTVSPropertyOp22
 70
     1
102
RTVSPropertyOp23
 70
     1
102
RTVSPropertyOp24
 70
     1
102
RTVSPropertyOp25
 70
     1
102
RTVSPropertyOp26
 70
     1
102
RTVSPropertyOp27
 70
     1
102
RTVSPropertyOp28
 70
     1
102
RTVSPropertyOp29
 70
     1
102
RTVSPropertyOp30
 70
     1
102
RTVSPropertyOp31
 70
     1
102
RTVSPropertyOp32
 70
     1
102
RTVSPropertyOp33
 70
     1
102
RTVSPropertyOp34
 70
     1
102
RTVSPropertyOp35
 70
     1
102
RTVSPropertyOp36
 70
     1
102
RTVSPropertyOp37
 70
     1
102
RTVSPropertyOp38
 70
     1
102
RTVSPropertyOp39
 70
     1
102
RTVSPropertyOp40
 70
     1
102
RTVSPropertyOp41
 70
     1
102
RTVSPropertyOp42
 70
     1
102
RTVSPropertyOp43
 70
     1
102
RTVSPropertyOp44
 70
     1
102
RTVSPropertyOp45
 70
     1
102
RTVSPropertyOp46
 70
     1
102
RTVSPropertyOp47
 70
     1
102
RTVSPropertyOp48
 70
     1
102
RTVSPropertyOp49
 70
     1
102
RTVSPropertyOp50
 70
     1
102
RTVSPropertyOp51
 70
     0
102
RTVSPropertyOp52
 70
     0
102
RTVSPropertyOp53
 70
     1
102
RTVSPropertyOp54
 70
     1
102
RTVSPropertyOp55
 70
     1
102
RTVSPropertyOp56
 70
     1
102
RTVSPropertyOp57
 70
     1
102
RTVSPropertyOp58
 70
     1
102
RTVSPropertyOp59
 70
     1
102
RTVSPropertyOp60
 70
     1
102
RTVSPropertyOp61
 70
     1
102
RTVSPropertyOp62
 70
     1
  0
XRECORD
  5
84B5
102
{ACAD_REACTORS
330
84B4
102
}
330
84B4
100
AcDbXrecord
280
     1
102
RTVSPost2010Prop28
280
     0
102
RTVSPost2010PropOp28
 70
     1
102
RTVSPost2010Prop29
280
     1
102
RTVSPost2010PropOp29
 70
     1
102
RTVSPost2010Prop30
280
     1
102
RTVSPost2010PropOp30
 70
     1
102
RTVSPost2010Prop31
280
     0
102
RTVSPost2010PropOp31
 70
     1
102
RTVSPost2010Prop32
280
     0
102
RTVSPost2010PropOp32
 70
     1
102
RTVSPost2010Prop33
280
     0
102
RTVSPost2010PropOp33
 70
     1
102
RTVSPost2010Prop34
280
     0
102
RTVSPost2010PropOp34
 70
     1
102
RTVSPost2010Prop35
280
     0
102
RTVSPost2010PropOp35
 70
     1
102
RTVSPost2010Prop36
280
     0
102
RTVSPost2010PropOp36
 70
     1
102
RTVSPost2010Prop37
 90
       50
102
RTVSPost2010PropOp37
 70
     1
102
RTVSPost2010Prop38
140
0.0
102
RTVSPost2010PropOp38
 70
     1
102
RTVSPost2010Prop39
140
1.0
102
RTVSPost2010PropOp39
 70
     1
102
RTVSPost2010Prop40
 90
        0
102
RTVSPost2010PropOp40
 70
     1
102
RTVSPost2010Prop41ColorIndex
 90
       18
102
RTVSPost2010Prop41ColorRGB
 90
        0
102
RTVSPost2010PropOp41
 70
     1
102
RTVSPost2010Prop42
 90
       50
102
RTVSPost2010PropOp42
 70
     1
102
RTVSPost2010Prop43
 90
        3
102
RTVSPost2010PropOp43
 70
     1
102
RTVSPost2010Prop44ColorIndex
 90
        5
102
RTVSPost2010Prop44ColorRGB
 90
      255
102
RTVSPost2010PropOp44
 70
     1
102
RTVSPost2010Prop45
280
     0
102
RTVSPost2010PropOp45
 70
     1
102
RTVSPost2010Prop46
 90
       50
102
RTVSPost2010PropOp46
 70
     1
102
RTVSPost2010Prop47
 90
       50
102
RTVSPost2010PropOp47
 70
     1
102
RTVSPost2010Prop48
 90
       50
102
RTVSPost2010PropOp48
 70
     1
102
RTVSPost2010Prop49
280
     0
102
RTVSPost2010PropOp49
 70
     1
102
RTVSPost2010Prop50
 90
       50
102
RTVSPost2010PropOp50
 70
     1
102
RTVSPost2010Prop51ColorIndex
 90
      256
102
RTVSPost2010Prop51ColorRGB
 90
-16777216
102
RTVSPost2010PropOp51
 70
     0
102
RTVSPost2010Prop52
140
1.0
102
RTVSPost2010PropOp52
 70
     0
102
RTVSPost2010Prop53
 90
        2
102
RTVSPost2010PropOp53
 70
     1
102
RTVSPost2010Prop54
  1
strokes_ogs.tif
102
RTVSPost2010PropOp54
 70
     1
102
RTVSPost2010Prop55
280
     0
102
RTVSPost2010PropOp55
 70
     1
102
RTVSPost2010Prop56
140
1.0
102
RTVSPost2010PropOp56
 70
     1
102
RTVSPost2010Prop57
140
1.0
102
RTVSPost2010PropOp57
 70
     1
102
RTVSPropertyOp0
 70
     1
102
RTVSPropertyOp1
 70
     1
102
RTVSPropertyOp2
 70
     1
102
RTVSPropertyOp3
 70
     1
102
RTVSPropertyOp4
 70
     1
102
RTVSPropertyOp5
 70
     1
102
RTVSPropertyOp6
 70
     1
102
RTVSPropertyOp7
 70
     1
102
RTVSPropertyOp8
 70
     1
102
RTVSPropertyOp9
 70
     1
102
RTVSPropertyOp10
 70
     1
102
RTVSPropertyOp11
 70
     1
102
RTVSPropertyOp12
 70
     1
102
RTVSPropertyOp13
 70
     1
102
RTVSPropertyOp14
 70
     1
102
RTVSPropertyOp15
 70
     1
102
RTVSPropertyOp16
 70
     1
102
RTVSPropertyOp17
 70
     1
102
RTVSPropertyOp18
 70
     1
102
RTVSPropertyOp19
 70
     1
102
RTVSPropertyOp20
 70
     1
102
RTVSPropertyOp21
 70
     1
102
RTVSPropertyOp22
 70
     1
102
RTVSPropertyOp23
 70
     1
102
RTVSPropertyOp24
 70
     1
102
RTVSPropertyOp25
 70
     1
102
RTVSPropertyOp26
 70
     1
102
RTVSPropertyOp27
 70
     1
102
RTVSPropertyOp28
 70
     1
102
RTVSPropertyOp29
 70
     1
102
RTVSPropertyOp30
 70
     1
102
RTVSPropertyOp31
 70
     1
102
RTVSPropertyOp32
 70
     1
102
RTVSPropertyOp33
 70
     1
102
RTVSPropertyOp34
 70
     1
102
RTVSPropertyOp35
 70
     1
102
RTVSPropertyOp36
 70
     1
102
RTVSPropertyOp37
 70
     1
102
RTVSPropertyOp38
 70
     1
102
RTVSPropertyOp39
 70
     1
102
RTVSPropertyOp40
 70
     1
102
RTVSPropertyOp41
 70
     1
102
RTVSPropertyOp42
 70
     1
102
RTVSPropertyOp43
 70
     1
102
RTVSPropertyOp44
 70
     1
102
RTVSPropertyOp45
 70
     1
102
RTVSPropertyOp46
 70
     1
102
RTVSPropertyOp47
 70
     1
102
RTVSPropertyOp48
 70
     1
102
RTVSPropertyOp49
 70
     1
102
RTVSPropertyOp50
 70
     1
102
RTVSPropertyOp51
 70
     0
102
RTVSPropertyOp52
 70
     0
102
RTVSPropertyOp53
 70
     1
102
RTVSPropertyOp54
 70
     1
102
RTVSPropertyOp55
 70
     1
102
RTVSPropertyOp56
 70
     1
102
RTVSPropertyOp57
 70
     1
102
RTVSPropertyOp58
 70
     1
102
RTVSPropertyOp59
 70
     1
102
RTVSPropertyOp60
 70
     1
102
RTVSPropertyOp61
 70
     1
102
RTVSPropertyOp62
 70
     1
  0
XRECORD
  5
84B7
102
{ACAD_REACTORS
330
84B6
102
}
330
84B6
100
AcDbXrecord
280
     1
102
RTVSPost2010Prop28
280
     0
102
RTVSPost2010PropOp28
 70
     1
102
RTVSPost2010Prop29
280
     1
102
RTVSPost2010PropOp29
 70
     1
102
RTVSPost2010Prop30
280
     1
102
RTVSPost2010PropOp30
 70
     1
102
RTVSPost2010Prop31
280
     0
102
RTVSPost2010PropOp31
 70
     1
102
RTVSPost2010Prop32
280
     0
102
RTVSPost2010PropOp32
 70
     1
102
RTVSPost2010Prop33
280
     0
102
RTVSPost2010PropOp33
 70
     1
102
RTVSPost2010Prop34
280
     0
102
RTVSPost2010PropOp34
 70
     1
102
RTVSPost2010Prop35
280
     0
102
RTVSPost2010PropOp35
 70
     1
102
RTVSPost2010Prop36
280
     0
102
RTVSPost2010PropOp36
 70
     1
102
RTVSPost2010Prop37
 90
       50
102
RTVSPost2010PropOp37
 70
     1
102
RTVSPost2010Prop38
140
0.0
102
RTVSPost2010PropOp38
 70
     1
102
RTVSPost2010Prop39
140
1.0
102
RTVSPost2010PropOp39
 70
     1
102
RTVSPost2010Prop40
 90
        0
102
RTVSPost2010PropOp40
 70
     1
102
RTVSPost2010Prop41ColorIndex
 90
       18
102
RTVSPost2010Prop41ColorRGB
 90
        0
102
RTVSPost2010PropOp41
 70
     1
102
RTVSPost2010Prop42
 90
       50
102
RTVSPost2010PropOp42
 70
     1
102
RTVSPost2010Prop43
 90
        3
102
RTVSPost2010PropOp43
 70
     1
102
RTVSPost2010Prop44ColorIndex
 90
        5
102
RTVSPost2010Prop44ColorRGB
 90
      255
102
RTVSPost2010PropOp44
 70
     1
102
RTVSPost2010Prop45
280
     0
102
RTVSPost2010PropOp45
 70
     1
102
RTVSPost2010Prop46
 90
       50
102
RTVSPost2010PropOp46
 70
     1
102
RTVSPost2010Prop47
 90
       50
102
RTVSPost2010PropOp47
 70
     1
102
RTVSPost2010Prop48
 90
       50
102
RTVSPost2010PropOp48
 70
     1
102
RTVSPost2010Prop49
280
     0
102
RTVSPost2010PropOp49
 70
     1
102
RTVSPost2010Prop50
 90
       50
102
RTVSPost2010PropOp50
 70
     1
102
RTVSPost2010Prop51ColorIndex
 90
      256
102
RTVSPost2010Prop51ColorRGB
 90
-16777216
102
RTVSPost2010PropOp51
 70
     0
102
RTVSPost2010Prop52
140
1.0
102
RTVSPost2010PropOp52
 70
     0
102
RTVSPost2010Prop53
 90
        2
102
RTVSPost2010PropOp53
 70
     1
102
RTVSPost2010Prop54
  1
strokes_ogs.tif
102
RTVSPost2010PropOp54
 70
     1
102
RTVSPost2010Prop55
280
     0
102
RTVSPost2010PropOp55
 70
     1
102
RTVSPost2010Prop56
140
1.0
102
RTVSPost2010PropOp56
 70
     1
102
RTVSPost2010Prop57
140
1.0
102
RTVSPost2010PropOp57
 70
     1
102
RTVSPropertyOp0
 70
     1
102
RTVSPropertyOp1
 70
     1
102
RTVSPropertyOp2
 70
     1
102
RTVSPropertyOp3
 70
     1
102
RTVSPropertyOp4
 70
     1
102
RTVSPropertyOp5
 70
     1
102
RTVSPropertyOp6
 70
     1
102
RTVSPropertyOp7
 70
     1
102
RTVSPropertyOp8
 70
     1
102
RTVSPropertyOp9
 70
     1
102
RTVSPropertyOp10
 70
     1
102
RTVSPropertyOp11
 70
     1
102
RTVSPropertyOp12
 70
     1
102
RTVSPropertyOp13
 70
     1
102
RTVSPropertyOp14
 70
     1
102
RTVSPropertyOp15
 70
     1
102
RTVSPropertyOp16
 70
     1
102
RTVSPropertyOp17
 70
     1
102
RTVSPropertyOp18
 70
     1
102
RTVSPropertyOp19
 70
     1
102
RTVSPropertyOp20
 70
     1
102
RTVSPropertyOp21
 70
     1
102
RTVSPropertyOp22
 70
     1
102
RTVSPropertyOp23
 70
     1
102
RTVSPropertyOp24
 70
     1
102
RTVSPropertyOp25
 70
     1
102
RTVSPropertyOp26
 70
     1
102
RTVSPropertyOp27
 70
     1
102
RTVSPropertyOp28
 70
     1
102
RTVSPropertyOp29
 70
     1
102
RTVSPropertyOp30
 70
     1
102
RTVSPropertyOp31
 70
     1
102
RTVSPropertyOp32
 70
     1
102
RTVSPropertyOp33
 70
     1
102
RTVSPropertyOp34
 70
     1
102
RTVSPropertyOp35
 70
     1
102
RTVSPropertyOp36
 70
     1
102
RTVSPropertyOp37
 70
     1
102
RTVSPropertyOp38
 70
     1
102
RTVSPropertyOp39
 70
     1
102
RTVSPropertyOp40
 70
     1
102
RTVSPropertyOp41
 70
     1
102
RTVSPropertyOp42
 70
     1
102
RTVSPropertyOp43
 70
     1
102
RTVSPropertyOp44
 70
     1
102
RTVSPropertyOp45
 70
     1
102
RTVSPropertyOp46
 70
     1
102
RTVSPropertyOp47
 70
     1
102
RTVSPropertyOp48
 70
     1
102
RTVSPropertyOp49
 70
     1
102
RTVSPropertyOp50
 70
     1
102
RTVSPropertyOp51
 70
     0
102
RTVSPropertyOp52
 70
     0
102
RTVSPropertyOp53
 70
     1
102
RTVSPropertyOp54
 70
     1
102
RTVSPropertyOp55
 70
     1
102
RTVSPropertyOp56
 70
     1
102
RTVSPropertyOp57
 70
     1
102
RTVSPropertyOp58
 70
     1
102
RTVSPropertyOp59
 70
     1
102
RTVSPropertyOp60
 70
     1
102
RTVSPropertyOp61
 70
     1
102
RTVSPropertyOp62
 70
     1
  0
XRECORD
  5
84BF
102
{ACAD_REACTORS
330
84BE
102
}
330
84BE
100
AcDbXrecord
280
     1
102
RTVSPost2010Prop28
280
     0
102
RTVSPost2010PropOp28
 70
     1
102
RTVSPost2010Prop29
280
     1
102
RTVSPost2010PropOp29
 70
     1
102
RTVSPost2010Prop30
280
     1
102
RTVSPost2010PropOp30
 70
     1
102
RTVSPost2010Prop31
280
     0
102
RTVSPost2010PropOp31
 70
     1
102
RTVSPost2010Prop32
280
     0
102
RTVSPost2010PropOp32
 70
     1
102
RTVSPost2010Prop33
280
     0
102
RTVSPost2010PropOp33
 70
     1
102
RTVSPost2010Prop34
280
     0
102
RTVSPost2010PropOp34
 70
     1
102
RTVSPost2010Prop35
280
     0
102
RTVSPost2010PropOp35
 70
     1
102
RTVSPost2010Prop36
280
     0
102
RTVSPost2010PropOp36
 70
     1
102
RTVSPost2010Prop37
 90
       50
102
RTVSPost2010PropOp37
 70
     1
102
RTVSPost2010Prop38
140
0.0
102
RTVSPost2010PropOp38
 70
     1
102
RTVSPost2010Prop39
140
1.0
102
RTVSPost2010PropOp39
 70
     1
102
RTVSPost2010Prop40
 90
        0
102
RTVSPost2010PropOp40
 70
     1
102
RTVSPost2010Prop41ColorIndex
 90
       18
102
RTVSPost2010Prop41ColorRGB
 90
        0
102
RTVSPost2010PropOp41
 70
     1
102
RTVSPost2010Prop42
 90
       50
102
RTVSPost2010PropOp42
 70
     1
102
RTVSPost2010Prop43
 90
        3
102
RTVSPost2010PropOp43
 70
     1
102
RTVSPost2010Prop44ColorIndex
 90
        5
102
RTVSPost2010Prop44ColorRGB
 90
      255
102
RTVSPost2010PropOp44
 70
     1
102
RTVSPost2010Prop45
280
     0
102
RTVSPost2010PropOp45
 70
     1
102
RTVSPost2010Prop46
 90
       50
102
RTVSPost2010PropOp46
 70
     1
102
RTVSPost2010Prop47
 90
       50
102
RTVSPost2010PropOp47
 70
     1
102
RTVSPost2010Prop48
 90
       50
102
RTVSPost2010PropOp48
 70
     1
102
RTVSPost2010Prop49
280
     0
102
RTVSPost2010PropOp49
 70
     1
102
RTVSPost2010Prop50
 90
       50
102
RTVSPost2010PropOp50
 70
     1
102
RTVSPost2010Prop51ColorIndex
 90
      256
102
RTVSPost2010Prop51ColorRGB
 90
-16777216
102
RTVSPost2010PropOp51
 70
     0
102
RTVSPost2010Prop52
140
1.0
102
RTVSPost2010PropOp52
 70
     0
102
RTVSPost2010Prop53
 90
        2
102
RTVSPost2010PropOp53
 70
     1
102
RTVSPost2010Prop54
  1
strokes_ogs.tif
102
RTVSPost2010PropOp54
 70
     1
102
RTVSPost2010Prop55
280
     0
102
RTVSPost2010PropOp55
 70
     1
102
RTVSPost2010Prop56
140
1.0
102
RTVSPost2010PropOp56
 70
     1
102
RTVSPost2010Prop57
140
1.0
102
RTVSPost2010PropOp57
 70
     1
102
RTVSPropertyOp0
 70
     1
102
RTVSPropertyOp1
 70
     1
102
RTVSPropertyOp2
 70
     1
102
RTVSPropertyOp3
 70
     1
102
RTVSPropertyOp4
 70
     1
102
RTVSPropertyOp5
 70
     1
102
RTVSPropertyOp6
 70
     1
102
RTVSPropertyOp7
 70
     1
102
RTVSPropertyOp8
 70
     1
102
RTVSPropertyOp9
 70
     1
102
RTVSPropertyOp10
 70
     1
102
RTVSPropertyOp11
 70
     1
102
RTVSPropertyOp12
 70
     1
102
RTVSPropertyOp13
 70
     1
102
RTVSPropertyOp14
 70
     1
102
RTVSPropertyOp15
 70
     1
102
RTVSPropertyOp16
 70
     1
102
RTVSPropertyOp17
 70
     1
102
RTVSPropertyOp18
 70
     1
102
RTVSPropertyOp19
 70
     1
102
RTVSPropertyOp20
 70
     1
102
RTVSPropertyOp21
 70
     1
102
RTVSPropertyOp22
 70
     1
102
RTVSPropertyOp23
 70
     1
102
RTVSPropertyOp24
 70
     1
102
RTVSPropertyOp25
 70
     1
102
RTVSPropertyOp26
 70
     1
102
RTVSPropertyOp27
 70
     1
102
RTVSPropertyOp28
 70
     1
102
RTVSPropertyOp29
 70
     1
102
RTVSPropertyOp30
 70
     1
102
RTVSPropertyOp31
 70
     1
102
RTVSPropertyOp32
 70
     1
102
RTVSPropertyOp33
 70
     1
102
RTVSPropertyOp34
 70
     1
102
RTVSPropertyOp35
 70
     1
102
RTVSPropertyOp36
 70
     1
102
RTVSPropertyOp37
 70
     1
102
RTVSPropertyOp38
 70
     1
102
RTVSPropertyOp39
 70
     1
102
RTVSPropertyOp40
 70
     1
102
RTVSPropertyOp41
 70
     1
102
RTVSPropertyOp42
 70
     1
102
RTVSPropertyOp43
 70
     1
102
RTVSPropertyOp44
 70
     1
102
RTVSPropertyOp45
 70
     1
102
RTVSPropertyOp46
 70
     1
102
RTVSPropertyOp47
 70
     1
102
RTVSPropertyOp48
 70
     1
102
RTVSPropertyOp49
 70
     1
102
RTVSPropertyOp50
 70
     1
102
RTVSPropertyOp51
 70
     0
102
RTVSPropertyOp52
 70
     0
102
RTVSPropertyOp53
 70
     1
102
RTVSPropertyOp54
 70
     1
102
RTVSPropertyOp55
 70
     1
102
RTVSPropertyOp56
 70
     1
102
RTVSPropertyOp57
 70
     1
102
RTVSPropertyOp58
 70
     1
102
RTVSPropertyOp59
 70
     1
102
RTVSPropertyOp60
 70
     1
102
RTVSPropertyOp61
 70
     1
102
RTVSPropertyOp62
 70
     1
  0
XRECORD
  5
84DB
102
{ACAD_REACTORS
330
84DA
102
}
330
84DA
100
AcDbXrecord
280
     1
102
RTVSPost2010Prop28
280
     0
102
RTVSPost2010PropOp28
 70
     0
102
RTVSPost2010Prop29
280
     1
102
RTVSPost2010PropOp29
 70
     0
102
RTVSPost2010Prop30
280
     1
102
RTVSPost2010PropOp30
 70
     0
102
RTVSPost2010Prop31
280
     0
102
RTVSPost2010PropOp31
 70
     0
102
RTVSPost2010Prop32
280
     0
102
RTVSPost2010PropOp32
 70
     0
102
RTVSPost2010Prop33
280
     0
102
RTVSPost2010PropOp33
 70
     0
102
RTVSPost2010Prop34
280
     0
102
RTVSPost2010PropOp34
 70
     0
102
RTVSPost2010Prop35
280
     0
102
RTVSPost2010PropOp35
 70
     0
102
RTVSPost2010Prop36
280
     0
102
RTVSPost2010PropOp36
 70
     0
102
RTVSPost2010Prop37
 90
       50
102
RTVSPost2010PropOp37
 70
     0
102
RTVSPost2010Prop38
140
0.0
102
RTVSPost2010PropOp38
 70
     0
102
RTVSPost2010Prop39
140
1.0
102
RTVSPost2010PropOp39
 70
     0
102
RTVSPost2010Prop40
 90
        0
102
RTVSPost2010PropOp40
 70
     0
102
RTVSPost2010Prop41ColorIndex
 90
       18
102
RTVSPost2010Prop41ColorRGB
 90
        0
102
RTVSPost2010PropOp41
 70
     0
102
RTVSPost2010Prop42
 90
       50
102
RTVSPost2010PropOp42
 70
     0
102
RTVSPost2010Prop43
 90
        3
102
RTVSPost2010PropOp43
 70
     0
102
RTVSPost2010Prop44ColorIndex
 90
        5
102
RTVSPost2010Prop44ColorRGB
 90
      255
102
RTVSPost2010PropOp44
 70
     0
102
RTVSPost2010Prop45
280
     0
102
RTVSPost2010PropOp45
 70
     0
102
RTVSPost2010Prop46
 90
       50
102
RTVSPost2010PropOp46
 70
     0
102
RTVSPost2010Prop47
 90
       50
102
RTVSPost2010PropOp47
 70
     0
102
RTVSPost2010Prop48
 90
       50
102
RTVSPost2010PropOp48
 70
     0
102
RTVSPost2010Prop49
280
     0
102
RTVSPost2010PropOp49
 70
     0
102
RTVSPost2010Prop50
 90
       50
102
RTVSPost2010PropOp50
 70
     0
102
RTVSPost2010Prop51ColorIndex
 90
      256
102
RTVSPost2010Prop51ColorRGB
 90
-16777216
102
RTVSPost2010PropOp51
 70
     0
102
RTVSPost2010Prop52
140
1.0
102
RTVSPost2010PropOp52
 70
     0
102
RTVSPost2010Prop53
 90
        2
102
RTVSPost2010PropOp53
 70
     0
102
RTVSPost2010Prop54
  1
strokes_ogs.tif
102
RTVSPost2010PropOp54
 70
     0
102
RTVSPost2010Prop55
280
     0
102
RTVSPost2010PropOp55
 70
     0
102
RTVSPost2010Prop56
140
1.0
102
RTVSPost2010PropOp56
 70
     0
102
RTVSPost2010Prop57
140
1.0
102
RTVSPost2010PropOp57
 70
     0
102
RTVSPropertyOp0
 70
     0
102
RTVSPropertyOp1
 70
     0
102
RTVSPropertyOp2
 70
     0
102
RTVSPropertyOp3
 70
     0
102
RTVSPropertyOp4
 70
     0
102
RTVSPropertyOp5
 70
     0
102
RTVSPropertyOp6
 70
     0
102
RTVSPropertyOp7
 70
     0
102
RTVSPropertyOp8
 70
     0
102
RTVSPropertyOp9
 70
     0
102
RTVSPropertyOp10
 70
     0
102
RTVSPropertyOp11
 70
     0
102
RTVSPropertyOp12
 70
     0
102
RTVSPropertyOp13
 70
     0
102
RTVSPropertyOp14
 70
     2
102
RTVSPropertyOp15
 70
     0
102
RTVSPropertyOp16
 70
     0
102
RTVSPropertyOp17
 70
     0
102
RTVSPropertyOp18
 70
     0
102
RTVSPropertyOp19
 70
     0
102
RTVSPropertyOp20
 70
     0
102
RTVSPropertyOp21
 70
     0
102
RTVSPropertyOp22
 70
     0
102
RTVSPropertyOp23
 70
     0
102
RTVSPropertyOp24
 70
     0
102
RTVSPropertyOp25
 70
     0
102
RTVSPropertyOp26
 70
     0
102
RTVSPropertyOp27
 70
     0
102
RTVSPropertyOp28
 70
     0
102
RTVSPropertyOp29
 70
     0
102
RTVSPropertyOp30
 70
     0
102
RTVSPropertyOp31
 70
     0
102
RTVSPropertyOp32
 70
     0
102
RTVSPropertyOp33
 70
     0
102
RTVSPropertyOp34
 70
     0
102
RTVSPropertyOp35
 70
     0
102
RTVSPropertyOp36
 70
     0
102
RTVSPropertyOp37
 70
     0
102
RTVSPropertyOp38
 70
     0
102
RTVSPropertyOp39
 70
     0
102
RTVSPropertyOp40
 70
     0
102
RTVSPropertyOp41
 70
     0
102
RTVSPropertyOp42
 70
     0
102
RTVSPropertyOp43
 70
     0
102
RTVSPropertyOp44
 70
     0
102
RTVSPropertyOp45
 70
     0
102
RTVSPropertyOp46
 70
     0
102
RTVSPropertyOp47
 70
     0
102
RTVSPropertyOp48
 70
     0
102
RTVSPropertyOp49
 70
     0
102
RTVSPropertyOp50
 70
     0
102
RTVSPropertyOp51
 70
     0
102
RTVSPropertyOp52
 70
     0
102
RTVSPropertyOp53
 70
     0
102
RTVSPropertyOp54
 70
     0
102
RTVSPropertyOp55
 70
     0
102
RTVSPropertyOp56
 70
     0
102
RTVSPropertyOp57
 70
     0
102
RTVSPropertyOp58
 70
     1
102
RTVSPropertyOp59
 70
     1
102
RTVSPropertyOp60
 70
     1
102
RTVSPropertyOp61
 70
     1
102
RTVSPropertyOp62
 70
     1
  0
XRECORD
  5
84CB
102
{ACAD_REACTORS
330
84CA
102
}
330
84CA
100
AcDbXrecord
280
     1
102
RTVSPost2010Prop28
280
     0
102
RTVSPost2010PropOp28
 70
     1
102
RTVSPost2010Prop29
280
     1
102
RTVSPost2010PropOp29
 70
     1
102
RTVSPost2010Prop30
280
     1
102
RTVSPost2010PropOp30
 70
     1
102
RTVSPost2010Prop31
280
     0
102
RTVSPost2010PropOp31
 70
     1
102
RTVSPost2010Prop32
280
     0
102
RTVSPost2010PropOp32
 70
     1
102
RTVSPost2010Prop33
280
     0
102
RTVSPost2010PropOp33
 70
     1
102
RTVSPost2010Prop34
280
     0
102
RTVSPost2010PropOp34
 70
     1
102
RTVSPost2010Prop35
280
     0
102
RTVSPost2010PropOp35
 70
     1
102
RTVSPost2010Prop36
280
     0
102
RTVSPost2010PropOp36
 70
     1
102
RTVSPost2010Prop37
 90
       50
102
RTVSPost2010PropOp37
 70
     1
102
RTVSPost2010Prop38
140
0.0
102
RTVSPost2010PropOp38
 70
     1
102
RTVSPost2010Prop39
140
1.0
102
RTVSPost2010PropOp39
 70
     1
102
RTVSPost2010Prop40
 90
        0
102
RTVSPost2010PropOp40
 70
     1
102
RTVSPost2010Prop41ColorIndex
 90
       18
102
RTVSPost2010Prop41ColorRGB
 90
        0
102
RTVSPost2010PropOp41
 70
     1
102
RTVSPost2010Prop42
 90
       50
102
RTVSPost2010PropOp42
 70
     1
102
RTVSPost2010Prop43
 90
        3
102
RTVSPost2010PropOp43
 70
     1
102
RTVSPost2010Prop44ColorIndex
 90
        5
102
RTVSPost2010Prop44ColorRGB
 90
      255
102
RTVSPost2010PropOp44
 70
     1
102
RTVSPost2010Prop45
280
     0
102
RTVSPost2010PropOp45
 70
     1
102
RTVSPost2010Prop46
 90
       50
102
RTVSPost2010PropOp46
 70
     1
102
RTVSPost2010Prop47
 90
       50
102
RTVSPost2010PropOp47
 70
     1
102
RTVSPost2010Prop48
 90
       50
102
RTVSPost2010PropOp48
 70
     1
102
RTVSPost2010Prop49
280
     0
102
RTVSPost2010PropOp49
 70
     1
102
RTVSPost2010Prop50
 90
       50
102
RTVSPost2010PropOp50
 70
     1
102
RTVSPost2010Prop51ColorIndex
 90
      256
102
RTVSPost2010Prop51ColorRGB
 90
-16777216
102
RTVSPost2010PropOp51
 70
     0
102
RTVSPost2010Prop52
140
1.0
102
RTVSPost2010PropOp52
 70
     0
102
RTVSPost2010Prop53
 90
        2
102
RTVSPost2010PropOp53
 70
     1
102
RTVSPost2010Prop54
  1
strokes_ogs.tif
102
RTVSPost2010PropOp54
 70
     1
102
RTVSPost2010Prop55
280
     0
102
RTVSPost2010PropOp55
 70
     1
102
RTVSPost2010Prop56
140
1.0
102
RTVSPost2010PropOp56
 70
     1
102
RTVSPost2010Prop57
140
1.0
102
RTVSPost2010PropOp57
 70
     1
102
RTVSPropertyOp0
 70
     1
102
RTVSPropertyOp1
 70
     1
102
RTVSPropertyOp2
 70
     1
102
RTVSPropertyOp3
 70
     1
102
RTVSPropertyOp4
 70
     1
102
RTVSPropertyOp5
 70
     1
102
RTVSPropertyOp6
 70
     1
102
RTVSPropertyOp7
 70
     1
102
RTVSPropertyOp8
 70
     1
102
RTVSPropertyOp9
 70
     1
102
RTVSPropertyOp10
 70
     1
102
RTVSPropertyOp11
 70
     1
102
RTVSPropertyOp12
 70
     1
102
RTVSPropertyOp13
 70
     1
102
RTVSPropertyOp14
 70
     1
102
RTVSPropertyOp15
 70
     1
102
RTVSPropertyOp16
 70
     1
102
RTVSPropertyOp17
 70
     1
102
RTVSPropertyOp18
 70
     1
102
RTVSPropertyOp19
 70
     1
102
RTVSPropertyOp20
 70
     1
102
RTVSPropertyOp21
 70
     1
102
RTVSPropertyOp22
 70
     1
102
RTVSPropertyOp23
 70
     1
102
RTVSPropertyOp24
 70
     1
102
RTVSPropertyOp25
 70
     1
102
RTVSPropertyOp26
 70
     1
102
RTVSPropertyOp27
 70
     1
102
RTVSPropertyOp28
 70
     1
102
RTVSPropertyOp29
 70
     1
102
RTVSPropertyOp30
 70
     1
102
RTVSPropertyOp31
 70
     1
102
RTVSPropertyOp32
 70
     1
102
RTVSPropertyOp33
 70
     1
102
RTVSPropertyOp34
 70
     1
102
RTVSPropertyOp35
 70
     1
102
RTVSPropertyOp36
 70
     1
102
RTVSPropertyOp37
 70
     1
102
RTVSPropertyOp38
 70
     1
102
RTVSPropertyOp39
 70
     1
102
RTVSPropertyOp40
 70
     1
102
RTVSPropertyOp41
 70
     1
102
RTVSPropertyOp42
 70
     1
102
RTVSPropertyOp43
 70
     1
102
RTVSPropertyOp44
 70
     1
102
RTVSPropertyOp45
 70
     1
102
RTVSPropertyOp46
 70
     1
102
RTVSPropertyOp47
 70
     1
102
RTVSPropertyOp48
 70
     1
102
RTVSPropertyOp49
 70
     1
102
RTVSPropertyOp50
 70
     1
102
RTVSPropertyOp51
 70
     0
102
RTVSPropertyOp52
 70
     0
102
RTVSPropertyOp53
 70
     1
102
RTVSPropertyOp54
 70
     1
102
RTVSPropertyOp55
 70
     1
102
RTVSPropertyOp56
 70
     1
102
RTVSPropertyOp57
 70
     1
102
RTVSPropertyOp58
 70
     1
102
RTVSPropertyOp59
 70
     1
102
RTVSPropertyOp60
 70
     1
102
RTVSPropertyOp61
 70
     1
102
RTVSPropertyOp62
 70
     1
  0
XRECORD
  5
84DD
102
{ACAD_REACTORS
330
84DC
102
}
330
84DC
100
AcDbXrecord
280
     1
102
RTVSPost2010Prop28
280
     0
102
RTVSPost2010PropOp28
 70
     0
102
RTVSPost2010Prop29
280
     1
102
RTVSPost2010PropOp29
 70
     0
102
RTVSPost2010Prop30
280
     1
102
RTVSPost2010PropOp30
 70
     0
102
RTVSPost2010Prop31
280
     0
102
RTVSPost2010PropOp31
 70
     0
102
RTVSPost2010Prop32
280
     0
102
RTVSPost2010PropOp32
 70
     0
102
RTVSPost2010Prop33
280
     0
102
RTVSPost2010PropOp33
 70
     0
102
RTVSPost2010Prop34
280
     0
102
RTVSPost2010PropOp34
 70
     0
102
RTVSPost2010Prop35
280
     0
102
RTVSPost2010PropOp35
 70
     0
102
RTVSPost2010Prop36
280
     0
102
RTVSPost2010PropOp36
 70
     0
102
RTVSPost2010Prop37
 90
       50
102
RTVSPost2010PropOp37
 70
     0
102
RTVSPost2010Prop38
140
0.0
102
RTVSPost2010PropOp38
 70
     0
102
RTVSPost2010Prop39
140
1.0
102
RTVSPost2010PropOp39
 70
     0
102
RTVSPost2010Prop40
 90
        0
102
RTVSPost2010PropOp40
 70
     0
102
RTVSPost2010Prop41ColorIndex
 90
       18
102
RTVSPost2010Prop41ColorRGB
 90
        0
102
RTVSPost2010PropOp41
 70
     0
102
RTVSPost2010Prop42
 90
       50
102
RTVSPost2010PropOp42
 70
     0
102
RTVSPost2010Prop43
 90
        3
102
RTVSPost2010PropOp43
 70
     0
102
RTVSPost2010Prop44ColorIndex
 90
        5
102
RTVSPost2010Prop44ColorRGB
 90
      255
102
RTVSPost2010PropOp44
 70
     0
102
RTVSPost2010Prop45
280
     0
102
RTVSPost2010PropOp45
 70
     0
102
RTVSPost2010Prop46
 90
       50
102
RTVSPost2010PropOp46
 70
     0
102
RTVSPost2010Prop47
 90
       50
102
RTVSPost2010PropOp47
 70
     0
102
RTVSPost2010Prop48
 90
       50
102
RTVSPost2010PropOp48
 70
     0
102
RTVSPost2010Prop49
280
     0
102
RTVSPost2010PropOp49
 70
     0
102
RTVSPost2010Prop50
 90
       50
102
RTVSPost2010PropOp50
 70
     0
102
RTVSPost2010Prop51ColorIndex
 90
      256
102
RTVSPost2010Prop51ColorRGB
 90
-16777216
102
RTVSPost2010PropOp51
 70
     0
102
RTVSPost2010Prop52
140
1.0
102
RTVSPost2010PropOp52
 70
     0
102
RTVSPost2010Prop53
 90
        2
102
RTVSPost2010PropOp53
 70
     0
102
RTVSPost2010Prop54
  1
strokes_ogs.tif
102
RTVSPost2010PropOp54
 70
     0
102
RTVSPost2010Prop55
280
     0
102
RTVSPost2010PropOp55
 70
     0
102
RTVSPost2010Prop56
140
1.0
102
RTVSPost2010PropOp56
 70
     0
102
RTVSPost2010Prop57
140
1.0
102
RTVSPost2010PropOp57
 70
     0
102
RTVSPropertyOp0
 70
     0
102
RTVSPropertyOp1
 70
     0
102
RTVSPropertyOp2
 70
     0
102
RTVSPropertyOp3
 70
     0
102
RTVSPropertyOp4
 70
     0
102
RTVSPropertyOp5
 70
     0
102
RTVSPropertyOp6
 70
     0
102
RTVSPropertyOp7
 70
     0
102
RTVSPropertyOp8
 70
     0
102
RTVSPropertyOp9
 70
     0
102
RTVSPropertyOp10
 70
     0
102
RTVSPropertyOp11
 70
     0
102
RTVSPropertyOp12
 70
     0
102
RTVSPropertyOp13
 70
     0
102
RTVSPropertyOp14
 70
     2
102
RTVSPropertyOp15
 70
     0
102
RTVSPropertyOp16
 70
     0
102
RTVSPropertyOp17
 70
     0
102
RTVSPropertyOp18
 70
     0
102
RTVSPropertyOp19
 70
     0
102
RTVSPropertyOp20
 70
     0
102
RTVSPropertyOp21
 70
     0
102
RTVSPropertyOp22
 70
     0
102
RTVSPropertyOp23
 70
     0
102
RTVSPropertyOp24
 70
     0
102
RTVSPropertyOp25
 70
     0
102
RTVSPropertyOp26
 70
     0
102
RTVSPropertyOp27
 70
     0
102
RTVSPropertyOp28
 70
     0
102
RTVSPropertyOp29
 70
     0
102
RTVSPropertyOp30
 70
     0
102
RTVSPropertyOp31
 70
     0
102
RTVSPropertyOp32
 70
     0
102
RTVSPropertyOp33
 70
     0
102
RTVSPropertyOp34
 70
     0
102
RTVSPropertyOp35
 70
     0
102
RTVSPropertyOp36
 70
     0
102
RTVSPropertyOp37
 70
     0
102
RTVSPropertyOp38
 70
     0
102
RTVSPropertyOp39
 70
     0
102
RTVSPropertyOp40
 70
     0
102
RTVSPropertyOp41
 70
     0
102
RTVSPropertyOp42
 70
     0
102
RTVSPropertyOp43
 70
     0
102
RTVSPropertyOp44
 70
     0
102
RTVSPropertyOp45
 70
     0
102
RTVSPropertyOp46
 70
     0
102
RTVSPropertyOp47
 70
     0
102
RTVSPropertyOp48
 70
     0
102
RTVSPropertyOp49
 70
     0
102
RTVSPropertyOp50
 70
     0
102
RTVSPropertyOp51
 70
     0
102
RTVSPropertyOp52
 70
     0
102
RTVSPropertyOp53
 70
     0
102
RTVSPropertyOp54
 70
     0
102
RTVSPropertyOp55
 70
     0
102
RTVSPropertyOp56
 70
     0
102
RTVSPropertyOp57
 70
     0
102
RTVSPropertyOp58
 70
     1
102
RTVSPropertyOp59
 70
     1
102
RTVSPropertyOp60
 70
     1
102
RTVSPropertyOp61
 70
     1
102
RTVSPropertyOp62
 70
     1
  0
XRECORD
  5
84C3
102
{ACAD_REACTORS
330
84C2
102
}
330
84C2
100
AcDbXrecord
280
     1
102
RTVSPost2010Prop28
280
     0
102
RTVSPost2010PropOp28
 70
     1
102
RTVSPost2010Prop29
280
     1
102
RTVSPost2010PropOp29
 70
     1
102
RTVSPost2010Prop30
280
     1
102
RTVSPost2010PropOp30
 70
     1
102
RTVSPost2010Prop31
280
     0
102
RTVSPost2010PropOp31
 70
     1
102
RTVSPost2010Prop32
280
     0
102
RTVSPost2010PropOp32
 70
     1
102
RTVSPost2010Prop33
280
     0
102
RTVSPost2010PropOp33
 70
     1
102
RTVSPost2010Prop34
280
     0
102
RTVSPost2010PropOp34
 70
     1
102
RTVSPost2010Prop35
280
     0
102
RTVSPost2010PropOp35
 70
     1
102
RTVSPost2010Prop36
280
     0
102
RTVSPost2010PropOp36
 70
     1
102
RTVSPost2010Prop37
 90
       50
102
RTVSPost2010PropOp37
 70
     1
102
RTVSPost2010Prop38
140
0.0
102
RTVSPost2010PropOp38
 70
     1
102
RTVSPost2010Prop39
140
1.0
102
RTVSPost2010PropOp39
 70
     1
102
RTVSPost2010Prop40
 90
        0
102
RTVSPost2010PropOp40
 70
     1
102
RTVSPost2010Prop41ColorIndex
 90
       18
102
RTVSPost2010Prop41ColorRGB
 90
        0
102
RTVSPost2010PropOp41
 70
     1
102
RTVSPost2010Prop42
 90
       50
102
RTVSPost2010PropOp42
 70
     1
102
RTVSPost2010Prop43
 90
        3
102
RTVSPost2010PropOp43
 70
     1
102
RTVSPost2010Prop44ColorIndex
 90
        5
102
RTVSPost2010Prop44ColorRGB
 90
      255
102
RTVSPost2010PropOp44
 70
     1
102
RTVSPost2010Prop45
280
     0
102
RTVSPost2010PropOp45
 70
     1
102
RTVSPost2010Prop46
 90
       50
102
RTVSPost2010PropOp46
 70
     1
102
RTVSPost2010Prop47
 90
       50
102
RTVSPost2010PropOp47
 70
     1
102
RTVSPost2010Prop48
 90
       50
102
RTVSPost2010PropOp48
 70
     1
102
RTVSPost2010Prop49
280
     0
102
RTVSPost2010PropOp49
 70
     1
102
RTVSPost2010Prop50
 90
       50
102
RTVSPost2010PropOp50
 70
     1
102
RTVSPost2010Prop51ColorIndex
 90
      256
102
RTVSPost2010Prop51ColorRGB
 90
-16777216
102
RTVSPost2010PropOp51
 70
     0
102
RTVSPost2010Prop52
140
1.0
102
RTVSPost2010PropOp52
 70
     0
102
RTVSPost2010Prop53
 90
        2
102
RTVSPost2010PropOp53
 70
     1
102
RTVSPost2010Prop54
  1
strokes_ogs.tif
102
RTVSPost2010PropOp54
 70
     1
102
RTVSPost2010Prop55
280
     0
102
RTVSPost2010PropOp55
 70
     1
102
RTVSPost2010Prop56
140
1.0
102
RTVSPost2010PropOp56
 70
     1
102
RTVSPost2010Prop57
140
1.0
102
RTVSPost2010PropOp57
 70
     1
102
RTVSPropertyOp0
 70
     1
102
RTVSPropertyOp1
 70
     1
102
RTVSPropertyOp2
 70
     1
102
RTVSPropertyOp3
 70
     1
102
RTVSPropertyOp4
 70
     1
102
RTVSPropertyOp5
 70
     1
102
RTVSPropertyOp6
 70
     1
102
RTVSPropertyOp7
 70
     1
102
RTVSPropertyOp8
 70
     1
102
RTVSPropertyOp9
 70
     1
102
RTVSPropertyOp10
 70
     1
102
RTVSPropertyOp11
 70
     1
102
RTVSPropertyOp12
 70
     1
102
RTVSPropertyOp13
 70
     1
102
RTVSPropertyOp14
 70
     1
102
RTVSPropertyOp15
 70
     1
102
RTVSPropertyOp16
 70
     1
102
RTVSPropertyOp17
 70
     1
102
RTVSPropertyOp18
 70
     1
102
RTVSPropertyOp19
 70
     1
102
RTVSPropertyOp20
 70
     1
102
RTVSPropertyOp21
 70
     1
102
RTVSPropertyOp22
 70
     1
102
RTVSPropertyOp23
 70
     1
102
RTVSPropertyOp24
 70
     1
102
RTVSPropertyOp25
 70
     1
102
RTVSPropertyOp26
 70
     1
102
RTVSPropertyOp27
 70
     1
102
RTVSPropertyOp28
 70
     1
102
RTVSPropertyOp29
 70
     1
102
RTVSPropertyOp30
 70
     1
102
RTVSPropertyOp31
 70
     1
102
RTVSPropertyOp32
 70
     1
102
RTVSPropertyOp33
 70
     1
102
RTVSPropertyOp34
 70
     1
102
RTVSPropertyOp35
 70
     1
102
RTVSPropertyOp36
 70
     1
102
RTVSPropertyOp37
 70
     1
102
RTVSPropertyOp38
 70
     1
102
RTVSPropertyOp39
 70
     1
102
RTVSPropertyOp40
 70
     1
102
RTVSPropertyOp41
 70
     1
102
RTVSPropertyOp42
 70
     1
102
RTVSPropertyOp43
 70
     1
102
RTVSPropertyOp44
 70
     1
102
RTVSPropertyOp45
 70
     1
102
RTVSPropertyOp46
 70
     1
102
RTVSPropertyOp47
 70
     1
102
RTVSPropertyOp48
 70
     1
102
RTVSPropertyOp49
 70
     1
102
RTVSPropertyOp50
 70
     1
102
RTVSPropertyOp51
 70
     0
102
RTVSPropertyOp52
 70
     0
102
RTVSPropertyOp53
 70
     1
102
RTVSPropertyOp54
 70
     1
102
RTVSPropertyOp55
 70
     1
102
RTVSPropertyOp56
 70
     1
102
RTVSPropertyOp57
 70
     1
102
RTVSPropertyOp58
 70
     1
102
RTVSPropertyOp59
 70
     1
102
RTVSPropertyOp60
 70
     1
102
RTVSPropertyOp61
 70
     1
102
RTVSPropertyOp62
 70
     1
  0
XRECORD
  5
84D9
102
{ACAD_REACTORS
330
84D8
102
}
330
84D8
100
AcDbXrecord
280
     1
102
RTVSPost2010Prop28
280
     0
102
RTVSPost2010PropOp28
 70
     1
102
RTVSPost2010Prop29
280
     1
102
RTVSPost2010PropOp29
 70
     1
102
RTVSPost2010Prop30
280
     1
102
RTVSPost2010PropOp30
 70
     1
102
RTVSPost2010Prop31
280
     0
102
RTVSPost2010PropOp31
 70
     1
102
RTVSPost2010Prop32
280
     0
102
RTVSPost2010PropOp32
 70
     1
102
RTVSPost2010Prop33
280
     0
102
RTVSPost2010PropOp33
 70
     1
102
RTVSPost2010Prop34
280
     0
102
RTVSPost2010PropOp34
 70
     1
102
RTVSPost2010Prop35
280
     0
102
RTVSPost2010PropOp35
 70
     1
102
RTVSPost2010Prop36
280
     0
102
RTVSPost2010PropOp36
 70
     1
102
RTVSPost2010Prop37
 90
       50
102
RTVSPost2010PropOp37
 70
     1
102
RTVSPost2010Prop38
140
0.0
102
RTVSPost2010PropOp38
 70
     1
102
RTVSPost2010Prop39
140
1.0
102
RTVSPost2010PropOp39
 70
     1
102
RTVSPost2010Prop40
 90
        0
102
RTVSPost2010PropOp40
 70
     1
102
RTVSPost2010Prop41ColorIndex
 90
       18
102
RTVSPost2010Prop41ColorRGB
 90
        0
102
RTVSPost2010PropOp41
 70
     1
102
RTVSPost2010Prop42
 90
       50
102
RTVSPost2010PropOp42
 70
     1
102
RTVSPost2010Prop43
 90
        3
102
RTVSPost2010PropOp43
 70
     1
102
RTVSPost2010Prop44ColorIndex
 90
        5
102
RTVSPost2010Prop44ColorRGB
 90
      255
102
RTVSPost2010PropOp44
 70
     1
102
RTVSPost2010Prop45
280
     0
102
RTVSPost2010PropOp45
 70
     1
102
RTVSPost2010Prop46
 90
       50
102
RTVSPost2010PropOp46
 70
     1
102
RTVSPost2010Prop47
 90
       50
102
RTVSPost2010PropOp47
 70
     1
102
RTVSPost2010Prop48
 90
       50
102
RTVSPost2010PropOp48
 70
     1
102
RTVSPost2010Prop49
280
     0
102
RTVSPost2010PropOp49
 70
     1
102
RTVSPost2010Prop50
 90
       50
102
RTVSPost2010PropOp50
 70
     1
102
RTVSPost2010Prop51ColorIndex
 90
      256
102
RTVSPost2010Prop51ColorRGB
 90
-16777216
102
RTVSPost2010PropOp51
 70
     0
102
RTVSPost2010Prop52
140
1.0
102
RTVSPost2010PropOp52
 70
     0
102
RTVSPost2010Prop53
 90
        2
102
RTVSPost2010PropOp53
 70
     1
102
RTVSPost2010Prop54
  1
strokes_ogs.tif
102
RTVSPost2010PropOp54
 70
     1
102
RTVSPost2010Prop55
280
     0
102
RTVSPost2010PropOp55
 70
     1
102
RTVSPost2010Prop56
140
1.0
102
RTVSPost2010PropOp56
 70
     1
102
RTVSPost2010Prop57
140
1.0
102
RTVSPost2010PropOp57
 70
     1
102
RTVSPropertyOp0
 70
     1
102
RTVSPropertyOp1
 70
     1
102
RTVSPropertyOp2
 70
     1
102
RTVSPropertyOp3
 70
     1
102
RTVSPropertyOp4
 70
     1
102
RTVSPropertyOp5
 70
     1
102
RTVSPropertyOp6
 70
     1
102
RTVSPropertyOp7
 70
     1
102
RTVSPropertyOp8
 70
     1
102
RTVSPropertyOp9
 70
     1
102
RTVSPropertyOp10
 70
     1
102
RTVSPropertyOp11
 70
     1
102
RTVSPropertyOp12
 70
     1
102
RTVSPropertyOp13
 70
     1
102
RTVSPropertyOp14
 70
     1
102
RTVSPropertyOp15
 70
     1
102
RTVSPropertyOp16
 70
     1
102
RTVSPropertyOp17
 70
     1
102
RTVSPropertyOp18
 70
     1
102
RTVSPropertyOp19
 70
     1
102
RTVSPropertyOp20
 70
     1
102
RTVSPropertyOp21
 70
     1
102
RTVSPropertyOp22
 70
     1
102
RTVSPropertyOp23
 70
     1
102
RTVSPropertyOp24
 70
     1
102
RTVSPropertyOp25
 70
     1
102
RTVSPropertyOp26
 70
     1
102
RTVSPropertyOp27
 70
     1
102
RTVSPropertyOp28
 70
     1
102
RTVSPropertyOp29
 70
     1
102
RTVSPropertyOp30
 70
     1
102
RTVSPropertyOp31
 70
     1
102
RTVSPropertyOp32
 70
     1
102
RTVSPropertyOp33
 70
     1
102
RTVSPropertyOp34
 70
     1
102
RTVSPropertyOp35
 70
     1
102
RTVSPropertyOp36
 70
     1
102
RTVSPropertyOp37
 70
     1
102
RTVSPropertyOp38
 70
     1
102
RTVSPropertyOp39
 70
     1
102
RTVSPropertyOp40
 70
     1
102
RTVSPropertyOp41
 70
     1
102
RTVSPropertyOp42
 70
     1
102
RTVSPropertyOp43
 70
     1
102
RTVSPropertyOp44
 70
     1
102
RTVSPropertyOp45
 70
     1
102
RTVSPropertyOp46
 70
     1
102
RTVSPropertyOp47
 70
     1
102
RTVSPropertyOp48
 70
     1
102
RTVSPropertyOp49
 70
     1
102
RTVSPropertyOp50
 70
     1
102
RTVSPropertyOp51
 70
     0
102
RTVSPropertyOp52
 70
     0
102
RTVSPropertyOp53
 70
     1
102
RTVSPropertyOp54
 70
     1
102
RTVSPropertyOp55
 70
     1
102
RTVSPropertyOp56
 70
     1
102
RTVSPropertyOp57
 70
     1
102
RTVSPropertyOp58
 70
     1
102
RTVSPropertyOp59
 70
     1
102
RTVSPropertyOp60
 70
     1
102
RTVSPropertyOp61
 70
     1
102
RTVSPropertyOp62
 70
     1
  0
XRECORD
  5
84D7
102
{ACAD_REACTORS
330
84D6
102
}
330
84D6
100
AcDbXrecord
280
     1
102
RTVSPost2010Prop28
280
     0
102
RTVSPost2010PropOp28
 70
     1
102
RTVSPost2010Prop29
280
     1
102
RTVSPost2010PropOp29
 70
     1
102
RTVSPost2010Prop30
280
     1
102
RTVSPost2010PropOp30
 70
     1
102
RTVSPost2010Prop31
280
     0
102
RTVSPost2010PropOp31
 70
     1
102
RTVSPost2010Prop32
280
     0
102
RTVSPost2010PropOp32
 70
     1
102
RTVSPost2010Prop33
280
     0
102
RTVSPost2010PropOp33
 70
     1
102
RTVSPost2010Prop34
280
     0
102
RTVSPost2010PropOp34
 70
     1
102
RTVSPost2010Prop35
280
     0
102
RTVSPost2010PropOp35
 70
     1
102
RTVSPost2010Prop36
280
     0
102
RTVSPost2010PropOp36
 70
     1
102
RTVSPost2010Prop37
 90
       50
102
RTVSPost2010PropOp37
 70
     1
102
RTVSPost2010Prop38
140
0.0
102
RTVSPost2010PropOp38
 70
     1
102
RTVSPost2010Prop39
140
1.0
102
RTVSPost2010PropOp39
 70
     1
102
RTVSPost2010Prop40
 90
        0
102
RTVSPost2010PropOp40
 70
     1
102
RTVSPost2010Prop41ColorIndex
 90
       18
102
RTVSPost2010Prop41ColorRGB
 90
        0
102
RTVSPost2010PropOp41
 70
     1
102
RTVSPost2010Prop42
 90
       50
102
RTVSPost2010PropOp42
 70
     1
102
RTVSPost2010Prop43
 90
        3
102
RTVSPost2010PropOp43
 70
     1
102
RTVSPost2010Prop44ColorIndex
 90
        5
102
RTVSPost2010Prop44ColorRGB
 90
      255
102
RTVSPost2010PropOp44
 70
     1
102
RTVSPost2010Prop45
280
     0
102
RTVSPost2010PropOp45
 70
     1
102
RTVSPost2010Prop46
 90
       50
102
RTVSPost2010PropOp46
 70
     1
102
RTVSPost2010Prop47
 90
       50
102
RTVSPost2010PropOp47
 70
     1
102
RTVSPost2010Prop48
 90
       50
102
RTVSPost2010PropOp48
 70
     1
102
RTVSPost2010Prop49
280
     0
102
RTVSPost2010PropOp49
 70
     1
102
RTVSPost2010Prop50
 90
       50
102
RTVSPost2010PropOp50
 70
     1
102
RTVSPost2010Prop51ColorIndex
 90
      256
102
RTVSPost2010Prop51ColorRGB
 90
-16777216
102
RTVSPost2010PropOp51
 70
     0
102
RTVSPost2010Prop52
140
1.0
102
RTVSPost2010PropOp52
 70
     0
102
RTVSPost2010Prop53
 90
        2
102
RTVSPost2010PropOp53
 70
     1
102
RTVSPost2010Prop54
  1
strokes_ogs.tif
102
RTVSPost2010PropOp54
 70
     1
102
RTVSPost2010Prop55
280
     0
102
RTVSPost2010PropOp55
 70
     1
102
RTVSPost2010Prop56
140
1.0
102
RTVSPost2010PropOp56
 70
     1
102
RTVSPost2010Prop57
140
1.0
102
RTVSPost2010PropOp57
 70
     1
102
RTVSPropertyOp0
 70
     1
102
RTVSPropertyOp1
 70
     1
102
RTVSPropertyOp2
 70
     1
102
RTVSPropertyOp3
 70
     1
102
RTVSPropertyOp4
 70
     1
102
RTVSPropertyOp5
 70
     1
102
RTVSPropertyOp6
 70
     1
102
RTVSPropertyOp7
 70
     1
102
RTVSPropertyOp8
 70
     1
102
RTVSPropertyOp9
 70
     1
102
RTVSPropertyOp10
 70
     1
102
RTVSPropertyOp11
 70
     1
102
RTVSPropertyOp12
 70
     1
102
RTVSPropertyOp13
 70
     1
102
RTVSPropertyOp14
 70
     1
102
RTVSPropertyOp15
 70
     1
102
RTVSPropertyOp16
 70
     1
102
RTVSPropertyOp17
 70
     1
102
RTVSPropertyOp18
 70
     1
102
RTVSPropertyOp19
 70
     1
102
RTVSPropertyOp20
 70
     1
102
RTVSPropertyOp21
 70
     1
102
RTVSPropertyOp22
 70
     1
102
RTVSPropertyOp23
 70
     1
102
RTVSPropertyOp24
 70
     1
102
RTVSPropertyOp25
 70
     1
102
RTVSPropertyOp26
 70
     1
102
RTVSPropertyOp27
 70
     1
102
RTVSPropertyOp28
 70
     1
102
RTVSPropertyOp29
 70
     1
102
RTVSPropertyOp30
 70
     1
102
RTVSPropertyOp31
 70
     1
102
RTVSPropertyOp32
 70
     1
102
RTVSPropertyOp33
 70
     1
102
RTVSPropertyOp34
 70
     1
102
RTVSPropertyOp35
 70
     1
102
RTVSPropertyOp36
 70
     1
102
RTVSPropertyOp37
 70
     1
102
RTVSPropertyOp38
 70
     1
102
RTVSPropertyOp39
 70
     1
102
RTVSPropertyOp40
 70
     1
102
RTVSPropertyOp41
 70
     1
102
RTVSPropertyOp42
 70
     1
102
RTVSPropertyOp43
 70
     1
102
RTVSPropertyOp44
 70
     1
102
RTVSPropertyOp45
 70
     1
102
RTVSPropertyOp46
 70
     1
102
RTVSPropertyOp47
 70
     1
102
RTVSPropertyOp48
 70
     1
102
RTVSPropertyOp49
 70
     1
102
RTVSPropertyOp50
 70
     1
102
RTVSPropertyOp51
 70
     0
102
RTVSPropertyOp52
 70
     0
102
RTVSPropertyOp53
 70
     1
102
RTVSPropertyOp54
 70
     1
102
RTVSPropertyOp55
 70
     1
102
RTVSPropertyOp56
 70
     1
102
RTVSPropertyOp57
 70
     1
102
RTVSPropertyOp58
 70
     1
102
RTVSPropertyOp59
 70
     1
102
RTVSPropertyOp60
 70
     1
102
RTVSPropertyOp61
 70
     1
102
RTVSPropertyOp62
 70
     1
  0
XRECORD
  5
84D1
102
{ACAD_REACTORS
330
84D0
102
}
330
84D0
100
AcDbXrecord
280
     1
102
RTVSPost2010Prop28
280
     0
102
RTVSPost2010PropOp28
 70
     1
102
RTVSPost2010Prop29
280
     1
102
RTVSPost2010PropOp29
 70
     1
102
RTVSPost2010Prop30
280
     1
102
RTVSPost2010PropOp30
 70
     1
102
RTVSPost2010Prop31
280
     0
102
RTVSPost2010PropOp31
 70
     1
102
RTVSPost2010Prop32
280
     0
102
RTVSPost2010PropOp32
 70
     1
102
RTVSPost2010Prop33
280
     0
102
RTVSPost2010PropOp33
 70
     1
102
RTVSPost2010Prop34
280
     0
102
RTVSPost2010PropOp34
 70
     1
102
RTVSPost2010Prop35
280
     0
102
RTVSPost2010PropOp35
 70
     1
102
RTVSPost2010Prop36
280
     0
102
RTVSPost2010PropOp36
 70
     1
102
RTVSPost2010Prop37
 90
       50
102
RTVSPost2010PropOp37
 70
     1
102
RTVSPost2010Prop38
140
0.0
102
RTVSPost2010PropOp38
 70
     1
102
RTVSPost2010Prop39
140
1.0
102
RTVSPost2010PropOp39
 70
     1
102
RTVSPost2010Prop40
 90
        0
102
RTVSPost2010PropOp40
 70
     1
102
RTVSPost2010Prop41ColorIndex
 90
       18
102
RTVSPost2010Prop41ColorRGB
 90
        0
102
RTVSPost2010PropOp41
 70
     1
102
RTVSPost2010Prop42
 90
       50
102
RTVSPost2010PropOp42
 70
     1
102
RTVSPost2010Prop43
 90
        3
102
RTVSPost2010PropOp43
 70
     1
102
RTVSPost2010Prop44ColorIndex
 90
        5
102
RTVSPost2010Prop44ColorRGB
 90
      255
102
RTVSPost2010PropOp44
 70
     1
102
RTVSPost2010Prop45
280
     0
102
RTVSPost2010PropOp45
 70
     1
102
RTVSPost2010Prop46
 90
       50
102
RTVSPost2010PropOp46
 70
     1
102
RTVSPost2010Prop47
 90
       50
102
RTVSPost2010PropOp47
 70
     1
102
RTVSPost2010Prop48
 90
       50
102
RTVSPost2010PropOp48
 70
     1
102
RTVSPost2010Prop49
280
     0
102
RTVSPost2010PropOp49
 70
     1
102
RTVSPost2010Prop50
 90
       50
102
RTVSPost2010PropOp50
 70
     1
102
RTVSPost2010Prop51ColorIndex
 90
      256
102
RTVSPost2010Prop51ColorRGB
 90
-16777216
102
RTVSPost2010PropOp51
 70
     0
102
RTVSPost2010Prop52
140
1.0
102
RTVSPost2010PropOp52
 70
     0
102
RTVSPost2010Prop53
 90
        2
102
RTVSPost2010PropOp53
 70
     1
102
RTVSPost2010Prop54
  1
strokes_ogs.tif
102
RTVSPost2010PropOp54
 70
     1
102
RTVSPost2010Prop55
280
     0
102
RTVSPost2010PropOp55
 70
     1
102
RTVSPost2010Prop56
140
1.0
102
RTVSPost2010PropOp56
 70
     1
102
RTVSPost2010Prop57
140
1.0
102
RTVSPost2010PropOp57
 70
     1
102
RTVSPropertyOp0
 70
     1
102
RTVSPropertyOp1
 70
     1
102
RTVSPropertyOp2
 70
     1
102
RTVSPropertyOp3
 70
     1
102
RTVSPropertyOp4
 70
     1
102
RTVSPropertyOp5
 70
     1
102
RTVSPropertyOp6
 70
     1
102
RTVSPropertyOp7
 70
     1
102
RTVSPropertyOp8
 70
     1
102
RTVSPropertyOp9
 70
     1
102
RTVSPropertyOp10
 70
     1
102
RTVSPropertyOp11
 70
     1
102
RTVSPropertyOp12
 70
     1
102
RTVSPropertyOp13
 70
     1
102
RTVSPropertyOp14
 70
     1
102
RTVSPropertyOp15
 70
     1
102
RTVSPropertyOp16
 70
     1
102
RTVSPropertyOp17
 70
     1
102
RTVSPropertyOp18
 70
     1
102
RTVSPropertyOp19
 70
     1
102
RTVSPropertyOp20
 70
     1
102
RTVSPropertyOp21
 70
     1
102
RTVSPropertyOp22
 70
     1
102
RTVSPropertyOp23
 70
     1
102
RTVSPropertyOp24
 70
     1
102
RTVSPropertyOp25
 70
     1
102
RTVSPropertyOp26
 70
     1
102
RTVSPropertyOp27
 70
     1
102
RTVSPropertyOp28
 70
     1
102
RTVSPropertyOp29
 70
     1
102
RTVSPropertyOp30
 70
     1
102
RTVSPropertyOp31
 70
     1
102
RTVSPropertyOp32
 70
     1
102
RTVSPropertyOp33
 70
     1
102
RTVSPropertyOp34
 70
     1
102
RTVSPropertyOp35
 70
     1
102
RTVSPropertyOp36
 70
     1
102
RTVSPropertyOp37
 70
     1
102
RTVSPropertyOp38
 70
     1
102
RTVSPropertyOp39
 70
     1
102
RTVSPropertyOp40
 70
     1
102
RTVSPropertyOp41
 70
     1
102
RTVSPropertyOp42
 70
     1
102
RTVSPropertyOp43
 70
     1
102
RTVSPropertyOp44
 70
     1
102
RTVSPropertyOp45
 70
     1
102
RTVSPropertyOp46
 70
     1
102
RTVSPropertyOp47
 70
     1
102
RTVSPropertyOp48
 70
     1
102
RTVSPropertyOp49
 70
     1
102
RTVSPropertyOp50
 70
     1
102
RTVSPropertyOp51
 70
     0
102
RTVSPropertyOp52
 70
     0
102
RTVSPropertyOp53
 70
     1
102
RTVSPropertyOp54
 70
     1
102
RTVSPropertyOp55
 70
     1
102
RTVSPropertyOp56
 70
     1
102
RTVSPropertyOp57
 70
     1
102
RTVSPropertyOp58
 70
     1
102
RTVSPropertyOp59
 70
     1
102
RTVSPropertyOp60
 70
     1
102
RTVSPropertyOp61
 70
     1
102
RTVSPropertyOp62
 70
     1
  0
XRECORD
  5
84D3
102
{ACAD_REACTORS
330
84D2
102
}
330
84D2
100
AcDbXrecord
280
     1
102
RTVSPost2010Prop28
280
     0
102
RTVSPost2010PropOp28
 70
     1
102
RTVSPost2010Prop29
280
     1
102
RTVSPost2010PropOp29
 70
     1
102
RTVSPost2010Prop30
280
     1
102
RTVSPost2010PropOp30
 70
     1
102
RTVSPost2010Prop31
280
     0
102
RTVSPost2010PropOp31
 70
     1
102
RTVSPost2010Prop32
280
     0
102
RTVSPost2010PropOp32
 70
     1
102
RTVSPost2010Prop33
280
     0
102
RTVSPost2010PropOp33
 70
     1
102
RTVSPost2010Prop34
280
     0
102
RTVSPost2010PropOp34
 70
     1
102
RTVSPost2010Prop35
280
     0
102
RTVSPost2010PropOp35
 70
     1
102
RTVSPost2010Prop36
280
     0
102
RTVSPost2010PropOp36
 70
     1
102
RTVSPost2010Prop37
 90
       50
102
RTVSPost2010PropOp37
 70
     1
102
RTVSPost2010Prop38
140
0.0
102
RTVSPost2010PropOp38
 70
     1
102
RTVSPost2010Prop39
140
1.0
102
RTVSPost2010PropOp39
 70
     1
102
RTVSPost2010Prop40
 90
        0
102
RTVSPost2010PropOp40
 70
     1
102
RTVSPost2010Prop41ColorIndex
 90
       18
102
RTVSPost2010Prop41ColorRGB
 90
        0
102
RTVSPost2010PropOp41
 70
     1
102
RTVSPost2010Prop42
 90
       50
102
RTVSPost2010PropOp42
 70
     1
102
RTVSPost2010Prop43
 90
        3
102
RTVSPost2010PropOp43
 70
     1
102
RTVSPost2010Prop44ColorIndex
 90
        5
102
RTVSPost2010Prop44ColorRGB
 90
      255
102
RTVSPost2010PropOp44
 70
     1
102
RTVSPost2010Prop45
280
     0
102
RTVSPost2010PropOp45
 70
     1
102
RTVSPost2010Prop46
 90
       50
102
RTVSPost2010PropOp46
 70
     1
102
RTVSPost2010Prop47
 90
       50
102
RTVSPost2010PropOp47
 70
     1
102
RTVSPost2010Prop48
 90
       50
102
RTVSPost2010PropOp48
 70
     1
102
RTVSPost2010Prop49
280
     0
102
RTVSPost2010PropOp49
 70
     1
102
RTVSPost2010Prop50
 90
       50
102
RTVSPost2010PropOp50
 70
     1
102
RTVSPost2010Prop51ColorIndex
 90
      256
102
RTVSPost2010Prop51ColorRGB
 90
-16777216
102
RTVSPost2010PropOp51
 70
     0
102
RTVSPost2010Prop52
140
1.0
102
RTVSPost2010PropOp52
 70
     0
102
RTVSPost2010Prop53
 90
        2
102
RTVSPost2010PropOp53
 70
     1
102
RTVSPost2010Prop54
  1
strokes_ogs.tif
102
RTVSPost2010PropOp54
 70
     1
102
RTVSPost2010Prop55
280
     0
102
RTVSPost2010PropOp55
 70
     1
102
RTVSPost2010Prop56
140
1.0
102
RTVSPost2010PropOp56
 70
     1
102
RTVSPost2010Prop57
140
1.0
102
RTVSPost2010PropOp57
 70
     1
102
RTVSPropertyOp0
 70
     1
102
RTVSPropertyOp1
 70
     1
102
RTVSPropertyOp2
 70
     1
102
RTVSPropertyOp3
 70
     1
102
RTVSPropertyOp4
 70
     1
102
RTVSPropertyOp5
 70
     1
102
RTVSPropertyOp6
 70
     1
102
RTVSPropertyOp7
 70
     1
102
RTVSPropertyOp8
 70
     1
102
RTVSPropertyOp9
 70
     1
102
RTVSPropertyOp10
 70
     1
102
RTVSPropertyOp11
 70
     1
102
RTVSPropertyOp12
 70
     1
102
RTVSPropertyOp13
 70
     1
102
RTVSPropertyOp14
 70
     1
102
RTVSPropertyOp15
 70
     1
102
RTVSPropertyOp16
 70
     1
102
RTVSPropertyOp17
 70
     1
102
RTVSPropertyOp18
 70
     1
102
RTVSPropertyOp19
 70
     1
102
RTVSPropertyOp20
 70
     1
102
RTVSPropertyOp21
 70
     1
102
RTVSPropertyOp22
 70
     1
102
RTVSPropertyOp23
 70
     1
102
RTVSPropertyOp24
 70
     1
102
RTVSPropertyOp25
 70
     1
102
RTVSPropertyOp26
 70
     1
102
RTVSPropertyOp27
 70
     1
102
RTVSPropertyOp28
 70
     1
102
RTVSPropertyOp29
 70
     1
102
RTVSPropertyOp30
 70
     1
102
RTVSPropertyOp31
 70
     1
102
RTVSPropertyOp32
 70
     1
102
RTVSPropertyOp33
 70
     1
102
RTVSPropertyOp34
 70
     1
102
RTVSPropertyOp35
 70
     1
102
RTVSPropertyOp36
 70
     1
102
RTVSPropertyOp37
 70
     1
102
RTVSPropertyOp38
 70
     1
102
RTVSPropertyOp39
 70
     1
102
RTVSPropertyOp40
 70
     1
102
RTVSPropertyOp41
 70
     1
102
RTVSPropertyOp42
 70
     1
102
RTVSPropertyOp43
 70
     1
102
RTVSPropertyOp44
 70
     1
102
RTVSPropertyOp45
 70
     1
102
RTVSPropertyOp46
 70
     1
102
RTVSPropertyOp47
 70
     1
102
RTVSPropertyOp48
 70
     1
102
RTVSPropertyOp49
 70
     1
102
RTVSPropertyOp50
 70
     1
102
RTVSPropertyOp51
 70
     0
102
RTVSPropertyOp52
 70
     0
102
RTVSPropertyOp53
 70
     1
102
RTVSPropertyOp54
 70
     1
102
RTVSPropertyOp55
 70
     1
102
RTVSPropertyOp56
 70
     1
102
RTVSPropertyOp57
 70
     1
102
RTVSPropertyOp58
 70
     1
102
RTVSPropertyOp59
 70
     1
102
RTVSPropertyOp60
 70
     1
102
RTVSPropertyOp61
 70
     1
102
RTVSPropertyOp62
 70
     1
  0
XRECORD
  5
84C9
102
{ACAD_REACTORS
330
84C8
102
}
330
84C8
100
AcDbXrecord
280
     1
102
RTVSPost2010Prop28
280
     0
102
RTVSPost2010PropOp28
 70
     1
102
RTVSPost2010Prop29
280
     1
102
RTVSPost2010PropOp29
 70
     1
102
RTVSPost2010Prop30
280
     1
102
RTVSPost2010PropOp30
 70
     1
102
RTVSPost2010Prop31
280
     0
102
RTVSPost2010PropOp31
 70
     1
102
RTVSPost2010Prop32
280
     0
102
RTVSPost2010PropOp32
 70
     1
102
RTVSPost2010Prop33
280
     0
102
RTVSPost2010PropOp33
 70
     1
102
RTVSPost2010Prop34
280
     0
102
RTVSPost2010PropOp34
 70
     1
102
RTVSPost2010Prop35
280
     0
102
RTVSPost2010PropOp35
 70
     1
102
RTVSPost2010Prop36
280
     0
102
RTVSPost2010PropOp36
 70
     1
102
RTVSPost2010Prop37
 90
       50
102
RTVSPost2010PropOp37
 70
     1
102
RTVSPost2010Prop38
140
0.0
102
RTVSPost2010PropOp38
 70
     1
102
RTVSPost2010Prop39
140
1.0
102
RTVSPost2010PropOp39
 70
     1
102
RTVSPost2010Prop40
 90
        0
102
RTVSPost2010PropOp40
 70
     1
102
RTVSPost2010Prop41ColorIndex
 90
       18
102
RTVSPost2010Prop41ColorRGB
 90
        0
102
RTVSPost2010PropOp41
 70
     1
102
RTVSPost2010Prop42
 90
       50
102
RTVSPost2010PropOp42
 70
     1
102
RTVSPost2010Prop43
 90
        3
102
RTVSPost2010PropOp43
 70
     1
102
RTVSPost2010Prop44ColorIndex
 90
        5
102
RTVSPost2010Prop44ColorRGB
 90
      255
102
RTVSPost2010PropOp44
 70
     1
102
RTVSPost2010Prop45
280
     0
102
RTVSPost2010PropOp45
 70
     1
102
RTVSPost2010Prop46
 90
       50
102
RTVSPost2010PropOp46
 70
     1
102
RTVSPost2010Prop47
 90
       50
102
RTVSPost2010PropOp47
 70
     1
102
RTVSPost2010Prop48
 90
       50
102
RTVSPost2010PropOp48
 70
     1
102
RTVSPost2010Prop49
280
     0
102
RTVSPost2010PropOp49
 70
     1
102
RTVSPost2010Prop50
 90
       50
102
RTVSPost2010PropOp50
 70
     1
102
RTVSPost2010Prop51ColorIndex
 90
      256
102
RTVSPost2010Prop51ColorRGB
 90
-16777216
102
RTVSPost2010PropOp51
 70
     0
102
RTVSPost2010Prop52
140
1.0
102
RTVSPost2010PropOp52
 70
     0
102
RTVSPost2010Prop53
 90
        2
102
RTVSPost2010PropOp53
 70
     1
102
RTVSPost2010Prop54
  1
strokes_ogs.tif
102
RTVSPost2010PropOp54
 70
     1
102
RTVSPost2010Prop55
280
     0
102
RTVSPost2010PropOp55
 70
     1
102
RTVSPost2010Prop56
140
1.0
102
RTVSPost2010PropOp56
 70
     1
102
RTVSPost2010Prop57
140
1.0
102
RTVSPost2010PropOp57
 70
     1
102
RTVSPropertyOp0
 70
     1
102
RTVSPropertyOp1
 70
     1
102
RTVSPropertyOp2
 70
     1
102
RTVSPropertyOp3
 70
     1
102
RTVSPropertyOp4
 70
     1
102
RTVSPropertyOp5
 70
     1
102
RTVSPropertyOp6
 70
     1
102
RTVSPropertyOp7
 70
     1
102
RTVSPropertyOp8
 70
     1
102
RTVSPropertyOp9
 70
     1
102
RTVSPropertyOp10
 70
     1
102
RTVSPropertyOp11
 70
     1
102
RTVSPropertyOp12
 70
     1
102
RTVSPropertyOp13
 70
     1
102
RTVSPropertyOp14
 70
     1
102
RTVSPropertyOp15
 70
     1
102
RTVSPropertyOp16
 70
     1
102
RTVSPropertyOp17
 70
     1
102
RTVSPropertyOp18
 70
     1
102
RTVSPropertyOp19
 70
     1
102
RTVSPropertyOp20
 70
     1
102
RTVSPropertyOp21
 70
     1
102
RTVSPropertyOp22
 70
     1
102
RTVSPropertyOp23
 70
     1
102
RTVSPropertyOp24
 70
     1
102
RTVSPropertyOp25
 70
     1
102
RTVSPropertyOp26
 70
     1
102
RTVSPropertyOp27
 70
     1
102
RTVSPropertyOp28
 70
     1
102
RTVSPropertyOp29
 70
     1
102
RTVSPropertyOp30
 70
     1
102
RTVSPropertyOp31
 70
     1
102
RTVSPropertyOp32
 70
     1
102
RTVSPropertyOp33
 70
     1
102
RTVSPropertyOp34
 70
     1
102
RTVSPropertyOp35
 70
     1
102
RTVSPropertyOp36
 70
     1
102
RTVSPropertyOp37
 70
     1
102
RTVSPropertyOp38
 70
     1
102
RTVSPropertyOp39
 70
     1
102
RTVSPropertyOp40
 70
     1
102
RTVSPropertyOp41
 70
     1
102
RTVSPropertyOp42
 70
     1
102
RTVSPropertyOp43
 70
     1
102
RTVSPropertyOp44
 70
     1
102
RTVSPropertyOp45
 70
     1
102
RTVSPropertyOp46
 70
     1
102
RTVSPropertyOp47
 70
     1
102
RTVSPropertyOp48
 70
     1
102
RTVSPropertyOp49
 70
     1
102
RTVSPropertyOp50
 70
     1
102
RTVSPropertyOp51
 70
     0
102
RTVSPropertyOp52
 70
     0
102
RTVSPropertyOp53
 70
     1
102
RTVSPropertyOp54
 70
     1
102
RTVSPropertyOp55
 70
     1
102
RTVSPropertyOp56
 70
     1
102
RTVSPropertyOp57
 70
     1
102
RTVSPropertyOp58
 70
     1
102
RTVSPropertyOp59
 70
     1
102
RTVSPropertyOp60
 70
     1
102
RTVSPropertyOp61
 70
     1
102
RTVSPropertyOp62
 70
     1
  0
XRECORD
  5
84BD
102
{ACAD_REACTORS
330
84BC
102
}
330
84BC
100
AcDbXrecord
280
     1
102
RTVSPost2010Prop28
280
     0
102
RTVSPost2010PropOp28
 70
     1
102
RTVSPost2010Prop29
280
     1
102
RTVSPost2010PropOp29
 70
     1
102
RTVSPost2010Prop30
280
     1
102
RTVSPost2010PropOp30
 70
     1
102
RTVSPost2010Prop31
280
     0
102
RTVSPost2010PropOp31
 70
     1
102
RTVSPost2010Prop32
280
     0
102
RTVSPost2010PropOp32
 70
     1
102
RTVSPost2010Prop33
280
     0
102
RTVSPost2010PropOp33
 70
     1
102
RTVSPost2010Prop34
280
     0
102
RTVSPost2010PropOp34
 70
     1
102
RTVSPost2010Prop35
280
     0
102
RTVSPost2010PropOp35
 70
     1
102
RTVSPost2010Prop36
280
     0
102
RTVSPost2010PropOp36
 70
     1
102
RTVSPost2010Prop37
 90
       50
102
RTVSPost2010PropOp37
 70
     1
102
RTVSPost2010Prop38
140
0.0
102
RTVSPost2010PropOp38
 70
     1
102
RTVSPost2010Prop39
140
1.0
102
RTVSPost2010PropOp39
 70
     1
102
RTVSPost2010Prop40
 90
        0
102
RTVSPost2010PropOp40
 70
     1
102
RTVSPost2010Prop41ColorIndex
 90
       18
102
RTVSPost2010Prop41ColorRGB
 90
        0
102
RTVSPost2010PropOp41
 70
     1
102
RTVSPost2010Prop42
 90
       50
102
RTVSPost2010PropOp42
 70
     1
102
RTVSPost2010Prop43
 90
        3
102
RTVSPost2010PropOp43
 70
     1
102
RTVSPost2010Prop44ColorIndex
 90
        5
102
RTVSPost2010Prop44ColorRGB
 90
      255
102
RTVSPost2010PropOp44
 70
     1
102
RTVSPost2010Prop45
280
     0
102
RTVSPost2010PropOp45
 70
     1
102
RTVSPost2010Prop46
 90
       50
102
RTVSPost2010PropOp46
 70
     1
102
RTVSPost2010Prop47
 90
       50
102
RTVSPost2010PropOp47
 70
     1
102
RTVSPost2010Prop48
 90
       50
102
RTVSPost2010PropOp48
 70
     1
102
RTVSPost2010Prop49
280
     0
102
RTVSPost2010PropOp49
 70
     1
102
RTVSPost2010Prop50
 90
       50
102
RTVSPost2010PropOp50
 70
     1
102
RTVSPost2010Prop51ColorIndex
 90
      256
102
RTVSPost2010Prop51ColorRGB
 90
-16777216
102
RTVSPost2010PropOp51
 70
     0
102
RTVSPost2010Prop52
140
1.0
102
RTVSPost2010PropOp52
 70
     0
102
RTVSPost2010Prop53
 90
        2
102
RTVSPost2010PropOp53
 70
     1
102
RTVSPost2010Prop54
  1
strokes_ogs.tif
102
RTVSPost2010PropOp54
 70
     1
102
RTVSPost2010Prop55
280
     0
102
RTVSPost2010PropOp55
 70
     1
102
RTVSPost2010Prop56
140
1.0
102
RTVSPost2010PropOp56
 70
     1
102
RTVSPost2010Prop57
140
1.0
102
RTVSPost2010PropOp57
 70
     1
102
RTVSPropertyOp0
 70
     1
102
RTVSPropertyOp1
 70
     1
102
RTVSPropertyOp2
 70
     1
102
RTVSPropertyOp3
 70
     1
102
RTVSPropertyOp4
 70
     1
102
RTVSPropertyOp5
 70
     1
102
RTVSPropertyOp6
 70
     1
102
RTVSPropertyOp7
 70
     1
102
RTVSPropertyOp8
 70
     1
102
RTVSPropertyOp9
 70
     1
102
RTVSPropertyOp10
 70
     1
102
RTVSPropertyOp11
 70
     1
102
RTVSPropertyOp12
 70
     1
102
RTVSPropertyOp13
 70
     1
102
RTVSPropertyOp14
 70
     1
102
RTVSPropertyOp15
 70
     1
102
RTVSPropertyOp16
 70
     1
102
RTVSPropertyOp17
 70
     1
102
RTVSPropertyOp18
 70
     1
102
RTVSPropertyOp19
 70
     1
102
RTVSPropertyOp20
 70
     1
102
RTVSPropertyOp21
 70
     1
102
RTVSPropertyOp22
 70
     1
102
RTVSPropertyOp23
 70
     1
102
RTVSPropertyOp24
 70
     1
102
RTVSPropertyOp25
 70
     1
102
RTVSPropertyOp26
 70
     1
102
RTVSPropertyOp27
 70
     1
102
RTVSPropertyOp28
 70
     1
102
RTVSPropertyOp29
 70
     1
102
RTVSPropertyOp30
 70
     1
102
RTVSPropertyOp31
 70
     1
102
RTVSPropertyOp32
 70
     1
102
RTVSPropertyOp33
 70
     1
102
RTVSPropertyOp34
 70
     1
102
RTVSPropertyOp35
 70
     1
102
RTVSPropertyOp36
 70
     1
102
RTVSPropertyOp37
 70
     1
102
RTVSPropertyOp38
 70
     1
102
RTVSPropertyOp39
 70
     1
102
RTVSPropertyOp40
 70
     1
102
RTVSPropertyOp41
 70
     1
102
RTVSPropertyOp42
 70
     1
102
RTVSPropertyOp43
 70
     1
102
RTVSPropertyOp44
 70
     1
102
RTVSPropertyOp45
 70
     1
102
RTVSPropertyOp46
 70
     1
102
RTVSPropertyOp47
 70
     1
102
RTVSPropertyOp48
 70
     1
102
RTVSPropertyOp49
 70
     1
102
RTVSPropertyOp50
 70
     1
102
RTVSPropertyOp51
 70
     0
102
RTVSPropertyOp52
 70
     0
102
RTVSPropertyOp53
 70
     1
102
RTVSPropertyOp54
 70
     1
102
RTVSPropertyOp55
 70
     1
102
RTVSPropertyOp56
 70
     1
102
RTVSPropertyOp57
 70
     1
102
RTVSPropertyOp58
 70
     1
102
RTVSPropertyOp59
 70
     1
102
RTVSPropertyOp60
 70
     1
102
RTVSPropertyOp61
 70
     1
102
RTVSPropertyOp62
 70
     1
  0
XRECORD
  5
84D5
102
{ACAD_REACTORS
330
84D4
102
}
330
84D4
100
AcDbXrecord
280
     1
102
RTVSPost2010Prop28
280
     0
102
RTVSPost2010PropOp28
 70
     1
102
RTVSPost2010Prop29
280
     1
102
RTVSPost2010PropOp29
 70
     1
102
RTVSPost2010Prop30
280
     1
102
RTVSPost2010PropOp30
 70
     1
102
RTVSPost2010Prop31
280
     0
102
RTVSPost2010PropOp31
 70
     1
102
RTVSPost2010Prop32
280
     0
102
RTVSPost2010PropOp32
 70
     1
102
RTVSPost2010Prop33
280
     0
102
RTVSPost2010PropOp33
 70
     1
102
RTVSPost2010Prop34
280
     0
102
RTVSPost2010PropOp34
 70
     1
102
RTVSPost2010Prop35
280
     0
102
RTVSPost2010PropOp35
 70
     1
102
RTVSPost2010Prop36
280
     0
102
RTVSPost2010PropOp36
 70
     1
102
RTVSPost2010Prop37
 90
       50
102
RTVSPost2010PropOp37
 70
     1
102
RTVSPost2010Prop38
140
0.0
102
RTVSPost2010PropOp38
 70
     1
102
RTVSPost2010Prop39
140
1.0
102
RTVSPost2010PropOp39
 70
     1
102
RTVSPost2010Prop40
 90
        0
102
RTVSPost2010PropOp40
 70
     1
102
RTVSPost2010Prop41ColorIndex
 90
       18
102
RTVSPost2010Prop41ColorRGB
 90
        0
102
RTVSPost2010PropOp41
 70
     1
102
RTVSPost2010Prop42
 90
       50
102
RTVSPost2010PropOp42
 70
     1
102
RTVSPost2010Prop43
 90
        3
102
RTVSPost2010PropOp43
 70
     1
102
RTVSPost2010Prop44ColorIndex
 90
        5
102
RTVSPost2010Prop44ColorRGB
 90
      255
102
RTVSPost2010PropOp44
 70
     1
102
RTVSPost2010Prop45
280
     0
102
RTVSPost2010PropOp45
 70
     1
102
RTVSPost2010Prop46
 90
       50
102
RTVSPost2010PropOp46
 70
     1
102
RTVSPost2010Prop47
 90
       50
102
RTVSPost2010PropOp47
 70
     1
102
RTVSPost2010Prop48
 90
       50
102
RTVSPost2010PropOp48
 70
     1
102
RTVSPost2010Prop49
280
     0
102
RTVSPost2010PropOp49
 70
     1
102
RTVSPost2010Prop50
 90
       50
102
RTVSPost2010PropOp50
 70
     1
102
RTVSPost2010Prop51ColorIndex
 90
      256
102
RTVSPost2010Prop51ColorRGB
 90
-16777216
102
RTVSPost2010PropOp51
 70
     0
102
RTVSPost2010Prop52
140
1.0
102
RTVSPost2010PropOp52
 70
     0
102
RTVSPost2010Prop53
 90
        2
102
RTVSPost2010PropOp53
 70
     1
102
RTVSPost2010Prop54
  1
strokes_ogs.tif
102
RTVSPost2010PropOp54
 70
     1
102
RTVSPost2010Prop55
280
     0
102
RTVSPost2010PropOp55
 70
     1
102
RTVSPost2010Prop56
140
1.0
102
RTVSPost2010PropOp56
 70
     1
102
RTVSPost2010Prop57
140
1.0
102
RTVSPost2010PropOp57
 70
     1
102
RTVSPropertyOp0
 70
     1
102
RTVSPropertyOp1
 70
     1
102
RTVSPropertyOp2
 70
     1
102
RTVSPropertyOp3
 70
     1
102
RTVSPropertyOp4
 70
     1
102
RTVSPropertyOp5
 70
     1
102
RTVSPropertyOp6
 70
     1
102
RTVSPropertyOp7
 70
     1
102
RTVSPropertyOp8
 70
     1
102
RTVSPropertyOp9
 70
     1
102
RTVSPropertyOp10
 70
     1
102
RTVSPropertyOp11
 70
     1
102
RTVSPropertyOp12
 70
     1
102
RTVSPropertyOp13
 70
     1
102
RTVSPropertyOp14
 70
     1
102
RTVSPropertyOp15
 70
     1
102
RTVSPropertyOp16
 70
     1
102
RTVSPropertyOp17
 70
     1
102
RTVSPropertyOp18
 70
     1
102
RTVSPropertyOp19
 70
     1
102
RTVSPropertyOp20
 70
     1
102
RTVSPropertyOp21
 70
     1
102
RTVSPropertyOp22
 70
     1
102
RTVSPropertyOp23
 70
     1
102
RTVSPropertyOp24
 70
     1
102
RTVSPropertyOp25
 70
     1
102
RTVSPropertyOp26
 70
     1
102
RTVSPropertyOp27
 70
     1
102
RTVSPropertyOp28
 70
     1
102
RTVSPropertyOp29
 70
     1
102
RTVSPropertyOp30
 70
     1
102
RTVSPropertyOp31
 70
     1
102
RTVSPropertyOp32
 70
     1
102
RTVSPropertyOp33
 70
     1
102
RTVSPropertyOp34
 70
     1
102
RTVSPropertyOp35
 70
     1
102
RTVSPropertyOp36
 70
     1
102
RTVSPropertyOp37
 70
     1
102
RTVSPropertyOp38
 70
     1
102
RTVSPropertyOp39
 70
     1
102
RTVSPropertyOp40
 70
     1
102
RTVSPropertyOp41
 70
     1
102
RTVSPropertyOp42
 70
     1
102
RTVSPropertyOp43
 70
     1
102
RTVSPropertyOp44
 70
     1
102
RTVSPropertyOp45
 70
     1
102
RTVSPropertyOp46
 70
     1
102
RTVSPropertyOp47
 70
     1
102
RTVSPropertyOp48
 70
     1
102
RTVSPropertyOp49
 70
     1
102
RTVSPropertyOp50
 70
     1
102
RTVSPropertyOp51
 70
     0
102
RTVSPropertyOp52
 70
     0
102
RTVSPropertyOp53
 70
     1
102
RTVSPropertyOp54
 70
     1
102
RTVSPropertyOp55
 70
     1
102
RTVSPropertyOp56
 70
     1
102
RTVSPropertyOp57
 70
     1
102
RTVSPropertyOp58
 70
     1
102
RTVSPropertyOp59
 70
     1
102
RTVSPropertyOp60
 70
     1
102
RTVSPropertyOp61
 70
     1
102
RTVSPropertyOp62
 70
     1
  0
ENDSEC
  0
EOF
