  0
SECTION
  2
HEADER
  9
$ACADVER
  1
AC1015
  9
$ACADMAINTVER
 70
    20
  9
$DWGCODEPAGE
  3
ANSI_932
  9
$INSBASE
 10
0.0
 20
0.0
 30
0.0
  9
$EXTMIN
 10
0.0
 20
0.0
 30
0.0
  9
$EXTMAX
 10
4200.0
 20
5900.0
 30
0.0
  9
$LIMMIN
 10
0.0
 20
0.0
  9
$LIMMAX
 10
297.0
 20
210.0
  9
$ORTHOMODE
 70
     1
  9
$REGENMODE
 70
     1
  9
$FILLMODE
 70
     0
  9
$QTEXTMODE
 70
     0
  9
$MIRRTEXT
 70
     1
  9
$LTSCALE
 40
100.0
  9
$ATTMODE
 70
     1
  9
$TEXTSIZE
 40
180.0
  9
$TRACEWID
 40
0.05
  9
$TEXTSTYLE
  7
STANDARD
  9
$CLAYER
  8
3
  9
$CELTYPE
  6
BYLAYER
  9
$CECOLOR
 62
   256
  9
$CELTSCALE
 40
1.0
  9
$DISPSILH
 70
     0
  9
$DIMSCALE
 40
20.0
  9
$DIMASZ
 40
2.0
  9
$DIMEXO
 40
0.5
  9
$DIMDLI
 40
10.0
  9
$DIMRND
 40
0.0
  9
$DIMDLE
 40
0.0
  9
$DIMEXE
 40
1.0
  9
$DIMTP
 40
1.0
  9
$DIMTM
 40
1.0
  9
$DIMTXT
 40
3.0
  9
$DIMCEN
 40
0.0
  9
$DIMTSZ
 40
0.0
  9
$DIMTOL
 70
     0
  9
$DIMLIM
 70
     0
  9
$DIMTIH
 70
     0
  9
$DIMTOH
 70
     0
  9
$DIMSE1
 70
     0
  9
$DIMSE2
 70
     0
  9
$DIMTAD
 70
     1
  9
$DIMZIN
 70
     8
  9
$DIMBLK
  1

  9
$DIMASO
 70
     1
  9
$DIMSHO
 70
     1
  9
$DIMPOST
  1

  9
$DIMAPOST
  1

  9
$DIMALT
 70
     0
  9
$DIMALTD
 70
     2
  9
$DIMALTF
 40
0.039
  9
$DIMLFAC
 40
1.0
  9
$DIMTOFL
 70
     1
  9
$DIMTVP
 40
0.0
  9
$DIMTIX
 70
     0
  9
$DIMSOXD
 70
     0
  9
$DIMSAH
 70
     1
  9
$DIMBLK1
  1
OPEN
  9
$DIMBLK2
  1
OPEN
  9
$DIMSTYLE
  2
IGA
  9
$DIMCLRD
 70
     0
  9
$DIMCLRE
 70
     0
  9
$DIMCLRT
 70
     0
  9
$DIMTFAC
 40
10.0
  9
$DIMGAP
 40
1.0
  9
$DIMJUST
 70
     0
  9
$DIMSD1
 70
     0
  9
$DIMSD2
 70
     0
  9
$DIMTOLJ
 70
     1
  9
$DIMTZIN
 70
     8
  9
$DIMALTZ
 70
     0
  9
$DIMALTTZ
 70
     0
  9
$DIMUPT
 70
     0
  9
$DIMDEC
 70
     0
  9
$DIMTDEC
 70
     0
  9
$DIMALTU
 70
     2
  9
$DIMALTTD
 70
     2
  9
$DIMTXSTY
  7
STANDARD
  9
$DIMAUNIT
 70
     0
  9
$DIMADEC
 70
     0
  9
$DIMALTRND
 40
0.0
  9
$DIMAZIN
 70
     0
  9
$DIMDSEP
 70
    46
  9
$DIMATFIT
 70
     3
  9
$DIMFRAC
 70
     0
  9
$DIMLDRBLK
  1
OPEN
  9
$DIMLUNIT
 70
     2
  9
$DIMLWD
 70
    -2
  9
$DIMLWE
 70
    -2
  9
$DIMTMOVE
 70
     0
  9
$LUNITS
 70
     2
  9
$LUPREC
 70
     3
  9
$SKETCHINC
 40
0.1
  9
$FILLETRAD
 40
50.0
  9
$AUNITS
 70
     0
  9
$AUPREC
 70
     0
  9
$MENU
  1
acad
  9
$ELEVATION
 40
0.0
  9
$PELEVATION
 40
0.0
  9
$THICKNESS
 40
0.0
  9
$LIMCHECK
 70
     0
  9
$CHAMFERA
 40
0.0
  9
$CHAMFERB
 40
0.0
  9
$CHAMFERC
 40
20.0
  9
$CHAMFERD
 40
0.0
  9
$SKPOLY
 70
     0
  9
$TDCREATE
 40
2452773.622829630
  9
$TDUCREATE
 40
2452773.247829630
  9
$TDUPDATE
 40
2458829.628259676
  9
$TDUUPDATE
 40
2458829.253259676
  9
$TDINDWG
 40
0.1986032407
  9
$TDUSRTIMER
 40
0.1986032407
  9
$USRTIMER
 70
     1
  9
$ANGBASE
 50
0.0
  9
$ANGDIR
 70
     0
  9
$PDMODE
 70
     0
  9
$PDSIZE
 40
0.0
  9
$PLINEWID
 40
0.0
  9
$SPLFRAME
 70
     0
  9
$SPLINETYPE
 70
     6
  9
$SPLINESEGS
 70
     8
  9
$HANDSEED
  5
8A7A
  9
$SURFTAB1
 70
     6
  9
$SURFTAB2
 70
     6
  9
$SURFTYPE
 70
     6
  9
$SURFU
 70
     6
  9
$SURFV
 70
     6
  9
$UCSBASE
  2

  9
$UCSNAME
  2

  9
$UCSORG
 10
0.0
 20
0.0
 30
0.0
  9
$UCSXDIR
 10
1.0
 20
0.0
 30
0.0
  9
$UCSYDIR
 10
0.0
 20
1.0
 30
0.0
  9
$UCSORTHOREF
  2

  9
$UCSORTHOVIEW
 70
     0
  9
$UCSORGTOP
 10
0.0
 20
0.0
 30
0.0
  9
$UCSORGBOTTOM
 10
0.0
 20
0.0
 30
0.0
  9
$UCSORGLEFT
 10
0.0
 20
0.0
 30
0.0
  9
$UCSORGRIGHT
 10
0.0
 20
0.0
 30
0.0
  9
$UCSORGFRONT
 10
0.0
 20
0.0
 30
0.0
  9
$UCSORGBACK
 10
0.0
 20
0.0
 30
0.0
  9
$PUCSBASE
  2

  9
$PUCSNAME
  2

  9
$PUCSORG
 10
0.0
 20
0.0
 30
0.0
  9
$PUCSXDIR
 10
1.0
 20
0.0
 30
0.0
  9
$PUCSYDIR
 10
0.0
 20
1.0
 30
0.0
  9
$PUCSORTHOREF
  2

  9
$PUCSORTHOVIEW
 70
     0
  9
$PUCSORGTOP
 10
0.0
 20
0.0
 30
0.0
  9
$PUCSORGBOTTOM
 10
0.0
 20
0.0
 30
0.0
  9
$PUCSORGLEFT
 10
0.0
 20
0.0
 30
0.0
  9
$PUCSORGRIGHT
 10
0.0
 20
0.0
 30
0.0
  9
$PUCSORGFRONT
 10
0.0
 20
0.0
 30
0.0
  9
$PUCSORGBACK
 10
0.0
 20
0.0
 30
0.0
  9
$USERI1
 70
     0
  9
$USERI2
 70
     0
  9
$USERI3
 70
     0
  9
$USERI4
 70
     0
  9
$USERI5
 70
     0
  9
$USERR1
 40
0.0
  9
$USERR2
 40
0.0
  9
$USERR3
 40
0.0
  9
$USERR4
 40
0.0
  9
$USERR5
 40
0.0
  9
$WORLDVIEW
 70
     1
  9
$SHADEDGE
 70
     3
  9
$SHADEDIF
 70
    70
  9
$TILEMODE
 70
     1
  9
$MAXACTVP
 70
    16
  9
$PINSBASE
 10
0.0
 20
0.0
 30
0.0
  9
$PLIMCHECK
 70
     0
  9
$PEXTMIN
 10
1.000000000000000E+20
 20
1.000000000000000E+20
 30
1.000000000000000E+20
  9
$PEXTMAX
 10
-1.000000000000000E+20
 20
-1.000000000000000E+20
 30
-1.000000000000000E+20
  9
$PLIMMIN
 10
0.0
 20
0.0
  9
$PLIMMAX
 10
12.0
 20
9.0
  9
$UNITMODE
 70
     0
  9
$VISRETAIN
 70
     0
  9
$PLINEGEN
 70
     0
  9
$PSLTSCALE
 70
     1
  9
$TREEDEPTH
 70
  3020
  9
$CMLSTYLE
  2
STANDARD
  9
$CMLJUST
 70
     0
  9
$CMLSCALE
 40
20.0
  9
$PROXYGRAPHICS
 70
     1
  9
$MEASUREMENT
 70
     1
  9
$CELWEIGHT
370
    -1
  9
$ENDCAPS
280
     0
  9
$JOINSTYLE
280
     0
  9
$LWDISPLAY
290
     0
  9
$INSUNITS
 70
     0
  9
$HYPERLINKBASE
  1

  9
$STYLESHEET
  1
monochrome.ctb
  9
$XEDIT
290
     1
  9
$CEPSNTYPE
380
     0
  9
$PSTYLEMODE
290
     1
  9
$FINGERPRINTGUID
  2
{BE60D2E9-EEE6-4729-80EB-20180DA61AE5}
  9
$VERSIONGUID
  2
{BC792567-B1D4-4D17-A1F8-7A11CE903826}
  9
$EXTNAMES
290
     1
  9
$PSVPSCALE
 40
0.0
  9
$OLESTARTUP
290
     0
  0
ENDSEC
  0
SECTION
  2
CLASSES
  0
CLASS
  1
ACDBDICTIONARYWDFLT
  2
AcDbDictionaryWithDefault
  3
ObjectDBX Classes
 90
        0
280
     0
281
     0
  0
CLASS
  1
ACDBPLACEHOLDER
  2
AcDbPlaceHolder
  3
ObjectDBX Classes
 90
        0
280
     0
281
     0
  0
CLASS
  1
LAYOUT
  2
AcDbLayout
  3
ObjectDBX Classes
 90
        0
280
     0
281
     0
  0
CLASS
  1
DICTIONARYVAR
  2
AcDbDictionaryVar
  3
ObjectDBX Classes
 90
        0
280
     0
281
     0
  0
CLASS
  1
MATERIAL
  2
AcDbMaterial
  3
ObjectDBX Classes
 90
     1153
280
     0
281
     0
  0
CLASS
  1
VISUALSTYLE
  2
AcDbVisualStyle
  3
ObjectDBX Classes
 90
     4095
280
     0
281
     0
  0
CLASS
  1
TABLESTYLE
  2
AcDbTableStyle
  3
ObjectDBX Classes
 90
     4095
280
     0
281
     0
  0
CLASS
  1
SCALE
  2
AcDbScale
  3
ObjectDBX Classes
 90
     1153
280
     0
281
     0
  0
CLASS
  1
MLEADERSTYLE
  2
AcDbMLeaderStyle
  3
ACDB_MLEADERSTYLE_CLASS
 90
     4095
280
     0
281
     0
  0
CLASS
  1
ACDBSECTIONVIEWSTYLE
  2
AcDbSectionViewStyle
  3
ObjectDBX Classes
 90
     1025
280
     0
281
     0
  0
CLASS
  1
ACDBDETAILVIEWSTYLE
  2
AcDbDetailViewStyle
  3
ObjectDBX Classes
 90
     1025
280
     0
281
     0
  0
CLASS
  1
SORTENTSTABLE
  2
AcDbSortentsTable
  3
ObjectDBX Classes
 90
        0
280
     0
281
     0
  0
CLASS
  1
CELLSTYLEMAP
  2
AcDbCellStyleMap
  3
ObjectDBX Classes
 90
     1152
280
     0
281
     0
  0
ENDSEC
  0
SECTION
  2
TABLES
  0
TABLE
  2
VPORT
  5
8
330
0
100
AcDbSymbolTable
 70
     1
  0
VPORT
  5
80F7
330
8
100
AcDbSymbolTableRecord
100
AcDbViewportTableRecord
  2
*Active
 70
     0
 10
0.0
 20
0.0
 11
1.0
 21
1.0
 12
-77.71763552929314
 22
2748.442983323533
 13
0.0
 23
0.0
 14
10.0
 24
10.0
 15
10.0
 25
10.0
 16
0.0
 26
0.0
 36
1.0
 17
0.0
 27
0.0
 37
0.0
 40
6077.38542579948
 41
1.915441176470588
 42
50.0
 43
0.0
 44
0.0
 50
0.0
 51
0.0
 71
     0
 72
   100
 73
     1
 74
     0
 75
     0
 76
     0
 77
     0
 78
     0
281
     0
 65
     1
110
0.0
120
0.0
130
0.0
111
1.0
121
0.0
131
0.0
112
0.0
122
1.0
132
0.0
 79
     0
146
0.0
1001
ACAD_NAV_VCDISPLAY
1070
     3
  0
ENDTAB
  0
TABLE
  2
LTYPE
  5
5
330
0
100
AcDbSymbolTable
 70
     2
  0
LTYPE
  5
13
330
5
100
AcDbSymbolTableRecord
100
AcDbLinetypeTableRecord
  2
BYBLOCK
 70
     0
  3

 72
    65
 73
     0
 40
0.0
  0
LTYPE
  5
14
330
5
100
AcDbSymbolTableRecord
100
AcDbLinetypeTableRecord
  2
BYLAYER
 70
     0
  3

 72
    65
 73
     0
 40
0.0
  0
LTYPE
  5
15
330
5
100
AcDbSymbolTableRecord
100
AcDbLinetypeTableRecord
  2
CONTINUOUS
 70
     0
  3
Solid line
 72
    65
 73
     0
 40
0.0
  0
LTYPE
  5
1F
330
5
100
AcDbSymbolTableRecord
100
AcDbLinetypeTableRecord
  2
CENTER
 70
     0
  3
____ _ ____ _ ____ _ ____ _ ____ _ ____ _ ____ 
 72
    65
 73
     4
 40
2.0
 49
1.25
 74
     0
 49
-0.25
 74
     0
 49
0.25
 74
     0
 49
-0.25
 74
     0
  0
ENDTAB
  0
TABLE
  2
LAYER
  5
2
102
{ACAD_XDICTIONARY
360
821E
102
}
330
0
100
AcDbSymbolTable
 70
     6
  0
LAYER
  5
F
102
{ACAD_XDICTIONARY
360
8149
102
}
330
2
100
AcDbSymbolTableRecord
100
AcDbLayerTableRecord
  2
0
 70
     0
 62
     7
  6
CONTINUOUS
370
    -3
390
8034
  0
LAYER
  5
31
102
{ACAD_XDICTIONARY
360
814B
102
}
330
2
100
AcDbSymbolTableRecord
100
AcDbLayerTableRecord
  2
3
 70
     0
 62
     2
  6
CONTINUOUS
370
    -3
390
8034
  0
LAYER
  5
76D0
102
{ACAD_XDICTIONARY
360
814D
102
}
330
2
100
AcDbSymbolTableRecord
100
AcDbLayerTableRecord
  2
2
 70
     0
 62
     3
  6
CENTER
370
    -3
390
8034
  0
LAYER
  5
76D1
102
{ACAD_XDICTIONARY
360
814F
102
}
330
2
100
AcDbSymbolTableRecord
100
AcDbLayerTableRecord
  2
1
 70
     0
 62
     4
  6
CONTINUOUS
370
    -3
390
8034
  0
LAYER
  5
76D2
102
{ACAD_XDICTIONARY
360
8151
102
}
330
2
100
AcDbSymbolTableRecord
100
AcDbLayerTableRecord
  2
4
 70
     0
 62
     7
  6
CONTINUOUS
370
    -3
390
8034
  0
LAYER
  5
7A08
330
2
100
AcDbSymbolTableRecord
100
AcDbLayerTableRecord
  2
DEFPOINTS
 70
     0
 62
     7
  6
CONTINUOUS
290
     0
370
    -3
390
8034
  0
ENDTAB
  0
TABLE
  2
STYLE
  5
3
330
0
100
AcDbSymbolTable
 70
     1
  0
STYLE
  5
10
330
3
100
AcDbSymbolTableRecord
100
AcDbTextStyleTableRecord
  2
STANDARD
 70
     0
 40
0.0
 41
1.0
 50
0.0
 71
     0
 42
180.0
  3
simplex.shx
  4
extfont.shx
  0
ENDTAB
  0
TABLE
  2
VIEW
  5
6
330
0
100
AcDbSymbolTable
 70
     0
  0
ENDTAB
  0
TABLE
  2
UCS
  5
7
330
0
100
AcDbSymbolTable
 70
     0
  0
ENDTAB
  0
TABLE
  2
APPID
  5
9
330
0
100
AcDbSymbolTable
 70
     6
  0
APPID
  5
11
330
9
100
AcDbSymbolTableRecord
100
AcDbRegAppTableRecord
  2
ACAD
 70
     0
  0
APPID
  5
8153
330
9
100
AcDbSymbolTableRecord
100
AcDbRegAppTableRecord
  2
ACAD_PSEXT
 70
     0
  0
APPID
  5
815E
330
9
100
AcDbSymbolTableRecord
100
AcDbRegAppTableRecord
  2
ACAD_NAV_VCDISPLAY
 70
     0
  0
APPID
  5
88B8
330
9
100
AcDbSymbolTableRecord
100
AcDbRegAppTableRecord
  2
ACAD_EXEMPT_FROM_CAD_STANDARDS
 70
     0
  0
APPID
  5
89E7
330
9
100
AcDbSymbolTableRecord
100
AcDbRegAppTableRecord
  2
AcadAnnoMonitorAlertIconDisabled
 70
     0
  0
APPID
  5
8A75
330
9
100
AcDbSymbolTableRecord
100
AcDbRegAppTableRecord
  2
ACAD_MLEADERVER
 70
     0
  0
ENDTAB
  0
TABLE
  2
DIMSTYLE
  5
A
330
0
100
AcDbSymbolTable
 70
     1
100
AcDbDimStyleTable
 71
     1
340
1D
  0
DIMSTYLE
105
1D
102
{ACAD_REACTORS
330
7CC8
330
7CD5
330
7CEC
330
7DA4
330
7DB3
330
7DCC
330
7DE4
330
7E6E
330
7E7A
330
7FD6
330
7FE3
330
7FF0
330
7FFD
330
866B
330
866C
102
}
330
A
100
AcDbSymbolTableRecord
100
AcDbDimStyleTableRecord
  2
IGA
 70
     0
 40
2.0
 41
2.0
 42
0.5
 43
10.0
 44
1.0
 47
1.0
 48
1.0
 73
     0
 74
     0
 77
     1
 78
     8
140
3.0
141
0.0
143
0.03937
146
10.0
147
1.0
173
     1
271
     1
272
     0
279
     2
284
     8
340
10
341
79FC
343
79FC
344
79FC
  0
ENDTAB
  0
TABLE
  2
BLOCK_RECORD
  5
1
330
0
100
AcDbSymbolTable
 70
    68
  0
BLOCK_RECORD
  5
19
102
{ACAD_XDICTIONARY
360
8062
102
}
330
1
100
AcDbSymbolTableRecord
100
AcDbBlockTableRecord
  2
*MODEL_SPACE
340
8037
  0
BLOCK_RECORD
  5
16
102
{ACAD_XDICTIONARY
360
8060
102
}
330
1
100
AcDbSymbolTableRecord
100
AcDbBlockTableRecord
  2
*PAPER_SPACE
340
8038
  0
BLOCK_RECORD
  5
79FC
330
1
100
AcDbSymbolTableRecord
100
AcDbBlockTableRecord
  2
_OPEN
340
0
102
{BLKREFS
331
806B
331
806C
331
8074
331
8075
331
807D
331
807E
331
8086
331
8087
331
808F
331
8090
331
80A0
331
80A1
331
80A8
331
80A9
331
80B0
331
80B1
331
80BC
331
80BD
331
80C5
331
80C6
331
80CE
331
80CF
331
80D7
331
80D8
331
8952
331
8953
331
895B
331
895C
331
89F3
331
89F4
102
}
  0
BLOCK_RECORD
  5
7CBC
330
1
100
AcDbSymbolTableRecord
100
AcDbBlockTableRecord
  2
*D1
340
0
  0
BLOCK_RECORD
  5
7CC9
330
1
100
AcDbSymbolTableRecord
100
AcDbBlockTableRecord
  2
*D2
340
0
  0
BLOCK_RECORD
  5
7CE1
330
1
100
AcDbSymbolTableRecord
100
AcDbBlockTableRecord
  2
*D3
340
0
  0
BLOCK_RECORD
  5
7D46
330
1
100
AcDbSymbolTableRecord
100
AcDbBlockTableRecord
  2
_DOT
340
0
  0
BLOCK_RECORD
  5
7D98
330
1
100
AcDbSymbolTableRecord
100
AcDbBlockTableRecord
  2
*D5
340
0
  0
BLOCK_RECORD
  5
7DA5
330
1
100
AcDbSymbolTableRecord
100
AcDbBlockTableRecord
  2
*D6
340
0
  0
BLOCK_RECORD
  5
7DC1
330
1
100
AcDbSymbolTableRecord
100
AcDbBlockTableRecord
  2
*D7
340
0
  0
BLOCK_RECORD
  5
7DD8
330
1
100
AcDbSymbolTableRecord
100
AcDbBlockTableRecord
  2
*D8
340
0
  0
BLOCK_RECORD
  5
7E63
330
1
100
AcDbSymbolTableRecord
100
AcDbBlockTableRecord
  2
*D9
340
0
  0
BLOCK_RECORD
  5
7E6F
330
1
100
AcDbSymbolTableRecord
100
AcDbBlockTableRecord
  2
*D10
340
0
  0
BLOCK_RECORD
  5
7FCA
330
1
100
AcDbSymbolTableRecord
100
AcDbBlockTableRecord
  2
*D11
340
0
  0
BLOCK_RECORD
  5
7FD7
330
1
100
AcDbSymbolTableRecord
100
AcDbBlockTableRecord
  2
*D12
340
0
  0
BLOCK_RECORD
  5
7FE4
330
1
100
AcDbSymbolTableRecord
100
AcDbBlockTableRecord
  2
*D13
340
0
  0
BLOCK_RECORD
  5
7FF1
330
1
100
AcDbSymbolTableRecord
100
AcDbBlockTableRecord
  2
*D14
340
0
  0
BLOCK_RECORD
  5
869D
330
1
100
AcDbSymbolTableRecord
100
AcDbBlockTableRecord
  2
*D51
340
0
  0
BLOCK_RECORD
  5
86A9
330
1
100
AcDbSymbolTableRecord
100
AcDbBlockTableRecord
  2
*D52
340
0
  0
ENDTAB
  0
ENDSEC
  0
SECTION
  2
BLOCKS
  0
BLOCK
  5
1A
330
19
100
AcDbEntity
  8
0
100
AcDbBlockBegin
  2
*MODEL_SPACE
 70
     0
 10
0.0
 20
0.0
 30
0.0
  3
*MODEL_SPACE
  1

  0
ENDBLK
  5
1B
330
19
100
AcDbEntity
  8
0
100
AcDbBlockEnd
  0
BLOCK
  5
17
330
16
100
AcDbEntity
 67
     1
  8
0
100
AcDbBlockBegin
  2
*PAPER_SPACE
 70
     0
 10
0.0
 20
0.0
 30
0.0
  3
*PAPER_SPACE
  1

  0
ENDBLK
  5
18
330
16
100
AcDbEntity
 67
     1
  8
0
100
AcDbBlockEnd
  0
BLOCK
  5
7A00
330
79FC
100
AcDbEntity
  8
0
100
AcDbBlockBegin
  2
_OPEN
 70
     0
 10
0.0
 20
0.0
 30
0.0
  3
_OPEN
  1

  0
LINE
  5
79FD
330
79FC
100
AcDbEntity
  8
0
  6
ByBlock
 62
     0
100
AcDbLine
 10
-1.0
 20
0.1666666666666666
 30
0.0
 11
0.0
 21
0.0
 31
0.0
  0
LINE
  5
79FE
330
79FC
100
AcDbEntity
  8
0
  6
ByBlock
 62
     0
100
AcDbLine
 10
0.0
 20
0.0
 30
0.0
 11
-1.0
 21
-0.1666666666666666
 31
0.0
  0
LINE
  5
79FF
330
79FC
100
AcDbEntity
  8
0
  6
ByBlock
 62
     0
100
AcDbLine
 10
0.0
 20
0.0
 30
0.0
 11
-1.0
 21
0.0
 31
0.0
  0
ENDBLK
  5
7A01
330
79FC
100
AcDbEntity
  8
0
100
AcDbBlockEnd
  0
BLOCK
  5
7F27
330
7CBC
100
AcDbEntity
  8
0
100
AcDbBlockBegin
  2
*D1
 70
     1
 10
0.0
 20
0.0
 30
0.0
  3
*D1
  1

  0
LINE
  5
8068
330
7CBC
100
AcDbEntity
  8
3
 62
     0
100
AcDbLine
 10
745.8090247007576
 20
2553.599298936085
 30
0.0
 11
745.8090247007576
 21
2741.164317456654
 31
0.0
  0
LINE
  5
8069
330
7CBC
100
AcDbEntity
  8
3
 62
     0
100
AcDbLine
 10
1283.809024700758
 20
2610.91349883602
 30
0.0
 11
1283.809024700758
 21
2741.164317456654
 31
0.0
  0
LINE
  5
806A
330
7CBC
100
AcDbEntity
  8
3
 62
     0
100
AcDbLine
 10
785.8090247007575
 20
2721.164317456654
 30
0.0
 11
1243.809024700758
 21
2721.164317456654
 31
0.0
  0
INSERT
  5
806B
330
7CBC
100
AcDbEntity
  8
3
 62
     0
100
AcDbBlockReference
  2
_OPEN
 10
745.8090247007576
 20
2721.164317456654
 30
0.0
 41
40.0
 42
40.0
 43
40.0
 50
180.0
  0
INSERT
  5
806C
330
7CBC
100
AcDbEntity
  8
3
 62
     0
100
AcDbBlockReference
  2
_OPEN
 10
1283.809024700758
 20
2721.164317456654
 30
0.0
 41
40.0
 42
40.0
 43
40.0
  0
MTEXT
  5
806D
330
7CBC
100
AcDbEntity
  8
3
 62
     0
100
AcDbMText
 10
1031.077822496437
 20
2771.164317456654
 30
0.0
 40
60.0
 41
0.0
 71
     5
 72
     5
  1
\A1;538
 73
     1
 44
1.0
1001
ACAD
1000
MTEXTBEGIN
1070
    73
1070
     1
1070
    44
1040
1.0
1070
    74
1070
     0
1000
MTEXTEND
  0
POINT
  5
806E
330
7CBC
100
AcDbEntity
  8
DEFPOINTS
 62
     0
100
AcDbPoint
 10
745.8090247007576
 20
2543.599298936085
 30
0.0
  0
POINT
  5
806F
330
7CBC
100
AcDbEntity
  8
DEFPOINTS
 62
     0
100
AcDbPoint
 10
1283.809024700758
 20
2600.913498836019
 30
0.0
  0
POINT
  5
8070
330
7CBC
100
AcDbEntity
  8
DEFPOINTS
 62
     0
100
AcDbPoint
 10
1283.809024700758
 20
2721.164317456654
 30
0.0
  0
ENDBLK
  5
7F31
330
7CBC
100
AcDbEntity
  8
0
100
AcDbBlockEnd
  0
BLOCK
  5
7F1C
330
7CC9
100
AcDbEntity
  8
0
100
AcDbBlockBegin
  2
*D2
 70
     1
 10
0.0
 20
0.0
 30
0.0
  3
*D2
  1

  0
LINE
  5
8071
330
7CC9
100
AcDbEntity
  8
3
 62
     0
100
AcDbLine
 10
745.8090247007576
 20
2553.599298936085
 30
0.0
 11
745.8090247007576
 21
2622.797735104884
 31
0.0
  0
LINE
  5
8072
330
7CC9
100
AcDbEntity
  8
3
 62
     0
100
AcDbLine
 10
1257.809024700758
 20
2553.599298936081
 30
0.0
 11
1257.809024700758
 21
2622.797735104884
 31
0.0
  0
LINE
  5
8073
330
7CC9
100
AcDbEntity
  8
3
 62
     0
100
AcDbLine
 10
785.8090247007575
 20
2602.797735104884
 30
0.0
 11
1217.809024700758
 21
2602.797735104884
 31
0.0
  0
INSERT
  5
8074
330
7CC9
100
AcDbEntity
  8
3
 62
     0
100
AcDbBlockReference
  2
_OPEN
 10
745.8090247007576
 20
2602.797735104884
 30
0.0
 41
40.0
 42
40.0
 43
40.0
 50
180.0
  0
INSERT
  5
8075
330
7CC9
100
AcDbEntity
  8
3
 62
     0
100
AcDbBlockReference
  2
_OPEN
 10
1257.809024700758
 20
2602.797735104884
 30
0.0
 41
40.0
 42
40.0
 43
40.0
  0
MTEXT
  5
8076
330
7CC9
100
AcDbEntity
  8
3
 62
     0
100
AcDbMText
 10
1005.423218279721
 20
2652.797735104884
 30
0.0
 40
60.0
 41
0.0
 71
     5
 72
     5
  1
\A1;512
 73
     1
 44
1.0
1001
ACAD
1000
MTEXTBEGIN
1070
    73
1070
     1
1070
    44
1040
1.0
1070
    74
1070
     0
1000
MTEXTEND
  0
POINT
  5
8077
330
7CC9
100
AcDbEntity
  8
DEFPOINTS
 62
     0
100
AcDbPoint
 10
745.8090247007576
 20
2543.599298936085
 30
0.0
  0
POINT
  5
8078
330
7CC9
100
AcDbEntity
  8
DEFPOINTS
 62
     0
100
AcDbPoint
 10
1257.809024700758
 20
2543.599298936082
 30
0.0
  0
POINT
  5
8079
330
7CC9
100
AcDbEntity
  8
DEFPOINTS
 62
     0
100
AcDbPoint
 10
1257.809024700758
 20
2602.797735104884
 30
0.0
  0
ENDBLK
  5
7F26
330
7CC9
100
AcDbEntity
  8
0
100
AcDbBlockEnd
  0
BLOCK
  5
7F11
330
7CE1
100
AcDbEntity
  8
0
100
AcDbBlockBegin
  2
*D3
 70
     1
 10
0.0
 20
0.0
 30
0.0
  3
*D3
  1

  0
LINE
  5
807A
330
7CE1
100
AcDbEntity
  8
3
 62
     0
100
AcDbLine
 10
1711.123224600693
 20
2183.599298936078
 30
0.0
 11
1841.374043221327
 21
2183.599298936078
 31
0.0
  0
LINE
  5
807B
330
7CE1
100
AcDbEntity
  8
3
 62
     0
100
AcDbLine
 10
1603.809024700752
 20
1663.599298936079
 30
0.0
 11
1841.374043221327
 21
1663.599298936079
 31
0.0
  0
LINE
  5
807C
330
7CE1
100
AcDbEntity
  8
3
 62
     0
100
AcDbLine
 10
1821.374043221327
 20
2143.599298936078
 30
0.0
 11
1821.374043221327
 21
1703.599298936079
 31
0.0
  0
INSERT
  5
807D
330
7CE1
100
AcDbEntity
  8
3
 62
     0
100
AcDbBlockReference
  2
_OPEN
 10
1821.374043221327
 20
2183.599298936078
 30
0.0
 41
40.0
 42
40.0
 43
40.0
 50
90.0
  0
INSERT
  5
807E
330
7CE1
100
AcDbEntity
  8
3
 62
     0
100
AcDbBlockReference
  2
_OPEN
 10
1821.374043221327
 20
1663.599298936079
 30
0.0
 41
40.0
 42
40.0
 43
40.0
 50
270.0
  0
MTEXT
  5
807F
330
7CE1
100
AcDbEntity
  8
3
 62
     0
100
AcDbMText
 10
1771.374043221327
 20
1923.599298936079
 30
0.0
 40
60.0
 41
0.0
 71
     5
 72
     5
  1
\A1;520
 11
0.0000000000000001
 21
1.0
 31
0.0
 73
     1
 44
1.0
1001
ACAD
1000
MTEXTBEGIN
1070
    73
1070
     1
1070
    44
1040
1.0
1070
    74
1070
     0
1000
MTEXTEND
  0
POINT
  5
8080
330
7CE1
100
AcDbEntity
  8
DEFPOINTS
 62
     0
100
AcDbPoint
 10
1701.123224600693
 20
2183.599298936078
 30
0.0
  0
POINT
  5
8081
330
7CE1
100
AcDbEntity
  8
DEFPOINTS
 62
     0
100
AcDbPoint
 10
1593.809024700752
 20
1663.599298936079
 30
0.0
  0
POINT
  5
8082
330
7CE1
100
AcDbEntity
  8
DEFPOINTS
 62
     0
100
AcDbPoint
 10
1821.374043221327
 20
1663.599298936079
 30
0.0
  0
ENDBLK
  5
7F1B
330
7CE1
100
AcDbEntity
  8
0
100
AcDbBlockEnd
  0
BLOCK
  5
7D47
330
7D46
100
AcDbEntity
  8
0
100
AcDbBlockBegin
  2
_DOT
 70
     0
 10
0.0
 20
0.0
 30
0.0
  3
_DOT
  1

  0
LINE
  5
7EC4
330
7D46
100
AcDbEntity
  8
0
  6
ByBlock
 62
     0
100
AcDbLine
 10
0.0
 20
0.0
 30
0.0
 11
-1.0
 21
-0.0000000000000284
 31
0.0
  0
LWPOLYLINE
  5
7EC5
330
7D46
100
AcDbEntity
  8
0
  6
ByBlock
 62
     0
100
AcDbPolyline
 90
        2
 70
     1
 43
0.1666666666666666
 10
-0.0833333333333286
 20
-0.0000000000000284
 42
1.0
 10
0.0833333333333286
 20
-0.0000000000000284
 42
1.0
  0
ENDBLK
  5
7D4D
330
7D46
100
AcDbEntity
  8
0
100
AcDbBlockEnd
  0
BLOCK
  5
7D99
330
7D98
100
AcDbEntity
  8
0
100
AcDbBlockBegin
  2
*D5
 70
     1
 10
0.0
 20
0.0
 30
0.0
  3
*D5
  1

  0
LINE
  5
8083
330
7D98
100
AcDbEntity
  8
3
 62
     0
100
AcDbLine
 10
2964.330537805764
 20
2520.845516482221
 30
0.0
 11
2964.330537805764
 21
2664.53908781836
 31
0.0
  0
LINE
  5
8084
330
7D98
100
AcDbEntity
  8
3
 62
     0
100
AcDbLine
 10
3339.330537805765
 20
2520.845516482221
 30
0.0
 11
3339.330537805765
 21
2664.53908781836
 31
0.0
  0
LINE
  5
8085
330
7D98
100
AcDbEntity
  8
3
 62
     0
100
AcDbLine
 10
3004.330537805764
 20
2644.53908781836
 30
0.0
 11
3299.330537805765
 21
2644.53908781836
 31
0.0
  0
INSERT
  5
8086
330
7D98
100
AcDbEntity
  8
3
 62
     0
100
AcDbBlockReference
  2
_OPEN
 10
2964.330537805764
 20
2644.53908781836
 30
0.0
 41
40.0
 42
40.0
 43
40.0
 50
180.0
  0
INSERT
  5
8087
330
7D98
100
AcDbEntity
  8
3
 62
     0
100
AcDbBlockReference
  2
_OPEN
 10
3339.330537805765
 20
2644.53908781836
 30
0.0
 41
40.0
 42
40.0
 43
40.0
  0
MTEXT
  5
8088
330
7D98
100
AcDbEntity
  8
3
 62
     0
100
AcDbMText
 10
3152.435655190933
 20
2694.539087818359
 30
0.0
 40
60.0
 41
0.0
 71
     5
 72
     5
  1
\A1;375
 73
     1
 44
1.0
1001
ACAD
1000
MTEXTBEGIN
1070
    73
1070
     1
1070
    44
1040
1.0
1070
    74
1070
     0
1000
MTEXTEND
  0
POINT
  5
8089
330
7D98
100
AcDbEntity
  8
DEFPOINTS
 62
     0
100
AcDbPoint
 10
2964.330537805764
 20
2510.845516482221
 30
0.0
  0
POINT
  5
808A
330
7D98
100
AcDbEntity
  8
DEFPOINTS
 62
     0
100
AcDbPoint
 10
3339.330537805765
 20
2510.845516482221
 30
0.0
  0
POINT
  5
808B
330
7D98
100
AcDbEntity
  8
DEFPOINTS
 62
     0
100
AcDbPoint
 10
3339.330537805765
 20
2644.53908781836
 30
0.0
  0
ENDBLK
  5
7DA3
330
7D98
100
AcDbEntity
  8
0
100
AcDbBlockEnd
  0
BLOCK
  5
7EAF
330
7DA5
100
AcDbEntity
  8
0
100
AcDbBlockBegin
  2
*D6
 70
     1
 10
0.0
 20
0.0
 30
0.0
  3
*D6
  1

  0
LINE
  5
808C
330
7DA5
100
AcDbEntity
  8
3
 62
     0
100
AcDbLine
 10
3151.830537805766
 20
2723.745452400541
 30
0.0
 11
3151.830537805766
 21
2782.114798567218
 31
0.0
  0
LINE
  5
808D
330
7DA5
100
AcDbEntity
  8
3
 62
     0
100
AcDbLine
 10
3343.630537805765
 20
2473.599298936083
 30
0.0
 11
3343.630537805765
 21
2782.114798567218
 31
0.0
  0
LINE
  5
808E
330
7DA5
100
AcDbEntity
  8
3
 62
     0
100
AcDbLine
 10
3191.830537805766
 20
2762.114798567218
 30
0.0
 11
3303.630537805766
 21
2762.114798567218
 31
0.0
  0
INSERT
  5
808F
330
7DA5
100
AcDbEntity
  8
3
 62
     0
100
AcDbBlockReference
  2
_OPEN
 10
3151.830537805766
 20
2762.114798567218
 30
0.0
 41
40.0
 42
40.0
 43
40.0
 50
180.0
  0
INSERT
  5
8090
330
7DA5
100
AcDbEntity
  8
3
 62
     0
100
AcDbBlockReference
  2
_OPEN
 10
3343.630537805765
 20
2762.114798567218
 30
0.0
 41
40.0
 42
40.0
 43
40.0
  0
MTEXT
  5
8091
330
7DA5
100
AcDbEntity
  8
3
 62
     0
100
AcDbMText
 10
3247.730537805766
 20
2812.114798567219
 30
0.0
 40
60.0
 41
0.0
 71
     5
 72
     5
  1
\A1;192
 73
     1
 44
1.0
1001
ACAD
1000
MTEXTBEGIN
1070
    73
1070
     1
1070
    44
1040
1.0
1070
    74
1070
     0
1000
MTEXTEND
  0
POINT
  5
8092
330
7DA5
100
AcDbEntity
  8
DEFPOINTS
 62
     0
100
AcDbPoint
 10
3151.830537805766
 20
2713.74545240054
 30
0.0
  0
POINT
  5
8093
330
7DA5
100
AcDbEntity
  8
DEFPOINTS
 62
     0
100
AcDbPoint
 10
3343.630537805765
 20
2463.599298936083
 30
0.0
  0
POINT
  5
8094
330
7DA5
100
AcDbEntity
  8
DEFPOINTS
 62
     0
100
AcDbPoint
 10
3343.630537805765
 20
2762.114798567218
 30
0.0
  0
ENDBLK
  5
7EBB
330
7DA5
100
AcDbEntity
  8
0
100
AcDbBlockEnd
  0
BLOCK
  5
7EA5
330
7DC1
100
AcDbEntity
  8
0
100
AcDbBlockBegin
  2
*D7
 70
     1
 10
0.0
 20
0.0
 30
0.0
  3
*D7
  1

  0
LINE
  5
89F1
330
7DC1
100
AcDbEntity
  8
3
 62
     0
370
    -2
100
AcDbLine
 10
2618.590299456254
 20
2413.599298936083
 30
0.0
 11
2618.590299456254
 21
2782.114798567218
 31
0.0
  0
LINE
  5
89F2
330
7DC1
100
AcDbEntity
  8
3
 62
     0
370
    -2
100
AcDbLine
 10
3111.830537805766
 20
2762.114798567218
 30
0.0
 11
2658.590299456254
 21
2762.114798567218
 31
0.0
  0
INSERT
  5
89F3
330
7DC1
100
AcDbEntity
  8
3
 62
     0
370
    -2
100
AcDbBlockReference
  2
_OPEN
 10
3151.830537805766
 20
2762.114798567218
 30
0.0
 41
40.0
 42
40.0
 43
40.0
  0
INSERT
  5
89F4
330
7DC1
100
AcDbEntity
  8
3
 62
     0
370
    -2
100
AcDbBlockReference
  2
_OPEN
 10
2618.590299456254
 20
2762.114798567218
 30
0.0
 41
40.0
 42
40.0
 43
40.0
 50
180.0
  0
MTEXT
  5
89F5
330
7DC1
100
AcDbEntity
  8
3
 62
     0
100
AcDbMText
 10
2885.21041863101
 20
2827.829084281504
 30
0.0
 40
60.0
 41
0.0
 71
     5
 72
     1
  1
\A1;(560)
 73
     1
 44
1.0
1001
ACAD
1000
MTEXTBEGIN
1070
    73
1070
     1
1070
    44
1040
1.0
1070
    74
1070
     0
1000
MTEXTEND
  0
POINT
  5
89F6
330
7DC1
100
AcDbEntity
  8
DEFPOINTS
 62
     0
100
AcDbPoint
 10
3151.830537805766
 20
2713.74545240054
 30
0.0
  0
POINT
  5
89F7
330
7DC1
100
AcDbEntity
  8
DEFPOINTS
 62
     0
100
AcDbPoint
 10
2618.590299456254
 20
2403.599298936082
 30
0.0
  0
POINT
  5
89F8
330
7DC1
100
AcDbEntity
  8
DEFPOINTS
 62
     0
100
AcDbPoint
 10
2618.590299456254
 20
2762.114798567218
 30
0.0
  0
ENDBLK
  5
7EAE
330
7DC1
100
AcDbEntity
  8
0
100
AcDbBlockEnd
  0
BLOCK
  5
7DE5
330
7DD8
100
AcDbEntity
  8
0
100
AcDbBlockBegin
  2
*D8
 70
     1
 10
0.0
 20
0.0
 30
0.0
  3
*D8
  1

  0
LINE
  5
809D
330
7DD8
100
AcDbEntity
  8
3
 62
     0
100
AcDbLine
 10
3381.830537805765
 20
2433.599298936083
 30
0.0
 11
3563.286756674447
 21
2433.599298936083
 31
0.0
  0
LINE
  5
809E
330
7DD8
100
AcDbEntity
  8
3
 62
     0
100
AcDbLine
 10
3381.830537805765
 20
1933.599298936083
 30
0.0
 11
3563.286756674447
 21
1933.599298936083
 31
0.0
  0
LINE
  5
809F
330
7DD8
100
AcDbEntity
  8
3
 62
     0
100
AcDbLine
 10
3543.286756674447
 20
2393.599298936083
 30
0.0
 11
3543.286756674447
 21
1973.599298936083
 31
0.0
  0
INSERT
  5
80A0
330
7DD8
100
AcDbEntity
  8
3
 62
     0
100
AcDbBlockReference
  2
_OPEN
 10
3543.286756674447
 20
2433.599298936083
 30
0.0
 41
40.0
 42
40.0
 43
40.0
 50
90.0
  0
INSERT
  5
80A1
330
7DD8
100
AcDbEntity
  8
3
 62
     0
100
AcDbBlockReference
  2
_OPEN
 10
3543.286756674447
 20
1933.599298936083
 30
0.0
 41
40.0
 42
40.0
 43
40.0
 50
270.0
  0
MTEXT
  5
80A2
330
7DD8
100
AcDbEntity
  8
3
 62
     0
100
AcDbMText
 10
3493.286756674446
 20
2183.339885117799
 30
0.0
 40
60.0
 41
0.0
 71
     5
 72
     5
  1
\A1;\U+03C6500
 11
0.0000000000000001
 21
1.0
 31
0.0
 73
     1
 44
1.0
1001
ACAD
1000
MTEXTBEGIN
1070
    73
1070
     1
1070
    44
1040
1.0
1070
    74
1070
     0
1000
MTEXTEND
  0
POINT
  5
80A3
330
7DD8
100
AcDbEntity
  8
DEFPOINTS
 62
     0
100
AcDbPoint
 10
3371.830537805765
 20
2433.599298936083
 30
0.0
  0
POINT
  5
80A4
330
7DD8
100
AcDbEntity
  8
DEFPOINTS
 62
     0
100
AcDbPoint
 10
3371.830537805765
 20
1933.599298936083
 30
0.0
  0
POINT
  5
80A5
330
7DD8
100
AcDbEntity
  8
DEFPOINTS
 62
     0
100
AcDbPoint
 10
3543.286756674447
 20
1933.599298936083
 30
0.0
  0
ENDBLK
  5
7DEF
330
7DD8
100
AcDbEntity
  8
0
100
AcDbBlockEnd
  0
BLOCK
  5
7EEE
330
7E63
100
AcDbEntity
  8
0
100
AcDbBlockBegin
  2
*D9
 70
     1
 10
0.0
 20
0.0
 30
0.0
  3
*D9
  1

  0
LINE
  5
80A6
330
7E63
100
AcDbEntity
  8
3
 62
     0
100
AcDbLine
 10
1299.409024700758
 20
2543.599298936082
 30
0.0
 11
1841.374043221327
 21
2543.599298936082
 31
0.0
  0
LINE
  5
80A7
330
7E63
100
AcDbEntity
  8
3
 62
     0
100
AcDbLine
 10
1821.374043221327
 20
2223.599298936077
 30
0.0
 11
1821.374043221327
 21
2503.599298936081
 31
0.0
  0
INSERT
  5
80A8
330
7E63
100
AcDbEntity
  8
3
 62
     0
100
AcDbBlockReference
  2
_OPEN
 10
1821.374043221327
 20
2183.599298936078
 30
0.0
 41
40.0
 42
40.0
 43
40.0
 50
270.0
  0
INSERT
  5
80A9
330
7E63
100
AcDbEntity
  8
3
 62
     0
100
AcDbBlockReference
  2
_OPEN
 10
1821.374043221327
 20
2543.599298936082
 30
0.0
 41
40.0
 42
40.0
 43
40.0
 50
90.0
  0
MTEXT
  5
80AA
330
7E63
100
AcDbEntity
  8
3
 62
     0
100
AcDbMText
 10
1771.374043221327
 20
2363.59929893608
 30
0.0
 40
60.0
 41
0.0
 71
     5
 72
     5
  1
\A1;360
 11
0.0000000000000001
 21
1.0
 31
0.0
 73
     1
 44
1.0
1001
ACAD
1000
MTEXTBEGIN
1070
    73
1070
     1
1070
    44
1040
1.0
1070
    74
1070
     0
1000
MTEXTEND
  0
POINT
  5
80AB
330
7E63
100
AcDbEntity
  8
DEFPOINTS
 62
     0
100
AcDbPoint
 10
1701.123224600693
 20
2183.599298936078
 30
0.0
  0
POINT
  5
80AC
330
7E63
100
AcDbEntity
  8
DEFPOINTS
 62
     0
100
AcDbPoint
 10
1289.409024700758
 20
2543.599298936082
 30
0.0
  0
POINT
  5
80AD
330
7E63
100
AcDbEntity
  8
DEFPOINTS
 62
     0
100
AcDbPoint
 10
1821.374043221327
 20
2543.599298936082
 30
0.0
  0
ENDBLK
  5
7EF7
330
7E63
100
AcDbEntity
  8
0
100
AcDbBlockEnd
  0
BLOCK
  5
7F47
330
7E6F
100
AcDbEntity
  8
0
100
AcDbBlockBegin
  2
*D10
 70
     1
 10
0.0
 20
0.0
 30
0.0
  3
*D10
  1

  0
LINE
  5
80AE
330
7E6F
100
AcDbEntity
  8
3
 62
     0
100
AcDbLine
 10
1646.257015508615
 20
2156.599298936081
 30
0.0
 11
1646.257015508615
 21
2741.164317456654
 31
0.0
  0
LINE
  5
80AF
330
7E6F
100
AcDbEntity
  8
3
 62
     0
100
AcDbLine
 10
1323.809024700758
 20
2721.164317456654
 30
0.0
 11
1606.257015508615
 21
2721.164317456654
 31
0.0
  0
INSERT
  5
80B0
330
7E6F
100
AcDbEntity
  8
3
 62
     0
100
AcDbBlockReference
  2
_OPEN
 10
1283.809024700758
 20
2721.164317456654
 30
0.0
 41
40.0
 42
40.0
 43
40.0
 50
180.0
  0
INSERT
  5
80B1
330
7E6F
100
AcDbEntity
  8
3
 62
     0
100
AcDbBlockReference
  2
_OPEN
 10
1646.257015508615
 20
2721.164317456654
 30
0.0
 41
40.0
 42
40.0
 43
40.0
  0
MTEXT
  5
80B2
330
7E6F
100
AcDbEntity
  8
3
 62
     0
100
AcDbMText
 10
1465.033020104687
 20
2771.164317456654
 30
0.0
 40
60.0
 41
0.0
 71
     5
 72
     5
  1
\A1;362
 73
     1
 44
1.0
1001
ACAD
1000
MTEXTBEGIN
1070
    73
1070
     1
1070
    44
1040
1.0
1070
    74
1070
     0
1000
MTEXTEND
  0
POINT
  5
80B3
330
7E6F
100
AcDbEntity
  8
DEFPOINTS
 62
     0
100
AcDbPoint
 10
1283.809024700758
 20
2600.913498836019
 30
0.0
  0
POINT
  5
80B4
330
7E6F
100
AcDbEntity
  8
DEFPOINTS
 62
     0
100
AcDbPoint
 10
1646.257015508615
 20
2146.599298936081
 30
0.0
  0
POINT
  5
80B5
330
7E6F
100
AcDbEntity
  8
DEFPOINTS
 62
     0
100
AcDbPoint
 10
1646.257015508615
 20
2721.164317456654
 30
0.0
  0
ENDBLK
  5
7F50
330
7E6F
100
AcDbEntity
  8
0
100
AcDbBlockEnd
  0
BLOCK
  5
7FCB
330
7FCA
100
AcDbEntity
  8
0
100
AcDbBlockBegin
  2
*D11
 70
     1
 10
0.0
 20
0.0
 30
0.0
  3
*D11
  1

  0
LINE
  5
80B9
330
7FCA
100
AcDbEntity
  8
3
 62
     0
100
AcDbLine
 10
2566.830537805764
 20
1613.599298936093
 30
0.0
 11
2566.830537805764
 21
1466.805293440631
 31
0.0
  0
LINE
  5
80BA
330
7FCA
100
AcDbEntity
  8
3
 62
     0
100
AcDbLine
 10
3151.830537805764
 20
1613.599298936091
 30
0.0
 11
3151.830537805764
 21
1466.805293440631
 31
0.0
  0
LINE
  5
80BB
330
7FCA
100
AcDbEntity
  8
3
 62
     0
100
AcDbLine
 10
2606.830537805764
 20
1486.805293440631
 30
0.0
 11
3111.830537805764
 21
1486.805293440631
 31
0.0
  0
INSERT
  5
80BC
330
7FCA
100
AcDbEntity
  8
3
 62
     0
100
AcDbBlockReference
  2
_OPEN
 10
2566.830537805764
 20
1486.805293440631
 30
0.0
 41
40.0
 42
40.0
 43
40.0
 50
180.0
  0
INSERT
  5
80BD
330
7FCA
100
AcDbEntity
  8
3
 62
     0
100
AcDbBlockReference
  2
_OPEN
 10
3151.830537805764
 20
1486.805293440631
 30
0.0
 41
40.0
 42
40.0
 43
40.0
  0
MTEXT
  5
80BE
330
7FCA
100
AcDbEntity
  8
3
 62
     0
100
AcDbMText
 10
2859.330537805764
 20
1536.805293440631
 30
0.0
 40
60.0
 41
0.0
 71
     5
 72
     5
  1
\A1;585
 73
     1
 44
1.0
1001
ACAD
1000
MTEXTBEGIN
1070
    73
1070
     1
1070
    44
1040
1.0
1070
    74
1070
     0
1000
MTEXTEND
  0
POINT
  5
80BF
330
7FCA
100
AcDbEntity
  8
DEFPOINTS
 62
     0
100
AcDbPoint
 10
2566.830537805764
 20
1623.599298936093
 30
0.0
  0
POINT
  5
80C0
330
7FCA
100
AcDbEntity
  8
DEFPOINTS
 62
     0
100
AcDbPoint
 10
3151.830537805764
 20
1623.599298936091
 30
0.0
  0
POINT
  5
80C1
330
7FCA
100
AcDbEntity
  8
DEFPOINTS
 62
     0
100
AcDbPoint
 10
3151.830537805764
 20
1486.805293440631
 30
0.0
  0
ENDBLK
  5
7FD5
330
7FCA
100
AcDbEntity
  8
0
100
AcDbBlockEnd
  0
BLOCK
  5
7FD8
330
7FD7
100
AcDbEntity
  8
0
100
AcDbBlockBegin
  2
*D12
 70
     1
 10
0.0
 20
0.0
 30
0.0
  3
*D12
  1

  0
LINE
  5
80C2
330
7FD7
100
AcDbEntity
  8
3
 62
     0
100
AcDbLine
 10
3151.830537805764
 20
1613.599298936091
 30
0.0
 11
3151.830537805764
 21
1466.805293440631
 31
0.0
  0
LINE
  5
80C3
330
7FD7
100
AcDbEntity
  8
3
 62
     0
100
AcDbLine
 10
3451.830537805764
 20
1613.599298936092
 30
0.0
 11
3451.830537805764
 21
1466.805293440631
 31
0.0
  0
LINE
  5
80C4
330
7FD7
100
AcDbEntity
  8
3
 62
     0
100
AcDbLine
 10
3191.830537805764
 20
1486.805293440631
 30
0.0
 11
3411.830537805764
 21
1486.805293440631
 31
0.0
  0
INSERT
  5
80C5
330
7FD7
100
AcDbEntity
  8
3
 62
     0
100
AcDbBlockReference
  2
_OPEN
 10
3151.830537805764
 20
1486.805293440631
 30
0.0
 41
40.0
 42
40.0
 43
40.0
 50
180.0
  0
INSERT
  5
80C6
330
7FD7
100
AcDbEntity
  8
3
 62
     0
100
AcDbBlockReference
  2
_OPEN
 10
3451.830537805764
 20
1486.805293440631
 30
0.0
 41
40.0
 42
40.0
 43
40.0
  0
MTEXT
  5
80C7
330
7FD7
100
AcDbEntity
  8
3
 62
     0
100
AcDbMText
 10
3301.830537805764
 20
1536.805293440631
 30
0.0
 40
60.0
 41
0.0
 71
     5
 72
     5
  1
\A1;300
 73
     1
 44
1.0
1001
ACAD
1000
MTEXTBEGIN
1070
    73
1070
     1
1070
    44
1040
1.0
1070
    74
1070
     0
1000
MTEXTEND
  0
POINT
  5
80C8
330
7FD7
100
AcDbEntity
  8
DEFPOINTS
 62
     0
100
AcDbPoint
 10
3151.830537805764
 20
1623.599298936091
 30
0.0
  0
POINT
  5
80C9
330
7FD7
100
AcDbEntity
  8
DEFPOINTS
 62
     0
100
AcDbPoint
 10
3451.830537805764
 20
1623.599298936092
 30
0.0
  0
POINT
  5
80CA
330
7FD7
100
AcDbEntity
  8
DEFPOINTS
 62
     0
100
AcDbPoint
 10
3451.830537805764
 20
1486.805293440631
 30
0.0
  0
ENDBLK
  5
7FE2
330
7FD7
100
AcDbEntity
  8
0
100
AcDbBlockEnd
  0
BLOCK
  5
7FE5
330
7FE4
100
AcDbEntity
  8
0
100
AcDbBlockBegin
  2
*D13
 70
     1
 10
0.0
 20
0.0
 30
0.0
  3
*D13
  1

  0
LINE
  5
80CB
330
7FE4
100
AcDbEntity
  8
3
 62
     0
100
AcDbLine
 10
1283.80902470075
 20
1653.599298936081
 30
0.0
 11
1283.80902470075
 21
1466.805293440631
 31
0.0
  0
LINE
  5
80CC
330
7FE4
100
AcDbEntity
  8
3
 62
     0
100
AcDbLine
 10
1597.809024700752
 20
1613.599298936079
 30
0.0
 11
1597.809024700752
 21
1466.805293440631
 31
0.0
  0
LINE
  5
80CD
330
7FE4
100
AcDbEntity
  8
3
 62
     0
100
AcDbLine
 10
1323.80902470075
 20
1486.805293440631
 30
0.0
 11
1557.809024700752
 21
1486.805293440631
 31
0.0
  0
INSERT
  5
80CE
330
7FE4
100
AcDbEntity
  8
3
 62
     0
100
AcDbBlockReference
  2
_OPEN
 10
1283.80902470075
 20
1486.805293440631
 30
0.0
 41
40.0
 42
40.0
 43
40.0
 50
180.0
  0
INSERT
  5
80CF
330
7FE4
100
AcDbEntity
  8
3
 62
     0
100
AcDbBlockReference
  2
_OPEN
 10
1597.809024700752
 20
1486.805293440631
 30
0.0
 41
40.0
 42
40.0
 43
40.0
  0
MTEXT
  5
80D0
330
7FE4
100
AcDbEntity
  8
3
 62
     0
100
AcDbMText
 10
1440.809024700751
 20
1536.805293440631
 30
0.0
 40
60.0
 41
0.0
 71
     5
 72
     5
  1
\A1;314
 73
     1
 44
1.0
1001
ACAD
1000
MTEXTBEGIN
1070
    73
1070
     1
1070
    44
1040
1.0
1070
    74
1070
     0
1000
MTEXTEND
  0
POINT
  5
80D1
330
7FE4
100
AcDbEntity
  8
DEFPOINTS
 62
     0
100
AcDbPoint
 10
1283.80902470075
 20
1663.599298936081
 30
0.0
  0
POINT
  5
80D2
330
7FE4
100
AcDbEntity
  8
DEFPOINTS
 62
     0
100
AcDbPoint
 10
1597.809024700752
 20
1623.599298936079
 30
0.0
  0
POINT
  5
80D3
330
7FE4
100
AcDbEntity
  8
DEFPOINTS
 62
     0
100
AcDbPoint
 10
1597.809024700752
 20
1486.805293440631
 30
0.0
  0
ENDBLK
  5
7FEF
330
7FE4
100
AcDbEntity
  8
0
100
AcDbBlockEnd
  0
BLOCK
  5
7FF2
330
7FF1
100
AcDbEntity
  8
0
100
AcDbBlockBegin
  2
*D14
 70
     1
 10
0.0
 20
0.0
 30
0.0
  3
*D14
  1

  0
LINE
  5
80D4
330
7FF1
100
AcDbEntity
  8
3
 62
     0
100
AcDbLine
 10
469.8090247007521
 20
1613.599298936088
 30
0.0
 11
469.8090247007521
 21
1466.805293440631
 31
0.0
  0
LINE
  5
80D5
330
7FF1
100
AcDbEntity
  8
3
 62
     0
100
AcDbLine
 10
1283.80902470075
 20
1653.599298936081
 30
0.0
 11
1283.80902470075
 21
1466.805293440631
 31
0.0
  0
LINE
  5
80D6
330
7FF1
100
AcDbEntity
  8
3
 62
     0
100
AcDbLine
 10
509.8090247007522
 20
1486.805293440631
 30
0.0
 11
1243.80902470075
 21
1486.805293440631
 31
0.0
  0
INSERT
  5
80D7
330
7FF1
100
AcDbEntity
  8
3
 62
     0
100
AcDbBlockReference
  2
_OPEN
 10
469.8090247007521
 20
1486.805293440631
 30
0.0
 41
40.0
 42
40.0
 43
40.0
 50
180.0
  0
INSERT
  5
80D8
330
7FF1
100
AcDbEntity
  8
3
 62
     0
100
AcDbBlockReference
  2
_OPEN
 10
1283.80902470075
 20
1486.805293440631
 30
0.0
 41
40.0
 42
40.0
 43
40.0
  0
MTEXT
  5
80D9
330
7FF1
100
AcDbEntity
  8
3
 62
     0
100
AcDbMText
 10
876.8090247007512
 20
1536.805293440631
 30
0.0
 40
60.0
 41
0.0
 71
     5
 72
     5
  1
\A1;814
 73
     1
 44
1.0
1001
ACAD
1000
MTEXTBEGIN
1070
    73
1070
     1
1070
    44
1040
1.0
1070
    74
1070
     0
1000
MTEXTEND
  0
POINT
  5
80DA
330
7FF1
100
AcDbEntity
  8
DEFPOINTS
 62
     0
100
AcDbPoint
 10
469.8090247007521
 20
1623.599298936088
 30
0.0
  0
POINT
  5
80DB
330
7FF1
100
AcDbEntity
  8
DEFPOINTS
 62
     0
100
AcDbPoint
 10
1283.80902470075
 20
1663.599298936081
 30
0.0
  0
POINT
  5
80DC
330
7FF1
100
AcDbEntity
  8
DEFPOINTS
 62
     0
100
AcDbPoint
 10
1283.80902470075
 20
1486.805293440631
 30
0.0
  0
ENDBLK
  5
7FFC
330
7FF1
100
AcDbEntity
  8
0
100
AcDbBlockEnd
  0
BLOCK
  5
869E
330
869D
100
AcDbEntity
  8
0
100
AcDbBlockBegin
  2
*D51
 70
     1
 10
0.0
 20
0.0
 30
0.0
  3
*D51
  1

  0
LINE
  5
894F
330
869D
100
AcDbEntity
  8
3
 62
     0
370
    -2
100
AcDbLine
 10
469.8090247007648
 20
4073.713410176739
 30
0.0
 11
469.8090247007648
 21
4203.739733797258
 31
0.0
  0
LINE
  5
8950
330
869D
100
AcDbEntity
  8
3
 62
     0
370
    -2
100
AcDbLine
 10
1597.809024700764
 20
4073.713410176741
 30
0.0
 11
1597.809024700764
 21
4203.739733797258
 31
0.0
  0
LINE
  5
8951
330
869D
100
AcDbEntity
  8
3
 62
     0
370
    -2
100
AcDbLine
 10
509.8090247007649
 20
4183.739733797258
 30
0.0
 11
1557.809024700764
 21
4183.739733797258
 31
0.0
  0
INSERT
  5
8952
330
869D
100
AcDbEntity
  8
3
 62
     0
370
    -2
100
AcDbBlockReference
  2
_OPEN
 10
469.8090247007648
 20
4183.739733797258
 30
0.0
 41
40.0
 42
40.0
 43
40.0
 50
180.0
  0
INSERT
  5
8953
330
869D
100
AcDbEntity
  8
3
 62
     0
370
    -2
100
AcDbBlockReference
  2
_OPEN
 10
1597.809024700764
 20
4183.739733797258
 30
0.0
 41
40.0
 42
40.0
 43
40.0
  0
MTEXT
  5
8954
330
869D
100
AcDbEntity
  8
3
 62
     0
100
AcDbMText
 10
1033.809024700764
 20
4233.739733797258
 30
0.0
 40
60.0
 41
0.0
 71
     5
 72
     1
  1
\A1;1128
 73
     1
 44
1.0
1001
ACAD
1000
MTEXTBEGIN
1070
    73
1070
     1
1070
    44
1040
1.0
1070
    74
1070
     0
1000
MTEXTEND
  0
POINT
  5
8955
330
869D
100
AcDbEntity
  8
DEFPOINTS
 62
     0
100
AcDbPoint
 10
469.8090247007648
 20
4063.713410176739
 30
0.0
  0
POINT
  5
8956
330
869D
100
AcDbEntity
  8
DEFPOINTS
 62
     0
100
AcDbPoint
 10
1597.809024700764
 20
4063.713410176741
 30
0.0
  0
POINT
  5
8957
330
869D
100
AcDbEntity
  8
DEFPOINTS
 62
     0
100
AcDbPoint
 10
1597.809024700764
 20
4183.739733797258
 30
0.0
  0
ENDBLK
  5
869F
330
869D
100
AcDbEntity
  8
0
100
AcDbBlockEnd
  0
BLOCK
  5
86AA
330
86A9
100
AcDbEntity
  8
0
100
AcDbBlockBegin
  2
*D52
 70
     1
 10
0.0
 20
0.0
 30
0.0
  3
*D52
  1

  0
LINE
  5
8958
330
86A9
100
AcDbEntity
  8
3
 62
     0
370
    -2
100
AcDbLine
 10
459.8090247007649
 20
4063.713410176739
 30
0.0
 11
305.0139408357975
 21
4063.713410176739
 31
0.0
  0
LINE
  5
8959
330
86A9
100
AcDbEntity
  8
3
 62
     0
370
    -2
100
AcDbLine
 10
459.8090247007576
 20
3178.713410176739
 30
0.0
 11
305.0139408357972
 21
3178.713410176739
 31
0.0
  0
LINE
  5
895A
330
86A9
100
AcDbEntity
  8
3
 62
     0
370
    -2
100
AcDbLine
 10
325.0139408357975
 20
4023.713410176739
 30
0.0
 11
325.0139408357973
 21
3218.713410176739
 31
0.0
  0
INSERT
  5
895B
330
86A9
100
AcDbEntity
  8
3
 62
     0
370
    -2
100
AcDbBlockReference
  2
_OPEN
 10
325.0139408357975
 20
4063.713410176739
 30
0.0
 41
40.0
 42
40.0
 43
40.0
 50
90.0
  0
INSERT
  5
895C
330
86A9
100
AcDbEntity
  8
3
 62
     0
370
    -2
100
AcDbBlockReference
  2
_OPEN
 10
325.0139408357973
 20
3178.713410176739
 30
0.0
 41
40.0
 42
40.0
 43
40.0
 50
270.0
  0
MTEXT
  5
895D
330
86A9
100
AcDbEntity
  8
3
 62
     0
100
AcDbMText
 10
275.0139408357968
 20
3621.213410176739
 30
0.0
 40
60.0
 41
0.0
 71
     5
 72
     1
  1
\A1;885
 11
0.0000000000000001
 21
1.0
 31
0.0
 73
     1
 44
1.0
1001
ACAD
1000
MTEXTBEGIN
1070
    73
1070
     1
1070
    44
1040
1.0
1070
    74
1070
     0
1000
MTEXTEND
  0
POINT
  5
895E
330
86A9
100
AcDbEntity
  8
DEFPOINTS
 62
     0
100
AcDbPoint
 10
469.8090247007648
 20
4063.713410176739
 30
0.0
  0
POINT
  5
895F
330
86A9
100
AcDbEntity
  8
DEFPOINTS
 62
     0
100
AcDbPoint
 10
469.8090247007576
 20
3178.713410176739
 30
0.0
  0
POINT
  5
8960
330
86A9
100
AcDbEntity
  8
DEFPOINTS
 62
     0
100
AcDbPoint
 10
325.0139408357973
 20
3178.713410176739
 30
0.0
  0
ENDBLK
  5
86AB
330
86A9
100
AcDbEntity
  8
0
100
AcDbBlockEnd
  0
ENDSEC
  0
SECTION
  2
ENTITIES
  0
LINE
  5
7B33
330
19
100
AcDbEntity
  8
1
100
AcDbLine
 10
2757.330537805765
 20
2123.599298936083
 30
0.0
 11
2962.330537805766
 21
2123.599298936083
 31
0.0
  0
LINE
  5
7B34
330
19
100
AcDbEntity
  8
1
100
AcDbLine
 10
2756.830537805765
 20
1738.599298936091
 30
0.0
 11
3381.830537805765
 21
1738.599298936092
 31
0.0
  0
LINE
  5
7B36
330
19
100
AcDbEntity
  8
1
100
AcDbLine
 10
2757.330537805765
 20
2120.399298936082
 30
0.0
 11
2962.330537805766
 21
2120.399298936085
 31
0.0
  0
LINE
  5
7B37
330
19
100
AcDbEntity
  8
2
100
AcDbLine
 10
2581.252396568955
 20
2183.599298936083
 30
0.0
 11
3395.706797645881
 21
2183.599298936083
 31
0.0
1001
ACAD
1000
ASC_BOUNDS
1002
{
1070
    19
1002
}
  0
CIRCLE
  5
7B39
330
19
100
AcDbEntity
  8
1
100
AcDbCircle
 10
1283.809024700755
 20
2183.599298936081
 30
0.0
 40
139.7
  0
ARC
  5
7B3A
330
19
100
AcDbEntity
  8
1
100
AcDbCircle
 10
1314.809024700754
 20
2152.599298936081
 30
0.0
 40
331.1837981443563
100
AcDbArc
 50
5.042451069170437
 51
86.4511704959227
  0
LINE
  5
7B3B
330
19
100
AcDbEntity
  8
1
100
AcDbLine
 10
745.8090247007576
 20
2543.599298936085
 30
0.0
 11
774.8090247007549
 21
2183.599298936085
 31
0.0
  0
LINE
  5
7B3C
330
19
100
AcDbEntity
  8
1
100
AcDbLine
 10
2665.530537805764
 20
2323.299298936083
 30
0.0
 11
2665.530537805766
 21
2043.899298936082
 31
0.0
  0
LINE
  5
7B3D
330
19
100
AcDbEntity
  8
1
100
AcDbLine
 10
2705.530537805764
 20
2323.299298936083
 30
0.0
 11
2705.530537805766
 21
2043.899298936082
 31
0.0
  0
LINE
  5
7B3E
330
19
100
AcDbEntity
  8
1
100
AcDbLine
 10
2618.590299456254
 20
2403.599298936083
 30
0.0
 11
2618.590299456255
 21
1738.59929893609
 31
0.0
  0
LINE
  5
7B3F
330
19
100
AcDbEntity
  8
2
100
AcDbLine
 10
1701.123224600693
 20
2183.599298936078
 30
0.0
 11
751.1742264284075
 21
2183.599298936085
 31
0.0
  0
ARC
  5
7B40
330
19
100
AcDbEntity
  8
1
100
AcDbCircle
 10
1246.809024700756
 20
2220.599298936081
 30
0.0
 40
473.4479908078608
100
AcDbArc
 50
184.4822403704245
 51
269.9999999999995
  0
LINE
  5
7B41
330
19
100
AcDbEntity
  8
1
100
AcDbLine
 10
1593.809024700753
 20
1728.599298936079
 30
0.0
 11
473.809024700753
 21
1728.599298936088
 31
0.0
  0
LINE
  5
7B42
330
19
100
AcDbEntity
  8
1
100
AcDbLine
 10
1597.809024700752
 20
1663.599298936079
 30
0.0
 11
469.8090247007521
 21
1663.599298936088
 31
0.0
  0
CIRCLE
  5
7B43
330
19
100
AcDbEntity
  8
1
100
AcDbCircle
 10
633.8090247007539
 20
1851.599298936086
 30
0.0
 40
57.14999999999999
  0
LINE
  5
7B44
330
19
100
AcDbEntity
  8
1
100
AcDbLine
 10
633.8090247007531
 20
1782.615198936086
 30
0.0
 11
633.8090247007548
 21
1960.060398936087
 31
0.0
  0
LINE
  5
7B45
330
19
100
AcDbEntity
  8
1
100
AcDbLine
 10
510.0931301759392
 20
1728.599298936087
 30
0.0
 11
757.524919225565
 21
1728.599298936085
 31
0.0
  0
LINE
  5
7B46
330
19
100
AcDbEntity
  8
1
100
AcDbLine
 10
473.8090247007521
 20
1663.599298936088
 30
0.0
 11
473.809024700753
 21
1728.599298936088
 31
0.0
  0
ARC
  5
7B47
330
19
100
AcDbEntity
  8
1
100
AcDbCircle
 10
1246.809024700754
 20
2146.599298936081
 30
0.0
 40
399.4479908078606
100
AcDbArc
 50
269.9999999999995
 51
5.042451069170437
  0
LINE
  5
7B48
330
19
100
AcDbEntity
  8
2
100
AcDbLine
 10
1283.809024700757
 20
2570.697355126677
 30
0.0
 11
1283.80902470075
 21
1663.599298936081
 31
0.0
  0
LINE
  5
7B49
330
19
100
AcDbEntity
  8
1
100
AcDbLine
 10
1593.809024700752
 20
1663.599298936079
 30
0.0
 11
1593.809024700753
 21
1728.599298936079
 31
0.0
  0
LINE
  5
7B4A
330
19
100
AcDbEntity
  8
1
100
AcDbLine
 10
2665.530537805766
 20
2043.899298936082
 30
0.0
 11
2665.530537805766
 21
1792.449298936085
 31
0.0
  0
LINE
  5
7B4B
330
19
100
AcDbEntity
  8
1
100
AcDbLine
 10
2705.530537805766
 20
2043.899298936082
 30
0.0
 11
2705.530537805766
 21
1792.449298936085
 31
0.0
  0
LINE
  5
7B4C
330
19
100
AcDbEntity
  8
1
100
AcDbLine
 10
2757.330537805765
 20
2123.599298936083
 30
0.0
 11
2757.330537805767
 21
1738.599298936092
 31
0.0
  0
LINE
  5
7B4D
330
19
100
AcDbEntity
  8
1
100
AcDbLine
 10
2760.530537805765
 20
2120.399298936082
 30
0.0
 11
2760.530537805766
 21
1738.599298936091
 31
0.0
  0
LINE
  5
7B4E
330
19
100
AcDbEntity
  8
1
100
AcDbLine
 10
2665.530537805767
 20
1792.449298936085
 30
0.0
 11
2705.530537805766
 21
1792.449298936085
 31
0.0
  0
LINE
  5
7B4F
330
19
100
AcDbEntity
  8
1
100
AcDbLine
 10
2618.590299456255
 20
1738.59929893609
 30
0.0
 11
2740.590299456255
 21
1738.59929893609
 31
0.0
  0
LINE
  5
7B50
330
19
100
AcDbEntity
  8
1
100
AcDbLine
 10
2740.590299456255
 20
1758.599298936091
 30
0.0
 11
2740.590299456255
 21
1738.59929893609
 31
0.0
  0
LINE
  5
7B51
330
19
100
AcDbEntity
  8
1
100
AcDbLine
 10
2665.530537805766
 20
2043.899298936082
 30
0.0
 11
2705.530537805766
 21
2043.899298936082
 31
0.0
1001
ACAD
1000
ASC_BOUNDS
1002
{
1070
    19
1002
}
  0
LINE
  5
7B52
330
19
100
AcDbEntity
  8
1
100
AcDbLine
 10
2665.530537805767
 20
1906.749298936085
 30
0.0
 11
2705.530537805767
 21
1906.749298936085
 31
0.0
  0
LINE
  5
7B53
330
19
100
AcDbEntity
  8
1
100
AcDbLine
 10
2705.530537805765
 20
2202.599298936083
 30
0.0
 11
2735.530537805765
 21
2202.599298936082
 31
0.0
1001
ACAD
1000
ASC_BOUNDS
1002
{
1070
    19
1002
}
  0
LINE
  5
7B54
330
19
100
AcDbEntity
  8
1
100
AcDbLine
 10
2705.530537805766
 20
2164.599298936083
 30
0.0
 11
2735.530537805765
 21
2164.599298936083
 31
0.0
1001
ACAD
1000
ASC_BOUNDS
1002
{
1070
    19
1002
}
  0
LINE
  5
7B55
330
19
100
AcDbEntity
  8
1
100
AcDbLine
 10
2735.530537805765
 20
2206.099298936083
 30
0.0
 11
2735.530537805766
 21
2161.099298936083
 31
0.0
  0
LINE
  5
7B5A
330
19
100
AcDbEntity
  8
1
100
AcDbLine
 10
714.2038417374561
 20
2540.599298936086
 30
0.0
 11
1289.409024700758
 21
2540.599298936081
 31
0.0
  0
LINE
  5
7B5B
330
19
100
AcDbEntity
  8
1
100
AcDbLine
 10
745.8090247007576
 20
2543.599298936085
 30
0.0
 11
1257.809024700758
 21
2543.599298936082
 31
0.0
  0
LINE
  5
7B5C
330
19
100
AcDbEntity
  8
1
100
AcDbLine
 10
1267.809024700757
 20
2543.599298936082
 30
0.0
 11
735.7766311801124
 21
2543.599298936085
 31
0.0
  0
LINE
  5
7B5D
330
19
100
AcDbEntity
  8
1
100
AcDbLine
 10
714.2038417374542
 20
2513.599298936086
 30
0.0
 11
1289.409024700758
 21
2513.599298936081
 31
0.0
  0
LINE
  5
7B5E
330
19
100
AcDbEntity
  8
1
100
AcDbLine
 10
1289.409024700758
 20
2543.599298936082
 30
0.0
 11
714.2038417374542
 21
2543.599298936086
 31
0.0
  0
POINT
  5
7B61
330
19
100
AcDbEntity
  8
1
100
AcDbPoint
 10
744.2038417374542
 20
2543.599298936085
 30
0.0
  0
POINT
  5
7B62
330
19
100
AcDbEntity
  8
1
100
AcDbPoint
 10
745.8090247007576
 20
2543.599298936085
 30
0.0
  0
POINT
  5
7B63
330
19
100
AcDbEntity
  8
1
100
AcDbPoint
 10
745.8090247007576
 20
2543.599298936085
 30
0.0
  0
POINT
  5
7B64
330
19
100
AcDbEntity
  8
1
100
AcDbPoint
 10
745.8090247007576
 20
2543.599298936085
 30
0.0
  0
LINE
  5
7B65
330
19
100
AcDbEntity
  8
1
100
AcDbLine
 10
714.2038417374542
 20
2543.599298936086
 30
0.0
 11
714.2038417374542
 21
2513.599298936086
 31
0.0
  0
ARC
  5
7B69
330
19
100
AcDbEntity
  8
1
100
AcDbCircle
 10
1314.809024700754
 20
2214.599298936079
 30
0.0
 40
269.1837981443569
100
AcDbArc
 50
93.08781993650359
 51
102.2249984889334
  0
LINE
  5
7B6A
330
19
100
AcDbEntity
  8
1
100
AcDbLine
 10
1257.809024700757
 20
2477.67897732919
 30
0.0
 11
1257.809024700758
 21
2543.599298936082
 31
0.0
  0
POINT
  5
7B6B
330
19
100
AcDbEntity
  8
1
100
AcDbPoint
 10
1257.809024700758
 20
2543.599298936082
 30
0.0
  0
LINE
  5
7B6C
330
19
100
AcDbEntity
  8
1
100
AcDbLine
 10
1289.409024700758
 20
2513.599298936081
 30
0.0
 11
1289.409024700758
 21
2543.599298936082
 31
0.0
  0
LINE
  5
7B6D
330
19
100
AcDbEntity
  8
1
100
AcDbLine
 10
2740.590299456254
 20
2403.599298936083
 30
0.0
 11
2618.590299456254
 21
2403.599298936083
 31
0.0
  0
LINE
  5
7B6E
330
19
100
AcDbEntity
  8
1
100
AcDbLine
 10
2618.590299456254
 20
2403.599298936082
 30
0.0
 11
2740.590299456254
 21
2403.599298936082
 31
0.0
  0
LINE
  5
7B6F
330
19
100
AcDbEntity
  8
1
100
AcDbLine
 10
2665.530537805764
 20
2323.299298936083
 30
0.0
 11
2705.530537805764
 21
2323.299298936083
 31
0.0
1001
ACAD
1000
ASC_BOUNDS
1002
{
1070
    19
1002
}
  0
LINE
  5
7B70
330
19
100
AcDbEntity
  8
1
100
AcDbLine
 10
2740.590299456254
 20
2383.599298936083
 30
0.0
 11
2740.590299456254
 21
2403.599298936083
 31
0.0
  0
LINE
  5
7B71
330
19
100
AcDbEntity
  8
1
100
AcDbLine
 10
2964.330537805764
 20
2513.145516482221
 30
0.0
 11
2964.330537805766
 21
2183.599298936083
 31
0.0
  0
LINE
  5
7B72
330
19
100
AcDbEntity
  8
1
100
AcDbLine
 10
3339.330537805765
 20
2513.145516482221
 30
0.0
 11
3339.330537805766
 21
2183.599298936083
 31
0.0
  0
LINE
  5
7B73
330
19
100
AcDbEntity
  8
1
100
AcDbLine
 10
3343.630537805765
 20
2177.599298936083
 30
0.0
 11
3343.630537805765
 21
2433.599298936084
 31
0.0
  0
LINE
  5
7B74
330
19
100
AcDbEntity
  8
1
100
AcDbLine
 10
3373.630537805766
 20
1968.299298936083
 30
0.0
 11
3373.630537805766
 21
2433.599298936084
 31
0.0
  0
LINE
  5
7B76
330
19
100
AcDbEntity
  8
1
100
AcDbLine
 10
2964.330537805766
 20
2183.599298936083
 30
0.0
 11
2964.330537805767
 21
1738.599298936092
 31
0.0
  0
LINE
  5
7B77
330
19
100
AcDbEntity
  8
1
100
AcDbLine
 10
2860.830537805766
 20
2206.099298936083
 30
0.0
 11
2962.330537805766
 21
2206.099298936083
 31
0.0
1001
ACAD
1000
ASC_BOUNDS
1002
{
1070
    19
1002
}
  0
LINE
  5
7B78
330
19
100
AcDbEntity
  8
1
100
AcDbLine
 10
2735.530537805766
 20
2161.099298936083
 30
0.0
 11
2962.330537805766
 21
2161.099298936083
 31
0.0
1001
ACAD
1000
ASC_BOUNDS
1002
{
1070
    19
1002
}
  0
LINE
  5
7B79
330
19
100
AcDbEntity
  8
1
100
AcDbLine
 10
2864.958955167663
 20
2161.099298936083
 30
0.0
 11
2900.823645586267
 21
2161.099298936083
 31
0.0
1001
ACAD
1000
ASC_BOUNDS
1002
{
1070
    19
1002
}
  0
LINE
  5
7B7A
330
19
100
AcDbEntity
  8
1
100
AcDbLine
 10
2735.530537805765
 20
2206.099298936083
 30
0.0
 11
2900.823645586267
 21
2206.099298936083
 31
0.0
1001
ACAD
1000
ASC_BOUNDS
1002
{
1070
    19
1002
}
  0
LINE
  5
7B7B
330
19
100
AcDbEntity
  8
1
100
AcDbLine
 10
3343.630537805765
 20
1933.599298936083
 30
0.0
 11
3343.630537805765
 21
2177.599298936083
 31
0.0
  0
LINE
  5
7B7C
330
19
100
AcDbEntity
  8
1
100
AcDbLine
 10
3339.330537805766
 20
2183.599298936083
 30
0.0
 11
3339.330537805765
 21
1738.599298936092
 31
0.0
  0
LINE
  5
7B7D
330
19
100
AcDbEntity
  8
1
100
AcDbLine
 10
3381.830537805765
 20
1738.599298936092
 30
0.0
 11
3381.830537805765
 21
1663.599298936092
 31
0.0
  0
LINE
  5
7B7E
330
19
100
AcDbEntity
  8
1
100
AcDbLine
 10
3343.630537805765
 20
1903.599298936083
 30
0.0
 11
3339.330537805765
 21
1903.599298936083
 31
0.0
  0
LINE
  5
7B7F
330
19
100
AcDbEntity
  8
1
100
AcDbLine
 10
3343.630537805765
 20
1903.599298936083
 30
0.0
 11
3343.630537805765
 21
1933.599298936083
 31
0.0
  0
LINE
  5
7B80
330
19
100
AcDbEntity
  8
1
100
AcDbLine
 10
3343.630537805765
 20
2463.599298936083
 30
0.0
 11
3343.630537805765
 21
2433.599298936084
 31
0.0
  0
LINE
  5
7B81
330
19
100
AcDbEntity
  8
1
100
AcDbLine
 10
3343.630537805765
 20
2433.599298936084
 30
0.0
 11
3373.630537805766
 21
2433.599298936084
 31
0.0
  0
LINE
  5
7B82
330
19
100
AcDbEntity
  8
1
100
AcDbLine
 10
3343.630537805765
 20
2463.599298936083
 30
0.0
 11
3339.330537805765
 21
2463.599298936083
 31
0.0
  0
POINT
  5
7B83
330
19
100
AcDbEntity
  8
1
100
AcDbPoint
 10
3343.630537805765
 20
2458.599298936084
 30
0.0
  0
LINE
  5
7B84
330
19
100
AcDbEntity
  8
1
100
AcDbLine
 10
2964.330537805767
 20
1821.151308128229
 30
0.0
 11
3339.330537805764
 21
1821.15130812823
 31
0.0
  0
LINE
  5
7B85
330
19
100
AcDbEntity
  8
1
100
AcDbLine
 10
633.8090247007531
 20
1749.099298936086
 30
0.0
 11
633.8090247007548
 21
1926.659770243487
 31
0.0
  0
LINE
  5
7B86
330
19
100
AcDbEntity
  8
1
100
AcDbLine
 10
1224.172131585277
 20
2309.930336213281
 30
0.0
 11
604.9832055994766
 21
1900.184709955715
 31
0.0
  0
LINE
  5
7B87
330
19
100
AcDbEntity
  8
1
100
AcDbLine
 10
1283.809024700756
 20
2447.18211009213
 30
0.0
 11
533.8090247007531
 21
1931.428706083865
 31
0.0
  0
LINE
  5
7B88
330
19
100
AcDbEntity
  8
1
100
AcDbLine
 10
1312.510139026381
 20
2046.879380721992
 30
0.0
 11
657.3231722304345
 21
1799.510841808308
 31
0.0
  0
LINE
  5
7B89
330
19
100
AcDbEntity
  8
1
100
AcDbLine
 10
2931.830537805766
 20
2510.845516482221
 30
0.0
 11
3371.830537805767
 21
2510.845516482221
 31
0.0
1001
ACAD
1000
ASC_BOUNDS
1002
{
1070
    19
1002
}
  0
LINE
  5
7B8A
330
19
100
AcDbEntity
  8
1
100
AcDbLine
 10
2931.830537805766
 20
2542.845516482221
 30
0.0
 11
3371.830537805766
 21
2542.845516482221
 31
0.0
1001
ACAD
1000
ASC_BOUNDS
1002
{
1070
    19
1002
}
  0
LINE
  5
7B8B
330
19
100
AcDbEntity
  8
1
100
AcDbLine
 10
2931.830537805766
 20
2542.845516482221
 30
0.0
 11
2931.830537805766
 21
2510.845516482221
 31
0.0
  0
LINE
  5
7B8C
330
19
100
AcDbEntity
  8
1
100
AcDbLine
 10
3371.830537805766
 20
2542.845516482221
 30
0.0
 11
3371.830537805766
 21
2510.84551648222
 31
0.0
  0
LINE
  5
7B8D
330
19
100
AcDbEntity
  8
2
100
AcDbLine
 10
3151.830537805766
 20
2627.096673032211
 30
0.0
 11
3151.830537805764
 21
1623.599298936091
 31
0.0
  0
LINE
  5
7B92
330
19
100
AcDbEntity
  8
1
100
AcDbLine
 10
1051.809024700754
 20
2132.099298936083
 30
0.0
 11
1051.809024700751
 21
1728.599298936083
 31
0.0
  0
LINE
  5
7B93
330
19
100
AcDbEntity
  8
1
100
AcDbLine
 10
1515.809024700754
 20
2132.099298936079
 30
0.0
 11
1515.809024700751
 21
1728.599298936079
 31
0.0
  0
LINE
  5
7B94
330
19
100
AcDbEntity
  8
1
100
AcDbLine
 10
1603.809024700754
 20
2132.099298936078
 30
0.0
 11
963.8090247007539
 21
2132.099298936084
 31
0.0
  0
LINE
  5
7B95
330
19
100
AcDbEntity
  8
1
100
AcDbLine
 10
963.8090247007548
 20
2167.099298936083
 30
0.0
 11
963.8090247007539
 21
2132.099298936084
 31
0.0
  0
LINE
  5
7B96
330
19
100
AcDbEntity
  8
1
100
AcDbLine
 10
1603.809024700755
 20
2167.099298936078
 30
0.0
 11
1603.809024700754
 21
2132.099298936078
 31
0.0
  0
LINE
  5
7B97
330
19
100
AcDbEntity
  8
1
100
AcDbLine
 10
1603.809024700754
 20
2167.099298936078
 30
0.0
 11
963.8090247007548
 21
2167.099298936083
 31
0.0
  0
LINE
  5
7B98
330
19
100
AcDbEntity
  8
1
100
AcDbLine
 10
1475.809024700754
 20
2132.09929893608
 30
0.0
 11
1475.809024700751
 21
1728.59929893608
 31
0.0
  0
LINE
  5
7B99
330
19
100
AcDbEntity
  8
1
100
AcDbLine
 10
1091.809024700754
 20
2132.099298936083
 30
0.0
 11
1091.809024700751
 21
1728.599298936083
 31
0.0
  0
LINE
  5
7B9A
330
19
100
AcDbEntity
  8
1
100
AcDbLine
 10
1523.809024700756
 20
2308.125332163859
 30
0.0
 11
1523.809024700751
 21
1728.599298936079
 31
0.0
  0
LINE
  5
7B9B
330
19
100
AcDbEntity
  8
1
100
AcDbLine
 10
1283.809024700756
 20
2447.18211009213
 30
0.0
 11
1523.809024700756
 21
2308.125332163859
 31
0.0
  0
LINE
  5
7B9C
330
19
100
AcDbEntity
  8
1
100
AcDbLine
 10
3381.330537805766
 20
1960.599298936083
 30
0.0
 11
3381.330537805764
 21
1738.599298936092
 31
0.0
  0
LINE
  5
7B9D
330
19
100
AcDbEntity
  8
1
100
AcDbLine
 10
3339.330537805765
 20
1968.599298936083
 30
0.0
 11
3373.330537805766
 21
1968.599298936083
 31
0.0
  0
LINE
  5
7B9E
330
19
100
AcDbEntity
  8
1
100
AcDbLine
 10
3373.330537805766
 20
1968.599298936083
 30
0.0
 11
3381.330537805766
 21
1960.599298936083
 31
0.0
  0
LINE
  5
7B9F
330
19
100
AcDbEntity
  8
1
100
AcDbLine
 10
2756.830537805765
 20
1738.599298936091
 30
0.0
 11
2756.830537805764
 21
1663.599298936091
 31
0.0
  0
ARC
  5
7BA4
330
19
100
AcDbEntity
  8
1
100
AcDbCircle
 10
633.8090247007539
 20
1851.599298936086
 30
0.0
 40
100.8
100
AcDbArc
 50
180.0
 51
239.6067
  0
ARC
  5
7BA5
330
19
100
AcDbEntity
  8
1
100
AcDbCircle
 10
633.8090247007539
 20
1851.599298936086
 30
0.0
 40
100.8
100
AcDbArc
 50
300.3007
 51
180.0
  0
LINE
  5
7BA6
330
19
100
AcDbEntity
  8
1
100
AcDbLine
 10
568.8090247007539
 20
1771.599298936086
 30
0.0
 11
568.8090247007539
 21
1761.599298936086
 31
0.0
  0
LINE
  5
7BA7
330
19
100
AcDbEntity
  8
1
100
AcDbLine
 10
558.8090247007539
 20
1771.599298936086
 30
0.0
 11
558.8090247007539
 21
1761.599298936086
 31
0.0
  0
LINE
  5
7BA8
330
19
100
AcDbEntity
  8
1
100
AcDbLine
 10
563.8090247007539
 20
1757.232798936086
 30
0.0
 11
563.8090247007539
 21
1774.136198936087
 31
0.0
  0
LINE
  5
7BA9
330
19
100
AcDbEntity
  8
1
100
AcDbLine
 10
545.809024700754
 20
1761.599298936086
 30
0.0
 11
545.809024700754
 21
1769.599298936087
 31
0.0
  0
LINE
  5
7BAA
330
19
100
AcDbEntity
  8
1
100
AcDbLine
 10
698.809024700754
 20
1771.599298936086
 30
0.0
 11
698.809024700754
 21
1761.599298936086
 31
0.0
  0
LINE
  5
7BAB
330
19
100
AcDbEntity
  8
1
100
AcDbLine
 10
708.8090247007539
 20
1771.599298936086
 30
0.0
 11
708.8090247007539
 21
1761.599298936086
 31
0.0
  0
LINE
  5
7BAC
330
19
100
AcDbEntity
  8
1
100
AcDbLine
 10
703.809024700754
 20
1757.232798936086
 30
0.0
 11
703.809024700754
 21
1774.136198936087
 31
0.0
  0
LINE
  5
7BAD
330
19
100
AcDbEntity
  8
2
100
AcDbLine
 10
633.8090247007539
 20
1755.615198936087
 30
0.0
 11
633.8090247007539
 21
1960.060398936087
 31
0.0
  0
LINE
  5
7BAE
330
19
100
AcDbEntity
  8
1
100
AcDbLine
 10
721.8090247007539
 20
1761.599298936086
 30
0.0
 11
721.8090247007539
 21
1769.599298936087
 31
0.0
  0
ARC
  5
7BAF
330
19
100
AcDbEntity
  8
1
100
AcDbCircle
 10
633.8090247007539
 20
1851.599298936086
 30
0.0
 40
100.8
100
AcDbArc
 50
180.0
 51
239.6067
  0
LINE
  5
7BB0
330
19
100
AcDbEntity
  8
1
100
AcDbLine
 10
678.639524700754
 20
1765.599298936086
 30
0.0
 11
588.6851247007544
 21
1765.599298936086
 31
0.0
  0
LINE
  5
7BB1
330
19
100
AcDbEntity
  8
1
100
AcDbLine
 10
684.7331247007542
 20
1764.599298936087
 30
0.0
 11
582.778024700754
 21
1764.599298936087
 31
0.0
  0
LINE
  5
7BB2
330
19
100
AcDbEntity
  8
1
100
AcDbLine
 10
684.7331247007542
 20
1764.599298936087
 30
0.0
 11
582.778024700754
 21
1764.599298936087
 31
0.0
  0
LINE
  5
7BB3
330
19
100
AcDbEntity
  8
1
100
AcDbLine
 10
721.8090247007539
 20
1761.599298936086
 30
0.0
 11
681.8090247007539
 21
1761.599298936086
 31
0.0
  0
LINE
  5
7BB4
330
19
100
AcDbEntity
  8
1
100
AcDbLine
 10
681.8090247007539
 20
1764.572098936087
 30
0.0
 11
681.8090247007539
 21
1761.599298936086
 31
0.0
  0
LINE
  5
7BB5
330
19
100
AcDbEntity
  8
1
100
AcDbLine
 10
545.809024700754
 20
1761.599298936086
 30
0.0
 11
585.8090247007539
 21
1761.599298936086
 31
0.0
  0
LINE
  5
7BB6
330
19
100
AcDbEntity
  8
1
100
AcDbLine
 10
585.8090247007539
 20
1764.530298936087
 30
0.0
 11
585.8090247007539
 21
1761.599298936086
 31
0.0
  0
LINE
  5
7BB7
330
19
100
AcDbEntity
  8
2
100
AcDbLine
 10
738.2742247007536
 20
1851.599298936086
 30
0.0
 11
527.7062247007543
 21
1851.599298936086
 31
0.0
  0
LINE
  5
7BB8
330
19
100
AcDbEntity
  8
1
100
AcDbLine
 10
695.1330247007535
 20
1771.599298936086
 30
0.0
 11
719.809024700754
 21
1771.599298936086
 31
0.0
  0
LINE
  5
7BB9
330
19
100
AcDbEntity
  8
1
100
AcDbLine
 10
715.9555247007538
 20
1793.181998936086
 30
0.0
 11
721.8090247007539
 21
1769.599298936087
 31
0.0
  0
ARC
  5
7BBA
330
19
100
AcDbEntity
  8
1
100
AcDbCircle
 10
719.809024700754
 20
1769.599298936087
 30
0.0
 40
2.0
100
AcDbArc
 50
0.0
 51
90.0
  0
LINE
  5
7BBB
330
19
100
AcDbEntity
  8
1
100
AcDbLine
 10
572.5201247007535
 20
1771.599298936086
 30
0.0
 11
547.8090247007539
 21
1771.599298936086
 31
0.0
  0
LINE
  5
7BBC
330
19
100
AcDbEntity
  8
1
100
AcDbLine
 10
551.6624247007539
 20
1793.181998936086
 30
0.0
 11
545.809024700754
 21
1769.599298936087
 31
0.0
  0
ARC
  5
7BBD
330
19
100
AcDbEntity
  8
1
100
AcDbCircle
 10
547.8090247007539
 20
1769.599298936087
 30
0.0
 40
2.0
100
AcDbArc
 50
90.0
 51
180.0
  0
LINE
  5
7BBE
330
19
100
AcDbEntity
  8
1
100
AcDbLine
 10
510.0931301759401
 20
1728.599298936088
 30
0.0
 11
521.3090247007531
 21
1763.599298936088
 31
0.0
  0
LINE
  5
7BBF
330
19
100
AcDbEntity
  8
1
100
AcDbLine
 10
605.4062727842665
 20
1763.599298936087
 30
0.0
 11
605.4062727842665
 21
1757.302627301176
 31
0.0
  0
LINE
  5
7BC0
330
19
100
AcDbEntity
  8
1
100
AcDbLine
 10
662.2117766172387
 20
1757.302627301176
 30
0.0
 11
662.2117766172396
 21
1763.599298936086
 31
0.0
  0
LINE
  5
7BC1
330
19
100
AcDbEntity
  8
1
100
AcDbLine
 10
746.3090247007531
 20
1763.599298936085
 30
0.0
 11
757.524919225565
 21
1728.599298936085
 31
0.0
  0
LINE
  5
7BC2
330
19
100
AcDbEntity
  8
1
100
AcDbLine
 10
757.524919225565
 20
1728.599298936085
 30
0.0
 11
662.2117766172387
 21
1728.599298936086
 31
0.0
  0
LINE
  5
7BC3
330
19
100
AcDbEntity
  8
1
100
AcDbLine
 10
605.4062727842665
 20
1728.599298936087
 30
0.0
 11
510.0931301759401
 21
1728.599298936088
 31
0.0
  0
LINE
  5
7BC4
330
19
100
AcDbEntity
  8
1
100
AcDbLine
 10
662.2117766172387
 20
1735.739933712421
 30
0.0
 11
605.4062727842665
 21
1735.739933712421
 31
0.0
  0
LINE
  5
7BC5
330
19
100
AcDbEntity
  8
1
100
AcDbLine
 10
605.4062727842665
 20
1757.302627301176
 30
0.0
 11
662.2117766172387
 21
1757.302627301176
 31
0.0
  0
LINE
  5
7BC6
330
19
100
AcDbEntity
  8
1
100
AcDbLine
 10
662.2117766172387
 20
1728.599298936086
 30
0.0
 11
662.2117766172387
 21
1735.739933712421
 31
0.0
  0
LINE
  5
7BC7
330
19
100
AcDbEntity
  8
1
100
AcDbLine
 10
605.4062727842665
 20
1735.739933712421
 30
0.0
 11
605.4062727842665
 21
1728.599298936087
 31
0.0
  0
LINE
  5
7BC8
330
19
100
AcDbEntity
  8
1
100
AcDbLine
 10
662.2117766172396
 20
1763.599298936086
 30
0.0
 11
746.3090247007531
 21
1763.599298936085
 31
0.0
  0
LINE
  5
7BC9
330
19
100
AcDbEntity
  8
1
100
AcDbLine
 10
521.3090247007531
 20
1763.599298936088
 30
0.0
 11
605.4062727842665
 21
1763.599298936087
 31
0.0
  0
LINE
  5
7BCA
330
19
100
AcDbEntity
  8
1
100
AcDbLine
 10
533.8090247007531
 20
1931.428706083865
 30
0.0
 11
533.8090247007503
 21
1728.599298936087
 31
0.0
  0
LINE
  5
7BCB
330
19
100
AcDbEntity
  8
2
100
AcDbLine
 10
2581.252396568955
 20
1851.59929893609
 30
0.0
 11
2775.076048775758
 21
1851.59929893609
 31
0.0
  0
LINE
  5
7BD1
330
19
100
AcDbEntity
  8
1
100
AcDbLine
 10
2741.180595120523
 20
1888.099298936091
 30
0.0
 11
2741.180595120523
 21
1815.099298936091
 31
0.0
  0
LINE
  5
7BD2
330
19
100
AcDbEntity
  8
1
100
AcDbLine
 10
2751.180595120523
 20
1769.599398936091
 30
0.0
 11
2751.180595120521
 21
1933.599298936091
 31
0.0
  0
LINE
  5
7BD3
330
19
100
AcDbEntity
  8
1
100
AcDbLine
 10
2736.180595120523
 20
1863.59929893609
 30
0.0
 11
2686.180595120522
 21
1863.59929893609
 31
0.0
  0
LINE
  5
7BD4
330
19
100
AcDbEntity
  8
1
100
AcDbLine
 10
2736.180595120523
 20
1839.59929893609
 30
0.0
 11
2686.180595120522
 21
1839.59929893609
 31
0.0
  0
LINE
  5
7BD5
330
19
100
AcDbEntity
  8
1
100
AcDbLine
 10
2726.180595120523
 20
1866.599298936091
 30
0.0
 11
2686.180595120522
 21
1866.59929893609
 31
0.0
  0
LINE
  5
7BD6
330
19
100
AcDbEntity
  8
1
100
AcDbLine
 10
2686.180595120522
 20
1839.59929893609
 30
0.0
 11
2686.180595120522
 21
1866.59929893609
 31
0.0
  0
LINE
  5
7BD7
330
19
100
AcDbEntity
  8
1
100
AcDbLine
 10
2726.180595120523
 20
1863.59929893609
 30
0.0
 11
2726.180595120523
 21
1866.599298936091
 31
0.0
  0
LINE
  5
7BD8
330
19
100
AcDbEntity
  8
1
100
AcDbLine
 10
2757.330537805767
 20
1767.599298936091
 30
0.0
 11
2753.180595120523
 21
1767.599298936091
 31
0.0
  0
ARC
  5
7BD9
330
19
100
AcDbEntity
  8
1
100
AcDbCircle
 10
2753.180795120524
 20
1769.599398936091
 30
0.0
 40
2.0001
100
AcDbArc
 50
180.0035000000004
 51
269.9965000000005
  0
LINE
  5
7BDE
330
19
100
AcDbEntity
  8
1
100
AcDbLine
 10
2741.180595120523
 20
1864.099298936091
 30
0.0
 11
2736.180595120523
 21
1864.099298936091
 31
0.0
  0
LINE
  5
7BDF
330
19
100
AcDbEntity
  8
1
100
AcDbLine
 10
2741.180595120523
 20
1839.099298936091
 30
0.0
 11
2736.180595120523
 21
1839.099298936091
 31
0.0
  0
ARC
  5
7BE0
330
19
100
AcDbEntity
  8
1
100
AcDbCircle
 10
2742.180595120523
 20
1815.099398936091
 30
0.0
 40
1.000099999999999
100
AcDbArc
 50
180.0035000000004
 51
270.0000000000005
  0
ARC
  5
7BE1
330
19
100
AcDbEntity
  8
1
100
AcDbCircle
 10
2750.180595120523
 20
1813.099298936091
 30
0.0
 40
1.000099999999999
100
AcDbArc
 50
0.0035000000004913
 51
90.00000000000049
  0
LINE
  5
7BE2
330
19
100
AcDbEntity
  8
1
100
AcDbLine
 10
2742.180595120523
 20
1814.099298936091
 30
0.0
 11
2750.180595120523
 21
1814.099298936091
 31
0.0
  0
LINE
  5
7BE3
330
19
100
AcDbEntity
  8
1
100
AcDbLine
 10
2736.180595120523
 20
1839.099298936091
 30
0.0
 11
2736.180595120523
 21
1864.099298936091
 31
0.0
  0
LINE
  5
7BE4
330
19
100
AcDbEntity
  8
1
100
AcDbLine
 10
2757.330537805766
 20
1935.599298936091
 30
0.0
 11
2753.180595120522
 21
1935.599298936091
 31
0.0
  0
ARC
  5
7BE5
330
19
100
AcDbEntity
  8
1
100
AcDbCircle
 10
2753.180795120522
 20
1933.599198936091
 30
0.0
 40
2.0001
100
AcDbArc
 50
90.0035000000005
 51
179.9965000000005
  0
ARC
  5
7BE6
330
19
100
AcDbEntity
  8
1
100
AcDbCircle
 10
2742.180695120523
 20
1888.099298936091
 30
0.0
 40
1.000099999999999
100
AcDbArc
 50
90.0035000000005
 51
180.0000000000005
  0
ARC
  5
7BE7
330
19
100
AcDbEntity
  8
1
100
AcDbCircle
 10
2750.180595120522
 20
1890.099298936091
 30
0.0
 40
1.000099999999999
100
AcDbArc
 50
270.0035000000004
 51
0.0000000000004941
  0
LINE
  5
7BE8
330
19
100
AcDbEntity
  8
1
100
AcDbLine
 10
2742.180595120523
 20
1889.099298936091
 30
0.0
 11
2750.180595120522
 21
1889.099298936091
 31
0.0
  0
LINE
  5
7C13
330
19
100
AcDbEntity
  8
2
100
AcDbLine
 10
1692.859289039945
 20
3763.713410176741
 30
0.0
 11
818.6441091208017
 21
3763.71341017674
 31
0.0
  0
LINE
  5
7C1C
330
19
100
AcDbEntity
  8
2
100
AcDbLine
 10
1283.809024700763
 20
3237.930374257149
 30
0.0
 11
1283.809024700763
 21
4007.589670016855
 31
0.0
1001
ACAD
1000
ASC_BOUNDS
1002
{
1070
    19
1002
}
  0
LINE
  5
7C55
330
19
100
AcDbEntity
  8
4
100
AcDbLine
 10
3700.0
 20
1000.0
 30
0.0
 11
3700.0
 21
600.0
 31
0.0
  0
LINE
  5
7C56
330
19
100
AcDbEntity
  8
4
100
AcDbLine
 10
2300.0
 20
1000.0
 30
0.0
 11
2300.0
 21
600.0
 31
0.0
  0
LINE
  5
7C57
330
19
100
AcDbEntity
  8
4
100
AcDbLine
 10
1300.0
 20
1000.0
 30
0.0
 11
1300.0
 21
600.0
 31
0.0
  0
LINE
  5
7C5A
330
19
100
AcDbEntity
  8
4
100
AcDbLine
 10
1300.0
 20
600.0
 30
0.0
 11
3700.0
 21
600.0
 31
0.0
  0
LINE
  5
7C5B
330
19
100
AcDbEntity
  8
4
100
AcDbLine
 10
1300.0
 20
800.0
 30
0.0
 11
3700.0
 21
800.0
 31
0.0
  0
TEXT
  5
7C5C
330
19
100
AcDbEntity
  8
4
100
AcDbText
 10
1377.004161693803
 20
863.0860517332257
 30
0.0
 40
100.0
  1
機器名称
100
AcDbText
  0
TEXT
  5
7C5D
330
19
100
AcDbEntity
  8
4
100
AcDbText
 10
1372.516212049595
 20
643.2903134640219
 30
0.0
 40
100.0
  1
機器型番
100
AcDbText
  0
TEXT
  5
7C5E
330
19
100
AcDbEntity
  8
4
100
AcDbText
 10
2355.35749097533
 20
845.1435379151371
 30
0.0
 40
100.0
  1
ミツヤ厨房用ファン
100
AcDbText
  0
TEXT
  5
7C5F
330
19
100
AcDbEntity
  8
4
100
AcDbText
 10
2373.308991170961
 20
634.3191685598867
 30
0.0
 40
100.0
  1
MFK#3-1
100
AcDbText
  0
TEXT
  5
7C61
330
19
100
AcDbEntity
  8
4
100
AcDbText
 10
1632.99454860769
 20
4766.857682665031
 30
0.0
 40
108.0
  1
天吊ベット
100
AcDbText
  0
TEXT
  5
7C62
330
19
100
AcDbEntity
  8
4
100
AcDbText
 10
632.3351866588928
 20
5067.761952398596
 30
0.0
 40
144.0
  1
ベルト駆動式片吸込片持多翼ファン
100
AcDbText
  0
LINE
  5
7C63
330
19
100
AcDbEntity
  8
4
100
AcDbLine
 10
500.0
 20
4938.817508529609
 30
0.0
 11
3700.0
 21
4938.817508529609
 31
0.0
  0
LINE
  5
7C64
330
19
100
AcDbEntity
  8
4
100
AcDbLine
 10
500.0
 20
5338.81750852961
 30
0.0
 11
3700.0
 21
5338.81750852961
 31
0.0
  0
LINE
  5
7C65
330
19
100
AcDbEntity
  8
4
100
AcDbLine
 10
1300.0
 20
1000.0
 30
0.0
 11
3700.0
 21
1000.0
 31
0.0
  0
LINE
  5
7C66
330
19
100
AcDbEntity
  8
4
100
AcDbLine
 10
500.0
 20
5338.81750852961
 30
0.0
 11
500.0
 21
4938.817508529609
 31
0.0
  0
TEXT
  5
7C67
330
19
100
AcDbEntity
  8
4
100
AcDbText
 10
761.276884122286
 20
4764.638955092687
 30
0.0
 40
108.0
  1
右回転上向
100
AcDbText
  0
TEXT
  5
7C68
330
19
100
AcDbEntity
  8
4
100
AcDbText
 10
2937.93911849858
 20
5412.122162990618
 30
0.0
 40
112.0
  1
No.
100
AcDbText
  0
TEXT
  5
7C69
330
19
100
AcDbEntity
  8
4
100
AcDbText
 10
2622.592125200026
 20
4766.857682665031
 30
0.0
 40
108.0
  1
縮尺：1/20
100
AcDbText
  0
LINE
  5
7C6A
330
19
100
AcDbEntity
  8
4
100
AcDbLine
 10
3700.0
 20
5338.81750852961
 30
0.0
 11
3700.0
 21
4938.817508529609
 31
0.0
  0
LINE
  5
7C6B
330
19
100
AcDbEntity
  8
4
100
AcDbLine
 10
4200.0
 20
5900.0
 30
0.0
 11
4200.0
 21
5900.0
 31
0.0
  0
LINE
  5
7C6C
330
19
100
AcDbEntity
  8
4
100
AcDbLine
 10
2881.234844719729
 20
5362.527166250802
 30
0.0
 11
2881.234844719729
 21
5573.304523099505
 31
0.0
  0
LINE
  5
7C6D
330
19
100
AcDbEntity
  8
4
100
AcDbLine
 10
2881.234844719729
 20
5573.304523099505
 30
0.0
 11
3700.0
 21
5573.304523099505
 31
0.0
  0
LINE
  5
7C6E
330
19
100
AcDbEntity
  8
4
100
AcDbLine
 10
3700.0
 20
5573.304523099505
 30
0.0
 11
3700.0
 21
5362.527166250802
 31
0.0
  0
LINE
  5
7C6F
330
19
100
AcDbEntity
  8
4
100
AcDbLine
 10
3700.0
 20
5362.527166250802
 30
0.0
 11
2881.234844719729
 21
5362.527166250802
 31
0.0
  0
LINE
  5
7C70
330
19
100
AcDbEntity
  8
4
100
AcDbLine
 10
0.0
 20
0.0
 30
0.0
 11
0.0
 21
5900.0
 31
0.0
  0
LINE
  5
7C71
330
19
100
AcDbEntity
  8
4
100
AcDbLine
 10
0.0
 20
5900.0
 30
0.0
 11
4200.0
 21
5900.0
 31
0.0
  0
LINE
  5
7C72
330
19
100
AcDbEntity
  8
4
100
AcDbLine
 10
4200.0
 20
5900.0
 30
0.0
 11
4200.0
 21
0.0
 31
0.0
  0
LINE
  5
7C73
330
19
100
AcDbEntity
  8
4
100
AcDbLine
 10
4200.0
 20
0.0
 30
0.0
 11
0.0
 21
0.0
 31
0.0
  0
DIMENSION
  5
7CC8
330
19
100
AcDbEntity
  8
3
100
AcDbDimension
  2
*D1
 10
1283.809024700758
 20
2721.164317456654
 30
0.0
 11
1031.077822496437
 21
2721.164317456654
 31
0.0
 70
   160
 71
     5
 42
-1.0
  3
IGA
100
AcDbAlignedDimension
 13
745.8090247007576
 23
2543.599298936085
 33
0.0
 14
1283.809024700758
 24
2600.913498836019
 34
0.0
100
AcDbRotatedDimension
1001
ACAD
1000
DSTYLE
1002
{
1070
   287
1070
     3
1070
    40
1040
20.0
1070
   143
1040
0.039
1070
   172
1070
     1
1070
   271
1070
     0
1070
   279
1070
     0
1070
   288
1070
     1
1002
}
  0
DIMENSION
  5
7CD5
330
19
100
AcDbEntity
  8
3
100
AcDbDimension
  2
*D2
 10
1257.809024700758
 20
2602.797735104884
 30
0.0
 11
1005.423218279721
 21
2602.797735104884
 31
0.0
 70
   160
 71
     5
 42
-1.0
  3
IGA
100
AcDbAlignedDimension
 13
745.8090247007576
 23
2543.599298936085
 33
0.0
 14
1257.809024700758
 24
2543.599298936082
 34
0.0
100
AcDbRotatedDimension
1001
ACAD
1000
DSTYLE
1002
{
1070
   287
1070
     3
1070
    40
1040
20.0
1070
   143
1040
0.039
1070
   172
1070
     1
1070
   271
1070
     0
1070
   279
1070
     0
1070
   288
1070
     1
1002
}
  0
DIMENSION
  5
7CEC
330
19
100
AcDbEntity
  8
3
100
AcDbDimension
  2
*D3
 10
1821.374043221327
 20
1663.599298936079
 30
0.0
 11
1771.374043221327
 21
1923.599298936079
 31
0.0
 70
    32
 71
     5
 42
-1.0
  3
IGA
100
AcDbAlignedDimension
 13
1701.123224600693
 23
2183.599298936078
 33
0.0
 14
1593.809024700752
 24
1663.599298936079
 34
0.0
 50
270.0
100
AcDbRotatedDimension
1001
ACAD
1000
DSTYLE
1002
{
1070
   287
1070
     3
1070
    40
1040
20.0
1070
   143
1040
0.039
1070
   172
1070
     1
1070
   271
1070
     0
1070
   279
1070
     0
1070
   288
1070
     1
1002
}
  0
DIMENSION
  5
7DA4
330
19
100
AcDbEntity
  8
3
100
AcDbDimension
  2
*D5
 10
3339.330537805765
 20
2644.53908781836
 30
0.0
 11
3152.435655190933
 21
2644.53908781836
 31
0.0
 70
   160
 71
     5
 42
-1.0
  3
IGA
100
AcDbAlignedDimension
 13
2964.330537805764
 23
2510.845516482221
 33
0.0
 14
3339.330537805765
 24
2510.845516482221
 34
0.0
100
AcDbRotatedDimension
1001
ACAD
1000
DSTYLE
1002
{
1070
   287
1070
     3
1070
    40
1040
20.0
1070
   143
1040
0.039
1070
   172
1070
     1
1070
   271
1070
     0
1070
   279
1070
     0
1070
   288
1070
     1
1002
}
  0
DIMENSION
  5
7DB3
330
19
100
AcDbEntity
  8
3
100
AcDbDimension
  2
*D6
 10
3343.630537805765
 20
2762.114798567218
 30
0.0
 11
3247.730537805766
 21
2762.114798567218
 31
0.0
 70
   160
 71
     5
 42
-1.0
  3
IGA
100
AcDbAlignedDimension
 13
3151.830537805766
 23
2713.74545240054
 33
0.0
 14
3343.630537805765
 24
2463.599298936083
 34
0.0
100
AcDbRotatedDimension
1001
ACAD
1000
DSTYLE
1002
{
1070
   287
1070
     3
1070
    40
1040
20.0
1070
   143
1040
0.039
1070
   172
1070
     1
1070
   271
1070
     0
1070
   279
1070
     0
1070
   288
1070
     1
1002
}
  0
DIMENSION
  5
7DCC
330
19
100
AcDbEntity
  8
3
100
AcDbDimension
  2
*D7
 10
2618.590299456254
 20
2762.114798567218
 30
0.0
 11
2885.21041863101
 21
2827.829084281504
 31
0.0
 70
    32
  1
(560)
 71
     5
 42
533.2402383495118
  3
IGA
100
AcDbAlignedDimension
 13
3151.830537805766
 23
2713.74545240054
 33
0.0
 14
2618.590299456254
 24
2403.599298936082
 34
0.0
100
AcDbRotatedDimension
1001
ACAD
1000
DSTYLE
1002
{
1070
   287
1070
     4
1070
    40
1040
20.0
1070
    75
1070
     1
1070
   143
1040
0.039
1070
   172
1070
     1
1070
   271
1070
     0
1070
   279
1070
     1
1070
   288
1070
     1
1002
}
  0
DIMENSION
  5
7DE4
330
19
100
AcDbEntity
  8
3
100
AcDbDimension
  2
*D8
 10
3543.286756674447
 20
1933.599298936083
 30
0.0
 11
3543.286756674446
 21
2183.339885117799
 31
0.0
 70
   160
 71
     5
 42
-1.0
  3
IGA
100
AcDbAlignedDimension
 13
3371.830537805765
 23
2433.599298936083
 33
0.0
 14
3371.830537805765
 24
1933.599298936083
 34
0.0
 50
90.0
100
AcDbRotatedDimension
1001
ACAD
1000
DSTYLE
1002
{
1070
   287
1070
     3
1070
     3
1000
\U+03C6<>
1070
    40
1040
20.0
1070
   143
1040
0.039
1070
   172
1070
     1
1070
   271
1070
     0
1070
   279
1070
     0
1070
   288
1070
     1
1002
}
  0
DIMENSION
  5
7E6E
330
19
100
AcDbEntity
  8
3
100
AcDbDimension
  2
*D9
 10
1821.374043221327
 20
2543.599298936082
 30
0.0
 11
1771.374043221327
 21
2363.59929893608
 31
0.0
 70
    32
 71
     5
 42
-1.0
  3
IGA
100
AcDbAlignedDimension
 13
1701.123224600693
 23
2183.599298936078
 33
0.0
 14
1289.409024700758
 24
2543.599298936082
 34
0.0
 50
270.0
100
AcDbRotatedDimension
1001
ACAD
1000
DSTYLE
1002
{
1070
   287
1070
     4
1070
    40
1040
20.0
1070
    75
1070
     1
1070
   143
1040
0.039
1070
   172
1070
     1
1070
   271
1070
     0
1070
   279
1070
     1
1070
   288
1070
     1
1002
}
  0
DIMENSION
  5
7E7A
330
19
100
AcDbEntity
  8
3
100
AcDbDimension
  2
*D10
 10
1646.257015508615
 20
2721.164317456654
 30
0.0
 11
1465.033020104687
 21
2771.164317456654
 31
0.0
 70
    32
 71
     5
 42
-1.0
  3
IGA
100
AcDbAlignedDimension
 13
1283.809024700758
 23
2600.913498836019
 33
0.0
 14
1646.257015508615
 24
2146.599298936081
 34
0.0
100
AcDbRotatedDimension
1001
ACAD
1000
DSTYLE
1002
{
1070
   287
1070
     4
1070
    40
1040
20.0
1070
    75
1070
     1
1070
   143
1040
0.039
1070
   172
1070
     1
1070
   271
1070
     0
1070
   279
1070
     1
1070
   288
1070
     1
1002
}
  0
LINE
  5
7E7B
330
19
100
AcDbEntity
  8
1
100
AcDbLine
 10
802.9292386085616
 20
2223.242033224775
 30
0.0
 11
1042.929238608562
 21
2223.242033224775
 31
0.0
  0
LINE
  5
7E7C
330
19
100
AcDbEntity
  8
1
100
AcDbLine
 10
1042.929238608562
 20
2223.242033224775
 30
0.0
 11
1042.929238608562
 21
2423.242033224775
 31
0.0
  0
LINE
  5
7E7D
330
19
100
AcDbEntity
  8
1
100
AcDbLine
 10
1042.929238608562
 20
2423.242033224775
 30
0.0
 11
802.9292386085616
 21
2423.242033224775
 31
0.0
  0
LINE
  5
7E7E
330
19
100
AcDbEntity
  8
1
100
AcDbLine
 10
802.9292386085616
 20
2423.242033224775
 30
0.0
 11
802.9292386085616
 21
2223.242033224775
 31
0.0
  0
LINE
  5
7FC2
330
19
100
AcDbEntity
  8
1
100
AcDbLine
 10
2566.830537805765
 20
1663.599298936091
 30
0.0
 11
3451.830537805764
 21
1663.599298936092
 31
0.0
  0
LINE
  5
7FC3
330
19
100
AcDbEntity
  8
1
100
AcDbLine
 10
2566.830537805765
 20
1623.599298936091
 30
0.0
 11
3451.830537805764
 21
1623.599298936092
 31
0.0
  0
LINE
  5
7FC4
330
19
100
AcDbEntity
  8
1
100
AcDbLine
 10
2566.830537805765
 20
1663.599298936091
 30
0.0
 11
2566.830537805764
 21
1623.599298936093
 31
0.0
  0
LINE
  5
7FC5
330
19
100
AcDbEntity
  8
1
100
AcDbLine
 10
3451.830537805765
 20
1663.599298936092
 30
0.0
 11
3451.830537805764
 21
1623.599298936091
 31
0.0
  0
LINE
  5
7FC6
330
19
100
AcDbEntity
  8
1
100
AcDbLine
 10
469.8090247007521
 20
1663.599298936088
 30
0.0
 11
469.8090247007521
 21
1623.599298936088
 31
0.0
  0
LINE
  5
7FC7
330
19
100
AcDbEntity
  8
1
100
AcDbLine
 10
1597.809024700752
 20
1663.599298936079
 30
0.0
 11
1597.809024700752
 21
1623.599298936079
 31
0.0
  0
LINE
  5
7FC8
330
19
100
AcDbEntity
  8
1
100
AcDbLine
 10
1517.809024700752
 20
1663.599298936079
 30
0.0
 11
1517.809024700752
 21
1623.599298936079
 31
0.0
  0
LINE
  5
7FC9
330
19
100
AcDbEntity
  8
1
100
AcDbLine
 10
549.8090247007521
 20
1663.599298936088
 30
0.0
 11
549.8090247007521
 21
1623.599298936088
 31
0.0
  0
DIMENSION
  5
7FD6
330
19
100
AcDbEntity
  8
3
100
AcDbDimension
  2
*D11
 10
3151.830537805764
 20
1486.805293440631
 30
0.0
 11
2859.330537805764
 21
1536.805293440631
 31
0.0
 70
    32
 71
     5
 42
-1.0
  3
IGA
100
AcDbAlignedDimension
 13
2566.830537805764
 23
1623.599298936093
 33
0.0
 14
3151.830537805764
 24
1623.599298936091
 34
0.0
100
AcDbRotatedDimension
1001
ACAD
1000
DSTYLE
1002
{
1070
   287
1070
     3
1070
    40
1040
20.0
1070
   143
1040
0.039
1070
   172
1070
     1
1070
   271
1070
     0
1070
   279
1070
     0
1002
}
  0
DIMENSION
  5
7FE3
330
19
100
AcDbEntity
  8
3
100
AcDbDimension
  2
*D12
 10
3451.830537805764
 20
1486.805293440631
 30
0.0
 11
3301.830537805764
 21
1536.805293440631
 31
0.0
 70
    32
 71
     5
 42
-1.0
  3
IGA
100
AcDbAlignedDimension
 13
3151.830537805764
 23
1623.599298936091
 33
0.0
 14
3451.830537805764
 24
1623.599298936092
 34
0.0
100
AcDbRotatedDimension
1001
ACAD
1000
DSTYLE
1002
{
1070
   287
1070
     3
1070
    40
1040
20.0
1070
   143
1040
0.039
1070
   172
1070
     1
1070
   271
1070
     0
1070
   279
1070
     0
1002
}
  0
DIMENSION
  5
7FF0
330
19
100
AcDbEntity
  8
3
100
AcDbDimension
  2
*D13
 10
1597.809024700752
 20
1486.805293440631
 30
0.0
 11
1440.809024700751
 21
1536.805293440631
 31
0.0
 70
    32
 71
     5
 42
-1.0
  3
IGA
100
AcDbAlignedDimension
 13
1283.80902470075
 23
1663.599298936081
 33
0.0
 14
1597.809024700752
 24
1623.599298936079
 34
0.0
100
AcDbRotatedDimension
1001
ACAD
1000
DSTYLE
1002
{
1070
   287
1070
     3
1070
    40
1040
20.0
1070
   143
1040
0.039
1070
   172
1070
     1
1070
   271
1070
     0
1070
   279
1070
     0
1002
}
  0
DIMENSION
  5
7FFD
330
19
100
AcDbEntity
  8
3
100
AcDbDimension
  2
*D14
 10
1283.80902470075
 20
1486.805293440631
 30
0.0
 11
876.8090247007512
 21
1536.805293440631
 31
0.0
 70
    32
 71
     5
 42
-1.0
  3
IGA
100
AcDbAlignedDimension
 13
469.8090247007521
 23
1623.599298936088
 33
0.0
 14
1283.80902470075
 24
1663.599298936081
 34
0.0
100
AcDbRotatedDimension
1001
ACAD
1000
DSTYLE
1002
{
1070
   287
1070
     3
1070
    40
1040
20.0
1070
   143
1040
0.039
1070
   172
1070
     1
1070
   271
1070
     0
1070
   279
1070
     0
1002
}
  0
LINE
  5
8584
330
19
100
AcDbEntity
  8
1
100
AcDbLine
 10
473.8090247007639
 20
3993.713410176749
 30
0.0
 11
1593.809024700764
 21
3993.713410176738
 31
0.0
  0
LINE
  5
8585
330
19
100
AcDbEntity
  8
1
100
AcDbLine
 10
473.8090247007639
 20
3953.713410176749
 30
0.0
 11
714.2038417374542
 21
3953.713410176746
 31
0.0
  0
LINE
  5
8586
330
19
100
AcDbEntity
  8
1
100
AcDbLine
 10
473.8090247007594
 20
3368.713410176748
 30
0.0
 11
513.0090247007601
 21
3368.713410176748
 31
0.0
  0
LINE
  5
8587
330
19
100
AcDbEntity
  8
1
100
AcDbLine
 10
473.8090247007594
 20
3408.713410176748
 30
0.0
 11
513.0090247007601
 21
3408.713410176748
 31
0.0
  0
LINE
  5
858D
330
19
100
AcDbEntity
  8
1
100
AcDbLine
 10
513.809024700764
 20
3953.713410176749
 30
0.0
 11
513.8090247007612
 21
3625.063467491501
 31
0.0
  0
LINE
  5
858E
330
19
100
AcDbEntity
  8
1
100
AcDbLine
 10
473.8090247007639
 20
3953.713410176749
 30
0.0
 11
473.8090247007594
 21
3408.713410176748
 31
0.0
  0
LINE
  5
8594
330
19
100
AcDbEntity
  8
1
100
AcDbLine
 10
473.8090247007594
 20
3368.713410176748
 30
0.0
 11
473.8090247007594
 21
3408.713410176748
 31
0.0
  0
LINE
  5
8595
330
19
100
AcDbEntity
  8
1
100
AcDbLine
 10
473.8090247007639
 20
3953.713410176749
 30
0.0
 11
473.8090247007639
 21
3993.713410176749
 31
0.0
  0
LINE
  5
8596
330
19
100
AcDbEntity
  8
1
100
AcDbLine
 10
1593.809024700759
 20
3368.713410176738
 30
0.0
 11
1593.809024700759
 21
3408.713410176738
 31
0.0
  0
LINE
  5
8606
330
19
100
AcDbEntity
  8
1
100
AcDbLine
 10
1645.809024700763
 20
3951.21341017674
 30
0.0
 11
1290.203841737455
 21
3951.213410176741
 31
0.0
  0
LINE
  5
8607
330
19
100
AcDbEntity
  8
1
100
AcDbLine
 10
1423.509024700763
 20
3317.413410176739
 30
0.0
 11
1144.109024700762
 21
3317.413410176741
 31
0.0
  0
LINE
  5
8608
330
19
100
AcDbEntity
  8
1
100
AcDbLine
 10
1423.509024700763
 20
3277.413410176739
 30
0.0
 11
1144.109024700762
 21
3277.413410176742
 31
0.0
  0
LINE
  5
8609
330
19
100
AcDbEntity
  8
1
100
AcDbLine
 10
1503.809024700763
 20
3230.47317182723
 30
0.0
 11
520.8090247007585
 21
3230.473171827233
 31
0.0
  0
LINE
  5
860B
330
19
100
AcDbEntity
  8
1
100
AcDbLine
 10
1645.809024700763
 20
3576.213410176739
 30
0.0
 11
1290.203841737454
 21
3576.21341017674
 31
0.0
  0
LINE
  5
860C
330
19
100
AcDbEntity
  8
2
100
AcDbLine
 10
633.8090247007603
 20
3629.000467491501
 30
0.0
 11
633.8090247007585
 21
3293.028867491501
 31
0.0
  0
LINE
  5
860F
330
19
100
AcDbEntity
  8
1
100
AcDbLine
 10
621.8090247007585
 20
3348.063467491501
 30
0.0
 11
621.8090247007585
 21
3298.063467491501
 31
0.0
  0
LINE
  5
8610
330
19
100
AcDbEntity
  8
1
100
AcDbLine
 10
645.8090247007585
 20
3348.063467491501
 30
0.0
 11
645.8090247007585
 21
3298.063467491501
 31
0.0
  0
LINE
  5
8611
330
19
100
AcDbEntity
  8
1
100
AcDbLine
 10
633.8090247007585
 20
3251.378145476686
 30
0.0
 11
633.8090247007585
 21
3361.651049985493
 31
0.0
  0
LINE
  5
8612
330
19
100
AcDbEntity
  8
1
100
AcDbLine
 10
1302.809024700763
 20
3317.41341017674
 30
0.0
 11
1302.809024700762
 21
3347.41341017674
 31
0.0
1001
ACAD
1000
ASC_BOUNDS
1002
{
1070
    19
1002
}
  0
LINE
  5
8613
330
19
100
AcDbEntity
  8
1
100
AcDbLine
 10
1264.809024700763
 20
3317.413410176741
 30
0.0
 11
1264.809024700763
 21
3347.41341017674
 31
0.0
1001
ACAD
1000
ASC_BOUNDS
1002
{
1070
    19
1002
}
  0
LINE
  5
8614
330
19
100
AcDbEntity
  8
1
100
AcDbLine
 10
520.8090247007585
 20
3230.473171827234
 30
0.0
 11
520.8090247007585
 21
3352.473171827234
 31
0.0
  0
LINE
  5
8615
330
19
100
AcDbEntity
  8
1
100
AcDbLine
 10
621.8090247007585
 20
3298.063467491501
 30
0.0
 11
648.8090247007585
 21
3298.063467491501
 31
0.0
  0
LINE
  5
8616
330
19
100
AcDbEntity
  8
1
100
AcDbLine
 10
1144.109024700762
 20
3277.413410176742
 30
0.0
 11
574.6590247007534
 21
3277.413410176744
 31
0.0
  0
LINE
  5
8617
330
19
100
AcDbEntity
  8
1
100
AcDbLine
 10
1144.109024700762
 20
3317.413410176741
 30
0.0
 11
574.6590247007534
 21
3317.413410176743
 31
0.0
  0
LINE
  5
8618
330
19
100
AcDbEntity
  8
1
100
AcDbLine
 10
574.6590247007534
 20
3277.413410176745
 30
0.0
 11
574.6590247007534
 21
3317.413410176744
 31
0.0
  0
LINE
  5
8619
330
19
100
AcDbEntity
  8
1
100
AcDbLine
 10
688.9590247007527
 20
3277.413410176745
 30
0.0
 11
688.9590247007527
 21
3317.413410176745
 31
0.0
  0
LINE
  5
861A
330
19
100
AcDbEntity
  8
1
100
AcDbLine
 10
648.8090247007585
 20
3338.063467491501
 30
0.0
 11
648.8090247007585
 21
3298.063467491501
 31
0.0
  0
LINE
  5
861B
330
19
100
AcDbEntity
  8
1
100
AcDbLine
 10
645.8090247007585
 20
3338.063467491501
 30
0.0
 11
648.8090247007585
 21
3338.063467491501
 31
0.0
  0
LINE
  5
861C
330
19
100
AcDbEntity
  8
1
100
AcDbLine
 10
1144.109024700762
 20
3277.413410176742
 30
0.0
 11
1144.109024700762
 21
3317.413410176741
 31
0.0
1001
ACAD
1000
ASC_BOUNDS
1002
{
1070
    19
1002
}
  0
LINE
  5
861D
330
19
100
AcDbEntity
  8
1
100
AcDbLine
 10
621.3090247007585
 20
3348.063467491501
 30
0.0
 11
646.3090247007585
 21
3348.063467491501
 31
0.0
  0
LINE
  5
861E
330
19
100
AcDbEntity
  8
1
100
AcDbLine
 10
513.0090247007601
 20
3363.063467491502
 30
0.0
 11
754.6090247007596
 21
3363.0634674915
 31
0.0
  0
LINE
  5
861F
330
19
100
AcDbEntity
  8
1
100
AcDbLine
 10
670.3090247007585
 20
3353.063467491501
 30
0.0
 11
597.3090247007585
 21
3353.063467491501
 31
0.0
  0
LINE
  5
8620
330
19
100
AcDbEntity
  8
1
100
AcDbLine
 10
540.8090247007585
 20
3352.473171827234
 30
0.0
 11
520.8090247007585
 21
3352.473171827234
 31
0.0
  0
LINE
  5
8621
330
19
100
AcDbEntity
  8
1
100
AcDbLine
 10
596.3090247007585
 20
3354.063467491501
 30
0.0
 11
596.3090247007585
 21
3362.063467491501
 31
0.0
  0
ARC
  5
8622
330
19
100
AcDbEntity
  8
1
100
AcDbCircle
 10
595.3090247007585
 20
3362.063467491501
 30
0.0
 40
1.000099999999999
100
AcDbArc
 50
359.9999999999995
 51
89.99650000001034
  0
ARC
  5
8623
330
19
100
AcDbEntity
  8
1
100
AcDbCircle
 10
597.3091247007596
 20
3354.063467491501
 30
0.0
 40
1.000099999999999
100
AcDbArc
 50
179.9999999999995
 51
269.9965000000103
  0
LINE
  5
8624
330
19
100
AcDbEntity
  8
1
100
AcDbLine
 10
621.3090247007585
 20
3353.063467491501
 30
0.0
 11
621.3090247007585
 21
3348.063467491501
 31
0.0
  0
LINE
  5
8625
330
19
100
AcDbEntity
  8
1
100
AcDbLine
 10
1306.309024700763
 20
3347.41341017674
 30
0.0
 11
1306.309024700763
 21
3512.706517957243
 31
0.0
1001
ACAD
1000
ASC_BOUNDS
1002
{
1070
    19
1002
}
  0
LINE
  5
8626
330
19
100
AcDbEntity
  8
1
100
AcDbLine
 10
1261.309024700763
 20
3347.41341017674
 30
0.0
 11
1261.309024700763
 21
3543.713410176736
 31
0.0
1001
ACAD
1000
ASC_BOUNDS
1002
{
1070
    19
1002
}
  0
LINE
  5
8627
330
19
100
AcDbEntity
  8
1
100
AcDbLine
 10
671.3090247007585
 20
3354.063467491501
 30
0.0
 11
671.3090247007585
 21
3362.063467491501
 31
0.0
  0
ARC
  5
8628
330
19
100
AcDbEntity
  8
1
100
AcDbCircle
 10
672.3090247007585
 20
3362.063467491501
 30
0.0
 40
1.000099999999999
100
AcDbArc
 50
90.0
 51
179.9964999999995
  0
ARC
  5
8629
330
19
100
AcDbEntity
  8
1
100
AcDbCircle
 10
670.3090247007585
 20
3354.063567491501
 30
0.0
 40
1.000099999999999
100
AcDbArc
 50
270.0
 51
359.9964999999995
  0
LINE
  5
862A
330
19
100
AcDbEntity
  8
1
100
AcDbLine
 10
646.3090247007585
 20
3353.063467491501
 30
0.0
 11
646.3090247007585
 21
3348.063467491501
 31
0.0
  0
LINE
  5
862B
330
19
100
AcDbEntity
  8
1
100
AcDbLine
 10
1306.309024700763
 20
3347.41341017674
 30
0.0
 11
1261.309024700763
 21
3347.41341017674
 31
0.0
  0
LINE
  5
862C
330
19
100
AcDbEntity
  8
1
100
AcDbLine
 10
1306.309024700763
 20
3472.713410176741
 30
0.0
 11
1306.309024700763
 21
3574.213410176741
 31
0.0
1001
ACAD
1000
ASC_BOUNDS
1002
{
1070
    19
1002
}
  0
LINE
  5
862D
330
19
100
AcDbEntity
  8
1
100
AcDbLine
 10
1261.309024700763
 20
3476.841827538638
 30
0.0
 11
1261.309024700763
 21
3512.706517957243
 31
0.0
1001
ACAD
1000
ASC_BOUNDS
1002
{
1070
    19
1002
}
  0
LINE
  5
862E
330
19
100
AcDbEntity
  8
1
100
AcDbLine
 10
513.009024700761
 20
3625.063467491503
 30
0.0
 11
714.2038417374542
 21
3625.0634674915
 31
0.0
  0
ARC
  5
862F
330
19
100
AcDbEntity
  8
1
100
AcDbCircle
 10
549.7893247007614
 20
3624.063467491502
 30
0.0
 40
1.000099999999999
100
AcDbArc
 50
90.00349999998965
 51
178.8494999999986
  0
LINE
  5
8633
330
19
100
AcDbEntity
  8
1
100
AcDbLine
 10
838.809024700772
 20
3993.713410176741
 30
0.0
 11
763.8090247007721
 21
3993.713410176741
 31
0.0
  0
LINE
  5
8634
330
19
100
AcDbEntity
  8
1
100
AcDbLine
 10
1503.809024700763
 20
3352.47317182723
 30
0.0
 11
1503.809024700763
 21
3230.47317182723
 31
0.0
  0
LINE
  5
8635
330
19
100
AcDbEntity
  8
1
100
AcDbLine
 10
1503.809024700762
 20
3230.47317182723
 30
0.0
 11
1503.809024700762
 21
3352.47317182723
 31
0.0
  0
LINE
  5
8636
330
19
100
AcDbEntity
  8
1
100
AcDbLine
 10
1423.509024700763
 20
3277.413410176739
 30
0.0
 11
1423.509024700763
 21
3317.413410176739
 31
0.0
1001
ACAD
1000
ASC_BOUNDS
1002
{
1070
    19
1002
}
  0
LINE
  5
8637
330
19
100
AcDbEntity
  8
1
100
AcDbLine
 10
1483.809024700763
 20
3352.47317182723
 30
0.0
 11
1503.809024700763
 21
3352.47317182723
 31
0.0
  0
LINE
  5
8639
330
19
100
AcDbEntity
  8
1
100
AcDbLine
 10
1553.809024700763
 20
3951.21341017674
 30
0.0
 11
1553.809024700763
 21
3953.713410176739
 31
0.0
  0
LINE
  5
863A
330
19
100
AcDbEntity
  8
1
100
AcDbLine
 10
1593.809024700764
 20
3951.21341017674
 30
0.0
 11
1593.809024700764
 21
3993.713410176738
 31
0.0
  0
LINE
  5
863B
330
19
100
AcDbEntity
  8
1
100
AcDbLine
 10
754.6090247007596
 20
3363.0634674915
 30
0.0
 11
754.6090247007605
 21
3543.713410176736
 31
0.0
  0
LINE
  5
863C
330
19
100
AcDbEntity
  8
1
100
AcDbLine
 10
513.0090247007601
 20
3363.063467491501
 30
0.0
 11
513.009024700761
 21
3625.063467491501
 31
0.0
  0
LINE
  5
863D
330
19
100
AcDbEntity
  8
1
100
AcDbLine
 10
754.6090247007596
 20
3408.713410176746
 30
0.0
 11
1261.309024700763
 21
3408.713410176742
 31
0.0
  0
LINE
  5
863E
330
19
100
AcDbEntity
  8
1
100
AcDbLine
 10
754.6090247007596
 20
3368.713410176745
 30
0.0
 11
1261.309024700763
 21
3368.713410176741
 31
0.0
  0
LINE
  5
863F
330
19
100
AcDbEntity
  8
1
100
AcDbLine
 10
963.8090247007594
 20
3408.713410176744
 30
0.0
 11
963.8090247007594
 21
3543.713410176736
 31
0.0
  0
LINE
  5
8640
330
19
100
AcDbEntity
  8
1
100
AcDbLine
 10
1603.809024700762
 20
3408.713410176742
 30
0.0
 11
1603.809024700763
 21
3576.213410176741
 31
0.0
  0
LINE
  5
8641
330
19
100
AcDbEntity
  8
1
100
AcDbLine
 10
1306.309024700763
 20
3408.713410176741
 30
0.0
 11
1603.809024700762
 21
3408.713410176739
 31
0.0
  0
LINE
  5
8642
330
19
100
AcDbEntity
  8
1
100
AcDbLine
 10
1306.309024700763
 20
3368.713410176741
 30
0.0
 11
1593.809024700759
 21
3368.713410176738
 31
0.0
  0
LINE
  5
8651
330
19
100
AcDbEntity
  8
1
100
AcDbLine
 10
1645.809024700763
 20
3576.213410176739
 30
0.0
 11
1645.809024700763
 21
3951.21341017674
 31
0.0
1001
ACAD
1000
ASC_BOUNDS
1002
{
1070
    19
1002
}
  0
LINE
  5
865F
330
19
100
AcDbEntity
  8
1
100
AcDbLine
 10
1597.809024700764
 20
4063.713410176739
 30
0.0
 11
1517.809024700764
 21
4063.71341017674
 31
0.0
  0
LINE
  5
8660
330
19
100
AcDbEntity
  8
1
100
AcDbLine
 10
1597.809024700759
 20
3178.713410176741
 30
0.0
 11
1517.809024700759
 21
3178.713410176741
 31
0.0
  0
LINE
  5
8661
330
19
100
AcDbEntity
  8
1
100
AcDbLine
 10
469.8090247007648
 20
4063.713410176739
 30
0.0
 11
469.8090247007576
 21
3178.713410176739
 31
0.0
  0
LINE
  5
8662
330
19
100
AcDbEntity
  8
1
100
AcDbLine
 10
1597.809024700764
 20
3951.21341017674
 30
0.0
 11
1597.809024700764
 21
4063.713410176741
 31
0.0
  0
LINE
  5
8663
330
19
100
AcDbEntity
  8
1
100
AcDbLine
 10
1597.809024700759
 20
3178.713410176741
 30
0.0
 11
1597.809024700759
 21
3408.713410176738
 31
0.0
  0
LINE
  5
8664
330
19
100
AcDbEntity
  8
1
100
AcDbLine
 10
549.8090247007649
 20
4063.713410176738
 30
0.0
 11
549.8090247007639
 21
3993.713410176748
 31
0.0
  0
LINE
  5
8665
330
19
100
AcDbEntity
  8
1
100
AcDbLine
 10
1517.809024700764
 20
3993.713410176739
 30
0.0
 11
1517.809024700764
 21
4063.713410176741
 31
0.0
  0
LINE
  5
8666
330
19
100
AcDbEntity
  8
1
100
AcDbLine
 10
1517.809024700759
 20
3178.713410176741
 30
0.0
 11
1517.809024700759
 21
3368.713410176739
 31
0.0
  0
LINE
  5
8667
330
19
100
AcDbEntity
  8
1
100
AcDbLine
 10
549.8090247007576
 20
3178.71341017674
 30
0.0
 11
469.8090247007576
 21
3178.713410176739
 31
0.0
  0
LINE
  5
8668
330
19
100
AcDbEntity
  8
1
100
AcDbLine
 10
549.8090247007649
 20
4063.713410176739
 30
0.0
 11
469.8090247007648
 21
4063.713410176739
 31
0.0
  0
LINE
  5
8669
330
19
100
AcDbEntity
  8
1
100
AcDbLine
 10
549.8090247007585
 20
3363.063467491502
 30
0.0
 11
549.8090247007576
 21
3178.713410176738
 31
0.0
  0
LINE
  5
866A
330
19
100
AcDbEntity
  8
1
100
AcDbLine
 10
549.8090247007639
 20
3953.713410176748
 30
0.0
 11
549.8090247007612
 21
3625.063467491503
 31
0.0
  0
DIMENSION
  5
866B
330
19
100
AcDbEntity
  8
3
100
AcDbDimension
  2
*D51
 10
1597.809024700764
 20
4183.739733797258
 30
0.0
 11
1033.809024700764
 21
4233.739733797258
 31
0.0
 70
    32
 71
     5
 42
1127.999999999999
  3
IGA
100
AcDbAlignedDimension
 13
469.8090247007648
 23
4063.713410176739
 33
0.0
 14
1597.809024700764
 24
4063.713410176741
 34
0.0
100
AcDbRotatedDimension
1001
ACAD
1000
DSTYLE
1002
{
1070
   287
1070
     3
1070
    40
1040
20.0
1070
   143
1040
0.039
1070
   172
1070
     1
1070
   271
1070
     0
1070
   279
1070
     0
1002
}
  0
DIMENSION
  5
866C
330
19
100
AcDbEntity
  8
3
100
AcDbDimension
  2
*D52
 10
325.0139408357973
 20
3178.713410176739
 30
0.0
 11
275.0139408357968
 21
3621.213410176739
 31
0.0
 70
    32
 71
     5
 42
885.0
  3
IGA
100
AcDbAlignedDimension
 13
469.8090247007648
 23
4063.713410176739
 33
0.0
 14
469.8090247007576
 24
3178.713410176739
 34
0.0
 50
90.0
100
AcDbRotatedDimension
1001
ACAD
1000
DSTYLE
1002
{
1070
   287
1070
     3
1070
    40
1040
20.0
1070
   143
1040
0.039
1070
   172
1070
     1
1070
   271
1070
     0
1070
   279
1070
     0
1002
}
  0
LINE
  5
8937
330
19
100
AcDbEntity
  8
1
100
AcDbLine
 10
714.2038417374542
 20
3983.713410176737
 30
0.0
 11
714.2038417374542
 21
3543.713410176736
 31
0.0
  0
LINE
  5
8938
330
19
100
AcDbEntity
  8
1
100
AcDbLine
 10
1290.203841737454
 20
3543.713410176736
 30
0.0
 11
714.2038417374542
 21
3543.713410176736
 31
0.0
  0
LINE
  5
8939
330
19
100
AcDbEntity
  8
1
100
AcDbLine
 10
1290.203841737454
 20
3983.713410176737
 30
0.0
 11
714.2038417374542
 21
3983.713410176737
 31
0.0
  0
LINE
  5
893A
330
19
100
AcDbEntity
  8
1
100
AcDbLine
 10
1290.203841737454
 20
3543.713410176736
 30
0.0
 11
1290.203841737456
 21
3983.713410176737
 31
0.0
  0
LINE
  5
893B
330
19
100
AcDbEntity
  8
1
100
AcDbLine
 10
744.2038417374542
 20
3573.713410176737
 30
0.0
 11
744.2038417374542
 21
3953.713410176737
 31
0.0
  0
LINE
  5
893C
330
19
100
AcDbEntity
  8
1
100
AcDbLine
 10
1260.203841737454
 20
3573.713410176737
 30
0.0
 11
1260.203841737456
 21
3953.713410176737
 31
0.0
  0
LINE
  5
893D
330
19
100
AcDbEntity
  8
1
100
AcDbLine
 10
1260.203841737454
 20
3573.713410176737
 30
0.0
 11
744.2038417374542
 21
3573.713410176737
 31
0.0
  0
LINE
  5
893E
330
19
100
AcDbEntity
  8
1
100
AcDbLine
 10
1260.203841737454
 20
3953.713410176737
 30
0.0
 11
744.2038417374542
 21
3953.713410176737
 31
0.0
  0
LINE
  5
893F
330
19
100
AcDbEntity
  8
1
100
AcDbLine
 10
1290.203841737455
 20
3953.713410176741
 30
0.0
 11
1593.809024700764
 21
3953.713410176739
 31
0.0
  0
LINE
  5
89E5
330
19
100
AcDbEntity
  8
1
100
AcDbLine
 10
744.2038417374542
 20
3573.713410176737
 30
0.0
 11
1260.203841737454
 21
3953.713410176737
 31
0.0
  0
LINE
  5
89E6
330
19
100
AcDbEntity
  8
1
100
AcDbLine
 10
744.2038417374542
 20
3953.713410176737
 30
0.0
 11
1260.203841737454
 21
3573.713410176737
 31
0.0
  0
ENDSEC
  0
SECTION
  2
OBJECTS
  0
DICTIONARY
  5
C
330
0
100
AcDbDictionary
281
     1
  3
ACAD_CIP_PREVIOUS_PRODUCT_INFO
350
8148
  3
ACAD_COLOR
350
812B
  3
ACAD_DETAILVIEWSTYLE
350
8144
  3
ACAD_GROUP
350
D
  3
ACAD_LAYOUT
350
8035
  3
ACAD_MATERIAL
350
80F9
  3
ACAD_MLEADERSTYLE
350
8140
  3
ACAD_MLINESTYLE
350
E
  3
ACAD_PLOTSETTINGS
350
8036
  3
ACAD_PLOTSTYLENAME
350
8033
  3
ACAD_SCALELIST
350
812E
  3
ACAD_SECTIONVIEWSTYLE
350
8142
  3
ACAD_TABLESTYLE
350
812C
  3
ACAD_VISUALSTYLE
350
8112
  3
ACDB_RECOMPOSE_DATA
350
8A33
  3
AcDbVariableDictionary
350
80F1
  3
AcDsDecomposeData
350
8A3A
  3
DWGPROPS
350
8A34
  0
DICTIONARY
  5
821E
330
2
100
AcDbDictionary
280
     1
281
     1
  3
ACAD_LAYERSTATES
360
821F
  0
DICTIONARY
  5
8149
330
F
100
AcDbDictionary
280
     1
281
     1
  3
ADSK_XREC_LAYER_RECONCILED
360
814A
  0
DICTIONARY
  5
814B
330
31
100
AcDbDictionary
280
     1
281
     1
  3
ADSK_XREC_LAYER_RECONCILED
360
814C
  0
DICTIONARY
  5
814D
330
76D0
100
AcDbDictionary
280
     1
281
     1
  3
ADSK_XREC_LAYER_RECONCILED
360
814E
  0
DICTIONARY
  5
814F
330
76D1
100
AcDbDictionary
280
     1
281
     1
  3
ADSK_XREC_LAYER_RECONCILED
360
8150
  0
DICTIONARY
  5
8151
330
76D2
100
AcDbDictionary
280
     1
281
     1
  3
ADSK_XREC_LAYER_RECONCILED
360
8152
  0
DICTIONARY
  5
8062
330
19
100
AcDbDictionary
280
     1
281
     1
  3
ACAD_LAYOUTSELFREF
360
8063
  3
ACAD_SORTENTS
360
8940
  0
DICTIONARY
  5
8060
330
16
100
AcDbDictionary
280
     1
281
     1
  3
ACAD_LAYOUTSELFREF
360
8061
  0
XRECORD
  5
8148
102
{ACAD_REACTORS
330
C
102
}
330
C
100
AcDbXrecord
280
     1
300
ACDLT
300
2015
300
INVLTS_F_S
  0
DICTIONARY
  5
812B
102
{ACAD_REACTORS
330
C
102
}
330
C
100
AcDbDictionary
281
     1
  0
DICTIONARY
  5
8144
102
{ACAD_REACTORS
330
C
102
}
330
C
100
AcDbDictionary
281
     1
  3
Metric50
350
8145
  0
DICTIONARY
  5
D
102
{ACAD_REACTORS
330
C
102
}
330
C
100
AcDbDictionary
281
     1
  0
DICTIONARY
  5
8035
102
{ACAD_REACTORS
330
C
102
}
330
C
100
AcDbDictionary
281
     1
  3
Model
350
8037
  3
ﾚｲｱｳﾄ1
350
8038
  0
DICTIONARY
  5
80F9
102
{ACAD_REACTORS
330
C
102
}
330
C
100
AcDbDictionary
281
     1
  3
ByBlock
350
8102
  3
ByLayer
350
80FA
  3
Global
350
810A
  0
DICTIONARY
  5
8140
102
{ACAD_REACTORS
330
C
102
}
330
C
100
AcDbDictionary
281
     1
  3
Standard
350
8141
  0
DICTIONARY
  5
E
102
{ACAD_REACTORS
330
C
102
}
330
C
100
AcDbDictionary
281
     1
  3
STANDARD
350
1C
  0
DICTIONARY
  5
8036
102
{ACAD_REACTORS
330
C
102
}
330
C
100
AcDbDictionary
281
     1
  0
ACDBDICTIONARYWDFLT
  5
8033
102
{ACAD_REACTORS
330
C
102
}
330
C
100
AcDbDictionary
281
     1
  3
Normal
350
8034
100
AcDbDictionaryWithDefault
340
8034
  0
DICTIONARY
  5
812E
102
{ACAD_REACTORS
330
C
102
}
330
C
100
AcDbDictionary
281
     1
  3
A0
350
812F
  3
A1
350
8130
  3
A2
350
8131
  3
A3
350
8132
  3
A4
350
8133
  3
A5
350
8134
  3
A6
350
8135
  3
A7
350
8136
  3
A8
350
8137
  3
A9
350
8138
  3
B0
350
8139
  3
B1
350
813A
  3
B2
350
813B
  3
B3
350
813C
  3
B4
350
813D
  3
B5
350
813E
  3
B6
350
813F
  0
DICTIONARY
  5
8142
102
{ACAD_REACTORS
330
C
102
}
330
C
100
AcDbDictionary
281
     1
  3
Metric50
350
8143
  0
DICTIONARY
  5
812C
102
{ACAD_REACTORS
330
C
102
}
330
C
100
AcDbDictionary
281
     1
  3
Standard
350
812D
  0
DICTIONARY
  5
8112
102
{ACAD_REACTORS
330
C
102
}
330
C
100
AcDbDictionary
281
     1
  3
2dWireframe
350
8118
  3
Basic
350
8117
  3
Brighten
350
811E
  3
ColorChange
350
8122
  3
Conceptual
350
811B
  3
Dim
350
811D
  3
EdgeColorOff
350
812A
  3
Facepattern
350
8121
  3
Flat
350
8113
  3
FlatWithEdges
350
8114
  3
Gouraud
350
8115
  3
GouraudWithEdges
350
8116
  3
Hidden
350
811A
  3
JitterOff
350
8128
  3
Linepattern
350
8120
  3
OverhangOff
350
8129
  3
Realistic
350
811C
  3
Shaded
350
8127
  3
Shaded with edges
350
8126
  3
Shades of Gray
350
8123
  3
Sketchy
350
8124
  3
Thicken
350
811F
  3
Wireframe
350
8119
  3
X-Ray
350
8125
  0
XRECORD
  5
8A33
102
{ACAD_REACTORS
330
C
102
}
330
C
100
AcDbXrecord
280
     1
 90
        1
330
812D
  0
DICTIONARY
  5
80F1
102
{ACAD_REACTORS
330
C
102
}
330
C
100
AcDbDictionary
281
     1
  3
CANNOSCALE
350
8A26
  3
CMLEADERSTYLE
350
8A22
  3
CTABLESTYLE
350
8A21
  3
CVIEWDETAILSTYLE
350
8A23
  3
CVIEWSECTIONSTYLE
350
8A24
  3
DIMASSOC
350
80F2
  3
INDEXCTL
350
8A2F
  3
LAYEREVAL
350
8A28
  3
LAYERNOTIFY
350
8A29
  3
LIGHTINGUNITS
350
8A27
  3
MSLTSCALE
350
8A25
  3
SORTENTS
350
8A2E
  3
XCLIPFRAME
350
8A30
  0
DICTIONARY
  5
8A3A
102
{ACAD_REACTORS
330
C
102
}
330
C
100
AcDbDictionary
281
     1
  3
AcDsRecords
350
8A3C
  3
AcDsSchemas
350
8A3B
1001
ACAD
1070
     2
  0
XRECORD
  5
8A34
102
{ACAD_REACTORS
330
C
102
}
330
C
100
AcDbXrecord
280
     1
  1
DWGPROPS COOKIE
  2

  3

  4

  6

  7

  8
reiko.miyawaki
  9

300
=
301
=
302
=
303
=
304
=
305
=
306
=
307
=
308
=
309
=
 40
0.198602037037037
 41
2452773.62282963
 42
2458829.628259676
  1

 90
        0
  0
DICTIONARY
  5
821F
102
{ACAD_REACTORS
330
821E
102
}
330
821E
100
AcDbDictionary
281
     1
  0
XRECORD
  5
814A
102
{ACAD_REACTORS
330
8149
102
}
330
8149
100
AcDbXrecord
280
     1
290
     1
  0
XRECORD
  5
814C
102
{ACAD_REACTORS
330
814B
102
}
330
814B
100
AcDbXrecord
280
     1
290
     1
  0
XRECORD
  5
814E
102
{ACAD_REACTORS
330
814D
102
}
330
814D
100
AcDbXrecord
280
     1
290
     1
  0
XRECORD
  5
8150
102
{ACAD_REACTORS
330
814F
102
}
330
814F
100
AcDbXrecord
280
     1
290
     1
  0
XRECORD
  5
8152
102
{ACAD_REACTORS
330
8151
102
}
330
8151
100
AcDbXrecord
280
     1
290
     1
  0
XRECORD
  5
8063
102
{ACAD_REACTORS
330
8062
102
}
330
8062
100
AcDbXrecord
280
     1
340
19
  0
SORTENTSTABLE
  5
8940
102
{ACAD_REACTORS
330
8062
102
}
330
8062
100
AcDbSortentsTable
330
19
331
7B4D
  5
7B4D
331
7BC3
  5
7BC3
331
7B84
  5
7B84
331
7B55
  5
7B55
331
7B8C
  5
7B8C
331
7B5D
  5
7B5D
331
7BCB
  5
7BCB
331
7C5A
  5
7C5A
331
7B94
  5
7B94
331
7BD3
  5
7BD3
331
8666
  5
8667
331
7B9C
  5
7B9C
331
7C62
  5
7C62
331
8627
  5
8628
331
862F
  5
8632
331
8637
  5
8639
331
893A
  5
893B
331
7B65
  5
7B65
331
7B36
  5
7B36
331
7BA4
  5
7BA4
331
7C6A
  5
7C6A
331
7BAC
  5
7BAC
331
7BE3
  5
7BE3
331
7C72
  5
7C72
331
7B6D
  5
7B6D
331
7B3E
  5
7B3E
331
7BB4
  5
7BB4
331
7B46
  5
7B46
331
7FFD
  5
7FFD
331
8608
  5
8609
331
863F
  5
8640
331
7B7D
  5
7B7D
331
7BBC
  5
7BBC
331
7C13
  5
7C13
331
7FC6
  5
7FC6
331
8610
  5
8611
331
8618
  5
8619
331
865F
  5
8660
331
7B4E
  5
7B4E
331
7B85
  5
7B85
331
7BC4
  5
7BC4
331
7FD6
  5
7FD6
331
7B8D
  5
7B8D
331
7B5E
  5
7B5E
331
8620
  5
8621
331
7BD4
  5
7BD4
331
7B95
  5
7B95
331
7C5B
  5
7C5B
331
7B9D
  5
7B9D
331
7C63
  5
7C63
331
8628
  5
8629
331
8667
  5
8668
331
893B
  5
893C
331
7B37
  5
7B37
331
7BA5
  5
7BA5
331
7C6B
  5
7C6B
331
7B6E
  5
7B6E
331
7B3F
  5
7B3F
331
7BAD
  5
7BAD
331
7BE4
  5
7BE4
331
7C73
  5
7C73
331
7B76
  5
7B76
331
7B47
  5
7B47
331
7BB5
  5
7BB5
331
8640
  5
8641
331
7BBD
  5
7BBD
331
7FC7
  5
7FC7
331
7B7E
  5
7B7E
331
8609
  5
860B
331
8611
  5
8612
331
8619
  5
861A
331
7B4F
  5
7B4F
331
7BC5
  5
7BC5
331
7C1C
  5
7C1C
331
7B86
  5
7B86
331
7C5C
  5
7C5C
331
8621
  5
8622
331
7B96
  5
7B96
331
7BD5
  5
7BD5
331
8660
  5
8661
331
8668
  5
8669
331
7B9E
  5
7B9E
331
7C64
  5
7C64
331
8629
  5
862A
331
893C
  5
893D
331
7BA6
  5
7BA6
331
7C6C
  5
7C6C
331
7BAE
  5
7BAE
331
7BE5
  5
7BE5
331
7B6F
  5
7B6F
331
7B40
  5
7B40
331
7BB6
  5
7BB6
331
8639
  5
863A
331
7B77
  5
7B77
331
8641
  5
8642
331
7B7F
  5
7B7F
331
7BBE
  5
7BBE
331
7FC8
  5
7FC8
331
8651
  5
8653
331
8612
  5
8613
331
861A
  5
861B
331
7B48
  5
7B48
331
7B50
  5
7B50
331
7DB3
  5
7DB3
331
7B87
  5
7B87
331
7BC6
  5
7BC6
331
7E7A
  5
7E7A
331
7C55
  5
7C55
331
8622
  5
8623
331
8661
  5
8662
331
7C5D
  5
7C5D
331
7BD6
  5
7BD6
331
7CEC
  5
7CEC
331
7B97
  5
7B97
331
7B9F
  5
7B9F
331
7C65
  5
7C65
331
862A
  5
862B
331
8669
  5
866A
331
893D
  5
893E
331
7C6D
  5
7C6D
331
7B39
  5
7B39
331
7BA7
  5
7BA7
331
7BDE
  5
7BDE
331
7FF0
  5
7FF0
331
7B70
  5
7B70
331
7B41
  5
7B41
331
7BAF
  5
7BAF
331
7BE6
  5
7BE6
331
7B78
  5
7B78
331
7BB7
  5
7BB7
331
863A
  5
863B
331
8642
  5
8643
331
7FC9
  5
7FC9
331
7BBF
  5
7BBF
331
7DA4
  5
7DA4
331
860B
  5
860C
331
8613
  5
8614
331
861B
  5
861C
331
7B49
  5
7B49
331
7B80
  5
7B80
331
7B51
  5
7B51
331
7E7B
  5
7E7B
331
7BC7
  5
7BC7
331
7CD5
  5
7CD5
331
7B88
  5
7B88
331
7C56
  5
7C56
331
8662
  5
8663
331
7DCC
  5
7DCC
331
7C5E
  5
7C5E
331
8623
  5
8624
331
7B98
  5
7B98
331
7BD7
  5
7BD7
331
866A
  5
866B
331
8584
  5
8584
331
7C66
  5
7C66
331
862B
  5
862C
331
8633
  5
8634
331
893E
  5
893F
331
8594
  5
8595
331
7B61
  5
7B61
331
7C6E
  5
7C6E
331
7BDF
  5
7BDF
331
7DE4
  5
7DE4
331
7B69
  5
7B69
331
7B3A
  5
7B3A
331
7BA8
  5
7BA8
331
7BB0
  5
7BB0
331
7BE7
  5
7BE7
331
7B71
  5
7B71
331
7B42
  5
7B42
331
863B
  5
863C
331
7B79
  5
7B79
331
7BB8
  5
7BB8
331
7FC2
  5
7FC2
331
860C
  5
860E
331
8614
  5
8615
331
861C
  5
861D
331
7B4A
  5
7B4A
331
7B81
  5
7B81
331
7B52
  5
7B52
331
7BC0
  5
7BC0
331
7B89
  5
7B89
331
7B5A
  5
7B5A
331
7BC8
  5
7BC8
331
7E7C
  5
7E7C
331
7C57
  5
7C57
331
7C5F
  5
7C5F
331
8624
  5
8625
331
8663
  5
8664
331
7B99
  5
7B99
331
862C
  5
862D
331
866B
  5
866C
331
7C67
  5
7C67
331
8585
  5
8585
331
858D
  5
858E
331
8634
  5
8635
331
8937
  5
8938
331
8595
  5
8596
331
893F
  5
8586
331
7BD8
  5
7BD8
331
7B62
  5
7B62
331
7B33
  5
7B33
331
7C6F
  5
7C6F
331
7B6A
  5
7B6A
331
7B3B
  5
7B3B
331
7BA9
  5
7BA9
331
7BE0
  5
7BE0
331
7BE8
  5
7BE8
331
7B72
  5
7B72
331
7B43
  5
7B43
331
7BB1
  5
7BB1
331
7FC3
  5
7FC3
331
7B7A
  5
7B7A
331
7BB9
  5
7BB9
331
863C
  5
863D
331
8615
  5
8616
331
861D
  5
861E
331
7B4B
  5
7B4B
331
7BC1
  5
7BC1
331
7B82
  5
7B82
331
7B53
  5
7B53
331
7B8A
  5
7B8A
331
7B5B
  5
7B5B
331
7BC9
  5
7BC9
331
7E7D
  5
7E7D
331
7B92
  5
7B92
331
7BD1
  5
7BD1
331
8664
  5
8665
331
7FE3
  5
7FE3
331
7B9A
  5
7B9A
331
8625
  5
8626
331
866C
  5
87A3
331
8586
  5
8587
331
862D
  5
862E
331
8635
  5
8636
331
8938
  5
8939
331
858E
  5
858F
331
8596
  5
8597
331
7BD9
  5
7BD9
331
7B63
  5
7B63
331
7B34
  5
7B34
331
7C68
  5
7C68
331
7BE1
  5
7BE1
331
7C70
  5
7C70
331
7B6B
  5
7B6B
331
7B3C
  5
7B3C
331
7BAA
  5
7BAA
331
7BB2
  5
7BB2
331
7B73
  5
7B73
331
7B44
  5
7B44
331
8606
  5
8607
331
863D
  5
863E
331
7B7B
  5
7B7B
331
7BBA
  5
7BBA
331
7CC8
  5
7CC8
331
7FC4
  5
7FC4
331
7E6E
  5
7E6E
331
8616
  5
8617
331
861E
  5
861F
331
7B4C
  5
7B4C
331
7B83
  5
7B83
331
7B54
  5
7B54
331
7BC2
  5
7BC2
331
7B8B
  5
7B8B
331
7B5C
  5
7B5C
331
7BCA
  5
7BCA
331
7E7E
  5
7E7E
331
7BD2
  5
7BD2
331
7B93
  5
7B93
331
7B9B
  5
7B9B
331
7C61
  5
7C61
331
8626
  5
8627
331
8665
  5
8666
331
862E
  5
862F
331
8587
  5
8588
331
8636
  5
8637
331
8939
  5
893A
331
7C69
  5
7C69
331
7B64
  5
7B64
331
7B6C
  5
7B6C
331
7B3D
  5
7B3D
331
7BAB
  5
7BAB
331
7BE2
  5
7BE2
331
7C71
  5
7C71
331
7B74
  5
7B74
331
7B45
  5
7B45
331
7BB3
  5
7BB3
331
7FC5
  5
7FC5
331
8607
  5
8608
331
7B7C
  5
7B7C
331
7BBB
  5
7BBB
331
863E
  5
863F
331
860F
  5
8610
331
8617
  5
8618
331
861F
  5
8620
  0
XRECORD
  5
8061
102
{ACAD_REACTORS
330
8060
102
}
330
8060
100
AcDbXrecord
280
     1
340
16
  0
ACDBDETAILVIEWSTYLE
  5
8145
102
{ACAD_XDICTIONARY
360
8A1E
102
}
102
{ACAD_REACTORS
330
8144
102
}
330
8144
100
AcDbModelDocViewStyle
 70
     0
  3
Metric50
290
     0
100
AcDbDetailViewStyle
 70
     0
 71
     0
 90
        3
 71
     1
340
10
 40
5.0
340
0
 40
5.0
300

 40
0.0
280
     1
 71
     2
340
15
 90
       25
 71
     3
340
10
 40
5.0
 90
        0
 40
15.0
 90
        1
300
%<\AcVar ViewDetailId>% (%<\AcVar ViewScale \f "%sn">%)
 71
     4
340
15
 90
       25
340
15
 90
       25
280
     0
  0
LAYOUT
  5
8037
102
{ACAD_XDICTIONARY
360
8A3D
102
}
102
{ACAD_REACTORS
330
8035
102
}
330
8035
100
AcDbPlotSettings
  1

  2
none_device
  4
ISO_A4_(210.00_x_297.00_MM)
  6

 40
7.5
 41
20.0
 42
7.5
 43
20.0
 44
210.0
 45
297.0
 46
0.0
 47
0.0
 48
0.0
 49
0.0
140
0.0
141
0.0
142
1.0
143
44.29880314161315
 70
 11952
 72
     1
 73
     1
 74
     0
  7
monochrome.ctb
 75
     0
147
0.0225739733148823
148
3592.396193918403
149
21.84598896100351
100
AcDbLayout
  1
Model
 70
     1
 71
     0
 10
0.0
 20
0.0
 11
12.0
 21
9.0
 12
0.0
 22
0.0
 32
0.0
 14
0.0
 24
0.0
 34
0.0
 15
0.0
 25
0.0
 35
0.0
146
0.0
 13
0.0
 23
0.0
 33
0.0
 16
1.0
 26
0.0
 36
0.0
 17
0.0
 27
1.0
 37
0.0
 76
     0
330
19
331
80F7
1001
ACAD_PSEXT
1000
なし
1000
なし
1000
適切ではありません
1000
新しいプロッタ環境設定名を選択しない限り、レイアウトは印刷されません。
1070
     0
  0
LAYOUT
  5
8038
102
{ACAD_XDICTIONARY
360
8A3F
102
}
102
{ACAD_REACTORS
330
8035
102
}
330
8035
100
AcDbPlotSettings
  1

  2
\\Txbo34x8944cqyd\EPSON LP-6100
  4

  6

 40
0.0
 41
0.0
 42
0.0
 43
0.0
 44
0.0
 45
0.0
 46
0.0
 47
0.0
 48
0.0
 49
0.0
140
0.0
141
0.0
142
1.0
143
1.0
 70
   688
 72
     0
 73
     0
 74
     5
  7
monochrome.ctb
 75
    16
147
1.0
148
0.0
149
0.0
100
AcDbLayout
  1
ﾚｲｱｳﾄ1
 70
     1
 71
     1
 10
0.0
 20
0.0
 11
12.0
 21
9.0
 12
0.0
 22
0.0
 32
0.0
 14
1.000000000000000E+20
 24
1.000000000000000E+20
 34
1.000000000000000E+20
 15
-1.000000000000000E+20
 25
-1.000000000000000E+20
 35
-1.000000000000000E+20
146
0.0
 13
0.0
 23
0.0
 33
0.0
 16
1.0
 26
0.0
 36
0.0
 17
0.0
 27
1.0
 37
0.0
 76
     0
330
16
  0
MATERIAL
  5
8102
102
{ACAD_XDICTIONARY
360
8103
102
}
102
{ACAD_REACTORS
330
80F9
102
}
330
80F9
100
AcDbMaterial
  1
ByBlock
 72
     0
 43
0.0208333333333333
 43
0.0
 43
0.0
 43
0.0
 43
0.0
 43
0.0208333333333333
 43
0.0
 43
0.0
 43
0.0
 43
0.0
 43
1.0
 43
0.0
 43
0.0
 43
0.0
 43
0.0
 43
1.0
 77
     0
 47
0.0208333333333333
 47
0.0
 47
0.0
 47
0.0
 47
0.0
 47
0.0208333333333333
 47
0.0
 47
0.0
 47
0.0
 47
0.0
 47
1.0
 47
0.0
 47
0.0
 47
0.0
 47
0.0
 47
1.0
171
     0
 49
0.0208333333333333
 49
0.0
 49
0.0
 49
0.0
 49
0.0
 49
0.0208333333333333
 49
0.0
 49
0.0
 49
0.0
 49
0.0
 49
1.0
 49
0.0
 49
0.0
 49
0.0
 49
0.0
 49
1.0
175
     0
142
0.0208333333333333
142
0.0
142
0.0
142
0.0
142
0.0
142
0.0208333333333333
142
0.0
142
0.0
142
0.0
142
0.0
142
1.0
142
0.0
142
0.0
142
0.0
142
0.0
142
1.0
179
     0
144
0.0208333333333333
144
0.0
144
0.0
144
0.0
144
0.0
144
0.0208333333333333
144
0.0
144
0.0
144
0.0
144
0.0
144
1.0
144
0.0
144
0.0
144
0.0
144
0.0
144
1.0
147
0.0208333333333333
147
0.0
147
0.0
147
0.0
147
0.0
147
0.0208333333333333
147
0.0
147
0.0
147
0.0
147
0.0
147
1.0
147
0.0
147
0.0
147
0.0
147
0.0
147
1.0
  0
MATERIAL
  5
80FA
102
{ACAD_XDICTIONARY
360
80FB
102
}
102
{ACAD_REACTORS
330
80F9
102
}
330
80F9
100
AcDbMaterial
  1
ByLayer
 72
     0
 43
0.0208333333333333
 43
0.0
 43
0.0
 43
0.0
 43
0.0
 43
0.0208333333333333
 43
0.0
 43
0.0
 43
0.0
 43
0.0
 43
1.0
 43
0.0
 43
0.0
 43
0.0
 43
0.0
 43
1.0
 77
     0
 47
0.0208333333333333
 47
0.0
 47
0.0
 47
0.0
 47
0.0
 47
0.0208333333333333
 47
0.0
 47
0.0
 47
0.0
 47
0.0
 47
1.0
 47
0.0
 47
0.0
 47
0.0
 47
0.0
 47
1.0
171
     0
 49
0.0208333333333333
 49
0.0
 49
0.0
 49
0.0
 49
0.0
 49
0.0208333333333333
 49
0.0
 49
0.0
 49
0.0
 49
0.0
 49
1.0
 49
0.0
 49
0.0
 49
0.0
 49
0.0
 49
1.0
175
     0
142
0.0208333333333333
142
0.0
142
0.0
142
0.0
142
0.0
142
0.0208333333333333
142
0.0
142
0.0
142
0.0
142
0.0
142
1.0
142
0.0
142
0.0
142
0.0
142
0.0
142
1.0
179
     0
144
0.0208333333333333
144
0.0
144
0.0
144
0.0
144
0.0
144
0.0208333333333333
144
0.0
144
0.0
144
0.0
144
0.0
144
1.0
144
0.0
144
0.0
144
0.0
144
0.0
144
1.0
147
0.0208333333333333
147
0.0
147
0.0
147
0.0
147
0.0
147
0.0208333333333333
147
0.0
147
0.0
147
0.0
147
0.0
147
1.0
147
0.0
147
0.0
147
0.0
147
0.0
147
1.0
  0
MATERIAL
  5
810A
102
{ACAD_XDICTIONARY
360
810B
102
}
102
{ACAD_REACTORS
330
80F9
102
}
330
80F9
100
AcDbMaterial
  1
Global
 72
     0
 43
0.0208333333333333
 43
0.0
 43
0.0
 43
0.0
 43
0.0
 43
0.0208333333333333
 43
0.0
 43
0.0
 43
0.0
 43
0.0
 43
1.0
 43
0.0
 43
0.0
 43
0.0
 43
0.0
 43
1.0
 77
     0
 47
0.0208333333333333
 47
0.0
 47
0.0
 47
0.0
 47
0.0
 47
0.0208333333333333
 47
0.0
 47
0.0
 47
0.0
 47
0.0
 47
1.0
 47
0.0
 47
0.0
 47
0.0
 47
0.0
 47
1.0
171
     0
 49
0.0208333333333333
 49
0.0
 49
0.0
 49
0.0
 49
0.0
 49
0.0208333333333333
 49
0.0
 49
0.0
 49
0.0
 49
0.0
 49
1.0
 49
0.0
 49
0.0
 49
0.0
 49
0.0
 49
1.0
175
     0
142
0.0208333333333333
142
0.0
142
0.0
142
0.0
142
0.0
142
0.0208333333333333
142
0.0
142
0.0
142
0.0
142
0.0
142
1.0
142
0.0
142
0.0
142
0.0
142
0.0
142
1.0
179
     0
144
0.0208333333333333
144
0.0
144
0.0
144
0.0
144
0.0
144
0.0208333333333333
144
0.0
144
0.0
144
0.0
144
0.0
144
1.0
144
0.0
144
0.0
144
0.0
144
0.0
144
1.0
147
0.0208333333333333
147
0.0
147
0.0
147
0.0
147
0.0
147
0.0208333333333333
147
0.0
147
0.0
147
0.0
147
0.0
147
1.0
147
0.0
147
0.0
147
0.0
147
0.0
147
1.0
  0
MLEADERSTYLE
  5
8141
102
{ACAD_XDICTIONARY
360
8A76
102
}
102
{ACAD_REACTORS
330
8140
102
}
330
8140
100
AcDbMLeaderStyle
170
     2
171
     1
172
     0
 90
        2
 40
0.0
 41
0.0
173
     1
 91
-1056964608
340
13
 92
       -2
290
     1
 42
2.0
291
     1
 43
0.36
  3
Standard
 44
4.0
300

342
10
174
     1
178
     6
175
     1
176
     0
 93
-1056964608
 45
4.0
292
     0
297
     0
 46
4.0
 94
-1056964608
 47
1.0
 49
1.0
140
1.0
293
     1
141
0.0
294
     1
177
     0
142
1.0
295
     0
296
     0
143
0.125
1001
ACAD_MLEADERVER
1070
     2
  0
MLINESTYLE
  5
1C
102
{ACAD_REACTORS
330
E
102
}
330
E
100
AcDbMlineStyle
  2
STANDARD
 70
     0
  3

 62
     0
 51
90.0
 52
90.0
 71
     2
 49
0.5
 62
   256
  6
BYLAYER
 49
-0.5
 62
   256
  6
BYLAYER
  0
ACDBPLACEHOLDER
  5
8034
102
{ACAD_REACTORS
330
8033
102
}
330
8033
  0
SCALE
  5
812F
102
{ACAD_REACTORS
330
812E
102
}
330
812E
100
AcDbScale
 70
     0
300
1:1
140
1.0
141
1.0
290
     1
  0
SCALE
  5
8130
102
{ACAD_REACTORS
330
812E
102
}
330
812E
100
AcDbScale
 70
     0
300
1:2
140
1.0
141
2.0
290
     0
  0
SCALE
  5
8131
102
{ACAD_REACTORS
330
812E
102
}
330
812E
100
AcDbScale
 70
     0
300
1:4
140
1.0
141
4.0
290
     0
  0
SCALE
  5
8132
102
{ACAD_REACTORS
330
812E
102
}
330
812E
100
AcDbScale
 70
     0
300
1:5
140
1.0
141
5.0
290
     0
  0
SCALE
  5
8133
102
{ACAD_REACTORS
330
812E
102
}
330
812E
100
AcDbScale
 70
     0
300
1:8
140
1.0
141
8.0
290
     0
  0
SCALE
  5
8134
102
{ACAD_REACTORS
330
812E
102
}
330
812E
100
AcDbScale
 70
     0
300
1:10
140
1.0
141
10.0
290
     0
  0
SCALE
  5
8135
102
{ACAD_REACTORS
330
812E
102
}
330
812E
100
AcDbScale
 70
     0
300
1:16
140
1.0
141
16.0
290
     0
  0
SCALE
  5
8136
102
{ACAD_REACTORS
330
812E
102
}
330
812E
100
AcDbScale
 70
     0
300
1:20
140
1.0
141
20.0
290
     0
  0
SCALE
  5
8137
102
{ACAD_REACTORS
330
812E
102
}
330
812E
100
AcDbScale
 70
     0
300
1:30
140
1.0
141
30.0
290
     0
  0
SCALE
  5
8138
102
{ACAD_REACTORS
330
812E
102
}
330
812E
100
AcDbScale
 70
     0
300
1:40
140
1.0
141
40.0
290
     0
  0
SCALE
  5
8139
102
{ACAD_REACTORS
330
812E
102
}
330
812E
100
AcDbScale
 70
     0
300
1:50
140
1.0
141
50.0
290
     0
  0
SCALE
  5
813A
102
{ACAD_REACTORS
330
812E
102
}
330
812E
100
AcDbScale
 70
     0
300
1:100
140
1.0
141
100.0
290
     0
  0
SCALE
  5
813B
102
{ACAD_REACTORS
330
812E
102
}
330
812E
100
AcDbScale
 70
     0
300
2:1
140
2.0
141
1.0
290
     0
  0
SCALE
  5
813C
102
{ACAD_REACTORS
330
812E
102
}
330
812E
100
AcDbScale
 70
     0
300
4:1
140
4.0
141
1.0
290
     0
  0
SCALE
  5
813D
102
{ACAD_REACTORS
330
812E
102
}
330
812E
100
AcDbScale
 70
     0
300
8:1
140
8.0
141
1.0
290
     0
  0
SCALE
  5
813E
102
{ACAD_REACTORS
330
812E
102
}
330
812E
100
AcDbScale
 70
     0
300
10:1
140
10.0
141
1.0
290
     0
  0
SCALE
  5
813F
102
{ACAD_REACTORS
330
812E
102
}
330
812E
100
AcDbScale
 70
     0
300
100:1
140
100.0
141
1.0
290
     0
  0
ACDBSECTIONVIEWSTYLE
  5
8143
102
{ACAD_XDICTIONARY
360
8A1C
102
}
102
{ACAD_REACTORS
330
8142
102
}
330
8142
100
AcDbModelDocViewStyle
 70
     0
  3
Metric50
290
     0
100
AcDbSectionViewStyle
 70
     0
 71
     0
 90
      102
 71
     1
340
10
 40
5.0
340
0
340
0
 40
5.0
300
I, O, Q, S, X, Z
 40
10.0
 90
        0
 40
2.5
 90
        0
 71
     2
340
15
 90
       25
340
15
 90
       50
 40
5.0
 40
2.5
 40
5.0
 71
     3
340
10
 40
5.0
 90
        0
 40
15.0
 90
        1
300
%<\AcVar ViewSectionStartId>%-%<\AcVar ViewSectionEndId>% (%<\AcVar ViewScale \f "%sn">%)
 71
     4
300
ANSI31
 40
1.0
 90
        0
290
     0
290
     0
 90
        6
 40
0.0
 40
1.570796326794896
 40
0.2617993877991494
 40
1.308996938995747
 40
-0.2617993877991494
 40
1.832595714594046
  0
TABLESTYLE
  5
812D
102
{ACAD_XDICTIONARY
360
8A31
102
}
102
{ACAD_REACTORS
330
812C
102
}
330
812C
100
AcDbTableStyle
  3
Standard
 70
     0
 71
     0
 40
1.5
 41
1.5
280
     0
281
     0
  7
STANDARD
140
4.5
170
     2
 62
     0
 63
     7
283
     0
274
    -2
284
     1
 64
     0
275
    -2
285
     1
 65
     0
276
    -2
286
     1
 66
     0
277
    -2
287
     1
 67
     0
278
    -2
288
     1
 68
     0
279
    -2
289
     1
 69
     0
  7
STANDARD
140
6.0
170
     5
 62
     0
 63
     7
283
     0
274
    -2
284
     1
 64
     0
275
    -2
285
     1
 65
     0
276
    -2
286
     1
 66
     0
277
    -2
287
     1
 67
     0
278
    -2
288
     1
 68
     0
279
    -2
289
     1
 69
     0
  7
STANDARD
140
4.5
170
     5
 62
     0
 63
     7
283
     0
274
    -2
284
     1
 64
     0
275
    -2
285
     1
 65
     0
276
    -2
286
     1
 66
     0
277
    -2
287
     1
 67
     0
278
    -2
288
     1
 68
     0
279
    -2
289
     1
 69
     0
  0
VISUALSTYLE
  5
8118
102
{ACAD_XDICTIONARY
360
8A4E
102
}
102
{ACAD_REACTORS
330
8112
102
}
330
8112
100
AcDbVisualStyle
  2
2dWireframe
 70
     4
 71
     0
 72
     2
 73
     0
 90
        0
 40
-0.6
 41
-30.0
 62
     5
 63
     7
 74
     1
 91
        4
 64
     7
 65
   257
 75
     1
175
     1
 42
1.0
 92
        0
 66
   257
 43
1.0
 76
     1
 77
     6
 78
     2
 67
     7
 79
     5
170
     0
171
     0
290
     0
174
     0
 93
        1
 44
0.0
173
     0
291
     0
 45
0.0
1001
ACAD
1000
AcDbSavedByObjectVersion
1070
     0
  0
VISUALSTYLE
  5
8117
102
{ACAD_XDICTIONARY
360
8A4C
102
}
102
{ACAD_REACTORS
330
8112
102
}
330
8112
100
AcDbVisualStyle
  2
Basic
 70
     7
 71
     1
 72
     0
 73
     1
 90
        0
 40
-0.6
 41
-30.0
 62
     5
 63
     7
 74
     0
 91
        4
 64
     7
 65
   257
 75
     1
175
     1
 42
1.0
 92
        8
 66
     7
 43
1.0
 76
     1
 77
     6
 78
     2
 67
     7
 79
     5
170
     0
171
     0
290
     0
174
     0
 93
        1
 44
0.0
173
     0
291
     1
 45
0.0
1001
ACAD
1000
AcDbSavedByObjectVersion
1070
     0
  0
VISUALSTYLE
  5
811E
102
{ACAD_XDICTIONARY
360
8A5A
102
}
102
{ACAD_REACTORS
330
8112
102
}
330
8112
100
AcDbVisualStyle
  2
Brighten
 70
    12
 71
     2
 72
     2
 73
     0
 90
        0
 40
-0.6
 41
-30.0
 62
     5
 63
     7
 74
     1
 91
        4
 64
     7
 65
   257
 75
     1
175
     1
 42
1.0
 92
        8
 66
     7
 43
1.0
 76
     1
 77
     6
 78
     2
 67
     7
 79
     5
170
     0
171
     0
290
     0
174
     0
 93
        1
 44
50.0
173
     0
291
     1
 45
0.0
1001
ACAD
1000
AcDbSavedByObjectVersion
1070
     0
  0
VISUALSTYLE
  5
8122
102
{ACAD_XDICTIONARY
360
8A62
102
}
102
{ACAD_REACTORS
330
8112
102
}
330
8112
100
AcDbVisualStyle
  2
ColorChange
 70
    16
 71
     2
 72
     2
 73
     3
 90
        0
 40
-0.6
 41
-30.0
 62
     5
 63
     8
 74
     1
 91
        4
 64
     7
 65
   257
 75
     1
175
     1
 42
1.0
 92
        8
 66
     8
 43
1.0
 76
     1
 77
     6
 78
     2
 67
     7
 79
     5
170
     0
171
     0
290
     0
174
     0
 93
        1
 44
0.0
173
     0
291
     1
 45
0.0
1001
ACAD
1000
AcDbSavedByObjectVersion
1070
     0
  0
VISUALSTYLE
  5
811B
102
{ACAD_XDICTIONARY
360
8A54
102
}
102
{ACAD_REACTORS
330
8112
102
}
330
8112
100
AcDbVisualStyle
  2
Conceptual
 70
     9
 71
     3
 72
     2
 73
     0
 90
        0
 40
-0.6
 41
-30.0
 62
     5
 63
     7
 74
     2
 91
        2
 64
     7
 65
   257
 75
     1
175
     1
 42
179.0
 92
        8
 66
     7
 43
1.0
 76
     1
 77
     6
 78
     2
 67
     7
 79
     3
170
     0
171
     0
290
     0
174
     0
 93
        1
 44
0.0
173
     0
291
     0
 45
0.0
1001
ACAD
1000
AcDbSavedByObjectVersion
1070
     0
  0
VISUALSTYLE
  5
811D
102
{ACAD_XDICTIONARY
360
8A58
102
}
102
{ACAD_REACTORS
330
8112
102
}
330
8112
100
AcDbVisualStyle
  2
Dim
 70
    11
 71
     2
 72
     2
 73
     0
 90
        0
 40
-0.6
 41
-30.0
 62
     5
 63
     7
 74
     1
 91
        4
 64
     7
 65
   257
 75
     1
175
     1
 42
1.0
 92
        8
 66
     7
 43
1.0
 76
     1
 77
     6
 78
     2
 67
     7
 79
     5
170
     0
171
     0
290
     0
174
     0
 93
        1
 44
-50.0
173
     0
291
     1
 45
0.0
1001
ACAD
1000
AcDbSavedByObjectVersion
1070
     0
  0
VISUALSTYLE
  5
812A
102
{ACAD_XDICTIONARY
360
8A72
102
}
102
{ACAD_REACTORS
330
8112
102
}
330
8112
100
AcDbVisualStyle
  2
EdgeColorOff
 70
    22
 71
     2
 72
     2
 73
     0
 90
        0
 40
-0.6
 41
-30.0
 62
     5
 63
     7
 74
     1
 91
        4
 64
     7
 65
   257
 75
     1
175
     1
 42
1.0
 92
        8
 66
     7
 43
1.0
 76
     1
 77
     6
 78
     2
 67
     7
 79
     5
170
     0
171
     0
290
     0
174
     0
 93
        1
 44
0.0
173
     0
291
     1
 45
0.0
1001
ACAD
1000
AcDbSavedByObjectVersion
1070
     0
  0
VISUALSTYLE
  5
8121
102
{ACAD_XDICTIONARY
360
8A60
102
}
102
{ACAD_REACTORS
330
8112
102
}
330
8112
100
AcDbVisualStyle
  2
Facepattern
 70
    15
 71
     2
 72
     2
 73
     0
 90
        0
 40
-0.6
 41
-30.0
 62
     5
 63
     7
 74
     1
 91
        4
 64
     7
 65
   257
 75
     1
175
     1
 42
1.0
 92
        8
 66
     7
 43
1.0
 76
     1
 77
     6
 78
     2
 67
     7
 79
     5
170
     0
171
     0
290
     0
174
     0
 93
        1
 44
0.0
173
     0
291
     1
 45
0.0
1001
ACAD
1000
AcDbSavedByObjectVersion
1070
     0
  0
VISUALSTYLE
  5
8113
102
{ACAD_XDICTIONARY
360
8A44
102
}
102
{ACAD_REACTORS
330
8112
102
}
330
8112
100
AcDbVisualStyle
  2
Flat
 70
     0
 71
     2
 72
     1
 73
     1
 90
        2
 40
-0.6
 41
30.0
 62
     5
 63
     7
 74
     0
 91
        0
 64
     7
 65
   257
 75
     1
175
     1
 42
1.0
 92
        8
 66
     7
 43
1.0
 76
     1
 77
     6
 78
     2
 67
     7
 79
     5
170
     0
171
     0
290
     0
174
     0
 93
       13
 44
0.0
173
     0
291
     1
 45
0.0
1001
ACAD
1000
AcDbSavedByObjectVersion
1070
     0
  0
VISUALSTYLE
  5
8114
102
{ACAD_XDICTIONARY
360
8A46
102
}
102
{ACAD_REACTORS
330
8112
102
}
330
8112
100
AcDbVisualStyle
  2
FlatWithEdges
 70
     1
 71
     2
 72
     1
 73
     1
 90
        2
 40
-0.6
 41
30.0
 62
     5
 63
     7
 74
     1
 91
        0
 64
     7
 65
   257
 75
     1
175
     1
 42
1.0
 92
        0
 66
   257
 43
1.0
 76
     1
 77
     6
 78
     2
 67
     7
 79
     5
170
     0
171
     0
290
     0
174
     0
 93
       13
 44
0.0
173
     0
291
     1
 45
0.0
1001
ACAD
1000
AcDbSavedByObjectVersion
1070
     0
  0
VISUALSTYLE
  5
8115
102
{ACAD_XDICTIONARY
360
8A48
102
}
102
{ACAD_REACTORS
330
8112
102
}
330
8112
100
AcDbVisualStyle
  2
Gouraud
 70
     2
 71
     2
 72
     2
 73
     1
 90
        2
 40
-0.6
 41
30.0
 62
     5
 63
     7
 74
     0
 91
        0
 64
     7
 65
   257
 75
     1
175
     1
 42
1.0
 92
        0
 66
     7
 43
1.0
 76
     1
 77
     6
 78
     2
 67
     7
 79
     5
170
     0
171
     0
290
     0
174
     0
 93
       13
 44
0.0
173
     0
291
     1
 45
0.0
1001
ACAD
1000
AcDbSavedByObjectVersion
1070
     0
  0
VISUALSTYLE
  5
8116
102
{ACAD_XDICTIONARY
360
8A4A
102
}
102
{ACAD_REACTORS
330
8112
102
}
330
8112
100
AcDbVisualStyle
  2
GouraudWithEdges
 70
     3
 71
     2
 72
     2
 73
     1
 90
        2
 40
-0.6
 41
30.0
 62
     5
 63
     7
 74
     1
 91
        0
 64
     7
 65
   257
 75
     1
175
     1
 42
1.0
 92
        0
 66
   257
 43
1.0
 76
     1
 77
     6
 78
     2
 67
     7
 79
     5
170
     0
171
     0
290
     0
174
     0
 93
       13
 44
0.0
173
     0
291
     1
 45
0.0
1001
ACAD
1000
AcDbSavedByObjectVersion
1070
     0
  0
VISUALSTYLE
  5
811A
102
{ACAD_XDICTIONARY
360
8A52
102
}
102
{ACAD_REACTORS
330
8112
102
}
330
8112
100
AcDbVisualStyle
  2
Hidden
 70
     6
 71
     1
 72
     2
 73
     2
 90
        0
 40
-0.6
 41
-30.0
 62
     5
 63
     7
 74
     2
 91
        2
 64
     7
 65
   257
 75
     2
175
     1
 42
40.0
 92
        0
 66
   257
 43
1.0
 76
     1
 77
     6
 78
     2
 67
     7
 79
     3
170
     0
171
     0
290
     0
174
     0
 93
        1
 44
0.0
173
     0
291
     0
 45
0.0
1001
ACAD
1000
AcDbSavedByObjectVersion
1070
     0
  0
VISUALSTYLE
  5
8128
102
{ACAD_XDICTIONARY
360
8A6E
102
}
102
{ACAD_REACTORS
330
8112
102
}
330
8112
100
AcDbVisualStyle
  2
JitterOff
 70
    20
 71
     2
 72
     2
 73
     0
 90
        0
 40
-0.6
 41
-30.0
 62
     5
 63
     7
 74
     1
 91
        4
 64
     7
 65
   257
 75
     1
175
     1
 42
1.0
 92
       10
 66
     7
 43
1.0
 76
     1
 77
     6
 78
     2
 67
     7
 79
     5
170
     0
171
     0
290
     0
174
     0
 93
        1
 44
0.0
173
     0
291
     1
 45
0.0
1001
ACAD
1000
AcDbSavedByObjectVersion
1070
     0
  0
VISUALSTYLE
  5
8120
102
{ACAD_XDICTIONARY
360
8A5E
102
}
102
{ACAD_REACTORS
330
8112
102
}
330
8112
100
AcDbVisualStyle
  2
Linepattern
 70
    14
 71
     2
 72
     2
 73
     0
 90
        0
 40
-0.6
 41
-30.0
 62
     5
 63
     7
 74
     1
 91
        4
 64
     7
 65
   257
 75
     7
175
     7
 42
1.0
 92
        8
 66
     7
 43
1.0
 76
     1
 77
     6
 78
     2
 67
     7
 79
     5
170
     0
171
     0
290
     0
174
     0
 93
        1
 44
0.0
173
     0
291
     1
 45
0.0
1001
ACAD
1000
AcDbSavedByObjectVersion
1070
     0
  0
VISUALSTYLE
  5
8129
102
{ACAD_XDICTIONARY
360
8A70
102
}
102
{ACAD_REACTORS
330
8112
102
}
330
8112
100
AcDbVisualStyle
  2
OverhangOff
 70
    21
 71
     2
 72
     2
 73
     0
 90
        0
 40
-0.6
 41
-30.0
 62
     5
 63
     7
 74
     1
 91
        4
 64
     7
 65
   257
 75
     1
175
     1
 42
1.0
 92
        9
 66
     7
 43
1.0
 76
     1
 77
     6
 78
     2
 67
     7
 79
     5
170
     0
171
     0
290
     0
174
     0
 93
        1
 44
0.0
173
     0
291
     1
 45
0.0
1001
ACAD
1000
AcDbSavedByObjectVersion
1070
     0
  0
VISUALSTYLE
  5
811C
102
{ACAD_XDICTIONARY
360
8A56
102
}
102
{ACAD_REACTORS
330
8112
102
}
330
8112
100
AcDbVisualStyle
  2
Realistic
 70
     8
 71
     2
 72
     3
 73
     0
 90
        2
 40
-0.6
 41
30.0
 62
     5
 63
     7
 74
     0
 91
        0
 64
     7
 65
   257
 75
     1
175
     1
 42
1.0
 92
        8
 66
   257
 43
1.0
 76
     1
 77
     6
 78
     2
 67
     7
 79
     3
170
     0
171
     0
290
     0
174
     0
 93
       13
 44
0.0
173
     0
291
     0
 45
0.0
1001
ACAD
1000
AcDbSavedByObjectVersion
1070
     0
  0
VISUALSTYLE
  5
8127
102
{ACAD_XDICTIONARY
360
8A6C
102
}
102
{ACAD_REACTORS
330
8112
102
}
330
8112
100
AcDbVisualStyle
  2
Shaded
 70
    27
 71
     2
 72
     2
 73
     1
 90
        2
 40
-0.6
 41
30.0
 62
     5
 63
     7
 74
     0
 91
        4
 64
     7
 65
   257
 75
     1
175
     1
 42
1.0
 92
        8
 66
   257
 43
1.0
 76
     1
 77
     6
 78
     2
 67
     8
 79
     3
170
     0
171
     0
290
     0
174
     0
 93
        5
 44
0.0
173
     0
291
     0
 45
0.0
1001
ACAD
1000
AcDbSavedByObjectVersion
1070
     0
  0
VISUALSTYLE
  5
8126
102
{ACAD_XDICTIONARY
360
8A6A
102
}
102
{ACAD_REACTORS
330
8112
102
}
330
8112
100
AcDbVisualStyle
  2
Shaded with edges
 70
    26
 71
     2
 72
     2
 73
     1
 90
        2
 40
-0.6
 41
30.0
 62
     5
 63
     7
 74
     1
 91
       10
 64
     7
 65
   257
 75
     2
175
     1
 42
1.0
 92
        8
 66
   257
 43
1.0
 76
     1
 77
     6
 78
     2
 67
     7
 79
     3
170
     0
171
     0
290
     0
174
     0
 93
        5
 44
0.0
173
     0
291
     0
 45
0.0
1001
ACAD
1000
AcDbSavedByObjectVersion
1070
     0
  0
VISUALSTYLE
  5
8123
102
{ACAD_XDICTIONARY
360
8A64
102
}
102
{ACAD_REACTORS
330
8112
102
}
330
8112
100
AcDbVisualStyle
  2
Shades of Gray
 70
    23
 71
     2
 72
     2
 73
     3
 90
        0
 40
-0.6
 41
-30.0
 62
     5
 63
     7
 74
     2
 91
        2
 64
     7
 65
     7
 75
     1
175
     1
 42
40.0
 92
        8
 66
     7
 43
1.0
 76
     1
 77
     6
 78
     2
 67
     7
 79
     3
170
     0
171
     0
290
     0
174
     0
 93
        1
 44
0.0
173
     0
291
     0
 45
0.0
1001
ACAD
1000
AcDbSavedByObjectVersion
1070
     0
  0
VISUALSTYLE
  5
8124
102
{ACAD_XDICTIONARY
360
8A66
102
}
102
{ACAD_REACTORS
330
8112
102
}
330
8112
100
AcDbVisualStyle
  2
Sketchy
 70
    24
 71
     1
 72
     2
 73
     2
 90
        0
 40
-0.6
 41
-30.0
 62
     5
 63
     7
 74
     2
 91
        2
 64
     7
 65
     7
 75
     1
175
     1
 42
40.0
 92
       11
 66
     7
 43
1.0
 76
     1
 77
     6
 78
     2
 67
     7
 79
     6
170
     0
171
     0
290
     0
174
     0
 93
        1
 44
0.0
173
     0
291
     0
 45
0.0
1001
ACAD
1000
AcDbSavedByObjectVersion
1070
     0
  0
VISUALSTYLE
  5
811F
102
{ACAD_XDICTIONARY
360
8A5C
102
}
102
{ACAD_REACTORS
330
8112
102
}
330
8112
100
AcDbVisualStyle
  2
Thicken
 70
    13
 71
     2
 72
     2
 73
     0
 90
        0
 40
-0.6
 41
-30.0
 62
     5
 63
     7
 74
     1
 91
        4
 64
     7
 65
   257
 75
     1
175
     1
 42
1.0
 92
       12
 66
     7
 43
1.0
 76
     1
 77
     6
 78
     2
 67
     7
 79
     5
170
     0
171
     0
290
     0
174
     0
 93
        1
 44
0.0
173
     0
291
     1
 45
0.0
1001
ACAD
1000
AcDbSavedByObjectVersion
1070
     0
  0
VISUALSTYLE
  5
8119
102
{ACAD_XDICTIONARY
360
8A50
102
}
102
{ACAD_REACTORS
330
8112
102
}
330
8112
100
AcDbVisualStyle
  2
Wireframe
 70
     5
 71
     0
 72
     2
 73
     0
 90
        0
 40
-0.6
 41
-30.0
 62
     5
 63
     7
 74
     1
 91
        4
 64
     7
 65
   257
 75
     1
175
     1
 42
1.0
 92
        0
 66
   257
 43
1.0
 76
     1
 77
     6
 78
     2
 67
     7
 79
     3
170
     0
171
     0
290
     0
174
     0
 93
        1
 44
0.0
173
     0
291
     0
 45
0.0
1001
ACAD
1000
AcDbSavedByObjectVersion
1070
     0
  0
VISUALSTYLE
  5
8125
102
{ACAD_XDICTIONARY
360
8A68
102
}
102
{ACAD_REACTORS
330
8112
102
}
330
8112
100
AcDbVisualStyle
  2
X-Ray
 70
    25
 71
     2
 72
     2
 73
     1
 90
        1
 40
0.5
 41
-30.0
 62
     5
 63
     7
 74
     1
 91
        0
 64
     7
 65
   257
 75
     1
175
     1
 42
1.0
 92
        8
 66
     7
 43
1.0
 76
     1
 77
     6
 78
     2
 67
     7
 79
     3
170
     0
171
     0
290
     0
174
     0
 93
       13
 44
0.0
173
     0
291
     0
 45
0.0
1001
ACAD
1000
AcDbSavedByObjectVersion
1070
     0
  0
DICTIONARYVAR
  5
8A26
102
{ACAD_REACTORS
330
80F1
102
}
330
80F1
100
DictionaryVariables
280
     0
  1
1:1
  0
DICTIONARYVAR
  5
8A22
102
{ACAD_REACTORS
330
80F1
102
}
330
80F1
100
DictionaryVariables
280
     0
  1
STANDARD
  0
DICTIONARYVAR
  5
8A21
102
{ACAD_REACTORS
330
80F1
102
}
330
80F1
100
DictionaryVariables
280
     0
  1
STANDARD
  0
DICTIONARYVAR
  5
8A23
102
{ACAD_REACTORS
330
80F1
102
}
330
80F1
100
DictionaryVariables
280
     0
  1
Metric50
  0
DICTIONARYVAR
  5
8A24
102
{ACAD_REACTORS
330
80F1
102
}
330
80F1
100
DictionaryVariables
280
     0
  1
Metric50
  0
DICTIONARYVAR
  5
80F2
102
{ACAD_REACTORS
330
80F1
102
}
330
80F1
100
DictionaryVariables
280
     0
  1
1
  0
DICTIONARYVAR
  5
8A2F
102
{ACAD_REACTORS
330
80F1
102
}
330
80F1
100
DictionaryVariables
280
     0
  1
0
  0
DICTIONARYVAR
  5
8A28
102
{ACAD_REACTORS
330
80F1
102
}
330
80F1
100
DictionaryVariables
280
     0
  1
1
  0
DICTIONARYVAR
  5
8A29
102
{ACAD_REACTORS
330
80F1
102
}
330
80F1
100
DictionaryVariables
280
     0
  1
15
  0
DICTIONARYVAR
  5
8A27
102
{ACAD_REACTORS
330
80F1
102
}
330
80F1
100
DictionaryVariables
280
     0
  1
0
  0
DICTIONARYVAR
  5
8A25
102
{ACAD_REACTORS
330
80F1
102
}
330
80F1
100
DictionaryVariables
280
     0
  1
0
  0
DICTIONARYVAR
  5
8A2E
102
{ACAD_REACTORS
330
80F1
102
}
330
80F1
100
DictionaryVariables
280
     0
  1
127
  0
DICTIONARYVAR
  5
8A30
102
{ACAD_REACTORS
330
80F1
102
}
330
80F1
100
DictionaryVariables
280
     0
  1
2
  0
DICTIONARY
  5
8A3C
102
{ACAD_REACTORS
330
8A3A
102
}
330
8A3A
100
AcDbDictionary
281
     1
  0
DICTIONARY
  5
8A3B
102
{ACAD_REACTORS
330
8A3A
102
}
330
8A3A
100
AcDbDictionary
281
     1
  3
2129784040
350
8A35
  3
2129784048
350
8A36
  3
2129784056
350
8A37
  3
2129784064
350
8A38
  3
2129784072
350
8A39
  0
DICTIONARY
  5
8A1E
330
8145
100
AcDbDictionary
280
     1
281
     1
  3
ACAD_XREC_ROUNDTRIP
360
8A79
  0
DICTIONARY
  5
8A3D
330
8037
100
AcDbDictionary
280
     1
281
     1
  3
ACAD_XREC_ROUNDTRIP
360
8A3E
  0
DICTIONARY
  5
8A3F
330
8038
100
AcDbDictionary
280
     1
281
     1
  3
ACAD_XREC_ROUNDTRIP
360
8A40
  0
DICTIONARY
  5
8103
330
8102
100
AcDbDictionary
280
     1
281
     1
  3
ACAD_XREC_ROUNDTRIP
360
8A42
  3
BUMPTILE
360
8105
  3
DIFFUSETILE
360
8104
  3
OPACITYTILE
360
8108
  3
REFLECTIONTILE
360
8107
  3
REFRACTIONTILE
360
8109
  3
SPECULARTILE
360
8106
  0
DICTIONARY
  5
80FB
330
80FA
100
AcDbDictionary
280
     1
281
     1
  3
ACAD_XREC_ROUNDTRIP
360
8A41
  3
BUMPTILE
360
80FD
  3
DIFFUSETILE
360
80FC
  3
OPACITYTILE
360
8100
  3
REFLECTIONTILE
360
80FF
  3
REFRACTIONTILE
360
8101
  3
SPECULARTILE
360
80FE
  0
DICTIONARY
  5
810B
330
810A
100
AcDbDictionary
280
     1
281
     1
  3
ACAD_XREC_ROUNDTRIP
360
8A43
  3
BUMPTILE
360
810D
  3
DIFFUSETILE
360
810C
  3
FBXASSET
360
815D
  3
OPACITYTILE
360
8110
  3
REFLECTIONTILE
360
810F
  3
REFRACTIONTILE
360
8111
  3
SPECULARTILE
360
810E
  0
DICTIONARY
  5
8A76
330
8141
100
AcDbDictionary
280
     1
281
     1
  3
ACAD_XREC_ROUNDTRIP
360
8A77
  0
DICTIONARY
  5
8A1C
330
8143
100
AcDbDictionary
280
     1
281
     1
  3
ACAD_XREC_ROUNDTRIP
360
8A78
  0
DICTIONARY
  5
8A31
330
812D
100
AcDbDictionary
280
     1
281
     1
  3
ACAD_ROUNDTRIP_2008_TABLESTYLE_CELLSTYLEMAP
360
8A32
  3
ACAD_XREC_ROUNDTRIP
360
8A74
  0
DICTIONARY
  5
8A4E
330
8118
100
AcDbDictionary
280
     1
281
     1
  3
ACAD_XREC_ROUNDTRIP
360
8A4F
  0
DICTIONARY
  5
8A4C
330
8117
100
AcDbDictionary
280
     1
281
     1
  3
ACAD_XREC_ROUNDTRIP
360
8A4D
  0
DICTIONARY
  5
8A5A
330
811E
100
AcDbDictionary
280
     1
281
     1
  3
ACAD_XREC_ROUNDTRIP
360
8A5B
  0
DICTIONARY
  5
8A62
330
8122
100
AcDbDictionary
280
     1
281
     1
  3
ACAD_XREC_ROUNDTRIP
360
8A63
  0
DICTIONARY
  5
8A54
330
811B
100
AcDbDictionary
280
     1
281
     1
  3
ACAD_XREC_ROUNDTRIP
360
8A55
  0
DICTIONARY
  5
8A58
330
811D
100
AcDbDictionary
280
     1
281
     1
  3
ACAD_XREC_ROUNDTRIP
360
8A59
  0
DICTIONARY
  5
8A72
330
812A
100
AcDbDictionary
280
     1
281
     1
  3
ACAD_XREC_ROUNDTRIP
360
8A73
  0
DICTIONARY
  5
8A60
330
8121
100
AcDbDictionary
280
     1
281
     1
  3
ACAD_XREC_ROUNDTRIP
360
8A61
  0
DICTIONARY
  5
8A44
330
8113
100
AcDbDictionary
280
     1
281
     1
  3
ACAD_XREC_ROUNDTRIP
360
8A45
  0
DICTIONARY
  5
8A46
330
8114
100
AcDbDictionary
280
     1
281
     1
  3
ACAD_XREC_ROUNDTRIP
360
8A47
  0
DICTIONARY
  5
8A48
330
8115
100
AcDbDictionary
280
     1
281
     1
  3
ACAD_XREC_ROUNDTRIP
360
8A49
  0
DICTIONARY
  5
8A4A
330
8116
100
AcDbDictionary
280
     1
281
     1
  3
ACAD_XREC_ROUNDTRIP
360
8A4B
  0
DICTIONARY
  5
8A52
330
811A
100
AcDbDictionary
280
     1
281
     1
  3
ACAD_XREC_ROUNDTRIP
360
8A53
  0
DICTIONARY
  5
8A6E
330
8128
100
AcDbDictionary
280
     1
281
     1
  3
ACAD_XREC_ROUNDTRIP
360
8A6F
  0
DICTIONARY
  5
8A5E
330
8120
100
AcDbDictionary
280
     1
281
     1
  3
ACAD_XREC_ROUNDTRIP
360
8A5F
  0
DICTIONARY
  5
8A70
330
8129
100
AcDbDictionary
280
     1
281
     1
  3
ACAD_XREC_ROUNDTRIP
360
8A71
  0
DICTIONARY
  5
8A56
330
811C
100
AcDbDictionary
280
     1
281
     1
  3
ACAD_XREC_ROUNDTRIP
360
8A57
  0
DICTIONARY
  5
8A6C
330
8127
100
AcDbDictionary
280
     1
281
     1
  3
ACAD_XREC_ROUNDTRIP
360
8A6D
  0
DICTIONARY
  5
8A6A
330
8126
100
AcDbDictionary
280
     1
281
     1
  3
ACAD_XREC_ROUNDTRIP
360
8A6B
  0
DICTIONARY
  5
8A64
330
8123
100
AcDbDictionary
280
     1
281
     1
  3
ACAD_XREC_ROUNDTRIP
360
8A65
  0
DICTIONARY
  5
8A66
330
8124
100
AcDbDictionary
280
     1
281
     1
  3
ACAD_XREC_ROUNDTRIP
360
8A67
  0
DICTIONARY
  5
8A5C
330
811F
100
AcDbDictionary
280
     1
281
     1
  3
ACAD_XREC_ROUNDTRIP
360
8A5D
  0
DICTIONARY
  5
8A50
330
8119
100
AcDbDictionary
280
     1
281
     1
  3
ACAD_XREC_ROUNDTRIP
360
8A51
  0
DICTIONARY
  5
8A68
330
8125
100
AcDbDictionary
280
     1
281
     1
  3
ACAD_XREC_ROUNDTRIP
360
8A69
  0
XRECORD
  5
8A35
102
{ACAD_REACTORS
330
8A3B
102
}
330
8A3B
100
AcDbXrecord
280
     1
  1
AcDb_Thumbnail_Schema
102
{ATTRRECORD
341
8A36
  2
AcDbDs::TreatedAsObjectData
280
     1
291
     1
102
ATTRRECORD}
102
{ATTRRECORD
341
8A37
  2
AcDbDs::Legacy
280
     1
291
     1
102
ATTRRECORD}
  2
AcDbDs::ID
280
    10
 91
        8
102
{ATTRRECORD
341
8A38
  2
AcDs:Indexable
280
     1
291
     1
102
ATTRRECORD}
102
{ATTRRECORD
341
8A39
  2
AcDbDs::HandleAttribute
280
     7
282
     1
102
ATTRRECORD}
  2
Thumbnail_Data
280
    15
 91
        0
  0
XRECORD
  5
8A36
102
{ACAD_REACTORS
330
8A3B
102
}
330
8A3B
100
AcDbXrecord
280
     1
  1
AcDbDs::TreatedAsObjectDataSchema
  2
AcDbDs::TreatedAsObjectData
280
     1
 91
        0
  0
XRECORD
  5
8A37
102
{ACAD_REACTORS
330
8A3B
102
}
330
8A3B
100
AcDbXrecord
280
     1
  1
AcDbDs::LegacySchema
  2
AcDbDs::Legacy
280
     1
 91
        0
  0
XRECORD
  5
8A38
102
{ACAD_REACTORS
330
8A3B
102
}
330
8A3B
100
AcDbXrecord
280
     1
  1
AcDbDs::IndexedPropertySchema
  2
AcDs:Indexable
280
     1
 91
        0
  0
XRECORD
  5
8A39
102
{ACAD_REACTORS
330
8A3B
102
}
330
8A3B
100
AcDbXrecord
280
     1
  1
AcDbDs::HandleAttributeSchema
  2
AcDbDs::HandleAttribute
280
     7
 91
        1
284
     1
  0
XRECORD
  5
8A79
102
{ACAD_REACTORS
330
8A1E
102
}
330
8A1E
100
AcDbXrecord
280
     1
102
DISPLAYNAME
  1
Metric50
102
FLAGS
 90
        0
  0
XRECORD
  5
8A3E
102
{ACAD_REACTORS
330
8A3D
102
}
330
8A3D
100
AcDbXrecord
280
     1
102
SHADEPLOT
 70
     0
102
SHADEPLOTRESLEVEL
 70
     2
102
SHADEPLOTCUSTOMDPI
 70
   300
  0
XRECORD
  5
8A40
102
{ACAD_REACTORS
330
8A3F
102
}
330
8A3F
100
AcDbXrecord
280
     1
102
SHADEPLOT
 70
     0
102
SHADEPLOTRESLEVEL
 70
     2
102
SHADEPLOTCUSTOMDPI
 70
   300
  0
XRECORD
  5
8A42
102
{ACAD_REACTORS
330
8103
102
}
330
8103
100
AcDbXrecord
280
     1
102
MATERIAL
148
0.0
149
0.0
149
0.0
 93
        0
 94
      127
282
     0
 72
     0
 77
     0
171
     0
175
     0
179
     0
273
     0
  0
XRECORD
  5
8105
102
{ACAD_REACTORS
330
8103
102
}
330
8103
100
AcDbXrecord
280
     1
270
     1
271
     1
  0
XRECORD
  5
8104
102
{ACAD_REACTORS
330
8103
102
}
330
8103
100
AcDbXrecord
280
     1
270
     1
271
     1
  0
XRECORD
  5
8108
102
{ACAD_REACTORS
330
8103
102
}
330
8103
100
AcDbXrecord
280
     1
270
     1
271
     1
  0
XRECORD
  5
8107
102
{ACAD_REACTORS
330
8103
102
}
330
8103
100
AcDbXrecord
280
     1
270
     1
271
     1
  0
XRECORD
  5
8109
102
{ACAD_REACTORS
330
8103
102
}
330
8103
100
AcDbXrecord
280
     1
270
     1
271
     1
  0
XRECORD
  5
8106
102
{ACAD_REACTORS
330
8103
102
}
330
8103
100
AcDbXrecord
280
     1
270
     1
271
     1
  0
XRECORD
  5
8A41
102
{ACAD_REACTORS
330
80FB
102
}
330
80FB
100
AcDbXrecord
280
     1
102
MATERIAL
148
0.0
149
0.0
149
0.0
 93
        0
 94
      127
282
     0
 72
     0
 77
     0
171
     0
175
     0
179
     0
273
     0
  0
XRECORD
  5
80FD
102
{ACAD_REACTORS
330
80FB
102
}
330
80FB
100
AcDbXrecord
280
     1
270
     1
271
     1
  0
XRECORD
  5
80FC
102
{ACAD_REACTORS
330
80FB
102
}
330
80FB
100
AcDbXrecord
280
     1
270
     1
271
     1
  0
XRECORD
  5
8100
102
{ACAD_REACTORS
330
80FB
102
}
330
80FB
100
AcDbXrecord
280
     1
270
     1
271
     1
  0
XRECORD
  5
80FF
102
{ACAD_REACTORS
330
80FB
102
}
330
80FB
100
AcDbXrecord
280
     1
270
     1
271
     1
  0
XRECORD
  5
8101
102
{ACAD_REACTORS
330
80FB
102
}
330
80FB
100
AcDbXrecord
280
     1
270
     1
271
     1
  0
XRECORD
  5
80FE
102
{ACAD_REACTORS
330
80FB
102
}
330
80FB
100
AcDbXrecord
280
     1
270
     1
271
     1
  0
XRECORD
  5
8A43
102
{ACAD_REACTORS
330
810B
102
}
330
810B
100
AcDbXrecord
280
     1
102
MATERIAL
148
0.0
149
0.0
149
0.0
 93
        0
 94
      127
282
     0
 72
     0
 77
     0
171
     0
175
     0
179
     0
273
     0
  0
XRECORD
  5
810D
102
{ACAD_REACTORS
330
810B
102
}
330
810B
100
AcDbXrecord
280
     1
270
     1
271
     1
  0
XRECORD
  5
810C
102
{ACAD_REACTORS
330
810B
102
}
330
810B
100
AcDbXrecord
280
     1
270
     1
271
     1
  0
XRECORD
  5
815D
102
{ACAD_REACTORS
330
810B
102
}
330
810B
100
AcDbXrecord
280
     1
 70
     1
 90
1959938040
 71
     1
  1
1402BA59-9F2F-492C-BD99-550C989BC350
311
504B0304140006080800CF538B4FED59490AD7000000200100004F00000036303446303539322D413231332D343032392D383835412D3245323341463941383935312F4173736574446174612F446566696E6974696F6E4974657261746F7250726F706572746965732E62696E454EC14EC3300CCD383071E0C01F4CBB87D4
311
E9B4C2B40DA1B6EC342E70E23279C52B95D2746A52892347FE1A6C31B428CF769EFD9EF3AD94FA391D2ED588F1C5F19AF3863CF54DF5527D508BEA5218D7EDD18DCFBD0B2EE559D001071745B56D4245CEA1A76E0837E7D1498B91EDD0DD8AE88AF14F0471A8FF96C9FE67867C4932BE1F170F1802C59539EC3F4D61F36C6E
311
0134C05DAE67B3A7523FA6F35497595AE6004561CBCCF414BAA1AF28186B92DDC97977F4B54DE05E8365F12B248B54EEDBD2C4A6A5F532C4BEF1F5C4634BABA9C4E99A7D7E01504B0304140006080800CF538B4F2E9162092B010000300200004500000036303446303539322D413231332D343032392D383835412D324532
311
3341463941383935312F4173736574446174612F496E7374616E636550726F706572746965732E62696EEB606060F80F0540260323103700495E20ED9E9A975A94991C9C9C919A9BA8021430343130727234B5D4B5743372D335B13472D67572B1B4D435353570B6B4B074723636356047680469313634717135026A313531
311
31D635313332D475727372D13534373670367376B67474B5042A03DBCBA019D37FE8ABC6157B20CD04146B0062181F4C03F940F0C11EA29A8141C08141002C0426541C106CAC2CA046088033B02A030AC2157C6006F21A8018AAF50194E6010A610250382264E08660284CD9E98021862280A91564B406929A0FF62C401E28
311
B6F88038B83CB1243943D7A928312F25350524C3600822183EFA38B308288467E6A5E4971733D8307030B030BCDFF7D6C794ADDBFF17AB1648053F28AA39418A9140384326431E430A433E43394331505C8CA10C622200504B0304140006080800CF538B4F28BB58AF800100009E0500003D00000036303446303539322D41
311
3231332D343032392D383835412D3245323341463941383935312F536368656D61732F436F6D6D6F6E536368656D612E786D6CBD544D4FC23018BEFB2B96DE15493C78601010A34B880709DEDFB52FD0D8B54BD70DF6EFED3AC0B12E6442E2716BFB3CEFF3D18E26FB440405EA8C2B1992E1C323095052C5B8DC842437EBFB
311
673219DF8DA659866649B798C078B48AE6410122242F2A4994AC7F93815DF85C049C8564CA0A901499DD886B2EB9B1E02448F358701A9235880C49A0119892A20C89D1B9FD768815CAD268CB5E0355B40B1E47F3E37A2020464BED06AA57CE8FCC20C3C3446D46761A2632A8C1283D07031EFF2AE7CCB1BFEEE916E406DFAC
311
8E36FFD99A9D60A6944090EEDC3B670C7DC13DE86B6B2C5C240D6E503BB85ACD579D513F1B9F9A69DC9CC22AFA80C426D40AF0B21EA168559156B6276F0F726A6BFF04DCD513A87A62CAD41FB24FCB2858B3952E3D852084DA25B9303C15687973CC8E8AAE11DF2836C38C6A9E765E8C1BA1BFB1DC29CDFE518C8B5A7655A4
311
ED7E77291ABEB80DBD82EC866ADE1B8D05AF9E35CF09D7A061F38A986D9EC412B8F0F65E5D81534D9B231D1E5A8FE577A241F3A5FD01504B0304140006080800CF538B4F2CCEBD668A040000E01200003E00000036303446303539322D413231332D343032392D383835412D3245323341463941383935312F536368656D61
311
732F47656E65726963536368656D612E786D6CD5586D6FDB380CFE7EBF42F0F7A649B70E1B90744856B4970F450FCD7A5F05459613EDE4174872DADCAF3F522F8ED3B88D2F1D06AC4050DBA2493EE4438AF2F8EB73AEC8466823CB62928C06C384888297A92C5693A4B6D9D9E7E4EBD51FE3A931C22EF85AE4EC6AFC38BF26
311
1BA626C9AD288496DC3F4FCEAFC63366845F7A10452AF41DB320C0D44EC26EAB20918735565582695670811A6A49643A49A6E9069FA4604A64B29016DC4B48552F95E4932463CA888468C1D2B250DB4962750DF7CE273069CE8363F1FF4EDB00E0A21999574AE4A2B00C353B93F3BD4777B8A61ED8F604ABFEDD79CE56A2B7
311
BDFBDBC50996E0ADDE16FED26223C5D30956C29BDF4A55EA686E5E58B112DA45CE67F76F4FA27EFA3FB672FD7372FC388FAECDCA5209E693CAD167BADCD272F943701B3812F8A3D852008B1D2E32DB927B2F833C6EA95879925356D254582695095A3CE982924720BE5774A3CB9CDCDB350427D2DF20DA1B5532EBE2D5D628
311
8D75D4F7E4FD9890A0EF8E3D93EBB8F8BA4758158EF6FB90A6F9520281C93DE7AAC6D24607DA296BB96018123F821A7D6A5C5884050C475DA4865442732C8B95684A50165CBB3A32F25F783A4A480ED59AD7F924B968AEA50131F46303223E6A397B0E52976030DC1DCA81D7E7C1EDEEA42C19FF27635C505E2BD5198A5990
311
20DF50A2330FCB3AAF28CB0124108429553EF1B228802E2265D8F7CC2401042B155BCC7070F1E5C55F13B4A9577362CCCE46C32174E010C3C378C44841A4BDA00FE3A12006CE11EE6AEC59894D3526DDE1CD59D503ECC324017F8061B7F162162FA62EDD81AE3308617770796DCBDAD2B2625C5AE8A63DE20B2C8AA5E95E76
311
E5730823955956E33E705425A2187C185D36489A1B44D3DCEC2172F6BA2105C3546287A7194B2331768EBBE64F6E70A9930ABE0ADEA89E9E2C38523B810287AD67A54A039C1606EAFE68F8304610BB9093DBDDABC0B2AE4E290DCDA15376D7E39F72B556F0B32EAB5D3D498B4C41ABADEC3A1434C422D87E8025A84BDCB2B1
311
417ED750FAE4DA8976863974C577C7F902D3F156AD354DEA3540DE6BEAE2BEA52F7A2EB4CA43802ECE5BF2CE2EDC9347179FFB023CE412E60BE16DA0BE29B374988A553F561DC04615DD35F7D2C8979F60E5955CE93DF29DED8AFA1EE6642D53418086C03C47C377910F75F7E8F5EF665F70B60FFB22AEDF897D119E8423C7
311
73E819A3C1E55E550599EE6EDCA34D0C86FD72057DF2CD46F16A470682471C164E4346D5306BF12D7D12D82CFF673D41636C347443FEB51B50D72EA171A8E4A58623A4A16E0FA2B8B10A0D23268D87C33896EE8FB73305A74BF224EDBADFA0BD674AB354D63DB7BD5D83426761C077DE767728235446A552754EB93B755891
311
C3C4CC6CADE37CF0E912A7BB38DBA010F9DE1282EDF470CA69A9CDA482E334C4A6EA4107987980B17E72F31730EBF88BBD39E7C629F56797A3C0009C2C5AE7951D9A05A02773440F02EEB4DE396A3B6A570C72CCFBCD823B0B8ED3F1D5CEDDFED772FA70236C83FB7D86C385D570B87107535572A60A96035F8F7C6A7192F1
311
3007246BBE0521855E6AC46F3E27689CEE7D186A6FD679D98CDCAD13333E04EBE7ED6F55FF01504B0304140006080800CF538B4F6180134D5F0100006B0300004500000036303446303539322D413231332D343032392D383835412D3245323341463941383935312F536368656D61732F52656E6465724D6174657269616C
311
536368656D612E786D6CA5934D6FC2300C86EFFB1551EEE343DBA41D1A103009551ADAD40EAE28A4A68D9426284961FCFBE5A340113B2071746D3F765EBF4DC6BFB5407BD0862B49F0B037C0082453059725C18DDD3EBFE3F1E829991803366715D474942CD30FB4A782E00C64017A412D684E454CE3FE28995203B162A6EA
311
5AC94B66997D225E109CD63B0135484BAD1B3C07E9080CA35DB3119C11BCA5C200461A68A1A438126C75E3E230D40FF81FB3F03C91D1E3A3A0AF79FE28E25BC39EC3E17E4C2A2D94A0833A51AF55BCCA7D88572FCBAC529C4140B020FC3AAFA886621DCED7EAD7664CC86024E806DC297DA1BB393E4156543457A4537DB881
311
7349A70F8ACBF09B3EEE2CB2F33E91B65D60786E4E3B39B77E3FEEEF5650424525DA657FB8B46BE6BF064646F0A0F7327C0BC1BC1B4CBBC1C419FA3CCB23500007872A2580CAAE5461865565294E4EDB4617B62FF579DF9A5B2F54E834076A597573A020912FED777F9B3F504B0304140006080800CF538B4F3D5C77985100
311
0000570000004700000036303446303539322D413231332D343032392D383835412D3245323341463941383935312F4173736574446174612F41737365745461626C654F66436F6E74656E74732E62696E5361606030343130727234B5D4B5743372D335B13472D67572B1B4D435353570B6B4B074723636351002AACB4D2C
311
492DCA4CCC492C28484D2C4ACC4B4E050A82012F90744FCD03CA26072767A4E6260200504B0304140006080800CF538B4FF865834058000000680000004500000036303446303539322D413231332D343032392D383835412D3245323341463941383935312F4173736574446174612F53747265616D56657273696F6E5461
311
626C652E696E66558CBD0A80300C06F73E4B117FB66E451741D041DC5BF98480A492E4FDD18EAEC7DD4555D89EF28DF51A0B1BD8340C4DE7DD848B988C0ACF0649566493F2408C508DDEBB99D5129FF8F1AF8CF5B9503E20FAE5A16B5AF702504B0304140006080800CF538B4F9D514A06310100009A040000360000003630
311
3446303539322D413231332D343032392D383835412D3245323341463941383935312F4173736574446174612F636E782E786D6CCD54B14EC33010FD95C87BECB82C801C5708964E205131B05D9D4B6BD5B123FB82E0EFB1D30CA022A60E953C3DBFBB7B7EF23BB5FE1C5CF58131D9E05B2679C32AF42674D6EF5B36515FDF
311
B26AAD550C817ED058E561C096159869B58F611A17A8C31E26575067FD71011F5242DAC2CEE173FF183CA1A7C42AE320A5962573C001384C143A4C47DE0101973C620A5334983B911D70E964220261C7F4AA9177B55CD5526E65737F53CEBB1285A9D52E04B7F06D1E16C35899D354A61B25CAB55653B40BA7BC85E9BF34F2
311
9DF54A64A6568962F664A9A0AF3157C0383A6B80B275221842AA33096150E244D64A140F7E39F184BDF5B6946CB230A0105FB23C8C64F1EA1CF94FEBE59DD9F844E00D5EAF1FE70A2FEFC2EBFC83DE4E819C13736D393957C8ADEF2F901231AF911C9AB255F437504B0304140006080800CF538B4F8B6EAE9F050100004F03
311
00003400000036303446303539322D413231332D343032392D383835412D3245323341463941383935312F536368656D61732F636E782E786D6CCD933F4F432114C5BF0A612F3CEAA28647870E4E2EEAE486705B4981FBC21FA3DF5E7832B4899B0E4D18E0F0CBCD3D878BDC7D064F3E20658771A6824D944034685D3CCEB4
311
96C3E696929D9209B19C6194441D60A65DA64A1E13D66548160EBAFAAE7A174F43DC6308189FCD3B044D89F13AE799E6F5C8742D68219F98D54533C11264ACC940AB505C8051C124D0052C55DB49DC6DC47623C48B98EE6FFA7A95BC934ABE21FAC1BB5820E1420CB64D6CED4C92F76B256B7283E91EA83AEF8DB534246F84
311
92B9A496C120CBD7D248BD2CDE195D5A547C057F182579B77A61F801222467AED3F14573FF66F909A285F4D85E2939EDAFD3F96F3DFE2D00BECE7E1B81FE15D437504B0304140006080800CF538B4F410A3D5871000000A40000002C00000036303446303539322D413231332D343032392D383835412D3245323341463941
311
383935312F636E782E786D6C55CC4D0E82301086E1AB34B31774E7A22D31F1069E60020334B633A63FC6E34B0909B07DDE2F9FEE7EC1AB2FC5E4840DDC9A2B28E25E06C7938192C7CB1D54677514C9871928C640062A83D55394F2D968A0118BAFEA1DBF377CA444F98919176EAB9FEAAB9F2960DA5BBB1E2ED3FA6FFF504B
311
0304140006080800CF538B4F67694E5A7D000000A300000007000000636E782E786D6C4D8C410AC3201405AF227F6FAB26160535B868EE111A13A446838DA5C7AF962CBA7A30BC19357CB680DE2EBF7C8A1AE8850072F191661F570DE558B000341895533AFE6E80E2B4390D0D83516B4E653FD1EC96A98446838FCF13DE48
311
3F122E19B68C76B8274C6221B8C5ECCE3A3B4A2B24A7D5B836A5CEAF57B7E5CD17504B0304140006080800CF538B4F16E99B5DA600000035010000130000005B436F6E74656E745F54797065735D2E786D6C9590410E82301045AFD2740F4517C6180A0BF5065E60AC53688469D30E066F6F91AD9AB89CF9FFFD3F99BA9DC7
311
413C3026E749CB4D59498164FCCD51A7E5C4B6D84BD136F5E5193089ECA5A465CF1C0E4A25D3E308A9F401292BD6C711388FB15301CC1D3A54DBAADA29E38991B8E0254336F5092D4C038BF39CD76B6FC6A538AEBEA54A4B08617006389FA516557DE4AE8E7E70DE30729138228C5F021CD93F02D4FB0DCD0B504B03041400
311
06080800CF538B4F3DEE336E64000000790000001B0000006175746F6465736B2D64657369676E2D7061636B6167652E786D6C35CBC10E83200C00D05F21DCA56CA76D41FC96062B120735B69A7DBE268BB7777961F8D5AF396893C2ADB70FE7ADA196782C2DF776D7A97B5933C430F15651E5469C55D70F80A4992A3ADC95
311
4792C525AE70A1E4D6AD9816CC044FEFDF01FE3FDE907802504B0304140006080800CF538B4FE7D0E7F4F8000000960100003700000036303446303539322D413231332D343032392D383835412D3245323341463941383935312F4173736574446174612F636F72652E786D6C8550CB6E833010FC15B477030652A0328E12
311
4ABEA0A7DE2CDBA156828DFC88FAF9B50395DA53254B6BCDCECCEE0E397E2DF7EC21AD53460F80F31232A9B9114ACF03047F451D64474AAC31FE170D32CD163940828192D99AB0EE1037DA4B9D506D84DC41E69CF490F17BFC0CE0F8A75C58CE828F0C77CB57C66F6C9639CE371E252128B14B95886EEAAAA4055A4EDDA539
311
4C3D7AE9DB1135D534A2D3A539A37E6ACE535BB763DFD5A448624ABC5A7EA6732B9997026855E21EE10A61FC8ECBD73ABD0F52242625CEDB78F33E345D07F494B67E639E9162EBFE710DABF8DF3528EDEB6A77DD140E288E4B3E1B941429A5589E11C69A12A5DF504B0304140006080800CF538B4F6E1C7531F70000009401
311
00003500000036303446303539322D413231332D343032392D383835412D3245323341463941383935312F536368656D61732F636F72652E786D6C85505D6F842010FC2B66DF51515BF5825C7AC6FB03ED53DF087096DC09868FA63FBFA036699F9A902C999D99DD1D72FE5A1ED9A7B44E193D00CE4BC8A4E646283D0F10FC
311
0D75909D29B1C6F85F34C8345BE40009064A666BC27A40DC682F7542B511F2009973D243C61FF13380E31F7261390B3E32DC3D5F19BFB359E638DF799484A0C4215522BAA99B9216683975D7E669EAD173DF8EA8A9A611BD5C9B0BEAA7E632B5753BF65D4D8A24A6C4ABE5673AB7927929805625EE11AE10C66FB83CD5E9BD
311
9322312971DEC69B8FA1E93AA0AFDB9E8E147BEF8F6758C5FF9E41695F5787E7AE7040715C716B5052A48C62D9028C35E549BF01504B0304140006080800CF538B4FD26489F2FF000000D70100002D00000036303446303539322D413231332D343032392D383835412D3245323341463941383935312F636F72652E786D6C
311
9551416EC32010FC8AB5776CC071655798C887E6053DF5466193A0C46019A8FAFC42EC4AEDAD9590160D33CBCEAC387ECEF7EA03D760BD1B81D5142A74DA1BEB2E23A478263D54472956EFE30F1A544ECD384281418ACBEAD3B243DABB88AEA0CE1BDC41150246A8F43D5F4608FA8AB3AA558A99116EF5A2F44D5DB066F5C6
311
9322DAF95BAA5754110D484ED94018278CBD32FADC96F3269AC2942259175BBE7F86F33B9ACA2F315B02D989667BCDAC64CDCEB126CF68CF1657904FF470A2DDC0C9C4594B0E940FA4EFBB89F017DE4EA761EA878EE526592C45886B4E666F5232F8AB7C13FE729616F34F679B22802CF33C2C4BD194987379EC20D7B212F9
311
05504B0304140006080800CF538B4F4317414C07010000B201000008000000636F72652E786D6C8D50CB6EC32010FC15C41DDBD86E1D4798A8B19C2FE8A9370AC445B1C1E211B57F5F88A9D4DE2A212D9A99DD995D72FA5C177097D629A307888B0A02A9B9114ACF030CFE8A0E109C28B1C6F85F3208345BE500130C2999AD
311
095B86B8D15EEA846A2364069973D243C097F819A0E31F7265050B3E2ADCADD818BFB15916B8D8759478B5FEB4722B999702D2BAC23DC235C2F81557C726BD3752262525212891AD9488EEEAAAA485B49A0E97F669EAD173DF8DA8ADA711BD5CDA33EAA7F63C754D37F6878694A99912E76DDC390F89393D70EC9E7C49B953
311
94BC1BB364410C2580D1CB5734216522FE840E9BF84768A57D53E7817B878314C7400F221AA70BC6F2386FACE9DAF41B504B01021400140006080800CF538B4FED59490AD7000000200100004F000000000000000000000000000000000036303446303539322D413231332D343032392D383835412D324532334146394138
311
3935312F4173736574446174612F446566696E6974696F6E4974657261746F7250726F706572746965732E62696E504B01021400140006080800CF538B4F2E9162092B0100003002000045000000000000000000000000004401000036303446303539322D413231332D343032392D383835412D3245323341463941383935
311
312F4173736574446174612F496E7374616E636550726F706572746965732E62696E504B01021400140006080800CF538B4F28BB58AF800100009E0500003D00000000000000000000000000D202000036303446303539322D413231332D343032392D383835412D3245323341463941383935312F536368656D61732F436F
311
6D6D6F6E536368656D612E786D6C504B01021400140006080800CF538B4F2CCEBD668A040000E01200003E00000000000000000000000000AD04000036303446303539322D413231332D343032392D383835412D3245323341463941383935312F536368656D61732F47656E65726963536368656D612E786D6C504B010214
311
00140006080800CF538B4F6180134D5F0100006B03000045000000000000000000000000009309000036303446303539322D413231332D343032392D383835412D3245323341463941383935312F536368656D61732F52656E6465724D6174657269616C536368656D612E786D6C504B01021400140006080800CF538B4F3D
311
5C779851000000570000004700000000000000000000000000550B000036303446303539322D413231332D343032392D383835412D3245323341463941383935312F4173736574446174612F41737365745461626C654F66436F6E74656E74732E62696E504B01021400140006080800CF538B4FF865834058000000680000
311
0045000000000000000000000000000B0C000036303446303539322D413231332D343032392D383835412D3245323341463941383935312F4173736574446174612F53747265616D56657273696F6E5461626C652E696E66504B01021400140006080800CF538B4F9D514A06310100009A0400003600000000000000000000
311
000000C60C000036303446303539322D413231332D343032392D383835412D3245323341463941383935312F4173736574446174612F636E782E786D6C504B01021400140006080800CF538B4F8B6EAE9F050100004F03000034000000000000000000000000004B0E000036303446303539322D413231332D343032392D38
311
3835412D3245323341463941383935312F536368656D61732F636E782E786D6C504B01021400140006080800CF538B4F410A3D5871000000A40000002C00000000000000000000000000A20F000036303446303539322D413231332D343032392D383835412D3245323341463941383935312F636E782E786D6C504B010214
311
00140006080800CF538B4F67694E5A7D000000A300000007000000000000000000000000005D100000636E782E786D6C504B01021400140006080800CF538B4F16E99B5DA6000000350100001300000000000000000000000000FF1000005B436F6E74656E745F54797065735D2E786D6C504B01021400140006080800CF53
311
8B4F3DEE336E64000000790000001B00000000000000000000000000D61100006175746F6465736B2D64657369676E2D7061636B6167652E786D6C504B01021400140006080800CF538B4FE7D0E7F4F80000009601000037000000000000000000000000007312000036303446303539322D413231332D343032392D383835
311
412D3245323341463941383935312F4173736574446174612F636F72652E786D6C504B01021400140006080800CF538B4F6E1C7531F7000000940100003500000000000000000000000000C013000036303446303539322D413231332D343032392D383835412D3245323341463941383935312F536368656D61732F636F72
311
652E786D6C504B01021400140006080800CF538B4FD26489F2FF000000D70100002D000000000000000000000000000A15000036303446303539322D413231332D343032392D383835412D3245323341463941383935312F636F72652E786D6C504B01021400140006080800CF538B4F4317414C07010000B2010000080000
311
000000000000000000000054160000636F72652E786D6C504B050600000000110011005A060000811700000000
310
504B0304140006080800CF538B4F000000000000000000000000370000006662782F41324641434432322D374246442D344233342D383033452D4236313343424241324339422F617474726962757465732E62696E504B0304140006080800CF538B4F000000000000000000000000350000006662782F4132464143443232
310
2D374246442D344233342D383033452D4236313343424241324339422F76657274696365732E62696E504B0304140006080800CF538B4FF270F1330600000004000000360000006662782F41324641434432322D374246442D344233342D383033452D4236313343424241324339422F747269616E676C65732E62696E6366
310
60600000504B0304140006080800CF538B4F51464CB48900000043010000360000006662782F41324641434432322D374246442D344233342D383033452D4236313343424241324339422F6469726563746F72792E786D6C9D8F310EC2300C45AF127987122606C71DD918B841D4B851A43646695A717C52A85029031293A5
310
A76FBF6FACEF7DA7264E43906840EF0FA03836E242F406C6DCEE4EA06AC22492573150D1F66C60C640E8938CB705396EEDD86DE9B5042FE27813D640EA63BB001C722AF6E55CB61E4863F58284D5D3F53DD715CE1C3985E63FD7F1B7EBDD617E9F1E504B0304140006080800CF538B4F74DA5C05320700001A1C0000340000
310
006662782F41324641434432322D374246442D344233342D383033452D4236313343424241324339422F6F626A656374732E786D6CDD59EB6FE23810FF57ACDC67F284B6AC28AB16DA0A9DBABB5AB4A7FB1699C4505F9D879CA48FFBEB6FECD8214E03A4FB905647A5121C673CF39BF764F6F12561E889F08266E9A5E5D9AE
310
85481A65314D779756556E471716FA3847339E65656B9F85529C904B4B2C5BF3D98E6755AE9662B2C515EBAEDE5EFF8D8A88A4C44211C345716915D10349B08DAB328B49F168C7B8C4F66EFB627B76BDD124BBE3387FE81C95634ED2125885F514A8280E3CF32788E4CC678ED8606C0B866DF38F6C73A4E026A3342D4A9C46
310
6FB8EA1CE71FE0AA735CE08D9737FE643A9A8CC7C1687CE67BA3EBDBEBE5C83B0FDCC5D96231BDBA995A683EDB64196B14909334062DBE5A736FE6883B8DF80A853EBEA32C4D49A4D0ECDB1013459792A28B8901AC27456B29A496B5B5100C14FEC0B641A0182C19686BE1F477DB7AB3CD3F004231C44A794184951725075D
310
2BEC6B7F70674EBD6AE8851628C125E11433C4E886630E0A82ADB5820C32C25B04292430935AD4F4DABC82619FF6A53E2EB71563C27FADB9F4B410FC919485E48CFE4BF89EFBF669C013485BD1B4BC50C296AF399098CE1CB958DF0B7C75B306126D19DE81B580986253E077F05A8858B05A5AF33F6F372F6B111FFA0FCF79
310
96135E0ACB93CEACFC4E6BB0655A607C0340A9713575B747E52B40FF09906F784133D01CA72FE397B1969DE3B4D8663C01ED20178D5CF8E72271F9E66AE6340FCF113262E5214CC16D7F12A68618C6D92D48E7B32730FA8C074AB8758419D8F43D4D859F83A12096C112C4FBEDE6C59AAF2098C2223C8519480F7F33475C22
310
F8AAE940BCE968A82FFC0E50947698AE9FED75750736C369D4A8CA90F110BE939F82EFD572FDE7BAE25B1C917BE5D84BB2A5292D2199F63364806EB8FCB7D527E991772CDB60B67FDAD814C131BB4CC48D1EB5AC955A90D40B7022D270AD19B9724FC1DB19C329C9AA42ADF7C5A92863190F37AF61EDC2BD67FDA56DA03E4C
310
19406F2C83E41E719A0B4CACB9D2561308ED96A06061982B0BDCD55A0D3755928738C9AA5484DAB7A6D8E503E28CB044A02AA969C3D65EABC9C674BBAD0A085EBD24170690CA9F35E1DAC2C710C7FAF8E564CB3124D12C0D29E4607096DE138C031AF08EF35C10B60D296355126E29833C1226383F407FA004EDCCF5485E9F
310
331EF712342D4BFBA4B62101B8025683A4B3551DF3954E3979A2A2CC94F94C67036387AA43ADF9F840BA1099A207506D8C75401ABBFEF515544CD35BFF76349EFA8BD1F5720A05D4C45D4C2FA6D78B60B2B71289C03E5AB5F31DA852943986FF950F55B24931657043888DE3FCC347993D2F1D088DCED25F9C4389E68D3CEF
310
62311A8F6F6F4657C15930BA390F6E169EB75CFA37E70E274556F188148EEFB8A136C93CDD75D13B1D43A1AC399DECB4BEBAC2FC8F63683727184AFC5D836863953D05E1D0202A1EED86501C3D8A14154650F5F5BA4F278876F9E88B73EF8CCBAE1DB8F2E37953DF9DFA17D3B3C6D88F066A79CE0FC7B93E0922E83BAB32CC
310
721CD1B23FA176701918A7DF955BECC09B2040A7F9DF1C723CCFA843429AE01D09B75874093D81F19404BD396CC7B2A2A029296497F7A6FAEBD0746D28A6CC9CDB6384B4081352E2EFB13FD936746C1A62330BA11F2DC544E06455D018B4EA400E5114DD2F246E29FF6B58E0246775A77B0A03CFD710E81EA7CFE204D3E288
310
27B0B71097A11B1339B83845BD615FD707BD5AEB529F7E37F903F0E8BAE617C2A38F185E3AD9136F2A3E171054CE265E70AE15710A2B7D5429FA385641E719BD86CF84EE1E06159AC374D22AD9EAA2BA2409B4B1B8ACF8207F3D9BB86F0E5271A1E310AD93DE591CCAFE4D7770809E6CE00E95B7AD63A00EA529CCB90609F2
310
468A5E1396BA90333D31BA7A875F1F55769BEA0FC7CB5F5E31B79D2F91C39FD33840B55C0760157D8C9ABAB7EA36EAA1E219971104D2B5FC1E5D8347C424DE376606B9BE125DD7A9A7AAE79508A8094C6CB188B3F7E2827DC5A06AE89E0BE7AE2EDA9C7A7D25129B0DC3E93D1F06D326ADCF77EB0E155819FCF417811179EE
310
5050AB0BD10D1F21F56DB5EFF93B149444DF56471EFF2D3A0AADC0D6180DA6C145C6280CE5498C762483EC0D638701DD064F4821B33218AF0A52FA8DC080A79FEA996A89374C3F1D3D60184C33D58B55110C4521635E5A6A1DFD016350318994C329FB11DA3015C32C54717A6981C59614BA2D7B03E32C393C94D43BE34A70
310
6C9CEE44BEAF9F6A7EEF1F13E84054DACBD5EC19828B92CC7026286C73F99E00AABEFAC67CF6FDA26B76102EE17253958D30FB85BD340A04FD42A0160EA67E8F0ADE1728288ECBE5D9728F01C9A0C9FC513BA8A98E4ACC7772BCDEC2FB6AF9C51193F1D56794B36A27D479ACFB35288D44D7CDAA7A0A3503C35062E658D490
310
8B0FCE179EC12BA604DD5230026791254996AA1F57EA15155A3FC00BA7D8D1C33E68E05D6FE2C8FE5F0DF4C30D2E888DE3E2111640A99C8AA9680DAEA1FA268EB654AF7521B4008F19FB574BA4AAA2D66CA41D700530729A8FC085C45B1CE130ED0DADD123780170256FEE2FF4C2CCE130FE9EFF07504B0304140006080800
310
CF538B4FBB1350FE3B01000046050000300000006662782F41324641434432322D374246442D344233342D383033452D4236313343424241324339422F636E782E786D6CCD94C14E032110865F85705F58EA450D4B130F3E8107E38D65A72B96850DCC1AFBF642A555636A3C34A9090732FC24FF37F367E4FA6D72E41562B2
310
C17754B09612F0260CD68F1D5D70D35C53B2563286805F6494783D41474B992A39C6B0CCB534C0462FAE549DF5DB5AD488D1F60B42A2C4389D52479379864933BD6018206DD9A05133C122A4B04403F93FDA09EA7F1341230C54AD5A71D3885523C483686FAFCA7992BC2895EC4370556F3D420C3331215F7C36D34A5E9E95
310
5CA2AD9A4240D5A733D65B2F797E573265B77EAC3ADCCD4537CFCE1A8DB94D3C18046CB208F424F98758495E78BF51DFDF3D1E1C90C1463018E2EE420D10A71A7034C67212FEC6BF17FE8E1DFA978C7BA9699F84ADB6CE867A486BCA71FD39FF9C22ED47F7FF427F3476FECCE75582D6FC3FE483AF3311F3FDCACB432F1B50
310
BD03504B0304140006080800CF538B4F33DF6FE47E000000A30000000B0000006662782F636E782E786D6C4D8CD10E822018465F85FDF794822BDB000798EFE1121D13A191B41E3F685E74F56D67DF39ACFB6C0EBD4D7CD9E039D4A70A90F18F3059BF7048FB8C5B409D603184FDEF06C88F9BE1503008B6C4909E079ACC3C
310
2657A8B37E3DA02483D43D21F8AA861E378A36B8ADE81DAB4B4DB55292E89BCAC6B928797EBDBC252FBE504B0304140006080800CF538B4FA6D797065F0000008200000007000000636E782E786D6C4DCB3B0E80201045D1AD90E9FD7516806B51190811670C8A61F982B1B0BAC9C97B72CA7B1037C6D3332918DA1E04D2CA
310
C69353902EDB8C20262D23F3F59B81A079470595414B17391D1F19B4730A5583A7ED43BBE4025D9592775E5ADFFA01504B0304140006080800CF538B4F4FEB6A7CA0000000F4000000130000005B436F6E74656E745F54797065735D2E786D6C7D8F4B0EC2300C44AF1279DFA6B0400835ED02B8011730C16D239A8F121795
310
DB93D02D6269CFBC19BBED573B8B17C564BC53B0AB1B10E4B47F18372A5878A88E20FAAEBDBD032591BD2E299898C349CAA427B2986A1FC86565F0D122E7318E32A07EE24872DF3407A9BD63725C71C980AEBDD080CBCCE2BAE6F5D69B7110E7CD57AA146008B3D1C8F92C5954F993BB1BF787F39A89ABC491D09600F9FDA2
310
FB00504B0304140006080800CF538B4F3DEE336E64000000790000001B0000006175746F6465736B2D64657369676E2D7061636B6167652E786D6C35CBC10E83200C00D05F21DCA56CA76D41FC96062B120735B69A7DBE268BB7777961F8D5AF396893C2ADB70FE7ADA196782C2DF776D7A97B5933C430F15651E5469C55D7
310
0F80A4992A3ADC954792C525AE70A1E4D6AD9816CC044FEFDF01FE3FDE907802504B0304140006080800CF538B4F6933D5DEF8000000960100003B0000006662782F41324641434432322D374246442D344233342D383033452D4236313343424241324339422F7265736F75726365732F636F72652E786D6C8550CB6E8330
310
10FC15B477830D8494C8384AAAE40B7AEACD321B6A25D8C88FAA9F5F3B50A93D55B2B4D6ECCCECEEF0E3D7FC283ED1796DCD00ACA450A05176D4661A20861B7981E228B8B336FCA24161E48C036418049F9C8DCB06296B029A8C1A3BE2064AEF3140A11EE93380571F38CB52C69018FE5E2E52DDE584252B579EE031EA7193
310
EA31B9E99B46078276BB7DDD5D4E84F61D25EDE5BC23E7BABD92B6EBFB7D737DA5DDA9E155160B1EF4FC335D399401471035653D613561EC8DD14393DF3BAF3253701F5CBA791B9AAF03E1D0DBE8147A5EADDD3FAE7119FF778DDA84A6DE5C578507C1D292CF86E0554E29956784A9E644C537504B0304140006080800CF53
310
8B4FEF1B030FF1000000B1010000310000006662782F41324641434432322D374246442D344233342D383033452D4236313343424241324339422F636F72652E786D6C8D504B6EC32014BC8AF5F6D806476D526122E33427E8AA3B04C44189C1E253F5F885D895DA5D24A487861966DED0E3F77CAFBEB40FC6D91E70DD42A5
310
AD74CAD8A987142F680FD59151EF5CFC4383CA8A59F750606074F22E2D1B249D8DDA16D43AA5375084A02354F29E2F3D0479D5B3A8458A99116EF522E44D4CBAC6F5CA63349AF9572ABD16512B60A4C5078409C2F803B76F5D399FB4294C4653326AB3322ABB9B8BD11ED840CEC3782204BDF2F309ED78B743FBB67B47FC05
310
7723E703190F9C3645CC68883EEFBC7D52B67B56BE0AFF654E8B7A22B3B1B1239BE1AA08C070CEF37860B42905E6F16837CF5236FB01504B0304140006080800CF538B4F5A6FD33152010000DD0200000C0000006662782F636F72652E786D6C8D52DB8E832014FC15C33B0A6AED768334EDA6FD827DDA378AD425553008A6
310
9FBFE025AE0F7B8946C89C3373CE4C24C767DB448330BDD4AA04384620128AEB4AAABA04CEDEE10B888E9418ADEDB7361029D68A12041850521BEDBA19E25A59A102AA74256690F5BDB020E28DBF94A0E79FA2653173D677F48FB863FCC16A11E378EAA3C43959CD545979357997C2008A8ADD3E2D2E27880E0582F9E5BC83
310
E734BFC2BC381CF6D9F50D15A78C24814C8995ED329D1BC1ACA8004D113E409C428CDF317ACDC2FB4192D049496F8DF73C0F0DEE00BDDF9E2499F08D9EEBAABFF59C54364B67BD89D1038AFD7A63819224E4E38F31BC6D867EB0CFCFB25BB35878786810DC6A93FB4AA5DD5A1A58E3849746D1F89064AA7AE551E0279DF417
310
9DDF357C504CD57E3566FDF5E66C98BEDDA913060EF619296D5AD6ACCB4D2BAEDF75D0C6D242E7BAD1E63FECC5EA1266127E4CFA05504B0304140006080800CF538B4FBF9D081307010000B201000008000000636F72652E786D6C8D50CB6EC32010FC15C41D1B6CC7A92B4C9454C917F4D41B05E2A2D860F188DABF2FC454
310
6A6F959016CDCCEECC2E3D7C2E33B82BE7B53523241586401961A536D30863B8A227080E8C3A6BC32F1904862F6A8419868C4ECEC6B540C29AA04C468D95AA80DC7B15201073FA8CD08B0FB5F08AC79014FE56AD5CDCF8A42A526D3A46835E7E5A85533C28095983C9804883087925F8B9CDEF8DD659C9688C5A162B2D93BB
310
BE6AE520C3FD6EDFF4E723C2438F51773EEDD0A9E92EA8EB8761DF5E5E707F6C699D9B19F5C1A59DCB90943300CFEFD997D61BC5E8BBB57311A4501258337F25135A67E24FE8B8CA7F84D626B44D19B87578C8480AF4209271BE602A8FF3A69AAFCDBE01504B01021400140006080800CF538B4F0000000000000000000000
310
003700000000000000000000000000000000006662782F41324641434432322D374246442D344233342D383033452D4236313343424241324339422F617474726962757465732E62696E504B01021400140006080800CF538B4F0000000000000000000000003500000000000000000000000000550000006662782F413246
310
41434432322D374246442D344233342D383033452D4236313343424241324339422F76657274696365732E62696E504B01021400140006080800CF538B4FF270F13306000000040000003600000000000000000000000000A80000006662782F41324641434432322D374246442D344233342D383033452D42363133434242
310
41324339422F747269616E676C65732E62696E504B01021400140006080800CF538B4F51464CB489000000430100003600000000000000000000000000020100006662782F41324641434432322D374246442D344233342D383033452D4236313343424241324339422F6469726563746F72792E786D6C504B010214001400
310
06080800CF538B4F74DA5C05320700001A1C00003400000000000000000000000000DF0100006662782F41324641434432322D374246442D344233342D383033452D4236313343424241324339422F6F626A656374732E786D6C504B01021400140006080800CF538B4FBB1350FE3B01000046050000300000000000000000
310
0000000000630900006662782F41324641434432322D374246442D344233342D383033452D4236313343424241324339422F636E782E786D6C504B01021400140006080800CF538B4F33DF6FE47E000000A30000000B00000000000000000000000000EC0A00006662782F636E782E786D6C504B01021400140006080800CF
310
538B4FA6D797065F000000820000000700000000000000000000000000930B0000636E782E786D6C504B01021400140006080800CF538B4F4FEB6A7CA0000000F40000001300000000000000000000000000170C00005B436F6E74656E745F54797065735D2E786D6C504B01021400140006080800CF538B4F3DEE336E6400
310
0000790000001B00000000000000000000000000E80C00006175746F6465736B2D64657369676E2D7061636B6167652E786D6C504B01021400140006080800CF538B4F6933D5DEF8000000960100003B00000000000000000000000000850D00006662782F41324641434432322D374246442D344233342D383033452D4236
310
313343424241324339422F7265736F75726365732F636F72652E786D6C504B01021400140006080800CF538B4FEF1B030FF1000000B10100003100000000000000000000000000D60E00006662782F41324641434432322D374246442D344233342D383033452D4236313343424241324339422F636F72652E786D6C504B01
310
021400140006080800CF538B4F5A6FD33152010000DD0200000C00000000000000000000000000161000006662782F636F72652E786D6C504B01021400140006080800CF538B4FBF9D081307010000B2010000080000000000000000000000000092110000636F72652E786D6C504B0506000000000E000E0080040000BF12
310
00000000
  0
XRECORD
  5
8110
102
{ACAD_REACTORS
330
810B
102
}
330
810B
100
AcDbXrecord
280
     1
270
     1
271
     1
  0
XRECORD
  5
810F
102
{ACAD_REACTORS
330
810B
102
}
330
810B
100
AcDbXrecord
280
     1
270
     1
271
     1
  0
XRECORD
  5
8111
102
{ACAD_REACTORS
330
810B
102
}
330
810B
100
AcDbXrecord
280
     1
270
     1
271
     1
  0
XRECORD
  5
810E
102
{ACAD_REACTORS
330
810B
102
}
330
810B
100
AcDbXrecord
280
     1
270
     1
271
     1
  0
XRECORD
  5
8A77
102
{ACAD_REACTORS
330
8A76
102
}
330
8A76
100
AcDbXrecord
280
     1
102
ACAD_ROUNDTRIP_2012_MLEADER_STYLE
298
     1
  0
XRECORD
  5
8A78
102
{ACAD_REACTORS
330
8A1C
102
}
330
8A1C
100
AcDbXrecord
280
     1
102
DISPLAYNAME
  1
Metric50
102
FLAGS
 90
        0
  0
CELLSTYLEMAP
  5
8A32
102
{ACAD_REACTORS
330
8A31
102
}
330
8A31
100
AcDbCellStyleMap
 90
        3
300
CELLSTYLE
  1
TABLEFORMAT_BEGIN
 90
        5
170
     1
 91
        0
 92
    32768
 62
   257
 93
        1
300
CONTENTFORMAT
  1
CONTENTFORMAT_BEGIN
 90
        0
 91
        0
 92
      512
 93
        0
300

 40
0.0
140
1.0
 94
        5
 62
     0
340
10
144
6.0
309
CONTENTFORMAT_END
171
     1
301
MARGIN
  1
CELLMARGIN_BEGIN
 40
1.5
 40
1.5
 40
1.5
 40
1.5
 40
4.5
 40
4.5
309
CELLMARGIN_END
 94
        6
 95
        1
302
GRIDFORMAT
  1
GRIDFORMAT_BEGIN
 90
        0
 91
        1
 62
     0
 92
       -2
340
0
 93
        0
 40
1.125
309
GRIDFORMAT_END
 95
        2
302
GRIDFORMAT
  1
GRIDFORMAT_BEGIN
 90
        0
 91
        1
 62
     0
 92
       -2
340
0
 93
        0
 40
1.125
309
GRIDFORMAT_END
 95
        4
302
GRIDFORMAT
  1
GRIDFORMAT_BEGIN
 90
        0
 91
        1
 62
     0
 92
       -2
340
0
 93
        0
 40
1.125
309
GRIDFORMAT_END
 95
        8
302
GRIDFORMAT
  1
GRIDFORMAT_BEGIN
 90
        0
 91
        1
 62
     0
 92
       -2
340
0
 93
        0
 40
1.125
309
GRIDFORMAT_END
 95
       16
302
GRIDFORMAT
  1
GRIDFORMAT_BEGIN
 90
        0
 91
        1
 62
     0
 92
       -2
340
0
 93
        0
 40
1.125
309
GRIDFORMAT_END
 95
       32
302
GRIDFORMAT
  1
GRIDFORMAT_BEGIN
 90
        0
 91
        1
 62
     0
 92
       -2
340
0
 93
        0
 40
1.125
309
GRIDFORMAT_END
309
TABLEFORMAT_END
  1
CELLSTYLE_BEGIN
 90
        1
 91
        1
300
_TITLE
309
CELLSTYLE_END
300
CELLSTYLE
  1
TABLEFORMAT_BEGIN
 90
        5
170
     1
 91
        0
 92
        0
 62
   257
 93
        1
300
CONTENTFORMAT
  1
CONTENTFORMAT_BEGIN
 90
        0
 91
        0
 92
      512
 93
        0
300

 40
0.0
140
1.0
 94
        5
 62
     0
340
10
144
4.5
309
CONTENTFORMAT_END
171
     1
301
MARGIN
  1
CELLMARGIN_BEGIN
 40
1.5
 40
1.5
 40
1.5
 40
1.5
 40
4.5
 40
4.5
309
CELLMARGIN_END
 94
        6
 95
        1
302
GRIDFORMAT
  1
GRIDFORMAT_BEGIN
 90
        0
 91
        1
 62
     0
 92
       -2
340
0
 93
        0
 40
1.125
309
GRIDFORMAT_END
 95
        2
302
GRIDFORMAT
  1
GRIDFORMAT_BEGIN
 90
        0
 91
        1
 62
     0
 92
       -2
340
0
 93
        0
 40
1.125
309
GRIDFORMAT_END
 95
        4
302
GRIDFORMAT
  1
GRIDFORMAT_BEGIN
 90
        0
 91
        1
 62
     0
 92
       -2
340
0
 93
        0
 40
1.125
309
GRIDFORMAT_END
 95
        8
302
GRIDFORMAT
  1
GRIDFORMAT_BEGIN
 90
        0
 91
        1
 62
     0
 92
       -2
340
0
 93
        0
 40
1.125
309
GRIDFORMAT_END
 95
       16
302
GRIDFORMAT
  1
GRIDFORMAT_BEGIN
 90
        0
 91
        1
 62
     0
 92
       -2
340
0
 93
        0
 40
1.125
309
GRIDFORMAT_END
 95
       32
302
GRIDFORMAT
  1
GRIDFORMAT_BEGIN
 90
        0
 91
        1
 62
     0
 92
       -2
340
0
 93
        0
 40
1.125
309
GRIDFORMAT_END
309
TABLEFORMAT_END
  1
CELLSTYLE_BEGIN
 90
        2
 91
        1
300
_HEADER
309
CELLSTYLE_END
300
CELLSTYLE
  1
TABLEFORMAT_BEGIN
 90
        5
170
     1
 91
        0
 92
        0
 62
   257
 93
        1
300
CONTENTFORMAT
  1
CONTENTFORMAT_BEGIN
 90
        0
 91
        0
 92
      512
 93
        0
300

 40
0.0
140
1.0
 94
        2
 62
     0
340
10
144
4.5
309
CONTENTFORMAT_END
171
     1
301
MARGIN
  1
CELLMARGIN_BEGIN
 40
1.5
 40
1.5
 40
1.5
 40
1.5
 40
4.5
 40
4.5
309
CELLMARGIN_END
 94
        6
 95
        1
302
GRIDFORMAT
  1
GRIDFORMAT_BEGIN
 90
        0
 91
        1
 62
     0
 92
       -2
340
0
 93
        0
 40
1.125
309
GRIDFORMAT_END
 95
        2
302
GRIDFORMAT
  1
GRIDFORMAT_BEGIN
 90
        0
 91
        1
 62
     0
 92
       -2
340
0
 93
        0
 40
1.125
309
GRIDFORMAT_END
 95
        4
302
GRIDFORMAT
  1
GRIDFORMAT_BEGIN
 90
        0
 91
        1
 62
     0
 92
       -2
340
0
 93
        0
 40
1.125
309
GRIDFORMAT_END
 95
        8
302
GRIDFORMAT
  1
GRIDFORMAT_BEGIN
 90
        0
 91
        1
 62
     0
 92
       -2
340
0
 93
        0
 40
1.125
309
GRIDFORMAT_END
 95
       16
302
GRIDFORMAT
  1
GRIDFORMAT_BEGIN
 90
        0
 91
        1
 62
     0
 92
       -2
340
0
 93
        0
 40
1.125
309
GRIDFORMAT_END
 95
       32
302
GRIDFORMAT
  1
GRIDFORMAT_BEGIN
 90
        0
 91
        1
 62
     0
 92
       -2
340
0
 93
        0
 40
1.125
309
GRIDFORMAT_END
309
TABLEFORMAT_END
  1
CELLSTYLE_BEGIN
 90
        3
 91
        2
300
_DATA
309
CELLSTYLE_END
  0
XRECORD
  5
8A74
102
{ACAD_REACTORS
330
8A31
102
}
330
8A31
100
AcDbXrecord
280
     1
102
ACAD_ROUNDTRIP_PRE2007_TABLESTYLE
 90
      512
 91
        0
  1

 92
      512
 93
        0
  2

 94
      512
 95
        0
  3

  0
XRECORD
  5
8A4F
102
{ACAD_REACTORS
330
8A4E
102
}
330
8A4E
100
AcDbXrecord
280
     1
102
RTVSPost2010Prop28
280
     1
102
RTVSPost2010PropOp28
 70
     1
102
RTVSPost2010Prop29
280
     1
102
RTVSPost2010PropOp29
 70
     1
102
RTVSPost2010Prop30
280
     0
102
RTVSPost2010PropOp30
 70
     1
102
RTVSPost2010Prop31
280
     0
102
RTVSPost2010PropOp31
 70
     1
102
RTVSPost2010Prop32
280
     0
102
RTVSPost2010PropOp32
 70
     1
102
RTVSPost2010Prop33
280
     0
102
RTVSPost2010PropOp33
 70
     1
102
RTVSPost2010Prop34
280
     0
102
RTVSPost2010PropOp34
 70
     1
102
RTVSPost2010Prop35
280
     0
102
RTVSPost2010PropOp35
 70
     1
102
RTVSPost2010Prop36
280
     0
102
RTVSPost2010PropOp36
 70
     1
102
RTVSPost2010Prop37
 90
       50
102
RTVSPost2010PropOp37
 70
     1
102
RTVSPost2010Prop38
140
0.0
102
RTVSPost2010PropOp38
 70
     1
102
RTVSPost2010Prop39
140
1.0
102
RTVSPost2010PropOp39
 70
     1
102
RTVSPost2010Prop40
 90
        0
102
RTVSPost2010PropOp40
 70
     1
102
RTVSPost2010Prop41ColorIndex
 90
       18
102
RTVSPost2010Prop41ColorRGB
 90
        0
102
RTVSPost2010PropOp41
 70
     1
102
RTVSPost2010Prop42
 90
       50
102
RTVSPost2010PropOp42
 70
     1
102
RTVSPost2010Prop43
 90
        3
102
RTVSPost2010PropOp43
 70
     1
102
RTVSPost2010Prop44ColorIndex
 90
        5
102
RTVSPost2010Prop44ColorRGB
 90
      255
102
RTVSPost2010PropOp44
 70
     1
102
RTVSPost2010Prop45
280
     0
102
RTVSPost2010PropOp45
 70
     1
102
RTVSPost2010Prop46
 90
       50
102
RTVSPost2010PropOp46
 70
     1
102
RTVSPost2010Prop47
 90
       50
102
RTVSPost2010PropOp47
 70
     1
102
RTVSPost2010Prop48
 90
       50
102
RTVSPost2010PropOp48
 70
     1
102
RTVSPost2010Prop49
280
     0
102
RTVSPost2010PropOp49
 70
     1
102
RTVSPost2010Prop50
 90
       50
102
RTVSPost2010PropOp50
 70
     1
102
RTVSPost2010Prop51ColorIndex
 90
      256
102
RTVSPost2010Prop51ColorRGB
 90
-16777216
102
RTVSPost2010PropOp51
 70
     0
102
RTVSPost2010Prop52
140
1.0
102
RTVSPost2010PropOp52
 70
     0
102
RTVSPost2010Prop53
 90
        2
102
RTVSPost2010PropOp53
 70
     1
102
RTVSPost2010Prop54
  1
strokes_ogs.tif
102
RTVSPost2010PropOp54
 70
     1
102
RTVSPost2010Prop55
280
     0
102
RTVSPost2010PropOp55
 70
     1
102
RTVSPost2010Prop56
140
1.0
102
RTVSPost2010PropOp56
 70
     1
102
RTVSPost2010Prop57
140
1.0
102
RTVSPost2010PropOp57
 70
     1
102
RTVSPropertyOp0
 70
     1
102
RTVSPropertyOp1
 70
     1
102
RTVSPropertyOp2
 70
     1
102
RTVSPropertyOp3
 70
     1
102
RTVSPropertyOp4
 70
     1
102
RTVSPropertyOp5
 70
     1
102
RTVSPropertyOp6
 70
     1
102
RTVSPropertyOp7
 70
     1
102
RTVSPropertyOp8
 70
     1
102
RTVSPropertyOp9
 70
     1
102
RTVSPropertyOp10
 70
     1
102
RTVSPropertyOp11
 70
     1
102
RTVSPropertyOp12
 70
     1
102
RTVSPropertyOp13
 70
     1
102
RTVSPropertyOp14
 70
     1
102
RTVSPropertyOp15
 70
     1
102
RTVSPropertyOp16
 70
     1
102
RTVSPropertyOp17
 70
     1
102
RTVSPropertyOp18
 70
     1
102
RTVSPropertyOp19
 70
     1
102
RTVSPropertyOp20
 70
     1
102
RTVSPropertyOp21
 70
     1
102
RTVSPropertyOp22
 70
     1
102
RTVSPropertyOp23
 70
     1
102
RTVSPropertyOp24
 70
     1
102
RTVSPropertyOp25
 70
     1
102
RTVSPropertyOp26
 70
     1
102
RTVSPropertyOp27
 70
     1
102
RTVSPropertyOp28
 70
     1
102
RTVSPropertyOp29
 70
     1
102
RTVSPropertyOp30
 70
     1
102
RTVSPropertyOp31
 70
     1
102
RTVSPropertyOp32
 70
     1
102
RTVSPropertyOp33
 70
     1
102
RTVSPropertyOp34
 70
     1
102
RTVSPropertyOp35
 70
     1
102
RTVSPropertyOp36
 70
     1
102
RTVSPropertyOp37
 70
     1
102
RTVSPropertyOp38
 70
     1
102
RTVSPropertyOp39
 70
     1
102
RTVSPropertyOp40
 70
     1
102
RTVSPropertyOp41
 70
     1
102
RTVSPropertyOp42
 70
     1
102
RTVSPropertyOp43
 70
     1
102
RTVSPropertyOp44
 70
     1
102
RTVSPropertyOp45
 70
     1
102
RTVSPropertyOp46
 70
     1
102
RTVSPropertyOp47
 70
     1
102
RTVSPropertyOp48
 70
     1
102
RTVSPropertyOp49
 70
     1
102
RTVSPropertyOp50
 70
     1
102
RTVSPropertyOp51
 70
     0
102
RTVSPropertyOp52
 70
     0
102
RTVSPropertyOp53
 70
     1
102
RTVSPropertyOp54
 70
     1
102
RTVSPropertyOp55
 70
     1
102
RTVSPropertyOp56
 70
     1
102
RTVSPropertyOp57
 70
     1
102
RTVSPropertyOp58
 70
     1
102
RTVSPropertyOp59
 70
     1
102
RTVSPropertyOp60
 70
     1
102
RTVSPropertyOp61
 70
     1
102
RTVSPropertyOp62
 70
     1
  0
XRECORD
  5
8A4D
102
{ACAD_REACTORS
330
8A4C
102
}
330
8A4C
100
AcDbXrecord
280
     1
102
RTVSPost2010Prop28
280
     0
102
RTVSPost2010PropOp28
 70
     1
102
RTVSPost2010Prop29
280
     1
102
RTVSPost2010PropOp29
 70
     1
102
RTVSPost2010Prop30
280
     1
102
RTVSPost2010PropOp30
 70
     1
102
RTVSPost2010Prop31
280
     0
102
RTVSPost2010PropOp31
 70
     1
102
RTVSPost2010Prop32
280
     0
102
RTVSPost2010PropOp32
 70
     1
102
RTVSPost2010Prop33
280
     0
102
RTVSPost2010PropOp33
 70
     1
102
RTVSPost2010Prop34
280
     0
102
RTVSPost2010PropOp34
 70
     1
102
RTVSPost2010Prop35
280
     0
102
RTVSPost2010PropOp35
 70
     1
102
RTVSPost2010Prop36
280
     0
102
RTVSPost2010PropOp36
 70
     1
102
RTVSPost2010Prop37
 90
       50
102
RTVSPost2010PropOp37
 70
     1
102
RTVSPost2010Prop38
140
0.0
102
RTVSPost2010PropOp38
 70
     1
102
RTVSPost2010Prop39
140
1.0
102
RTVSPost2010PropOp39
 70
     1
102
RTVSPost2010Prop40
 90
        0
102
RTVSPost2010PropOp40
 70
     1
102
RTVSPost2010Prop41ColorIndex
 90
       18
102
RTVSPost2010Prop41ColorRGB
 90
        0
102
RTVSPost2010PropOp41
 70
     1
102
RTVSPost2010Prop42
 90
       50
102
RTVSPost2010PropOp42
 70
     1
102
RTVSPost2010Prop43
 90
        3
102
RTVSPost2010PropOp43
 70
     1
102
RTVSPost2010Prop44ColorIndex
 90
        5
102
RTVSPost2010Prop44ColorRGB
 90
      255
102
RTVSPost2010PropOp44
 70
     1
102
RTVSPost2010Prop45
280
     0
102
RTVSPost2010PropOp45
 70
     1
102
RTVSPost2010Prop46
 90
       50
102
RTVSPost2010PropOp46
 70
     1
102
RTVSPost2010Prop47
 90
       50
102
RTVSPost2010PropOp47
 70
     1
102
RTVSPost2010Prop48
 90
       50
102
RTVSPost2010PropOp48
 70
     1
102
RTVSPost2010Prop49
280
     0
102
RTVSPost2010PropOp49
 70
     1
102
RTVSPost2010Prop50
 90
       50
102
RTVSPost2010PropOp50
 70
     1
102
RTVSPost2010Prop51ColorIndex
 90
      256
102
RTVSPost2010Prop51ColorRGB
 90
-16777216
102
RTVSPost2010PropOp51
 70
     0
102
RTVSPost2010Prop52
140
1.0
102
RTVSPost2010PropOp52
 70
     0
102
RTVSPost2010Prop53
 90
        2
102
RTVSPost2010PropOp53
 70
     1
102
RTVSPost2010Prop54
  1
strokes_ogs.tif
102
RTVSPost2010PropOp54
 70
     1
102
RTVSPost2010Prop55
280
     0
102
RTVSPost2010PropOp55
 70
     1
102
RTVSPost2010Prop56
140
1.0
102
RTVSPost2010PropOp56
 70
     1
102
RTVSPost2010Prop57
140
1.0
102
RTVSPost2010PropOp57
 70
     1
102
RTVSPropertyOp0
 70
     1
102
RTVSPropertyOp1
 70
     1
102
RTVSPropertyOp2
 70
     1
102
RTVSPropertyOp3
 70
     1
102
RTVSPropertyOp4
 70
     1
102
RTVSPropertyOp5
 70
     1
102
RTVSPropertyOp6
 70
     1
102
RTVSPropertyOp7
 70
     1
102
RTVSPropertyOp8
 70
     1
102
RTVSPropertyOp9
 70
     1
102
RTVSPropertyOp10
 70
     1
102
RTVSPropertyOp11
 70
     1
102
RTVSPropertyOp12
 70
     1
102
RTVSPropertyOp13
 70
     1
102
RTVSPropertyOp14
 70
     1
102
RTVSPropertyOp15
 70
     1
102
RTVSPropertyOp16
 70
     1
102
RTVSPropertyOp17
 70
     1
102
RTVSPropertyOp18
 70
     1
102
RTVSPropertyOp19
 70
     1
102
RTVSPropertyOp20
 70
     1
102
RTVSPropertyOp21
 70
     1
102
RTVSPropertyOp22
 70
     1
102
RTVSPropertyOp23
 70
     1
102
RTVSPropertyOp24
 70
     1
102
RTVSPropertyOp25
 70
     1
102
RTVSPropertyOp26
 70
     1
102
RTVSPropertyOp27
 70
     1
102
RTVSPropertyOp28
 70
     1
102
RTVSPropertyOp29
 70
     1
102
RTVSPropertyOp30
 70
     1
102
RTVSPropertyOp31
 70
     1
102
RTVSPropertyOp32
 70
     1
102
RTVSPropertyOp33
 70
     1
102
RTVSPropertyOp34
 70
     1
102
RTVSPropertyOp35
 70
     1
102
RTVSPropertyOp36
 70
     1
102
RTVSPropertyOp37
 70
     1
102
RTVSPropertyOp38
 70
     1
102
RTVSPropertyOp39
 70
     1
102
RTVSPropertyOp40
 70
     1
102
RTVSPropertyOp41
 70
     1
102
RTVSPropertyOp42
 70
     1
102
RTVSPropertyOp43
 70
     1
102
RTVSPropertyOp44
 70
     1
102
RTVSPropertyOp45
 70
     1
102
RTVSPropertyOp46
 70
     1
102
RTVSPropertyOp47
 70
     1
102
RTVSPropertyOp48
 70
     1
102
RTVSPropertyOp49
 70
     1
102
RTVSPropertyOp50
 70
     1
102
RTVSPropertyOp51
 70
     0
102
RTVSPropertyOp52
 70
     0
102
RTVSPropertyOp53
 70
     1
102
RTVSPropertyOp54
 70
     1
102
RTVSPropertyOp55
 70
     1
102
RTVSPropertyOp56
 70
     1
102
RTVSPropertyOp57
 70
     1
102
RTVSPropertyOp58
 70
     1
102
RTVSPropertyOp59
 70
     1
102
RTVSPropertyOp60
 70
     1
102
RTVSPropertyOp61
 70
     1
102
RTVSPropertyOp62
 70
     1
  0
XRECORD
  5
8A5B
102
{ACAD_REACTORS
330
8A5A
102
}
330
8A5A
100
AcDbXrecord
280
     1
102
RTVSPost2010Prop28
280
     0
102
RTVSPost2010PropOp28
 70
     1
102
RTVSPost2010Prop29
280
     1
102
RTVSPost2010PropOp29
 70
     1
102
RTVSPost2010Prop30
280
     1
102
RTVSPost2010PropOp30
 70
     1
102
RTVSPost2010Prop31
280
     0
102
RTVSPost2010PropOp31
 70
     1
102
RTVSPost2010Prop32
280
     0
102
RTVSPost2010PropOp32
 70
     1
102
RTVSPost2010Prop33
280
     0
102
RTVSPost2010PropOp33
 70
     1
102
RTVSPost2010Prop34
280
     0
102
RTVSPost2010PropOp34
 70
     1
102
RTVSPost2010Prop35
280
     0
102
RTVSPost2010PropOp35
 70
     1
102
RTVSPost2010Prop36
280
     0
102
RTVSPost2010PropOp36
 70
     1
102
RTVSPost2010Prop37
 90
       50
102
RTVSPost2010PropOp37
 70
     1
102
RTVSPost2010Prop38
140
0.0
102
RTVSPost2010PropOp38
 70
     1
102
RTVSPost2010Prop39
140
1.0
102
RTVSPost2010PropOp39
 70
     1
102
RTVSPost2010Prop40
 90
        0
102
RTVSPost2010PropOp40
 70
     1
102
RTVSPost2010Prop41ColorIndex
 90
       18
102
RTVSPost2010Prop41ColorRGB
 90
        0
102
RTVSPost2010PropOp41
 70
     1
102
RTVSPost2010Prop42
 90
       50
102
RTVSPost2010PropOp42
 70
     1
102
RTVSPost2010Prop43
 90
        3
102
RTVSPost2010PropOp43
 70
     1
102
RTVSPost2010Prop44ColorIndex
 90
        5
102
RTVSPost2010Prop44ColorRGB
 90
      255
102
RTVSPost2010PropOp44
 70
     1
102
RTVSPost2010Prop45
280
     0
102
RTVSPost2010PropOp45
 70
     1
102
RTVSPost2010Prop46
 90
       50
102
RTVSPost2010PropOp46
 70
     1
102
RTVSPost2010Prop47
 90
       50
102
RTVSPost2010PropOp47
 70
     1
102
RTVSPost2010Prop48
 90
       50
102
RTVSPost2010PropOp48
 70
     1
102
RTVSPost2010Prop49
280
     0
102
RTVSPost2010PropOp49
 70
     1
102
RTVSPost2010Prop50
 90
       50
102
RTVSPost2010PropOp50
 70
     1
102
RTVSPost2010Prop51ColorIndex
 90
      256
102
RTVSPost2010Prop51ColorRGB
 90
-16777216
102
RTVSPost2010PropOp51
 70
     0
102
RTVSPost2010Prop52
140
1.0
102
RTVSPost2010PropOp52
 70
     0
102
RTVSPost2010Prop53
 90
        2
102
RTVSPost2010PropOp53
 70
     1
102
RTVSPost2010Prop54
  1
strokes_ogs.tif
102
RTVSPost2010PropOp54
 70
     1
102
RTVSPost2010Prop55
280
     0
102
RTVSPost2010PropOp55
 70
     1
102
RTVSPost2010Prop56
140
1.0
102
RTVSPost2010PropOp56
 70
     1
102
RTVSPost2010Prop57
140
1.0
102
RTVSPost2010PropOp57
 70
     1
102
RTVSPropertyOp0
 70
     1
102
RTVSPropertyOp1
 70
     1
102
RTVSPropertyOp2
 70
     1
102
RTVSPropertyOp3
 70
     1
102
RTVSPropertyOp4
 70
     1
102
RTVSPropertyOp5
 70
     1
102
RTVSPropertyOp6
 70
     1
102
RTVSPropertyOp7
 70
     1
102
RTVSPropertyOp8
 70
     1
102
RTVSPropertyOp9
 70
     1
102
RTVSPropertyOp10
 70
     1
102
RTVSPropertyOp11
 70
     1
102
RTVSPropertyOp12
 70
     1
102
RTVSPropertyOp13
 70
     1
102
RTVSPropertyOp14
 70
     1
102
RTVSPropertyOp15
 70
     1
102
RTVSPropertyOp16
 70
     1
102
RTVSPropertyOp17
 70
     1
102
RTVSPropertyOp18
 70
     1
102
RTVSPropertyOp19
 70
     1
102
RTVSPropertyOp20
 70
     1
102
RTVSPropertyOp21
 70
     1
102
RTVSPropertyOp22
 70
     1
102
RTVSPropertyOp23
 70
     1
102
RTVSPropertyOp24
 70
     1
102
RTVSPropertyOp25
 70
     1
102
RTVSPropertyOp26
 70
     1
102
RTVSPropertyOp27
 70
     1
102
RTVSPropertyOp28
 70
     1
102
RTVSPropertyOp29
 70
     1
102
RTVSPropertyOp30
 70
     1
102
RTVSPropertyOp31
 70
     1
102
RTVSPropertyOp32
 70
     1
102
RTVSPropertyOp33
 70
     1
102
RTVSPropertyOp34
 70
     1
102
RTVSPropertyOp35
 70
     1
102
RTVSPropertyOp36
 70
     1
102
RTVSPropertyOp37
 70
     1
102
RTVSPropertyOp38
 70
     1
102
RTVSPropertyOp39
 70
     1
102
RTVSPropertyOp40
 70
     1
102
RTVSPropertyOp41
 70
     1
102
RTVSPropertyOp42
 70
     1
102
RTVSPropertyOp43
 70
     1
102
RTVSPropertyOp44
 70
     1
102
RTVSPropertyOp45
 70
     1
102
RTVSPropertyOp46
 70
     1
102
RTVSPropertyOp47
 70
     1
102
RTVSPropertyOp48
 70
     1
102
RTVSPropertyOp49
 70
     1
102
RTVSPropertyOp50
 70
     1
102
RTVSPropertyOp51
 70
     0
102
RTVSPropertyOp52
 70
     0
102
RTVSPropertyOp53
 70
     1
102
RTVSPropertyOp54
 70
     1
102
RTVSPropertyOp55
 70
     1
102
RTVSPropertyOp56
 70
     1
102
RTVSPropertyOp57
 70
     1
102
RTVSPropertyOp58
 70
     1
102
RTVSPropertyOp59
 70
     1
102
RTVSPropertyOp60
 70
     1
102
RTVSPropertyOp61
 70
     1
102
RTVSPropertyOp62
 70
     1
  0
XRECORD
  5
8A63
102
{ACAD_REACTORS
330
8A62
102
}
330
8A62
100
AcDbXrecord
280
     1
102
RTVSPost2010Prop28
280
     0
102
RTVSPost2010PropOp28
 70
     1
102
RTVSPost2010Prop29
280
     1
102
RTVSPost2010PropOp29
 70
     1
102
RTVSPost2010Prop30
280
     1
102
RTVSPost2010PropOp30
 70
     1
102
RTVSPost2010Prop31
280
     0
102
RTVSPost2010PropOp31
 70
     1
102
RTVSPost2010Prop32
280
     0
102
RTVSPost2010PropOp32
 70
     1
102
RTVSPost2010Prop33
280
     0
102
RTVSPost2010PropOp33
 70
     1
102
RTVSPost2010Prop34
280
     0
102
RTVSPost2010PropOp34
 70
     1
102
RTVSPost2010Prop35
280
     0
102
RTVSPost2010PropOp35
 70
     1
102
RTVSPost2010Prop36
280
     0
102
RTVSPost2010PropOp36
 70
     1
102
RTVSPost2010Prop37
 90
       50
102
RTVSPost2010PropOp37
 70
     1
102
RTVSPost2010Prop38
140
0.0
102
RTVSPost2010PropOp38
 70
     1
102
RTVSPost2010Prop39
140
1.0
102
RTVSPost2010PropOp39
 70
     1
102
RTVSPost2010Prop40
 90
        0
102
RTVSPost2010PropOp40
 70
     1
102
RTVSPost2010Prop41ColorIndex
 90
       18
102
RTVSPost2010Prop41ColorRGB
 90
        0
102
RTVSPost2010PropOp41
 70
     1
102
RTVSPost2010Prop42
 90
       50
102
RTVSPost2010PropOp42
 70
     1
102
RTVSPost2010Prop43
 90
        3
102
RTVSPost2010PropOp43
 70
     1
102
RTVSPost2010Prop44ColorIndex
 90
        5
102
RTVSPost2010Prop44ColorRGB
 90
      255
102
RTVSPost2010PropOp44
 70
     1
102
RTVSPost2010Prop45
280
     0
102
RTVSPost2010PropOp45
 70
     1
102
RTVSPost2010Prop46
 90
       50
102
RTVSPost2010PropOp46
 70
     1
102
RTVSPost2010Prop47
 90
       50
102
RTVSPost2010PropOp47
 70
     1
102
RTVSPost2010Prop48
 90
       50
102
RTVSPost2010PropOp48
 70
     1
102
RTVSPost2010Prop49
280
     0
102
RTVSPost2010PropOp49
 70
     1
102
RTVSPost2010Prop50
 90
       50
102
RTVSPost2010PropOp50
 70
     1
102
RTVSPost2010Prop51ColorIndex
 90
      256
102
RTVSPost2010Prop51ColorRGB
 90
-16777216
102
RTVSPost2010PropOp51
 70
     0
102
RTVSPost2010Prop52
140
1.0
102
RTVSPost2010PropOp52
 70
     0
102
RTVSPost2010Prop53
 90
        2
102
RTVSPost2010PropOp53
 70
     1
102
RTVSPost2010Prop54
  1
strokes_ogs.tif
102
RTVSPost2010PropOp54
 70
     1
102
RTVSPost2010Prop55
280
     0
102
RTVSPost2010PropOp55
 70
     1
102
RTVSPost2010Prop56
140
1.0
102
RTVSPost2010PropOp56
 70
     1
102
RTVSPost2010Prop57
140
1.0
102
RTVSPost2010PropOp57
 70
     1
102
RTVSPropertyOp0
 70
     1
102
RTVSPropertyOp1
 70
     1
102
RTVSPropertyOp2
 70
     1
102
RTVSPropertyOp3
 70
     1
102
RTVSPropertyOp4
 70
     1
102
RTVSPropertyOp5
 70
     1
102
RTVSPropertyOp6
 70
     1
102
RTVSPropertyOp7
 70
     1
102
RTVSPropertyOp8
 70
     1
102
RTVSPropertyOp9
 70
     1
102
RTVSPropertyOp10
 70
     1
102
RTVSPropertyOp11
 70
     1
102
RTVSPropertyOp12
 70
     1
102
RTVSPropertyOp13
 70
     1
102
RTVSPropertyOp14
 70
     1
102
RTVSPropertyOp15
 70
     1
102
RTVSPropertyOp16
 70
     1
102
RTVSPropertyOp17
 70
     1
102
RTVSPropertyOp18
 70
     1
102
RTVSPropertyOp19
 70
     1
102
RTVSPropertyOp20
 70
     1
102
RTVSPropertyOp21
 70
     1
102
RTVSPropertyOp22
 70
     1
102
RTVSPropertyOp23
 70
     1
102
RTVSPropertyOp24
 70
     1
102
RTVSPropertyOp25
 70
     1
102
RTVSPropertyOp26
 70
     1
102
RTVSPropertyOp27
 70
     1
102
RTVSPropertyOp28
 70
     1
102
RTVSPropertyOp29
 70
     1
102
RTVSPropertyOp30
 70
     1
102
RTVSPropertyOp31
 70
     1
102
RTVSPropertyOp32
 70
     1
102
RTVSPropertyOp33
 70
     1
102
RTVSPropertyOp34
 70
     1
102
RTVSPropertyOp35
 70
     1
102
RTVSPropertyOp36
 70
     1
102
RTVSPropertyOp37
 70
     1
102
RTVSPropertyOp38
 70
     1
102
RTVSPropertyOp39
 70
     1
102
RTVSPropertyOp40
 70
     1
102
RTVSPropertyOp41
 70
     1
102
RTVSPropertyOp42
 70
     1
102
RTVSPropertyOp43
 70
     1
102
RTVSPropertyOp44
 70
     1
102
RTVSPropertyOp45
 70
     1
102
RTVSPropertyOp46
 70
     1
102
RTVSPropertyOp47
 70
     1
102
RTVSPropertyOp48
 70
     1
102
RTVSPropertyOp49
 70
     1
102
RTVSPropertyOp50
 70
     1
102
RTVSPropertyOp51
 70
     0
102
RTVSPropertyOp52
 70
     0
102
RTVSPropertyOp53
 70
     1
102
RTVSPropertyOp54
 70
     1
102
RTVSPropertyOp55
 70
     1
102
RTVSPropertyOp56
 70
     1
102
RTVSPropertyOp57
 70
     1
102
RTVSPropertyOp58
 70
     1
102
RTVSPropertyOp59
 70
     1
102
RTVSPropertyOp60
 70
     1
102
RTVSPropertyOp61
 70
     1
102
RTVSPropertyOp62
 70
     1
  0
XRECORD
  5
8A55
102
{ACAD_REACTORS
330
8A54
102
}
330
8A54
100
AcDbXrecord
280
     1
102
RTVSPost2010Prop28
280
     0
102
RTVSPost2010PropOp28
 70
     1
102
RTVSPost2010Prop29
280
     1
102
RTVSPost2010PropOp29
 70
     1
102
RTVSPost2010Prop30
280
     1
102
RTVSPost2010PropOp30
 70
     1
102
RTVSPost2010Prop31
280
     0
102
RTVSPost2010PropOp31
 70
     1
102
RTVSPost2010Prop32
280
     0
102
RTVSPost2010PropOp32
 70
     1
102
RTVSPost2010Prop33
280
     0
102
RTVSPost2010PropOp33
 70
     1
102
RTVSPost2010Prop34
280
     0
102
RTVSPost2010PropOp34
 70
     1
102
RTVSPost2010Prop35
280
     0
102
RTVSPost2010PropOp35
 70
     1
102
RTVSPost2010Prop36
280
     0
102
RTVSPost2010PropOp36
 70
     1
102
RTVSPost2010Prop37
 90
       50
102
RTVSPost2010PropOp37
 70
     1
102
RTVSPost2010Prop38
140
0.0
102
RTVSPost2010PropOp38
 70
     1
102
RTVSPost2010Prop39
140
1.0
102
RTVSPost2010PropOp39
 70
     1
102
RTVSPost2010Prop40
 90
        0
102
RTVSPost2010PropOp40
 70
     1
102
RTVSPost2010Prop41ColorIndex
 90
       18
102
RTVSPost2010Prop41ColorRGB
 90
        0
102
RTVSPost2010PropOp41
 70
     1
102
RTVSPost2010Prop42
 90
       50
102
RTVSPost2010PropOp42
 70
     1
102
RTVSPost2010Prop43
 90
        3
102
RTVSPost2010PropOp43
 70
     1
102
RTVSPost2010Prop44ColorIndex
 90
        5
102
RTVSPost2010Prop44ColorRGB
 90
      255
102
RTVSPost2010PropOp44
 70
     1
102
RTVSPost2010Prop45
280
     0
102
RTVSPost2010PropOp45
 70
     1
102
RTVSPost2010Prop46
 90
       50
102
RTVSPost2010PropOp46
 70
     1
102
RTVSPost2010Prop47
 90
       50
102
RTVSPost2010PropOp47
 70
     1
102
RTVSPost2010Prop48
 90
       50
102
RTVSPost2010PropOp48
 70
     1
102
RTVSPost2010Prop49
280
     0
102
RTVSPost2010PropOp49
 70
     1
102
RTVSPost2010Prop50
 90
       50
102
RTVSPost2010PropOp50
 70
     1
102
RTVSPost2010Prop51ColorIndex
 90
      256
102
RTVSPost2010Prop51ColorRGB
 90
-16777216
102
RTVSPost2010PropOp51
 70
     0
102
RTVSPost2010Prop52
140
1.0
102
RTVSPost2010PropOp52
 70
     0
102
RTVSPost2010Prop53
 90
        2
102
RTVSPost2010PropOp53
 70
     1
102
RTVSPost2010Prop54
  1
strokes_ogs.tif
102
RTVSPost2010PropOp54
 70
     1
102
RTVSPost2010Prop55
280
     0
102
RTVSPost2010PropOp55
 70
     1
102
RTVSPost2010Prop56
140
1.0
102
RTVSPost2010PropOp56
 70
     1
102
RTVSPost2010Prop57
140
1.0
102
RTVSPost2010PropOp57
 70
     1
102
RTVSPropertyOp0
 70
     1
102
RTVSPropertyOp1
 70
     1
102
RTVSPropertyOp2
 70
     1
102
RTVSPropertyOp3
 70
     1
102
RTVSPropertyOp4
 70
     1
102
RTVSPropertyOp5
 70
     1
102
RTVSPropertyOp6
 70
     1
102
RTVSPropertyOp7
 70
     1
102
RTVSPropertyOp8
 70
     1
102
RTVSPropertyOp9
 70
     1
102
RTVSPropertyOp10
 70
     1
102
RTVSPropertyOp11
 70
     1
102
RTVSPropertyOp12
 70
     1
102
RTVSPropertyOp13
 70
     1
102
RTVSPropertyOp14
 70
     1
102
RTVSPropertyOp15
 70
     1
102
RTVSPropertyOp16
 70
     1
102
RTVSPropertyOp17
 70
     1
102
RTVSPropertyOp18
 70
     1
102
RTVSPropertyOp19
 70
     1
102
RTVSPropertyOp20
 70
     1
102
RTVSPropertyOp21
 70
     1
102
RTVSPropertyOp22
 70
     1
102
RTVSPropertyOp23
 70
     1
102
RTVSPropertyOp24
 70
     1
102
RTVSPropertyOp25
 70
     1
102
RTVSPropertyOp26
 70
     1
102
RTVSPropertyOp27
 70
     1
102
RTVSPropertyOp28
 70
     1
102
RTVSPropertyOp29
 70
     1
102
RTVSPropertyOp30
 70
     1
102
RTVSPropertyOp31
 70
     1
102
RTVSPropertyOp32
 70
     1
102
RTVSPropertyOp33
 70
     1
102
RTVSPropertyOp34
 70
     1
102
RTVSPropertyOp35
 70
     1
102
RTVSPropertyOp36
 70
     1
102
RTVSPropertyOp37
 70
     1
102
RTVSPropertyOp38
 70
     1
102
RTVSPropertyOp39
 70
     1
102
RTVSPropertyOp40
 70
     1
102
RTVSPropertyOp41
 70
     1
102
RTVSPropertyOp42
 70
     1
102
RTVSPropertyOp43
 70
     1
102
RTVSPropertyOp44
 70
     1
102
RTVSPropertyOp45
 70
     1
102
RTVSPropertyOp46
 70
     1
102
RTVSPropertyOp47
 70
     1
102
RTVSPropertyOp48
 70
     1
102
RTVSPropertyOp49
 70
     1
102
RTVSPropertyOp50
 70
     1
102
RTVSPropertyOp51
 70
     0
102
RTVSPropertyOp52
 70
     0
102
RTVSPropertyOp53
 70
     1
102
RTVSPropertyOp54
 70
     1
102
RTVSPropertyOp55
 70
     1
102
RTVSPropertyOp56
 70
     1
102
RTVSPropertyOp57
 70
     1
102
RTVSPropertyOp58
 70
     1
102
RTVSPropertyOp59
 70
     1
102
RTVSPropertyOp60
 70
     1
102
RTVSPropertyOp61
 70
     1
102
RTVSPropertyOp62
 70
     1
  0
XRECORD
  5
8A59
102
{ACAD_REACTORS
330
8A58
102
}
330
8A58
100
AcDbXrecord
280
     1
102
RTVSPost2010Prop28
280
     0
102
RTVSPost2010PropOp28
 70
     1
102
RTVSPost2010Prop29
280
     1
102
RTVSPost2010PropOp29
 70
     1
102
RTVSPost2010Prop30
280
     1
102
RTVSPost2010PropOp30
 70
     1
102
RTVSPost2010Prop31
280
     0
102
RTVSPost2010PropOp31
 70
     1
102
RTVSPost2010Prop32
280
     0
102
RTVSPost2010PropOp32
 70
     1
102
RTVSPost2010Prop33
280
     0
102
RTVSPost2010PropOp33
 70
     1
102
RTVSPost2010Prop34
280
     0
102
RTVSPost2010PropOp34
 70
     1
102
RTVSPost2010Prop35
280
     0
102
RTVSPost2010PropOp35
 70
     1
102
RTVSPost2010Prop36
280
     0
102
RTVSPost2010PropOp36
 70
     1
102
RTVSPost2010Prop37
 90
       50
102
RTVSPost2010PropOp37
 70
     1
102
RTVSPost2010Prop38
140
0.0
102
RTVSPost2010PropOp38
 70
     1
102
RTVSPost2010Prop39
140
1.0
102
RTVSPost2010PropOp39
 70
     1
102
RTVSPost2010Prop40
 90
        0
102
RTVSPost2010PropOp40
 70
     1
102
RTVSPost2010Prop41ColorIndex
 90
       18
102
RTVSPost2010Prop41ColorRGB
 90
        0
102
RTVSPost2010PropOp41
 70
     1
102
RTVSPost2010Prop42
 90
       50
102
RTVSPost2010PropOp42
 70
     1
102
RTVSPost2010Prop43
 90
        3
102
RTVSPost2010PropOp43
 70
     1
102
RTVSPost2010Prop44ColorIndex
 90
        5
102
RTVSPost2010Prop44ColorRGB
 90
      255
102
RTVSPost2010PropOp44
 70
     1
102
RTVSPost2010Prop45
280
     0
102
RTVSPost2010PropOp45
 70
     1
102
RTVSPost2010Prop46
 90
       50
102
RTVSPost2010PropOp46
 70
     1
102
RTVSPost2010Prop47
 90
       50
102
RTVSPost2010PropOp47
 70
     1
102
RTVSPost2010Prop48
 90
       50
102
RTVSPost2010PropOp48
 70
     1
102
RTVSPost2010Prop49
280
     0
102
RTVSPost2010PropOp49
 70
     1
102
RTVSPost2010Prop50
 90
       50
102
RTVSPost2010PropOp50
 70
     1
102
RTVSPost2010Prop51ColorIndex
 90
      256
102
RTVSPost2010Prop51ColorRGB
 90
-16777216
102
RTVSPost2010PropOp51
 70
     0
102
RTVSPost2010Prop52
140
1.0
102
RTVSPost2010PropOp52
 70
     0
102
RTVSPost2010Prop53
 90
        2
102
RTVSPost2010PropOp53
 70
     1
102
RTVSPost2010Prop54
  1
strokes_ogs.tif
102
RTVSPost2010PropOp54
 70
     1
102
RTVSPost2010Prop55
280
     0
102
RTVSPost2010PropOp55
 70
     1
102
RTVSPost2010Prop56
140
1.0
102
RTVSPost2010PropOp56
 70
     1
102
RTVSPost2010Prop57
140
1.0
102
RTVSPost2010PropOp57
 70
     1
102
RTVSPropertyOp0
 70
     1
102
RTVSPropertyOp1
 70
     1
102
RTVSPropertyOp2
 70
     1
102
RTVSPropertyOp3
 70
     1
102
RTVSPropertyOp4
 70
     1
102
RTVSPropertyOp5
 70
     1
102
RTVSPropertyOp6
 70
     1
102
RTVSPropertyOp7
 70
     1
102
RTVSPropertyOp8
 70
     1
102
RTVSPropertyOp9
 70
     1
102
RTVSPropertyOp10
 70
     1
102
RTVSPropertyOp11
 70
     1
102
RTVSPropertyOp12
 70
     1
102
RTVSPropertyOp13
 70
     1
102
RTVSPropertyOp14
 70
     1
102
RTVSPropertyOp15
 70
     1
102
RTVSPropertyOp16
 70
     1
102
RTVSPropertyOp17
 70
     1
102
RTVSPropertyOp18
 70
     1
102
RTVSPropertyOp19
 70
     1
102
RTVSPropertyOp20
 70
     1
102
RTVSPropertyOp21
 70
     1
102
RTVSPropertyOp22
 70
     1
102
RTVSPropertyOp23
 70
     1
102
RTVSPropertyOp24
 70
     1
102
RTVSPropertyOp25
 70
     1
102
RTVSPropertyOp26
 70
     1
102
RTVSPropertyOp27
 70
     1
102
RTVSPropertyOp28
 70
     1
102
RTVSPropertyOp29
 70
     1
102
RTVSPropertyOp30
 70
     1
102
RTVSPropertyOp31
 70
     1
102
RTVSPropertyOp32
 70
     1
102
RTVSPropertyOp33
 70
     1
102
RTVSPropertyOp34
 70
     1
102
RTVSPropertyOp35
 70
     1
102
RTVSPropertyOp36
 70
     1
102
RTVSPropertyOp37
 70
     1
102
RTVSPropertyOp38
 70
     1
102
RTVSPropertyOp39
 70
     1
102
RTVSPropertyOp40
 70
     1
102
RTVSPropertyOp41
 70
     1
102
RTVSPropertyOp42
 70
     1
102
RTVSPropertyOp43
 70
     1
102
RTVSPropertyOp44
 70
     1
102
RTVSPropertyOp45
 70
     1
102
RTVSPropertyOp46
 70
     1
102
RTVSPropertyOp47
 70
     1
102
RTVSPropertyOp48
 70
     1
102
RTVSPropertyOp49
 70
     1
102
RTVSPropertyOp50
 70
     1
102
RTVSPropertyOp51
 70
     0
102
RTVSPropertyOp52
 70
     0
102
RTVSPropertyOp53
 70
     1
102
RTVSPropertyOp54
 70
     1
102
RTVSPropertyOp55
 70
     1
102
RTVSPropertyOp56
 70
     1
102
RTVSPropertyOp57
 70
     1
102
RTVSPropertyOp58
 70
     1
102
RTVSPropertyOp59
 70
     1
102
RTVSPropertyOp60
 70
     1
102
RTVSPropertyOp61
 70
     1
102
RTVSPropertyOp62
 70
     1
  0
XRECORD
  5
8A73
102
{ACAD_REACTORS
330
8A72
102
}
330
8A72
100
AcDbXrecord
280
     1
102
RTVSPost2010Prop28
280
     0
102
RTVSPost2010PropOp28
 70
     0
102
RTVSPost2010Prop29
280
     1
102
RTVSPost2010PropOp29
 70
     0
102
RTVSPost2010Prop30
280
     1
102
RTVSPost2010PropOp30
 70
     0
102
RTVSPost2010Prop31
280
     0
102
RTVSPost2010PropOp31
 70
     0
102
RTVSPost2010Prop32
280
     0
102
RTVSPost2010PropOp32
 70
     0
102
RTVSPost2010Prop33
280
     0
102
RTVSPost2010PropOp33
 70
     0
102
RTVSPost2010Prop34
280
     0
102
RTVSPost2010PropOp34
 70
     0
102
RTVSPost2010Prop35
280
     0
102
RTVSPost2010PropOp35
 70
     0
102
RTVSPost2010Prop36
280
     0
102
RTVSPost2010PropOp36
 70
     0
102
RTVSPost2010Prop37
 90
       50
102
RTVSPost2010PropOp37
 70
     0
102
RTVSPost2010Prop38
140
0.0
102
RTVSPost2010PropOp38
 70
     0
102
RTVSPost2010Prop39
140
1.0
102
RTVSPost2010PropOp39
 70
     0
102
RTVSPost2010Prop40
 90
        0
102
RTVSPost2010PropOp40
 70
     0
102
RTVSPost2010Prop41ColorIndex
 90
       18
102
RTVSPost2010Prop41ColorRGB
 90
        0
102
RTVSPost2010PropOp41
 70
     0
102
RTVSPost2010Prop42
 90
       50
102
RTVSPost2010PropOp42
 70
     0
102
RTVSPost2010Prop43
 90
        3
102
RTVSPost2010PropOp43
 70
     0
102
RTVSPost2010Prop44ColorIndex
 90
        5
102
RTVSPost2010Prop44ColorRGB
 90
      255
102
RTVSPost2010PropOp44
 70
     0
102
RTVSPost2010Prop45
280
     0
102
RTVSPost2010PropOp45
 70
     0
102
RTVSPost2010Prop46
 90
       50
102
RTVSPost2010PropOp46
 70
     0
102
RTVSPost2010Prop47
 90
       50
102
RTVSPost2010PropOp47
 70
     0
102
RTVSPost2010Prop48
 90
       50
102
RTVSPost2010PropOp48
 70
     0
102
RTVSPost2010Prop49
280
     0
102
RTVSPost2010PropOp49
 70
     0
102
RTVSPost2010Prop50
 90
       50
102
RTVSPost2010PropOp50
 70
     0
102
RTVSPost2010Prop51ColorIndex
 90
      256
102
RTVSPost2010Prop51ColorRGB
 90
-16777216
102
RTVSPost2010PropOp51
 70
     0
102
RTVSPost2010Prop52
140
1.0
102
RTVSPost2010PropOp52
 70
     0
102
RTVSPost2010Prop53
 90
        2
102
RTVSPost2010PropOp53
 70
     0
102
RTVSPost2010Prop54
  1
strokes_ogs.tif
102
RTVSPost2010PropOp54
 70
     0
102
RTVSPost2010Prop55
280
     0
102
RTVSPost2010PropOp55
 70
     0
102
RTVSPost2010Prop56
140
1.0
102
RTVSPost2010PropOp56
 70
     0
102
RTVSPost2010Prop57
140
1.0
102
RTVSPost2010PropOp57
 70
     0
102
RTVSPropertyOp0
 70
     0
102
RTVSPropertyOp1
 70
     0
102
RTVSPropertyOp2
 70
     0
102
RTVSPropertyOp3
 70
     0
102
RTVSPropertyOp4
 70
     0
102
RTVSPropertyOp5
 70
     0
102
RTVSPropertyOp6
 70
     0
102
RTVSPropertyOp7
 70
     0
102
RTVSPropertyOp8
 70
     0
102
RTVSPropertyOp9
 70
     0
102
RTVSPropertyOp10
 70
     0
102
RTVSPropertyOp11
 70
     0
102
RTVSPropertyOp12
 70
     0
102
RTVSPropertyOp13
 70
     0
102
RTVSPropertyOp14
 70
     2
102
RTVSPropertyOp15
 70
     0
102
RTVSPropertyOp16
 70
     0
102
RTVSPropertyOp17
 70
     0
102
RTVSPropertyOp18
 70
     0
102
RTVSPropertyOp19
 70
     0
102
RTVSPropertyOp20
 70
     0
102
RTVSPropertyOp21
 70
     0
102
RTVSPropertyOp22
 70
     0
102
RTVSPropertyOp23
 70
     0
102
RTVSPropertyOp24
 70
     0
102
RTVSPropertyOp25
 70
     0
102
RTVSPropertyOp26
 70
     0
102
RTVSPropertyOp27
 70
     0
102
RTVSPropertyOp28
 70
     0
102
RTVSPropertyOp29
 70
     0
102
RTVSPropertyOp30
 70
     0
102
RTVSPropertyOp31
 70
     0
102
RTVSPropertyOp32
 70
     0
102
RTVSPropertyOp33
 70
     0
102
RTVSPropertyOp34
 70
     0
102
RTVSPropertyOp35
 70
     0
102
RTVSPropertyOp36
 70
     0
102
RTVSPropertyOp37
 70
     0
102
RTVSPropertyOp38
 70
     0
102
RTVSPropertyOp39
 70
     0
102
RTVSPropertyOp40
 70
     0
102
RTVSPropertyOp41
 70
     0
102
RTVSPropertyOp42
 70
     0
102
RTVSPropertyOp43
 70
     0
102
RTVSPropertyOp44
 70
     0
102
RTVSPropertyOp45
 70
     0
102
RTVSPropertyOp46
 70
     0
102
RTVSPropertyOp47
 70
     0
102
RTVSPropertyOp48
 70
     0
102
RTVSPropertyOp49
 70
     0
102
RTVSPropertyOp50
 70
     0
102
RTVSPropertyOp51
 70
     0
102
RTVSPropertyOp52
 70
     0
102
RTVSPropertyOp53
 70
     0
102
RTVSPropertyOp54
 70
     0
102
RTVSPropertyOp55
 70
     0
102
RTVSPropertyOp56
 70
     0
102
RTVSPropertyOp57
 70
     0
102
RTVSPropertyOp58
 70
     1
102
RTVSPropertyOp59
 70
     1
102
RTVSPropertyOp60
 70
     1
102
RTVSPropertyOp61
 70
     1
102
RTVSPropertyOp62
 70
     1
  0
XRECORD
  5
8A61
102
{ACAD_REACTORS
330
8A60
102
}
330
8A60
100
AcDbXrecord
280
     1
102
RTVSPost2010Prop28
280
     0
102
RTVSPost2010PropOp28
 70
     1
102
RTVSPost2010Prop29
280
     1
102
RTVSPost2010PropOp29
 70
     1
102
RTVSPost2010Prop30
280
     1
102
RTVSPost2010PropOp30
 70
     1
102
RTVSPost2010Prop31
280
     0
102
RTVSPost2010PropOp31
 70
     1
102
RTVSPost2010Prop32
280
     0
102
RTVSPost2010PropOp32
 70
     1
102
RTVSPost2010Prop33
280
     0
102
RTVSPost2010PropOp33
 70
     1
102
RTVSPost2010Prop34
280
     0
102
RTVSPost2010PropOp34
 70
     1
102
RTVSPost2010Prop35
280
     0
102
RTVSPost2010PropOp35
 70
     1
102
RTVSPost2010Prop36
280
     0
102
RTVSPost2010PropOp36
 70
     1
102
RTVSPost2010Prop37
 90
       50
102
RTVSPost2010PropOp37
 70
     1
102
RTVSPost2010Prop38
140
0.0
102
RTVSPost2010PropOp38
 70
     1
102
RTVSPost2010Prop39
140
1.0
102
RTVSPost2010PropOp39
 70
     1
102
RTVSPost2010Prop40
 90
        0
102
RTVSPost2010PropOp40
 70
     1
102
RTVSPost2010Prop41ColorIndex
 90
       18
102
RTVSPost2010Prop41ColorRGB
 90
        0
102
RTVSPost2010PropOp41
 70
     1
102
RTVSPost2010Prop42
 90
       50
102
RTVSPost2010PropOp42
 70
     1
102
RTVSPost2010Prop43
 90
        3
102
RTVSPost2010PropOp43
 70
     1
102
RTVSPost2010Prop44ColorIndex
 90
        5
102
RTVSPost2010Prop44ColorRGB
 90
      255
102
RTVSPost2010PropOp44
 70
     1
102
RTVSPost2010Prop45
280
     0
102
RTVSPost2010PropOp45
 70
     1
102
RTVSPost2010Prop46
 90
       50
102
RTVSPost2010PropOp46
 70
     1
102
RTVSPost2010Prop47
 90
       50
102
RTVSPost2010PropOp47
 70
     1
102
RTVSPost2010Prop48
 90
       50
102
RTVSPost2010PropOp48
 70
     1
102
RTVSPost2010Prop49
280
     0
102
RTVSPost2010PropOp49
 70
     1
102
RTVSPost2010Prop50
 90
       50
102
RTVSPost2010PropOp50
 70
     1
102
RTVSPost2010Prop51ColorIndex
 90
      256
102
RTVSPost2010Prop51ColorRGB
 90
-16777216
102
RTVSPost2010PropOp51
 70
     0
102
RTVSPost2010Prop52
140
1.0
102
RTVSPost2010PropOp52
 70
     0
102
RTVSPost2010Prop53
 90
        2
102
RTVSPost2010PropOp53
 70
     1
102
RTVSPost2010Prop54
  1
strokes_ogs.tif
102
RTVSPost2010PropOp54
 70
     1
102
RTVSPost2010Prop55
280
     0
102
RTVSPost2010PropOp55
 70
     1
102
RTVSPost2010Prop56
140
1.0
102
RTVSPost2010PropOp56
 70
     1
102
RTVSPost2010Prop57
140
1.0
102
RTVSPost2010PropOp57
 70
     1
102
RTVSPropertyOp0
 70
     1
102
RTVSPropertyOp1
 70
     1
102
RTVSPropertyOp2
 70
     1
102
RTVSPropertyOp3
 70
     1
102
RTVSPropertyOp4
 70
     1
102
RTVSPropertyOp5
 70
     1
102
RTVSPropertyOp6
 70
     1
102
RTVSPropertyOp7
 70
     1
102
RTVSPropertyOp8
 70
     1
102
RTVSPropertyOp9
 70
     1
102
RTVSPropertyOp10
 70
     1
102
RTVSPropertyOp11
 70
     1
102
RTVSPropertyOp12
 70
     1
102
RTVSPropertyOp13
 70
     1
102
RTVSPropertyOp14
 70
     1
102
RTVSPropertyOp15
 70
     1
102
RTVSPropertyOp16
 70
     1
102
RTVSPropertyOp17
 70
     1
102
RTVSPropertyOp18
 70
     1
102
RTVSPropertyOp19
 70
     1
102
RTVSPropertyOp20
 70
     1
102
RTVSPropertyOp21
 70
     1
102
RTVSPropertyOp22
 70
     1
102
RTVSPropertyOp23
 70
     1
102
RTVSPropertyOp24
 70
     1
102
RTVSPropertyOp25
 70
     1
102
RTVSPropertyOp26
 70
     1
102
RTVSPropertyOp27
 70
     1
102
RTVSPropertyOp28
 70
     1
102
RTVSPropertyOp29
 70
     1
102
RTVSPropertyOp30
 70
     1
102
RTVSPropertyOp31
 70
     1
102
RTVSPropertyOp32
 70
     1
102
RTVSPropertyOp33
 70
     1
102
RTVSPropertyOp34
 70
     1
102
RTVSPropertyOp35
 70
     1
102
RTVSPropertyOp36
 70
     1
102
RTVSPropertyOp37
 70
     1
102
RTVSPropertyOp38
 70
     1
102
RTVSPropertyOp39
 70
     1
102
RTVSPropertyOp40
 70
     1
102
RTVSPropertyOp41
 70
     1
102
RTVSPropertyOp42
 70
     1
102
RTVSPropertyOp43
 70
     1
102
RTVSPropertyOp44
 70
     1
102
RTVSPropertyOp45
 70
     1
102
RTVSPropertyOp46
 70
     1
102
RTVSPropertyOp47
 70
     1
102
RTVSPropertyOp48
 70
     1
102
RTVSPropertyOp49
 70
     1
102
RTVSPropertyOp50
 70
     1
102
RTVSPropertyOp51
 70
     0
102
RTVSPropertyOp52
 70
     0
102
RTVSPropertyOp53
 70
     1
102
RTVSPropertyOp54
 70
     1
102
RTVSPropertyOp55
 70
     1
102
RTVSPropertyOp56
 70
     1
102
RTVSPropertyOp57
 70
     1
102
RTVSPropertyOp58
 70
     1
102
RTVSPropertyOp59
 70
     1
102
RTVSPropertyOp60
 70
     1
102
RTVSPropertyOp61
 70
     1
102
RTVSPropertyOp62
 70
     1
  0
XRECORD
  5
8A45
102
{ACAD_REACTORS
330
8A44
102
}
330
8A44
100
AcDbXrecord
280
     1
102
RTVSPost2010Prop28
280
     0
102
RTVSPost2010PropOp28
 70
     1
102
RTVSPost2010Prop29
280
     1
102
RTVSPost2010PropOp29
 70
     1
102
RTVSPost2010Prop30
280
     1
102
RTVSPost2010PropOp30
 70
     1
102
RTVSPost2010Prop31
280
     0
102
RTVSPost2010PropOp31
 70
     1
102
RTVSPost2010Prop32
280
     0
102
RTVSPost2010PropOp32
 70
     1
102
RTVSPost2010Prop33
280
     0
102
RTVSPost2010PropOp33
 70
     1
102
RTVSPost2010Prop34
280
     0
102
RTVSPost2010PropOp34
 70
     1
102
RTVSPost2010Prop35
280
     0
102
RTVSPost2010PropOp35
 70
     1
102
RTVSPost2010Prop36
280
     0
102
RTVSPost2010PropOp36
 70
     1
102
RTVSPost2010Prop37
 90
       50
102
RTVSPost2010PropOp37
 70
     1
102
RTVSPost2010Prop38
140
0.0
102
RTVSPost2010PropOp38
 70
     1
102
RTVSPost2010Prop39
140
1.0
102
RTVSPost2010PropOp39
 70
     1
102
RTVSPost2010Prop40
 90
        0
102
RTVSPost2010PropOp40
 70
     1
102
RTVSPost2010Prop41ColorIndex
 90
       18
102
RTVSPost2010Prop41ColorRGB
 90
        0
102
RTVSPost2010PropOp41
 70
     1
102
RTVSPost2010Prop42
 90
       50
102
RTVSPost2010PropOp42
 70
     1
102
RTVSPost2010Prop43
 90
        3
102
RTVSPost2010PropOp43
 70
     1
102
RTVSPost2010Prop44ColorIndex
 90
        5
102
RTVSPost2010Prop44ColorRGB
 90
      255
102
RTVSPost2010PropOp44
 70
     1
102
RTVSPost2010Prop45
280
     0
102
RTVSPost2010PropOp45
 70
     1
102
RTVSPost2010Prop46
 90
       50
102
RTVSPost2010PropOp46
 70
     1
102
RTVSPost2010Prop47
 90
       50
102
RTVSPost2010PropOp47
 70
     1
102
RTVSPost2010Prop48
 90
       50
102
RTVSPost2010PropOp48
 70
     1
102
RTVSPost2010Prop49
280
     0
102
RTVSPost2010PropOp49
 70
     1
102
RTVSPost2010Prop50
 90
       50
102
RTVSPost2010PropOp50
 70
     1
102
RTVSPost2010Prop51ColorIndex
 90
      256
102
RTVSPost2010Prop51ColorRGB
 90
-16777216
102
RTVSPost2010PropOp51
 70
     0
102
RTVSPost2010Prop52
140
1.0
102
RTVSPost2010PropOp52
 70
     0
102
RTVSPost2010Prop53
 90
        2
102
RTVSPost2010PropOp53
 70
     1
102
RTVSPost2010Prop54
  1
strokes_ogs.tif
102
RTVSPost2010PropOp54
 70
     1
102
RTVSPost2010Prop55
280
     0
102
RTVSPost2010PropOp55
 70
     1
102
RTVSPost2010Prop56
140
1.0
102
RTVSPost2010PropOp56
 70
     1
102
RTVSPost2010Prop57
140
1.0
102
RTVSPost2010PropOp57
 70
     1
102
RTVSPropertyOp0
 70
     1
102
RTVSPropertyOp1
 70
     1
102
RTVSPropertyOp2
 70
     1
102
RTVSPropertyOp3
 70
     1
102
RTVSPropertyOp4
 70
     1
102
RTVSPropertyOp5
 70
     1
102
RTVSPropertyOp6
 70
     1
102
RTVSPropertyOp7
 70
     1
102
RTVSPropertyOp8
 70
     1
102
RTVSPropertyOp9
 70
     1
102
RTVSPropertyOp10
 70
     1
102
RTVSPropertyOp11
 70
     1
102
RTVSPropertyOp12
 70
     1
102
RTVSPropertyOp13
 70
     1
102
RTVSPropertyOp14
 70
     1
102
RTVSPropertyOp15
 70
     1
102
RTVSPropertyOp16
 70
     1
102
RTVSPropertyOp17
 70
     1
102
RTVSPropertyOp18
 70
     1
102
RTVSPropertyOp19
 70
     1
102
RTVSPropertyOp20
 70
     1
102
RTVSPropertyOp21
 70
     1
102
RTVSPropertyOp22
 70
     1
102
RTVSPropertyOp23
 70
     1
102
RTVSPropertyOp24
 70
     1
102
RTVSPropertyOp25
 70
     1
102
RTVSPropertyOp26
 70
     1
102
RTVSPropertyOp27
 70
     1
102
RTVSPropertyOp28
 70
     1
102
RTVSPropertyOp29
 70
     1
102
RTVSPropertyOp30
 70
     1
102
RTVSPropertyOp31
 70
     1
102
RTVSPropertyOp32
 70
     1
102
RTVSPropertyOp33
 70
     1
102
RTVSPropertyOp34
 70
     1
102
RTVSPropertyOp35
 70
     1
102
RTVSPropertyOp36
 70
     1
102
RTVSPropertyOp37
 70
     1
102
RTVSPropertyOp38
 70
     1
102
RTVSPropertyOp39
 70
     1
102
RTVSPropertyOp40
 70
     1
102
RTVSPropertyOp41
 70
     1
102
RTVSPropertyOp42
 70
     1
102
RTVSPropertyOp43
 70
     1
102
RTVSPropertyOp44
 70
     1
102
RTVSPropertyOp45
 70
     1
102
RTVSPropertyOp46
 70
     1
102
RTVSPropertyOp47
 70
     1
102
RTVSPropertyOp48
 70
     1
102
RTVSPropertyOp49
 70
     1
102
RTVSPropertyOp50
 70
     1
102
RTVSPropertyOp51
 70
     0
102
RTVSPropertyOp52
 70
     0
102
RTVSPropertyOp53
 70
     1
102
RTVSPropertyOp54
 70
     1
102
RTVSPropertyOp55
 70
     1
102
RTVSPropertyOp56
 70
     1
102
RTVSPropertyOp57
 70
     1
102
RTVSPropertyOp58
 70
     1
102
RTVSPropertyOp59
 70
     1
102
RTVSPropertyOp60
 70
     1
102
RTVSPropertyOp61
 70
     1
102
RTVSPropertyOp62
 70
     1
  0
XRECORD
  5
8A47
102
{ACAD_REACTORS
330
8A46
102
}
330
8A46
100
AcDbXrecord
280
     1
102
RTVSPost2010Prop28
280
     0
102
RTVSPost2010PropOp28
 70
     1
102
RTVSPost2010Prop29
280
     1
102
RTVSPost2010PropOp29
 70
     1
102
RTVSPost2010Prop30
280
     1
102
RTVSPost2010PropOp30
 70
     1
102
RTVSPost2010Prop31
280
     0
102
RTVSPost2010PropOp31
 70
     1
102
RTVSPost2010Prop32
280
     0
102
RTVSPost2010PropOp32
 70
     1
102
RTVSPost2010Prop33
280
     0
102
RTVSPost2010PropOp33
 70
     1
102
RTVSPost2010Prop34
280
     0
102
RTVSPost2010PropOp34
 70
     1
102
RTVSPost2010Prop35
280
     0
102
RTVSPost2010PropOp35
 70
     1
102
RTVSPost2010Prop36
280
     0
102
RTVSPost2010PropOp36
 70
     1
102
RTVSPost2010Prop37
 90
       50
102
RTVSPost2010PropOp37
 70
     1
102
RTVSPost2010Prop38
140
0.0
102
RTVSPost2010PropOp38
 70
     1
102
RTVSPost2010Prop39
140
1.0
102
RTVSPost2010PropOp39
 70
     1
102
RTVSPost2010Prop40
 90
        0
102
RTVSPost2010PropOp40
 70
     1
102
RTVSPost2010Prop41ColorIndex
 90
       18
102
RTVSPost2010Prop41ColorRGB
 90
        0
102
RTVSPost2010PropOp41
 70
     1
102
RTVSPost2010Prop42
 90
       50
102
RTVSPost2010PropOp42
 70
     1
102
RTVSPost2010Prop43
 90
        3
102
RTVSPost2010PropOp43
 70
     1
102
RTVSPost2010Prop44ColorIndex
 90
        5
102
RTVSPost2010Prop44ColorRGB
 90
      255
102
RTVSPost2010PropOp44
 70
     1
102
RTVSPost2010Prop45
280
     0
102
RTVSPost2010PropOp45
 70
     1
102
RTVSPost2010Prop46
 90
       50
102
RTVSPost2010PropOp46
 70
     1
102
RTVSPost2010Prop47
 90
       50
102
RTVSPost2010PropOp47
 70
     1
102
RTVSPost2010Prop48
 90
       50
102
RTVSPost2010PropOp48
 70
     1
102
RTVSPost2010Prop49
280
     0
102
RTVSPost2010PropOp49
 70
     1
102
RTVSPost2010Prop50
 90
       50
102
RTVSPost2010PropOp50
 70
     1
102
RTVSPost2010Prop51ColorIndex
 90
      256
102
RTVSPost2010Prop51ColorRGB
 90
-16777216
102
RTVSPost2010PropOp51
 70
     0
102
RTVSPost2010Prop52
140
1.0
102
RTVSPost2010PropOp52
 70
     0
102
RTVSPost2010Prop53
 90
        2
102
RTVSPost2010PropOp53
 70
     1
102
RTVSPost2010Prop54
  1
strokes_ogs.tif
102
RTVSPost2010PropOp54
 70
     1
102
RTVSPost2010Prop55
280
     0
102
RTVSPost2010PropOp55
 70
     1
102
RTVSPost2010Prop56
140
1.0
102
RTVSPost2010PropOp56
 70
     1
102
RTVSPost2010Prop57
140
1.0
102
RTVSPost2010PropOp57
 70
     1
102
RTVSPropertyOp0
 70
     1
102
RTVSPropertyOp1
 70
     1
102
RTVSPropertyOp2
 70
     1
102
RTVSPropertyOp3
 70
     1
102
RTVSPropertyOp4
 70
     1
102
RTVSPropertyOp5
 70
     1
102
RTVSPropertyOp6
 70
     1
102
RTVSPropertyOp7
 70
     1
102
RTVSPropertyOp8
 70
     1
102
RTVSPropertyOp9
 70
     1
102
RTVSPropertyOp10
 70
     1
102
RTVSPropertyOp11
 70
     1
102
RTVSPropertyOp12
 70
     1
102
RTVSPropertyOp13
 70
     1
102
RTVSPropertyOp14
 70
     1
102
RTVSPropertyOp15
 70
     1
102
RTVSPropertyOp16
 70
     1
102
RTVSPropertyOp17
 70
     1
102
RTVSPropertyOp18
 70
     1
102
RTVSPropertyOp19
 70
     1
102
RTVSPropertyOp20
 70
     1
102
RTVSPropertyOp21
 70
     1
102
RTVSPropertyOp22
 70
     1
102
RTVSPropertyOp23
 70
     1
102
RTVSPropertyOp24
 70
     1
102
RTVSPropertyOp25
 70
     1
102
RTVSPropertyOp26
 70
     1
102
RTVSPropertyOp27
 70
     1
102
RTVSPropertyOp28
 70
     1
102
RTVSPropertyOp29
 70
     1
102
RTVSPropertyOp30
 70
     1
102
RTVSPropertyOp31
 70
     1
102
RTVSPropertyOp32
 70
     1
102
RTVSPropertyOp33
 70
     1
102
RTVSPropertyOp34
 70
     1
102
RTVSPropertyOp35
 70
     1
102
RTVSPropertyOp36
 70
     1
102
RTVSPropertyOp37
 70
     1
102
RTVSPropertyOp38
 70
     1
102
RTVSPropertyOp39
 70
     1
102
RTVSPropertyOp40
 70
     1
102
RTVSPropertyOp41
 70
     1
102
RTVSPropertyOp42
 70
     1
102
RTVSPropertyOp43
 70
     1
102
RTVSPropertyOp44
 70
     1
102
RTVSPropertyOp45
 70
     1
102
RTVSPropertyOp46
 70
     1
102
RTVSPropertyOp47
 70
     1
102
RTVSPropertyOp48
 70
     1
102
RTVSPropertyOp49
 70
     1
102
RTVSPropertyOp50
 70
     1
102
RTVSPropertyOp51
 70
     0
102
RTVSPropertyOp52
 70
     0
102
RTVSPropertyOp53
 70
     1
102
RTVSPropertyOp54
 70
     1
102
RTVSPropertyOp55
 70
     1
102
RTVSPropertyOp56
 70
     1
102
RTVSPropertyOp57
 70
     1
102
RTVSPropertyOp58
 70
     1
102
RTVSPropertyOp59
 70
     1
102
RTVSPropertyOp60
 70
     1
102
RTVSPropertyOp61
 70
     1
102
RTVSPropertyOp62
 70
     1
  0
XRECORD
  5
8A49
102
{ACAD_REACTORS
330
8A48
102
}
330
8A48
100
AcDbXrecord
280
     1
102
RTVSPost2010Prop28
280
     0
102
RTVSPost2010PropOp28
 70
     1
102
RTVSPost2010Prop29
280
     1
102
RTVSPost2010PropOp29
 70
     1
102
RTVSPost2010Prop30
280
     1
102
RTVSPost2010PropOp30
 70
     1
102
RTVSPost2010Prop31
280
     0
102
RTVSPost2010PropOp31
 70
     1
102
RTVSPost2010Prop32
280
     0
102
RTVSPost2010PropOp32
 70
     1
102
RTVSPost2010Prop33
280
     0
102
RTVSPost2010PropOp33
 70
     1
102
RTVSPost2010Prop34
280
     0
102
RTVSPost2010PropOp34
 70
     1
102
RTVSPost2010Prop35
280
     0
102
RTVSPost2010PropOp35
 70
     1
102
RTVSPost2010Prop36
280
     0
102
RTVSPost2010PropOp36
 70
     1
102
RTVSPost2010Prop37
 90
       50
102
RTVSPost2010PropOp37
 70
     1
102
RTVSPost2010Prop38
140
0.0
102
RTVSPost2010PropOp38
 70
     1
102
RTVSPost2010Prop39
140
1.0
102
RTVSPost2010PropOp39
 70
     1
102
RTVSPost2010Prop40
 90
        0
102
RTVSPost2010PropOp40
 70
     1
102
RTVSPost2010Prop41ColorIndex
 90
       18
102
RTVSPost2010Prop41ColorRGB
 90
        0
102
RTVSPost2010PropOp41
 70
     1
102
RTVSPost2010Prop42
 90
       50
102
RTVSPost2010PropOp42
 70
     1
102
RTVSPost2010Prop43
 90
        3
102
RTVSPost2010PropOp43
 70
     1
102
RTVSPost2010Prop44ColorIndex
 90
        5
102
RTVSPost2010Prop44ColorRGB
 90
      255
102
RTVSPost2010PropOp44
 70
     1
102
RTVSPost2010Prop45
280
     0
102
RTVSPost2010PropOp45
 70
     1
102
RTVSPost2010Prop46
 90
       50
102
RTVSPost2010PropOp46
 70
     1
102
RTVSPost2010Prop47
 90
       50
102
RTVSPost2010PropOp47
 70
     1
102
RTVSPost2010Prop48
 90
       50
102
RTVSPost2010PropOp48
 70
     1
102
RTVSPost2010Prop49
280
     0
102
RTVSPost2010PropOp49
 70
     1
102
RTVSPost2010Prop50
 90
       50
102
RTVSPost2010PropOp50
 70
     1
102
RTVSPost2010Prop51ColorIndex
 90
      256
102
RTVSPost2010Prop51ColorRGB
 90
-16777216
102
RTVSPost2010PropOp51
 70
     0
102
RTVSPost2010Prop52
140
1.0
102
RTVSPost2010PropOp52
 70
     0
102
RTVSPost2010Prop53
 90
        2
102
RTVSPost2010PropOp53
 70
     1
102
RTVSPost2010Prop54
  1
strokes_ogs.tif
102
RTVSPost2010PropOp54
 70
     1
102
RTVSPost2010Prop55
280
     0
102
RTVSPost2010PropOp55
 70
     1
102
RTVSPost2010Prop56
140
1.0
102
RTVSPost2010PropOp56
 70
     1
102
RTVSPost2010Prop57
140
1.0
102
RTVSPost2010PropOp57
 70
     1
102
RTVSPropertyOp0
 70
     1
102
RTVSPropertyOp1
 70
     1
102
RTVSPropertyOp2
 70
     1
102
RTVSPropertyOp3
 70
     1
102
RTVSPropertyOp4
 70
     1
102
RTVSPropertyOp5
 70
     1
102
RTVSPropertyOp6
 70
     1
102
RTVSPropertyOp7
 70
     1
102
RTVSPropertyOp8
 70
     1
102
RTVSPropertyOp9
 70
     1
102
RTVSPropertyOp10
 70
     1
102
RTVSPropertyOp11
 70
     1
102
RTVSPropertyOp12
 70
     1
102
RTVSPropertyOp13
 70
     1
102
RTVSPropertyOp14
 70
     1
102
RTVSPropertyOp15
 70
     1
102
RTVSPropertyOp16
 70
     1
102
RTVSPropertyOp17
 70
     1
102
RTVSPropertyOp18
 70
     1
102
RTVSPropertyOp19
 70
     1
102
RTVSPropertyOp20
 70
     1
102
RTVSPropertyOp21
 70
     1
102
RTVSPropertyOp22
 70
     1
102
RTVSPropertyOp23
 70
     1
102
RTVSPropertyOp24
 70
     1
102
RTVSPropertyOp25
 70
     1
102
RTVSPropertyOp26
 70
     1
102
RTVSPropertyOp27
 70
     1
102
RTVSPropertyOp28
 70
     1
102
RTVSPropertyOp29
 70
     1
102
RTVSPropertyOp30
 70
     1
102
RTVSPropertyOp31
 70
     1
102
RTVSPropertyOp32
 70
     1
102
RTVSPropertyOp33
 70
     1
102
RTVSPropertyOp34
 70
     1
102
RTVSPropertyOp35
 70
     1
102
RTVSPropertyOp36
 70
     1
102
RTVSPropertyOp37
 70
     1
102
RTVSPropertyOp38
 70
     1
102
RTVSPropertyOp39
 70
     1
102
RTVSPropertyOp40
 70
     1
102
RTVSPropertyOp41
 70
     1
102
RTVSPropertyOp42
 70
     1
102
RTVSPropertyOp43
 70
     1
102
RTVSPropertyOp44
 70
     1
102
RTVSPropertyOp45
 70
     1
102
RTVSPropertyOp46
 70
     1
102
RTVSPropertyOp47
 70
     1
102
RTVSPropertyOp48
 70
     1
102
RTVSPropertyOp49
 70
     1
102
RTVSPropertyOp50
 70
     1
102
RTVSPropertyOp51
 70
     0
102
RTVSPropertyOp52
 70
     0
102
RTVSPropertyOp53
 70
     1
102
RTVSPropertyOp54
 70
     1
102
RTVSPropertyOp55
 70
     1
102
RTVSPropertyOp56
 70
     1
102
RTVSPropertyOp57
 70
     1
102
RTVSPropertyOp58
 70
     1
102
RTVSPropertyOp59
 70
     1
102
RTVSPropertyOp60
 70
     1
102
RTVSPropertyOp61
 70
     1
102
RTVSPropertyOp62
 70
     1
  0
XRECORD
  5
8A4B
102
{ACAD_REACTORS
330
8A4A
102
}
330
8A4A
100
AcDbXrecord
280
     1
102
RTVSPost2010Prop28
280
     0
102
RTVSPost2010PropOp28
 70
     1
102
RTVSPost2010Prop29
280
     1
102
RTVSPost2010PropOp29
 70
     1
102
RTVSPost2010Prop30
280
     1
102
RTVSPost2010PropOp30
 70
     1
102
RTVSPost2010Prop31
280
     0
102
RTVSPost2010PropOp31
 70
     1
102
RTVSPost2010Prop32
280
     0
102
RTVSPost2010PropOp32
 70
     1
102
RTVSPost2010Prop33
280
     0
102
RTVSPost2010PropOp33
 70
     1
102
RTVSPost2010Prop34
280
     0
102
RTVSPost2010PropOp34
 70
     1
102
RTVSPost2010Prop35
280
     0
102
RTVSPost2010PropOp35
 70
     1
102
RTVSPost2010Prop36
280
     0
102
RTVSPost2010PropOp36
 70
     1
102
RTVSPost2010Prop37
 90
       50
102
RTVSPost2010PropOp37
 70
     1
102
RTVSPost2010Prop38
140
0.0
102
RTVSPost2010PropOp38
 70
     1
102
RTVSPost2010Prop39
140
1.0
102
RTVSPost2010PropOp39
 70
     1
102
RTVSPost2010Prop40
 90
        0
102
RTVSPost2010PropOp40
 70
     1
102
RTVSPost2010Prop41ColorIndex
 90
       18
102
RTVSPost2010Prop41ColorRGB
 90
        0
102
RTVSPost2010PropOp41
 70
     1
102
RTVSPost2010Prop42
 90
       50
102
RTVSPost2010PropOp42
 70
     1
102
RTVSPost2010Prop43
 90
        3
102
RTVSPost2010PropOp43
 70
     1
102
RTVSPost2010Prop44ColorIndex
 90
        5
102
RTVSPost2010Prop44ColorRGB
 90
      255
102
RTVSPost2010PropOp44
 70
     1
102
RTVSPost2010Prop45
280
     0
102
RTVSPost2010PropOp45
 70
     1
102
RTVSPost2010Prop46
 90
       50
102
RTVSPost2010PropOp46
 70
     1
102
RTVSPost2010Prop47
 90
       50
102
RTVSPost2010PropOp47
 70
     1
102
RTVSPost2010Prop48
 90
       50
102
RTVSPost2010PropOp48
 70
     1
102
RTVSPost2010Prop49
280
     0
102
RTVSPost2010PropOp49
 70
     1
102
RTVSPost2010Prop50
 90
       50
102
RTVSPost2010PropOp50
 70
     1
102
RTVSPost2010Prop51ColorIndex
 90
      256
102
RTVSPost2010Prop51ColorRGB
 90
-16777216
102
RTVSPost2010PropOp51
 70
     0
102
RTVSPost2010Prop52
140
1.0
102
RTVSPost2010PropOp52
 70
     0
102
RTVSPost2010Prop53
 90
        2
102
RTVSPost2010PropOp53
 70
     1
102
RTVSPost2010Prop54
  1
strokes_ogs.tif
102
RTVSPost2010PropOp54
 70
     1
102
RTVSPost2010Prop55
280
     0
102
RTVSPost2010PropOp55
 70
     1
102
RTVSPost2010Prop56
140
1.0
102
RTVSPost2010PropOp56
 70
     1
102
RTVSPost2010Prop57
140
1.0
102
RTVSPost2010PropOp57
 70
     1
102
RTVSPropertyOp0
 70
     1
102
RTVSPropertyOp1
 70
     1
102
RTVSPropertyOp2
 70
     1
102
RTVSPropertyOp3
 70
     1
102
RTVSPropertyOp4
 70
     1
102
RTVSPropertyOp5
 70
     1
102
RTVSPropertyOp6
 70
     1
102
RTVSPropertyOp7
 70
     1
102
RTVSPropertyOp8
 70
     1
102
RTVSPropertyOp9
 70
     1
102
RTVSPropertyOp10
 70
     1
102
RTVSPropertyOp11
 70
     1
102
RTVSPropertyOp12
 70
     1
102
RTVSPropertyOp13
 70
     1
102
RTVSPropertyOp14
 70
     1
102
RTVSPropertyOp15
 70
     1
102
RTVSPropertyOp16
 70
     1
102
RTVSPropertyOp17
 70
     1
102
RTVSPropertyOp18
 70
     1
102
RTVSPropertyOp19
 70
     1
102
RTVSPropertyOp20
 70
     1
102
RTVSPropertyOp21
 70
     1
102
RTVSPropertyOp22
 70
     1
102
RTVSPropertyOp23
 70
     1
102
RTVSPropertyOp24
 70
     1
102
RTVSPropertyOp25
 70
     1
102
RTVSPropertyOp26
 70
     1
102
RTVSPropertyOp27
 70
     1
102
RTVSPropertyOp28
 70
     1
102
RTVSPropertyOp29
 70
     1
102
RTVSPropertyOp30
 70
     1
102
RTVSPropertyOp31
 70
     1
102
RTVSPropertyOp32
 70
     1
102
RTVSPropertyOp33
 70
     1
102
RTVSPropertyOp34
 70
     1
102
RTVSPropertyOp35
 70
     1
102
RTVSPropertyOp36
 70
     1
102
RTVSPropertyOp37
 70
     1
102
RTVSPropertyOp38
 70
     1
102
RTVSPropertyOp39
 70
     1
102
RTVSPropertyOp40
 70
     1
102
RTVSPropertyOp41
 70
     1
102
RTVSPropertyOp42
 70
     1
102
RTVSPropertyOp43
 70
     1
102
RTVSPropertyOp44
 70
     1
102
RTVSPropertyOp45
 70
     1
102
RTVSPropertyOp46
 70
     1
102
RTVSPropertyOp47
 70
     1
102
RTVSPropertyOp48
 70
     1
102
RTVSPropertyOp49
 70
     1
102
RTVSPropertyOp50
 70
     1
102
RTVSPropertyOp51
 70
     0
102
RTVSPropertyOp52
 70
     0
102
RTVSPropertyOp53
 70
     1
102
RTVSPropertyOp54
 70
     1
102
RTVSPropertyOp55
 70
     1
102
RTVSPropertyOp56
 70
     1
102
RTVSPropertyOp57
 70
     1
102
RTVSPropertyOp58
 70
     1
102
RTVSPropertyOp59
 70
     1
102
RTVSPropertyOp60
 70
     1
102
RTVSPropertyOp61
 70
     1
102
RTVSPropertyOp62
 70
     1
  0
XRECORD
  5
8A53
102
{ACAD_REACTORS
330
8A52
102
}
330
8A52
100
AcDbXrecord
280
     1
102
RTVSPost2010Prop28
280
     0
102
RTVSPost2010PropOp28
 70
     1
102
RTVSPost2010Prop29
280
     1
102
RTVSPost2010PropOp29
 70
     1
102
RTVSPost2010Prop30
280
     1
102
RTVSPost2010PropOp30
 70
     1
102
RTVSPost2010Prop31
280
     0
102
RTVSPost2010PropOp31
 70
     1
102
RTVSPost2010Prop32
280
     0
102
RTVSPost2010PropOp32
 70
     1
102
RTVSPost2010Prop33
280
     0
102
RTVSPost2010PropOp33
 70
     1
102
RTVSPost2010Prop34
280
     0
102
RTVSPost2010PropOp34
 70
     1
102
RTVSPost2010Prop35
280
     0
102
RTVSPost2010PropOp35
 70
     1
102
RTVSPost2010Prop36
280
     0
102
RTVSPost2010PropOp36
 70
     1
102
RTVSPost2010Prop37
 90
       50
102
RTVSPost2010PropOp37
 70
     1
102
RTVSPost2010Prop38
140
0.0
102
RTVSPost2010PropOp38
 70
     1
102
RTVSPost2010Prop39
140
1.0
102
RTVSPost2010PropOp39
 70
     1
102
RTVSPost2010Prop40
 90
        0
102
RTVSPost2010PropOp40
 70
     1
102
RTVSPost2010Prop41ColorIndex
 90
       18
102
RTVSPost2010Prop41ColorRGB
 90
        0
102
RTVSPost2010PropOp41
 70
     1
102
RTVSPost2010Prop42
 90
       50
102
RTVSPost2010PropOp42
 70
     1
102
RTVSPost2010Prop43
 90
        3
102
RTVSPost2010PropOp43
 70
     1
102
RTVSPost2010Prop44ColorIndex
 90
        5
102
RTVSPost2010Prop44ColorRGB
 90
      255
102
RTVSPost2010PropOp44
 70
     1
102
RTVSPost2010Prop45
280
     0
102
RTVSPost2010PropOp45
 70
     1
102
RTVSPost2010Prop46
 90
       50
102
RTVSPost2010PropOp46
 70
     1
102
RTVSPost2010Prop47
 90
       50
102
RTVSPost2010PropOp47
 70
     1
102
RTVSPost2010Prop48
 90
       50
102
RTVSPost2010PropOp48
 70
     1
102
RTVSPost2010Prop49
280
     0
102
RTVSPost2010PropOp49
 70
     1
102
RTVSPost2010Prop50
 90
       50
102
RTVSPost2010PropOp50
 70
     1
102
RTVSPost2010Prop51ColorIndex
 90
      256
102
RTVSPost2010Prop51ColorRGB
 90
-16777216
102
RTVSPost2010PropOp51
 70
     0
102
RTVSPost2010Prop52
140
1.0
102
RTVSPost2010PropOp52
 70
     0
102
RTVSPost2010Prop53
 90
        2
102
RTVSPost2010PropOp53
 70
     1
102
RTVSPost2010Prop54
  1
strokes_ogs.tif
102
RTVSPost2010PropOp54
 70
     1
102
RTVSPost2010Prop55
280
     0
102
RTVSPost2010PropOp55
 70
     1
102
RTVSPost2010Prop56
140
1.0
102
RTVSPost2010PropOp56
 70
     1
102
RTVSPost2010Prop57
140
1.0
102
RTVSPost2010PropOp57
 70
     1
102
RTVSPropertyOp0
 70
     1
102
RTVSPropertyOp1
 70
     1
102
RTVSPropertyOp2
 70
     1
102
RTVSPropertyOp3
 70
     1
102
RTVSPropertyOp4
 70
     1
102
RTVSPropertyOp5
 70
     1
102
RTVSPropertyOp6
 70
     1
102
RTVSPropertyOp7
 70
     1
102
RTVSPropertyOp8
 70
     1
102
RTVSPropertyOp9
 70
     1
102
RTVSPropertyOp10
 70
     1
102
RTVSPropertyOp11
 70
     1
102
RTVSPropertyOp12
 70
     1
102
RTVSPropertyOp13
 70
     1
102
RTVSPropertyOp14
 70
     1
102
RTVSPropertyOp15
 70
     1
102
RTVSPropertyOp16
 70
     1
102
RTVSPropertyOp17
 70
     1
102
RTVSPropertyOp18
 70
     1
102
RTVSPropertyOp19
 70
     1
102
RTVSPropertyOp20
 70
     1
102
RTVSPropertyOp21
 70
     1
102
RTVSPropertyOp22
 70
     1
102
RTVSPropertyOp23
 70
     1
102
RTVSPropertyOp24
 70
     1
102
RTVSPropertyOp25
 70
     1
102
RTVSPropertyOp26
 70
     1
102
RTVSPropertyOp27
 70
     1
102
RTVSPropertyOp28
 70
     1
102
RTVSPropertyOp29
 70
     1
102
RTVSPropertyOp30
 70
     1
102
RTVSPropertyOp31
 70
     1
102
RTVSPropertyOp32
 70
     1
102
RTVSPropertyOp33
 70
     1
102
RTVSPropertyOp34
 70
     1
102
RTVSPropertyOp35
 70
     1
102
RTVSPropertyOp36
 70
     1
102
RTVSPropertyOp37
 70
     1
102
RTVSPropertyOp38
 70
     1
102
RTVSPropertyOp39
 70
     1
102
RTVSPropertyOp40
 70
     1
102
RTVSPropertyOp41
 70
     1
102
RTVSPropertyOp42
 70
     1
102
RTVSPropertyOp43
 70
     1
102
RTVSPropertyOp44
 70
     1
102
RTVSPropertyOp45
 70
     1
102
RTVSPropertyOp46
 70
     1
102
RTVSPropertyOp47
 70
     1
102
RTVSPropertyOp48
 70
     1
102
RTVSPropertyOp49
 70
     1
102
RTVSPropertyOp50
 70
     1
102
RTVSPropertyOp51
 70
     0
102
RTVSPropertyOp52
 70
     0
102
RTVSPropertyOp53
 70
     1
102
RTVSPropertyOp54
 70
     1
102
RTVSPropertyOp55
 70
     1
102
RTVSPropertyOp56
 70
     1
102
RTVSPropertyOp57
 70
     1
102
RTVSPropertyOp58
 70
     1
102
RTVSPropertyOp59
 70
     1
102
RTVSPropertyOp60
 70
     1
102
RTVSPropertyOp61
 70
     1
102
RTVSPropertyOp62
 70
     1
  0
XRECORD
  5
8A6F
102
{ACAD_REACTORS
330
8A6E
102
}
330
8A6E
100
AcDbXrecord
280
     1
102
RTVSPost2010Prop28
280
     0
102
RTVSPost2010PropOp28
 70
     0
102
RTVSPost2010Prop29
280
     1
102
RTVSPost2010PropOp29
 70
     0
102
RTVSPost2010Prop30
280
     1
102
RTVSPost2010PropOp30
 70
     0
102
RTVSPost2010Prop31
280
     0
102
RTVSPost2010PropOp31
 70
     0
102
RTVSPost2010Prop32
280
     0
102
RTVSPost2010PropOp32
 70
     0
102
RTVSPost2010Prop33
280
     0
102
RTVSPost2010PropOp33
 70
     0
102
RTVSPost2010Prop34
280
     0
102
RTVSPost2010PropOp34
 70
     0
102
RTVSPost2010Prop35
280
     0
102
RTVSPost2010PropOp35
 70
     0
102
RTVSPost2010Prop36
280
     0
102
RTVSPost2010PropOp36
 70
     0
102
RTVSPost2010Prop37
 90
       50
102
RTVSPost2010PropOp37
 70
     0
102
RTVSPost2010Prop38
140
0.0
102
RTVSPost2010PropOp38
 70
     0
102
RTVSPost2010Prop39
140
1.0
102
RTVSPost2010PropOp39
 70
     0
102
RTVSPost2010Prop40
 90
        0
102
RTVSPost2010PropOp40
 70
     0
102
RTVSPost2010Prop41ColorIndex
 90
       18
102
RTVSPost2010Prop41ColorRGB
 90
        0
102
RTVSPost2010PropOp41
 70
     0
102
RTVSPost2010Prop42
 90
       50
102
RTVSPost2010PropOp42
 70
     0
102
RTVSPost2010Prop43
 90
        3
102
RTVSPost2010PropOp43
 70
     0
102
RTVSPost2010Prop44ColorIndex
 90
        5
102
RTVSPost2010Prop44ColorRGB
 90
      255
102
RTVSPost2010PropOp44
 70
     0
102
RTVSPost2010Prop45
280
     0
102
RTVSPost2010PropOp45
 70
     0
102
RTVSPost2010Prop46
 90
       50
102
RTVSPost2010PropOp46
 70
     0
102
RTVSPost2010Prop47
 90
       50
102
RTVSPost2010PropOp47
 70
     0
102
RTVSPost2010Prop48
 90
       50
102
RTVSPost2010PropOp48
 70
     0
102
RTVSPost2010Prop49
280
     0
102
RTVSPost2010PropOp49
 70
     0
102
RTVSPost2010Prop50
 90
       50
102
RTVSPost2010PropOp50
 70
     0
102
RTVSPost2010Prop51ColorIndex
 90
      256
102
RTVSPost2010Prop51ColorRGB
 90
-16777216
102
RTVSPost2010PropOp51
 70
     0
102
RTVSPost2010Prop52
140
1.0
102
RTVSPost2010PropOp52
 70
     0
102
RTVSPost2010Prop53
 90
        2
102
RTVSPost2010PropOp53
 70
     0
102
RTVSPost2010Prop54
  1
strokes_ogs.tif
102
RTVSPost2010PropOp54
 70
     0
102
RTVSPost2010Prop55
280
     0
102
RTVSPost2010PropOp55
 70
     0
102
RTVSPost2010Prop56
140
1.0
102
RTVSPost2010PropOp56
 70
     0
102
RTVSPost2010Prop57
140
1.0
102
RTVSPost2010PropOp57
 70
     0
102
RTVSPropertyOp0
 70
     0
102
RTVSPropertyOp1
 70
     0
102
RTVSPropertyOp2
 70
     0
102
RTVSPropertyOp3
 70
     0
102
RTVSPropertyOp4
 70
     0
102
RTVSPropertyOp5
 70
     0
102
RTVSPropertyOp6
 70
     0
102
RTVSPropertyOp7
 70
     0
102
RTVSPropertyOp8
 70
     0
102
RTVSPropertyOp9
 70
     0
102
RTVSPropertyOp10
 70
     0
102
RTVSPropertyOp11
 70
     0
102
RTVSPropertyOp12
 70
     0
102
RTVSPropertyOp13
 70
     0
102
RTVSPropertyOp14
 70
     2
102
RTVSPropertyOp15
 70
     0
102
RTVSPropertyOp16
 70
     0
102
RTVSPropertyOp17
 70
     0
102
RTVSPropertyOp18
 70
     0
102
RTVSPropertyOp19
 70
     0
102
RTVSPropertyOp20
 70
     0
102
RTVSPropertyOp21
 70
     0
102
RTVSPropertyOp22
 70
     0
102
RTVSPropertyOp23
 70
     0
102
RTVSPropertyOp24
 70
     0
102
RTVSPropertyOp25
 70
     0
102
RTVSPropertyOp26
 70
     0
102
RTVSPropertyOp27
 70
     0
102
RTVSPropertyOp28
 70
     0
102
RTVSPropertyOp29
 70
     0
102
RTVSPropertyOp30
 70
     0
102
RTVSPropertyOp31
 70
     0
102
RTVSPropertyOp32
 70
     0
102
RTVSPropertyOp33
 70
     0
102
RTVSPropertyOp34
 70
     0
102
RTVSPropertyOp35
 70
     0
102
RTVSPropertyOp36
 70
     0
102
RTVSPropertyOp37
 70
     0
102
RTVSPropertyOp38
 70
     0
102
RTVSPropertyOp39
 70
     0
102
RTVSPropertyOp40
 70
     0
102
RTVSPropertyOp41
 70
     0
102
RTVSPropertyOp42
 70
     0
102
RTVSPropertyOp43
 70
     0
102
RTVSPropertyOp44
 70
     0
102
RTVSPropertyOp45
 70
     0
102
RTVSPropertyOp46
 70
     0
102
RTVSPropertyOp47
 70
     0
102
RTVSPropertyOp48
 70
     0
102
RTVSPropertyOp49
 70
     0
102
RTVSPropertyOp50
 70
     0
102
RTVSPropertyOp51
 70
     0
102
RTVSPropertyOp52
 70
     0
102
RTVSPropertyOp53
 70
     0
102
RTVSPropertyOp54
 70
     0
102
RTVSPropertyOp55
 70
     0
102
RTVSPropertyOp56
 70
     0
102
RTVSPropertyOp57
 70
     0
102
RTVSPropertyOp58
 70
     1
102
RTVSPropertyOp59
 70
     1
102
RTVSPropertyOp60
 70
     1
102
RTVSPropertyOp61
 70
     1
102
RTVSPropertyOp62
 70
     1
  0
XRECORD
  5
8A5F
102
{ACAD_REACTORS
330
8A5E
102
}
330
8A5E
100
AcDbXrecord
280
     1
102
RTVSPost2010Prop28
280
     0
102
RTVSPost2010PropOp28
 70
     1
102
RTVSPost2010Prop29
280
     1
102
RTVSPost2010PropOp29
 70
     1
102
RTVSPost2010Prop30
280
     1
102
RTVSPost2010PropOp30
 70
     1
102
RTVSPost2010Prop31
280
     0
102
RTVSPost2010PropOp31
 70
     1
102
RTVSPost2010Prop32
280
     0
102
RTVSPost2010PropOp32
 70
     1
102
RTVSPost2010Prop33
280
     0
102
RTVSPost2010PropOp33
 70
     1
102
RTVSPost2010Prop34
280
     0
102
RTVSPost2010PropOp34
 70
     1
102
RTVSPost2010Prop35
280
     0
102
RTVSPost2010PropOp35
 70
     1
102
RTVSPost2010Prop36
280
     0
102
RTVSPost2010PropOp36
 70
     1
102
RTVSPost2010Prop37
 90
       50
102
RTVSPost2010PropOp37
 70
     1
102
RTVSPost2010Prop38
140
0.0
102
RTVSPost2010PropOp38
 70
     1
102
RTVSPost2010Prop39
140
1.0
102
RTVSPost2010PropOp39
 70
     1
102
RTVSPost2010Prop40
 90
        0
102
RTVSPost2010PropOp40
 70
     1
102
RTVSPost2010Prop41ColorIndex
 90
       18
102
RTVSPost2010Prop41ColorRGB
 90
        0
102
RTVSPost2010PropOp41
 70
     1
102
RTVSPost2010Prop42
 90
       50
102
RTVSPost2010PropOp42
 70
     1
102
RTVSPost2010Prop43
 90
        3
102
RTVSPost2010PropOp43
 70
     1
102
RTVSPost2010Prop44ColorIndex
 90
        5
102
RTVSPost2010Prop44ColorRGB
 90
      255
102
RTVSPost2010PropOp44
 70
     1
102
RTVSPost2010Prop45
280
     0
102
RTVSPost2010PropOp45
 70
     1
102
RTVSPost2010Prop46
 90
       50
102
RTVSPost2010PropOp46
 70
     1
102
RTVSPost2010Prop47
 90
       50
102
RTVSPost2010PropOp47
 70
     1
102
RTVSPost2010Prop48
 90
       50
102
RTVSPost2010PropOp48
 70
     1
102
RTVSPost2010Prop49
280
     0
102
RTVSPost2010PropOp49
 70
     1
102
RTVSPost2010Prop50
 90
       50
102
RTVSPost2010PropOp50
 70
     1
102
RTVSPost2010Prop51ColorIndex
 90
      256
102
RTVSPost2010Prop51ColorRGB
 90
-16777216
102
RTVSPost2010PropOp51
 70
     0
102
RTVSPost2010Prop52
140
1.0
102
RTVSPost2010PropOp52
 70
     0
102
RTVSPost2010Prop53
 90
        2
102
RTVSPost2010PropOp53
 70
     1
102
RTVSPost2010Prop54
  1
strokes_ogs.tif
102
RTVSPost2010PropOp54
 70
     1
102
RTVSPost2010Prop55
280
     0
102
RTVSPost2010PropOp55
 70
     1
102
RTVSPost2010Prop56
140
1.0
102
RTVSPost2010PropOp56
 70
     1
102
RTVSPost2010Prop57
140
1.0
102
RTVSPost2010PropOp57
 70
     1
102
RTVSPropertyOp0
 70
     1
102
RTVSPropertyOp1
 70
     1
102
RTVSPropertyOp2
 70
     1
102
RTVSPropertyOp3
 70
     1
102
RTVSPropertyOp4
 70
     1
102
RTVSPropertyOp5
 70
     1
102
RTVSPropertyOp6
 70
     1
102
RTVSPropertyOp7
 70
     1
102
RTVSPropertyOp8
 70
     1
102
RTVSPropertyOp9
 70
     1
102
RTVSPropertyOp10
 70
     1
102
RTVSPropertyOp11
 70
     1
102
RTVSPropertyOp12
 70
     1
102
RTVSPropertyOp13
 70
     1
102
RTVSPropertyOp14
 70
     1
102
RTVSPropertyOp15
 70
     1
102
RTVSPropertyOp16
 70
     1
102
RTVSPropertyOp17
 70
     1
102
RTVSPropertyOp18
 70
     1
102
RTVSPropertyOp19
 70
     1
102
RTVSPropertyOp20
 70
     1
102
RTVSPropertyOp21
 70
     1
102
RTVSPropertyOp22
 70
     1
102
RTVSPropertyOp23
 70
     1
102
RTVSPropertyOp24
 70
     1
102
RTVSPropertyOp25
 70
     1
102
RTVSPropertyOp26
 70
     1
102
RTVSPropertyOp27
 70
     1
102
RTVSPropertyOp28
 70
     1
102
RTVSPropertyOp29
 70
     1
102
RTVSPropertyOp30
 70
     1
102
RTVSPropertyOp31
 70
     1
102
RTVSPropertyOp32
 70
     1
102
RTVSPropertyOp33
 70
     1
102
RTVSPropertyOp34
 70
     1
102
RTVSPropertyOp35
 70
     1
102
RTVSPropertyOp36
 70
     1
102
RTVSPropertyOp37
 70
     1
102
RTVSPropertyOp38
 70
     1
102
RTVSPropertyOp39
 70
     1
102
RTVSPropertyOp40
 70
     1
102
RTVSPropertyOp41
 70
     1
102
RTVSPropertyOp42
 70
     1
102
RTVSPropertyOp43
 70
     1
102
RTVSPropertyOp44
 70
     1
102
RTVSPropertyOp45
 70
     1
102
RTVSPropertyOp46
 70
     1
102
RTVSPropertyOp47
 70
     1
102
RTVSPropertyOp48
 70
     1
102
RTVSPropertyOp49
 70
     1
102
RTVSPropertyOp50
 70
     1
102
RTVSPropertyOp51
 70
     0
102
RTVSPropertyOp52
 70
     0
102
RTVSPropertyOp53
 70
     1
102
RTVSPropertyOp54
 70
     1
102
RTVSPropertyOp55
 70
     1
102
RTVSPropertyOp56
 70
     1
102
RTVSPropertyOp57
 70
     1
102
RTVSPropertyOp58
 70
     1
102
RTVSPropertyOp59
 70
     1
102
RTVSPropertyOp60
 70
     1
102
RTVSPropertyOp61
 70
     1
102
RTVSPropertyOp62
 70
     1
  0
XRECORD
  5
8A71
102
{ACAD_REACTORS
330
8A70
102
}
330
8A70
100
AcDbXrecord
280
     1
102
RTVSPost2010Prop28
280
     0
102
RTVSPost2010PropOp28
 70
     0
102
RTVSPost2010Prop29
280
     1
102
RTVSPost2010PropOp29
 70
     0
102
RTVSPost2010Prop30
280
     1
102
RTVSPost2010PropOp30
 70
     0
102
RTVSPost2010Prop31
280
     0
102
RTVSPost2010PropOp31
 70
     0
102
RTVSPost2010Prop32
280
     0
102
RTVSPost2010PropOp32
 70
     0
102
RTVSPost2010Prop33
280
     0
102
RTVSPost2010PropOp33
 70
     0
102
RTVSPost2010Prop34
280
     0
102
RTVSPost2010PropOp34
 70
     0
102
RTVSPost2010Prop35
280
     0
102
RTVSPost2010PropOp35
 70
     0
102
RTVSPost2010Prop36
280
     0
102
RTVSPost2010PropOp36
 70
     0
102
RTVSPost2010Prop37
 90
       50
102
RTVSPost2010PropOp37
 70
     0
102
RTVSPost2010Prop38
140
0.0
102
RTVSPost2010PropOp38
 70
     0
102
RTVSPost2010Prop39
140
1.0
102
RTVSPost2010PropOp39
 70
     0
102
RTVSPost2010Prop40
 90
        0
102
RTVSPost2010PropOp40
 70
     0
102
RTVSPost2010Prop41ColorIndex
 90
       18
102
RTVSPost2010Prop41ColorRGB
 90
        0
102
RTVSPost2010PropOp41
 70
     0
102
RTVSPost2010Prop42
 90
       50
102
RTVSPost2010PropOp42
 70
     0
102
RTVSPost2010Prop43
 90
        3
102
RTVSPost2010PropOp43
 70
     0
102
RTVSPost2010Prop44ColorIndex
 90
        5
102
RTVSPost2010Prop44ColorRGB
 90
      255
102
RTVSPost2010PropOp44
 70
     0
102
RTVSPost2010Prop45
280
     0
102
RTVSPost2010PropOp45
 70
     0
102
RTVSPost2010Prop46
 90
       50
102
RTVSPost2010PropOp46
 70
     0
102
RTVSPost2010Prop47
 90
       50
102
RTVSPost2010PropOp47
 70
     0
102
RTVSPost2010Prop48
 90
       50
102
RTVSPost2010PropOp48
 70
     0
102
RTVSPost2010Prop49
280
     0
102
RTVSPost2010PropOp49
 70
     0
102
RTVSPost2010Prop50
 90
       50
102
RTVSPost2010PropOp50
 70
     0
102
RTVSPost2010Prop51ColorIndex
 90
      256
102
RTVSPost2010Prop51ColorRGB
 90
-16777216
102
RTVSPost2010PropOp51
 70
     0
102
RTVSPost2010Prop52
140
1.0
102
RTVSPost2010PropOp52
 70
     0
102
RTVSPost2010Prop53
 90
        2
102
RTVSPost2010PropOp53
 70
     0
102
RTVSPost2010Prop54
  1
strokes_ogs.tif
102
RTVSPost2010PropOp54
 70
     0
102
RTVSPost2010Prop55
280
     0
102
RTVSPost2010PropOp55
 70
     0
102
RTVSPost2010Prop56
140
1.0
102
RTVSPost2010PropOp56
 70
     0
102
RTVSPost2010Prop57
140
1.0
102
RTVSPost2010PropOp57
 70
     0
102
RTVSPropertyOp0
 70
     0
102
RTVSPropertyOp1
 70
     0
102
RTVSPropertyOp2
 70
     0
102
RTVSPropertyOp3
 70
     0
102
RTVSPropertyOp4
 70
     0
102
RTVSPropertyOp5
 70
     0
102
RTVSPropertyOp6
 70
     0
102
RTVSPropertyOp7
 70
     0
102
RTVSPropertyOp8
 70
     0
102
RTVSPropertyOp9
 70
     0
102
RTVSPropertyOp10
 70
     0
102
RTVSPropertyOp11
 70
     0
102
RTVSPropertyOp12
 70
     0
102
RTVSPropertyOp13
 70
     0
102
RTVSPropertyOp14
 70
     2
102
RTVSPropertyOp15
 70
     0
102
RTVSPropertyOp16
 70
     0
102
RTVSPropertyOp17
 70
     0
102
RTVSPropertyOp18
 70
     0
102
RTVSPropertyOp19
 70
     0
102
RTVSPropertyOp20
 70
     0
102
RTVSPropertyOp21
 70
     0
102
RTVSPropertyOp22
 70
     0
102
RTVSPropertyOp23
 70
     0
102
RTVSPropertyOp24
 70
     0
102
RTVSPropertyOp25
 70
     0
102
RTVSPropertyOp26
 70
     0
102
RTVSPropertyOp27
 70
     0
102
RTVSPropertyOp28
 70
     0
102
RTVSPropertyOp29
 70
     0
102
RTVSPropertyOp30
 70
     0
102
RTVSPropertyOp31
 70
     0
102
RTVSPropertyOp32
 70
     0
102
RTVSPropertyOp33
 70
     0
102
RTVSPropertyOp34
 70
     0
102
RTVSPropertyOp35
 70
     0
102
RTVSPropertyOp36
 70
     0
102
RTVSPropertyOp37
 70
     0
102
RTVSPropertyOp38
 70
     0
102
RTVSPropertyOp39
 70
     0
102
RTVSPropertyOp40
 70
     0
102
RTVSPropertyOp41
 70
     0
102
RTVSPropertyOp42
 70
     0
102
RTVSPropertyOp43
 70
     0
102
RTVSPropertyOp44
 70
     0
102
RTVSPropertyOp45
 70
     0
102
RTVSPropertyOp46
 70
     0
102
RTVSPropertyOp47
 70
     0
102
RTVSPropertyOp48
 70
     0
102
RTVSPropertyOp49
 70
     0
102
RTVSPropertyOp50
 70
     0
102
RTVSPropertyOp51
 70
     0
102
RTVSPropertyOp52
 70
     0
102
RTVSPropertyOp53
 70
     0
102
RTVSPropertyOp54
 70
     0
102
RTVSPropertyOp55
 70
     0
102
RTVSPropertyOp56
 70
     0
102
RTVSPropertyOp57
 70
     0
102
RTVSPropertyOp58
 70
     1
102
RTVSPropertyOp59
 70
     1
102
RTVSPropertyOp60
 70
     1
102
RTVSPropertyOp61
 70
     1
102
RTVSPropertyOp62
 70
     1
  0
XRECORD
  5
8A57
102
{ACAD_REACTORS
330
8A56
102
}
330
8A56
100
AcDbXrecord
280
     1
102
RTVSPost2010Prop28
280
     0
102
RTVSPost2010PropOp28
 70
     1
102
RTVSPost2010Prop29
280
     1
102
RTVSPost2010PropOp29
 70
     1
102
RTVSPost2010Prop30
280
     1
102
RTVSPost2010PropOp30
 70
     1
102
RTVSPost2010Prop31
280
     0
102
RTVSPost2010PropOp31
 70
     1
102
RTVSPost2010Prop32
280
     0
102
RTVSPost2010PropOp32
 70
     1
102
RTVSPost2010Prop33
280
     0
102
RTVSPost2010PropOp33
 70
     1
102
RTVSPost2010Prop34
280
     0
102
RTVSPost2010PropOp34
 70
     1
102
RTVSPost2010Prop35
280
     0
102
RTVSPost2010PropOp35
 70
     1
102
RTVSPost2010Prop36
280
     0
102
RTVSPost2010PropOp36
 70
     1
102
RTVSPost2010Prop37
 90
       50
102
RTVSPost2010PropOp37
 70
     1
102
RTVSPost2010Prop38
140
0.0
102
RTVSPost2010PropOp38
 70
     1
102
RTVSPost2010Prop39
140
1.0
102
RTVSPost2010PropOp39
 70
     1
102
RTVSPost2010Prop40
 90
        0
102
RTVSPost2010PropOp40
 70
     1
102
RTVSPost2010Prop41ColorIndex
 90
       18
102
RTVSPost2010Prop41ColorRGB
 90
        0
102
RTVSPost2010PropOp41
 70
     1
102
RTVSPost2010Prop42
 90
       50
102
RTVSPost2010PropOp42
 70
     1
102
RTVSPost2010Prop43
 90
        3
102
RTVSPost2010PropOp43
 70
     1
102
RTVSPost2010Prop44ColorIndex
 90
        5
102
RTVSPost2010Prop44ColorRGB
 90
      255
102
RTVSPost2010PropOp44
 70
     1
102
RTVSPost2010Prop45
280
     0
102
RTVSPost2010PropOp45
 70
     1
102
RTVSPost2010Prop46
 90
       50
102
RTVSPost2010PropOp46
 70
     1
102
RTVSPost2010Prop47
 90
       50
102
RTVSPost2010PropOp47
 70
     1
102
RTVSPost2010Prop48
 90
       50
102
RTVSPost2010PropOp48
 70
     1
102
RTVSPost2010Prop49
280
     0
102
RTVSPost2010PropOp49
 70
     1
102
RTVSPost2010Prop50
 90
       50
102
RTVSPost2010PropOp50
 70
     1
102
RTVSPost2010Prop51ColorIndex
 90
      256
102
RTVSPost2010Prop51ColorRGB
 90
-16777216
102
RTVSPost2010PropOp51
 70
     0
102
RTVSPost2010Prop52
140
1.0
102
RTVSPost2010PropOp52
 70
     0
102
RTVSPost2010Prop53
 90
        2
102
RTVSPost2010PropOp53
 70
     1
102
RTVSPost2010Prop54
  1
strokes_ogs.tif
102
RTVSPost2010PropOp54
 70
     1
102
RTVSPost2010Prop55
280
     0
102
RTVSPost2010PropOp55
 70
     1
102
RTVSPost2010Prop56
140
1.0
102
RTVSPost2010PropOp56
 70
     1
102
RTVSPost2010Prop57
140
1.0
102
RTVSPost2010PropOp57
 70
     1
102
RTVSPropertyOp0
 70
     1
102
RTVSPropertyOp1
 70
     1
102
RTVSPropertyOp2
 70
     1
102
RTVSPropertyOp3
 70
     1
102
RTVSPropertyOp4
 70
     1
102
RTVSPropertyOp5
 70
     1
102
RTVSPropertyOp6
 70
     1
102
RTVSPropertyOp7
 70
     1
102
RTVSPropertyOp8
 70
     1
102
RTVSPropertyOp9
 70
     1
102
RTVSPropertyOp10
 70
     1
102
RTVSPropertyOp11
 70
     1
102
RTVSPropertyOp12
 70
     1
102
RTVSPropertyOp13
 70
     1
102
RTVSPropertyOp14
 70
     1
102
RTVSPropertyOp15
 70
     1
102
RTVSPropertyOp16
 70
     1
102
RTVSPropertyOp17
 70
     1
102
RTVSPropertyOp18
 70
     1
102
RTVSPropertyOp19
 70
     1
102
RTVSPropertyOp20
 70
     1
102
RTVSPropertyOp21
 70
     1
102
RTVSPropertyOp22
 70
     1
102
RTVSPropertyOp23
 70
     1
102
RTVSPropertyOp24
 70
     1
102
RTVSPropertyOp25
 70
     1
102
RTVSPropertyOp26
 70
     1
102
RTVSPropertyOp27
 70
     1
102
RTVSPropertyOp28
 70
     1
102
RTVSPropertyOp29
 70
     1
102
RTVSPropertyOp30
 70
     1
102
RTVSPropertyOp31
 70
     1
102
RTVSPropertyOp32
 70
     1
102
RTVSPropertyOp33
 70
     1
102
RTVSPropertyOp34
 70
     1
102
RTVSPropertyOp35
 70
     1
102
RTVSPropertyOp36
 70
     1
102
RTVSPropertyOp37
 70
     1
102
RTVSPropertyOp38
 70
     1
102
RTVSPropertyOp39
 70
     1
102
RTVSPropertyOp40
 70
     1
102
RTVSPropertyOp41
 70
     1
102
RTVSPropertyOp42
 70
     1
102
RTVSPropertyOp43
 70
     1
102
RTVSPropertyOp44
 70
     1
102
RTVSPropertyOp45
 70
     1
102
RTVSPropertyOp46
 70
     1
102
RTVSPropertyOp47
 70
     1
102
RTVSPropertyOp48
 70
     1
102
RTVSPropertyOp49
 70
     1
102
RTVSPropertyOp50
 70
     1
102
RTVSPropertyOp51
 70
     0
102
RTVSPropertyOp52
 70
     0
102
RTVSPropertyOp53
 70
     1
102
RTVSPropertyOp54
 70
     1
102
RTVSPropertyOp55
 70
     1
102
RTVSPropertyOp56
 70
     1
102
RTVSPropertyOp57
 70
     1
102
RTVSPropertyOp58
 70
     1
102
RTVSPropertyOp59
 70
     1
102
RTVSPropertyOp60
 70
     1
102
RTVSPropertyOp61
 70
     1
102
RTVSPropertyOp62
 70
     1
  0
XRECORD
  5
8A6D
102
{ACAD_REACTORS
330
8A6C
102
}
330
8A6C
100
AcDbXrecord
280
     1
102
RTVSPost2010Prop28
280
     0
102
RTVSPost2010PropOp28
 70
     1
102
RTVSPost2010Prop29
280
     1
102
RTVSPost2010PropOp29
 70
     1
102
RTVSPost2010Prop30
280
     1
102
RTVSPost2010PropOp30
 70
     1
102
RTVSPost2010Prop31
280
     0
102
RTVSPost2010PropOp31
 70
     1
102
RTVSPost2010Prop32
280
     0
102
RTVSPost2010PropOp32
 70
     1
102
RTVSPost2010Prop33
280
     0
102
RTVSPost2010PropOp33
 70
     1
102
RTVSPost2010Prop34
280
     0
102
RTVSPost2010PropOp34
 70
     1
102
RTVSPost2010Prop35
280
     0
102
RTVSPost2010PropOp35
 70
     1
102
RTVSPost2010Prop36
280
     0
102
RTVSPost2010PropOp36
 70
     1
102
RTVSPost2010Prop37
 90
       50
102
RTVSPost2010PropOp37
 70
     1
102
RTVSPost2010Prop38
140
0.0
102
RTVSPost2010PropOp38
 70
     1
102
RTVSPost2010Prop39
140
1.0
102
RTVSPost2010PropOp39
 70
     1
102
RTVSPost2010Prop40
 90
        0
102
RTVSPost2010PropOp40
 70
     1
102
RTVSPost2010Prop41ColorIndex
 90
       18
102
RTVSPost2010Prop41ColorRGB
 90
        0
102
RTVSPost2010PropOp41
 70
     1
102
RTVSPost2010Prop42
 90
       50
102
RTVSPost2010PropOp42
 70
     1
102
RTVSPost2010Prop43
 90
        3
102
RTVSPost2010PropOp43
 70
     1
102
RTVSPost2010Prop44ColorIndex
 90
        5
102
RTVSPost2010Prop44ColorRGB
 90
      255
102
RTVSPost2010PropOp44
 70
     1
102
RTVSPost2010Prop45
280
     0
102
RTVSPost2010PropOp45
 70
     1
102
RTVSPost2010Prop46
 90
       50
102
RTVSPost2010PropOp46
 70
     1
102
RTVSPost2010Prop47
 90
       50
102
RTVSPost2010PropOp47
 70
     1
102
RTVSPost2010Prop48
 90
       50
102
RTVSPost2010PropOp48
 70
     1
102
RTVSPost2010Prop49
280
     0
102
RTVSPost2010PropOp49
 70
     1
102
RTVSPost2010Prop50
 90
       50
102
RTVSPost2010PropOp50
 70
     1
102
RTVSPost2010Prop51ColorIndex
 90
      256
102
RTVSPost2010Prop51ColorRGB
 90
-16777216
102
RTVSPost2010PropOp51
 70
     0
102
RTVSPost2010Prop52
140
1.0
102
RTVSPost2010PropOp52
 70
     0
102
RTVSPost2010Prop53
 90
        2
102
RTVSPost2010PropOp53
 70
     1
102
RTVSPost2010Prop54
  1
strokes_ogs.tif
102
RTVSPost2010PropOp54
 70
     1
102
RTVSPost2010Prop55
280
     0
102
RTVSPost2010PropOp55
 70
     1
102
RTVSPost2010Prop56
140
1.0
102
RTVSPost2010PropOp56
 70
     1
102
RTVSPost2010Prop57
140
1.0
102
RTVSPost2010PropOp57
 70
     1
102
RTVSPropertyOp0
 70
     1
102
RTVSPropertyOp1
 70
     1
102
RTVSPropertyOp2
 70
     1
102
RTVSPropertyOp3
 70
     1
102
RTVSPropertyOp4
 70
     1
102
RTVSPropertyOp5
 70
     1
102
RTVSPropertyOp6
 70
     1
102
RTVSPropertyOp7
 70
     1
102
RTVSPropertyOp8
 70
     1
102
RTVSPropertyOp9
 70
     1
102
RTVSPropertyOp10
 70
     1
102
RTVSPropertyOp11
 70
     1
102
RTVSPropertyOp12
 70
     1
102
RTVSPropertyOp13
 70
     1
102
RTVSPropertyOp14
 70
     1
102
RTVSPropertyOp15
 70
     1
102
RTVSPropertyOp16
 70
     1
102
RTVSPropertyOp17
 70
     1
102
RTVSPropertyOp18
 70
     1
102
RTVSPropertyOp19
 70
     1
102
RTVSPropertyOp20
 70
     1
102
RTVSPropertyOp21
 70
     1
102
RTVSPropertyOp22
 70
     1
102
RTVSPropertyOp23
 70
     1
102
RTVSPropertyOp24
 70
     1
102
RTVSPropertyOp25
 70
     1
102
RTVSPropertyOp26
 70
     1
102
RTVSPropertyOp27
 70
     1
102
RTVSPropertyOp28
 70
     1
102
RTVSPropertyOp29
 70
     1
102
RTVSPropertyOp30
 70
     1
102
RTVSPropertyOp31
 70
     1
102
RTVSPropertyOp32
 70
     1
102
RTVSPropertyOp33
 70
     1
102
RTVSPropertyOp34
 70
     1
102
RTVSPropertyOp35
 70
     1
102
RTVSPropertyOp36
 70
     1
102
RTVSPropertyOp37
 70
     1
102
RTVSPropertyOp38
 70
     1
102
RTVSPropertyOp39
 70
     1
102
RTVSPropertyOp40
 70
     1
102
RTVSPropertyOp41
 70
     1
102
RTVSPropertyOp42
 70
     1
102
RTVSPropertyOp43
 70
     1
102
RTVSPropertyOp44
 70
     1
102
RTVSPropertyOp45
 70
     1
102
RTVSPropertyOp46
 70
     1
102
RTVSPropertyOp47
 70
     1
102
RTVSPropertyOp48
 70
     1
102
RTVSPropertyOp49
 70
     1
102
RTVSPropertyOp50
 70
     1
102
RTVSPropertyOp51
 70
     0
102
RTVSPropertyOp52
 70
     0
102
RTVSPropertyOp53
 70
     1
102
RTVSPropertyOp54
 70
     1
102
RTVSPropertyOp55
 70
     1
102
RTVSPropertyOp56
 70
     1
102
RTVSPropertyOp57
 70
     1
102
RTVSPropertyOp58
 70
     1
102
RTVSPropertyOp59
 70
     1
102
RTVSPropertyOp60
 70
     1
102
RTVSPropertyOp61
 70
     1
102
RTVSPropertyOp62
 70
     1
  0
XRECORD
  5
8A6B
102
{ACAD_REACTORS
330
8A6A
102
}
330
8A6A
100
AcDbXrecord
280
     1
102
RTVSPost2010Prop28
280
     0
102
RTVSPost2010PropOp28
 70
     1
102
RTVSPost2010Prop29
280
     1
102
RTVSPost2010PropOp29
 70
     1
102
RTVSPost2010Prop30
280
     1
102
RTVSPost2010PropOp30
 70
     1
102
RTVSPost2010Prop31
280
     0
102
RTVSPost2010PropOp31
 70
     1
102
RTVSPost2010Prop32
280
     0
102
RTVSPost2010PropOp32
 70
     1
102
RTVSPost2010Prop33
280
     0
102
RTVSPost2010PropOp33
 70
     1
102
RTVSPost2010Prop34
280
     0
102
RTVSPost2010PropOp34
 70
     1
102
RTVSPost2010Prop35
280
     0
102
RTVSPost2010PropOp35
 70
     1
102
RTVSPost2010Prop36
280
     0
102
RTVSPost2010PropOp36
 70
     1
102
RTVSPost2010Prop37
 90
       50
102
RTVSPost2010PropOp37
 70
     1
102
RTVSPost2010Prop38
140
0.0
102
RTVSPost2010PropOp38
 70
     1
102
RTVSPost2010Prop39
140
1.0
102
RTVSPost2010PropOp39
 70
     1
102
RTVSPost2010Prop40
 90
        0
102
RTVSPost2010PropOp40
 70
     1
102
RTVSPost2010Prop41ColorIndex
 90
       18
102
RTVSPost2010Prop41ColorRGB
 90
        0
102
RTVSPost2010PropOp41
 70
     1
102
RTVSPost2010Prop42
 90
       50
102
RTVSPost2010PropOp42
 70
     1
102
RTVSPost2010Prop43
 90
        3
102
RTVSPost2010PropOp43
 70
     1
102
RTVSPost2010Prop44ColorIndex
 90
        5
102
RTVSPost2010Prop44ColorRGB
 90
      255
102
RTVSPost2010PropOp44
 70
     1
102
RTVSPost2010Prop45
280
     0
102
RTVSPost2010PropOp45
 70
     1
102
RTVSPost2010Prop46
 90
       50
102
RTVSPost2010PropOp46
 70
     1
102
RTVSPost2010Prop47
 90
       50
102
RTVSPost2010PropOp47
 70
     1
102
RTVSPost2010Prop48
 90
       50
102
RTVSPost2010PropOp48
 70
     1
102
RTVSPost2010Prop49
280
     0
102
RTVSPost2010PropOp49
 70
     1
102
RTVSPost2010Prop50
 90
       50
102
RTVSPost2010PropOp50
 70
     1
102
RTVSPost2010Prop51ColorIndex
 90
      256
102
RTVSPost2010Prop51ColorRGB
 90
-16777216
102
RTVSPost2010PropOp51
 70
     0
102
RTVSPost2010Prop52
140
1.0
102
RTVSPost2010PropOp52
 70
     0
102
RTVSPost2010Prop53
 90
        2
102
RTVSPost2010PropOp53
 70
     1
102
RTVSPost2010Prop54
  1
strokes_ogs.tif
102
RTVSPost2010PropOp54
 70
     1
102
RTVSPost2010Prop55
280
     0
102
RTVSPost2010PropOp55
 70
     1
102
RTVSPost2010Prop56
140
1.0
102
RTVSPost2010PropOp56
 70
     1
102
RTVSPost2010Prop57
140
1.0
102
RTVSPost2010PropOp57
 70
     1
102
RTVSPropertyOp0
 70
     1
102
RTVSPropertyOp1
 70
     1
102
RTVSPropertyOp2
 70
     1
102
RTVSPropertyOp3
 70
     1
102
RTVSPropertyOp4
 70
     1
102
RTVSPropertyOp5
 70
     1
102
RTVSPropertyOp6
 70
     1
102
RTVSPropertyOp7
 70
     1
102
RTVSPropertyOp8
 70
     1
102
RTVSPropertyOp9
 70
     1
102
RTVSPropertyOp10
 70
     1
102
RTVSPropertyOp11
 70
     1
102
RTVSPropertyOp12
 70
     1
102
RTVSPropertyOp13
 70
     1
102
RTVSPropertyOp14
 70
     1
102
RTVSPropertyOp15
 70
     1
102
RTVSPropertyOp16
 70
     1
102
RTVSPropertyOp17
 70
     1
102
RTVSPropertyOp18
 70
     1
102
RTVSPropertyOp19
 70
     1
102
RTVSPropertyOp20
 70
     1
102
RTVSPropertyOp21
 70
     1
102
RTVSPropertyOp22
 70
     1
102
RTVSPropertyOp23
 70
     1
102
RTVSPropertyOp24
 70
     1
102
RTVSPropertyOp25
 70
     1
102
RTVSPropertyOp26
 70
     1
102
RTVSPropertyOp27
 70
     1
102
RTVSPropertyOp28
 70
     1
102
RTVSPropertyOp29
 70
     1
102
RTVSPropertyOp30
 70
     1
102
RTVSPropertyOp31
 70
     1
102
RTVSPropertyOp32
 70
     1
102
RTVSPropertyOp33
 70
     1
102
RTVSPropertyOp34
 70
     1
102
RTVSPropertyOp35
 70
     1
102
RTVSPropertyOp36
 70
     1
102
RTVSPropertyOp37
 70
     1
102
RTVSPropertyOp38
 70
     1
102
RTVSPropertyOp39
 70
     1
102
RTVSPropertyOp40
 70
     1
102
RTVSPropertyOp41
 70
     1
102
RTVSPropertyOp42
 70
     1
102
RTVSPropertyOp43
 70
     1
102
RTVSPropertyOp44
 70
     1
102
RTVSPropertyOp45
 70
     1
102
RTVSPropertyOp46
 70
     1
102
RTVSPropertyOp47
 70
     1
102
RTVSPropertyOp48
 70
     1
102
RTVSPropertyOp49
 70
     1
102
RTVSPropertyOp50
 70
     1
102
RTVSPropertyOp51
 70
     0
102
RTVSPropertyOp52
 70
     0
102
RTVSPropertyOp53
 70
     1
102
RTVSPropertyOp54
 70
     1
102
RTVSPropertyOp55
 70
     1
102
RTVSPropertyOp56
 70
     1
102
RTVSPropertyOp57
 70
     1
102
RTVSPropertyOp58
 70
     1
102
RTVSPropertyOp59
 70
     1
102
RTVSPropertyOp60
 70
     1
102
RTVSPropertyOp61
 70
     1
102
RTVSPropertyOp62
 70
     1
  0
XRECORD
  5
8A65
102
{ACAD_REACTORS
330
8A64
102
}
330
8A64
100
AcDbXrecord
280
     1
102
RTVSPost2010Prop28
280
     0
102
RTVSPost2010PropOp28
 70
     1
102
RTVSPost2010Prop29
280
     1
102
RTVSPost2010PropOp29
 70
     1
102
RTVSPost2010Prop30
280
     1
102
RTVSPost2010PropOp30
 70
     1
102
RTVSPost2010Prop31
280
     0
102
RTVSPost2010PropOp31
 70
     1
102
RTVSPost2010Prop32
280
     0
102
RTVSPost2010PropOp32
 70
     1
102
RTVSPost2010Prop33
280
     0
102
RTVSPost2010PropOp33
 70
     1
102
RTVSPost2010Prop34
280
     0
102
RTVSPost2010PropOp34
 70
     1
102
RTVSPost2010Prop35
280
     0
102
RTVSPost2010PropOp35
 70
     1
102
RTVSPost2010Prop36
280
     0
102
RTVSPost2010PropOp36
 70
     1
102
RTVSPost2010Prop37
 90
       50
102
RTVSPost2010PropOp37
 70
     1
102
RTVSPost2010Prop38
140
0.0
102
RTVSPost2010PropOp38
 70
     1
102
RTVSPost2010Prop39
140
1.0
102
RTVSPost2010PropOp39
 70
     1
102
RTVSPost2010Prop40
 90
        0
102
RTVSPost2010PropOp40
 70
     1
102
RTVSPost2010Prop41ColorIndex
 90
       18
102
RTVSPost2010Prop41ColorRGB
 90
        0
102
RTVSPost2010PropOp41
 70
     1
102
RTVSPost2010Prop42
 90
       50
102
RTVSPost2010PropOp42
 70
     1
102
RTVSPost2010Prop43
 90
        3
102
RTVSPost2010PropOp43
 70
     1
102
RTVSPost2010Prop44ColorIndex
 90
        5
102
RTVSPost2010Prop44ColorRGB
 90
      255
102
RTVSPost2010PropOp44
 70
     1
102
RTVSPost2010Prop45
280
     0
102
RTVSPost2010PropOp45
 70
     1
102
RTVSPost2010Prop46
 90
       50
102
RTVSPost2010PropOp46
 70
     1
102
RTVSPost2010Prop47
 90
       50
102
RTVSPost2010PropOp47
 70
     1
102
RTVSPost2010Prop48
 90
       50
102
RTVSPost2010PropOp48
 70
     1
102
RTVSPost2010Prop49
280
     0
102
RTVSPost2010PropOp49
 70
     1
102
RTVSPost2010Prop50
 90
       50
102
RTVSPost2010PropOp50
 70
     1
102
RTVSPost2010Prop51ColorIndex
 90
      256
102
RTVSPost2010Prop51ColorRGB
 90
-16777216
102
RTVSPost2010PropOp51
 70
     0
102
RTVSPost2010Prop52
140
1.0
102
RTVSPost2010PropOp52
 70
     0
102
RTVSPost2010Prop53
 90
        2
102
RTVSPost2010PropOp53
 70
     1
102
RTVSPost2010Prop54
  1
strokes_ogs.tif
102
RTVSPost2010PropOp54
 70
     1
102
RTVSPost2010Prop55
280
     0
102
RTVSPost2010PropOp55
 70
     1
102
RTVSPost2010Prop56
140
1.0
102
RTVSPost2010PropOp56
 70
     1
102
RTVSPost2010Prop57
140
1.0
102
RTVSPost2010PropOp57
 70
     1
102
RTVSPropertyOp0
 70
     1
102
RTVSPropertyOp1
 70
     1
102
RTVSPropertyOp2
 70
     1
102
RTVSPropertyOp3
 70
     1
102
RTVSPropertyOp4
 70
     1
102
RTVSPropertyOp5
 70
     1
102
RTVSPropertyOp6
 70
     1
102
RTVSPropertyOp7
 70
     1
102
RTVSPropertyOp8
 70
     1
102
RTVSPropertyOp9
 70
     1
102
RTVSPropertyOp10
 70
     1
102
RTVSPropertyOp11
 70
     1
102
RTVSPropertyOp12
 70
     1
102
RTVSPropertyOp13
 70
     1
102
RTVSPropertyOp14
 70
     1
102
RTVSPropertyOp15
 70
     1
102
RTVSPropertyOp16
 70
     1
102
RTVSPropertyOp17
 70
     1
102
RTVSPropertyOp18
 70
     1
102
RTVSPropertyOp19
 70
     1
102
RTVSPropertyOp20
 70
     1
102
RTVSPropertyOp21
 70
     1
102
RTVSPropertyOp22
 70
     1
102
RTVSPropertyOp23
 70
     1
102
RTVSPropertyOp24
 70
     1
102
RTVSPropertyOp25
 70
     1
102
RTVSPropertyOp26
 70
     1
102
RTVSPropertyOp27
 70
     1
102
RTVSPropertyOp28
 70
     1
102
RTVSPropertyOp29
 70
     1
102
RTVSPropertyOp30
 70
     1
102
RTVSPropertyOp31
 70
     1
102
RTVSPropertyOp32
 70
     1
102
RTVSPropertyOp33
 70
     1
102
RTVSPropertyOp34
 70
     1
102
RTVSPropertyOp35
 70
     1
102
RTVSPropertyOp36
 70
     1
102
RTVSPropertyOp37
 70
     1
102
RTVSPropertyOp38
 70
     1
102
RTVSPropertyOp39
 70
     1
102
RTVSPropertyOp40
 70
     1
102
RTVSPropertyOp41
 70
     1
102
RTVSPropertyOp42
 70
     1
102
RTVSPropertyOp43
 70
     1
102
RTVSPropertyOp44
 70
     1
102
RTVSPropertyOp45
 70
     1
102
RTVSPropertyOp46
 70
     1
102
RTVSPropertyOp47
 70
     1
102
RTVSPropertyOp48
 70
     1
102
RTVSPropertyOp49
 70
     1
102
RTVSPropertyOp50
 70
     1
102
RTVSPropertyOp51
 70
     0
102
RTVSPropertyOp52
 70
     0
102
RTVSPropertyOp53
 70
     1
102
RTVSPropertyOp54
 70
     1
102
RTVSPropertyOp55
 70
     1
102
RTVSPropertyOp56
 70
     1
102
RTVSPropertyOp57
 70
     1
102
RTVSPropertyOp58
 70
     1
102
RTVSPropertyOp59
 70
     1
102
RTVSPropertyOp60
 70
     1
102
RTVSPropertyOp61
 70
     1
102
RTVSPropertyOp62
 70
     1
  0
XRECORD
  5
8A67
102
{ACAD_REACTORS
330
8A66
102
}
330
8A66
100
AcDbXrecord
280
     1
102
RTVSPost2010Prop28
280
     0
102
RTVSPost2010PropOp28
 70
     1
102
RTVSPost2010Prop29
280
     1
102
RTVSPost2010PropOp29
 70
     1
102
RTVSPost2010Prop30
280
     1
102
RTVSPost2010PropOp30
 70
     1
102
RTVSPost2010Prop31
280
     0
102
RTVSPost2010PropOp31
 70
     1
102
RTVSPost2010Prop32
280
     0
102
RTVSPost2010PropOp32
 70
     1
102
RTVSPost2010Prop33
280
     0
102
RTVSPost2010PropOp33
 70
     1
102
RTVSPost2010Prop34
280
     0
102
RTVSPost2010PropOp34
 70
     1
102
RTVSPost2010Prop35
280
     0
102
RTVSPost2010PropOp35
 70
     1
102
RTVSPost2010Prop36
280
     0
102
RTVSPost2010PropOp36
 70
     1
102
RTVSPost2010Prop37
 90
       50
102
RTVSPost2010PropOp37
 70
     1
102
RTVSPost2010Prop38
140
0.0
102
RTVSPost2010PropOp38
 70
     1
102
RTVSPost2010Prop39
140
1.0
102
RTVSPost2010PropOp39
 70
     1
102
RTVSPost2010Prop40
 90
        0
102
RTVSPost2010PropOp40
 70
     1
102
RTVSPost2010Prop41ColorIndex
 90
       18
102
RTVSPost2010Prop41ColorRGB
 90
        0
102
RTVSPost2010PropOp41
 70
     1
102
RTVSPost2010Prop42
 90
       50
102
RTVSPost2010PropOp42
 70
     1
102
RTVSPost2010Prop43
 90
        3
102
RTVSPost2010PropOp43
 70
     1
102
RTVSPost2010Prop44ColorIndex
 90
        5
102
RTVSPost2010Prop44ColorRGB
 90
      255
102
RTVSPost2010PropOp44
 70
     1
102
RTVSPost2010Prop45
280
     0
102
RTVSPost2010PropOp45
 70
     1
102
RTVSPost2010Prop46
 90
       50
102
RTVSPost2010PropOp46
 70
     1
102
RTVSPost2010Prop47
 90
       50
102
RTVSPost2010PropOp47
 70
     1
102
RTVSPost2010Prop48
 90
       50
102
RTVSPost2010PropOp48
 70
     1
102
RTVSPost2010Prop49
280
     0
102
RTVSPost2010PropOp49
 70
     1
102
RTVSPost2010Prop50
 90
       50
102
RTVSPost2010PropOp50
 70
     1
102
RTVSPost2010Prop51ColorIndex
 90
      256
102
RTVSPost2010Prop51ColorRGB
 90
-16777216
102
RTVSPost2010PropOp51
 70
     0
102
RTVSPost2010Prop52
140
1.0
102
RTVSPost2010PropOp52
 70
     0
102
RTVSPost2010Prop53
 90
        2
102
RTVSPost2010PropOp53
 70
     1
102
RTVSPost2010Prop54
  1
strokes_ogs.tif
102
RTVSPost2010PropOp54
 70
     1
102
RTVSPost2010Prop55
280
     0
102
RTVSPost2010PropOp55
 70
     1
102
RTVSPost2010Prop56
140
1.0
102
RTVSPost2010PropOp56
 70
     1
102
RTVSPost2010Prop57
140
1.0
102
RTVSPost2010PropOp57
 70
     1
102
RTVSPropertyOp0
 70
     1
102
RTVSPropertyOp1
 70
     1
102
RTVSPropertyOp2
 70
     1
102
RTVSPropertyOp3
 70
     1
102
RTVSPropertyOp4
 70
     1
102
RTVSPropertyOp5
 70
     1
102
RTVSPropertyOp6
 70
     1
102
RTVSPropertyOp7
 70
     1
102
RTVSPropertyOp8
 70
     1
102
RTVSPropertyOp9
 70
     1
102
RTVSPropertyOp10
 70
     1
102
RTVSPropertyOp11
 70
     1
102
RTVSPropertyOp12
 70
     1
102
RTVSPropertyOp13
 70
     1
102
RTVSPropertyOp14
 70
     1
102
RTVSPropertyOp15
 70
     1
102
RTVSPropertyOp16
 70
     1
102
RTVSPropertyOp17
 70
     1
102
RTVSPropertyOp18
 70
     1
102
RTVSPropertyOp19
 70
     1
102
RTVSPropertyOp20
 70
     1
102
RTVSPropertyOp21
 70
     1
102
RTVSPropertyOp22
 70
     1
102
RTVSPropertyOp23
 70
     1
102
RTVSPropertyOp24
 70
     1
102
RTVSPropertyOp25
 70
     1
102
RTVSPropertyOp26
 70
     1
102
RTVSPropertyOp27
 70
     1
102
RTVSPropertyOp28
 70
     1
102
RTVSPropertyOp29
 70
     1
102
RTVSPropertyOp30
 70
     1
102
RTVSPropertyOp31
 70
     1
102
RTVSPropertyOp32
 70
     1
102
RTVSPropertyOp33
 70
     1
102
RTVSPropertyOp34
 70
     1
102
RTVSPropertyOp35
 70
     1
102
RTVSPropertyOp36
 70
     1
102
RTVSPropertyOp37
 70
     1
102
RTVSPropertyOp38
 70
     1
102
RTVSPropertyOp39
 70
     1
102
RTVSPropertyOp40
 70
     1
102
RTVSPropertyOp41
 70
     1
102
RTVSPropertyOp42
 70
     1
102
RTVSPropertyOp43
 70
     1
102
RTVSPropertyOp44
 70
     1
102
RTVSPropertyOp45
 70
     1
102
RTVSPropertyOp46
 70
     1
102
RTVSPropertyOp47
 70
     1
102
RTVSPropertyOp48
 70
     1
102
RTVSPropertyOp49
 70
     1
102
RTVSPropertyOp50
 70
     1
102
RTVSPropertyOp51
 70
     0
102
RTVSPropertyOp52
 70
     0
102
RTVSPropertyOp53
 70
     1
102
RTVSPropertyOp54
 70
     1
102
RTVSPropertyOp55
 70
     1
102
RTVSPropertyOp56
 70
     1
102
RTVSPropertyOp57
 70
     1
102
RTVSPropertyOp58
 70
     1
102
RTVSPropertyOp59
 70
     1
102
RTVSPropertyOp60
 70
     1
102
RTVSPropertyOp61
 70
     1
102
RTVSPropertyOp62
 70
     1
  0
XRECORD
  5
8A5D
102
{ACAD_REACTORS
330
8A5C
102
}
330
8A5C
100
AcDbXrecord
280
     1
102
RTVSPost2010Prop28
280
     0
102
RTVSPost2010PropOp28
 70
     1
102
RTVSPost2010Prop29
280
     1
102
RTVSPost2010PropOp29
 70
     1
102
RTVSPost2010Prop30
280
     1
102
RTVSPost2010PropOp30
 70
     1
102
RTVSPost2010Prop31
280
     0
102
RTVSPost2010PropOp31
 70
     1
102
RTVSPost2010Prop32
280
     0
102
RTVSPost2010PropOp32
 70
     1
102
RTVSPost2010Prop33
280
     0
102
RTVSPost2010PropOp33
 70
     1
102
RTVSPost2010Prop34
280
     0
102
RTVSPost2010PropOp34
 70
     1
102
RTVSPost2010Prop35
280
     0
102
RTVSPost2010PropOp35
 70
     1
102
RTVSPost2010Prop36
280
     0
102
RTVSPost2010PropOp36
 70
     1
102
RTVSPost2010Prop37
 90
       50
102
RTVSPost2010PropOp37
 70
     1
102
RTVSPost2010Prop38
140
0.0
102
RTVSPost2010PropOp38
 70
     1
102
RTVSPost2010Prop39
140
1.0
102
RTVSPost2010PropOp39
 70
     1
102
RTVSPost2010Prop40
 90
        0
102
RTVSPost2010PropOp40
 70
     1
102
RTVSPost2010Prop41ColorIndex
 90
       18
102
RTVSPost2010Prop41ColorRGB
 90
        0
102
RTVSPost2010PropOp41
 70
     1
102
RTVSPost2010Prop42
 90
       50
102
RTVSPost2010PropOp42
 70
     1
102
RTVSPost2010Prop43
 90
        3
102
RTVSPost2010PropOp43
 70
     1
102
RTVSPost2010Prop44ColorIndex
 90
        5
102
RTVSPost2010Prop44ColorRGB
 90
      255
102
RTVSPost2010PropOp44
 70
     1
102
RTVSPost2010Prop45
280
     0
102
RTVSPost2010PropOp45
 70
     1
102
RTVSPost2010Prop46
 90
       50
102
RTVSPost2010PropOp46
 70
     1
102
RTVSPost2010Prop47
 90
       50
102
RTVSPost2010PropOp47
 70
     1
102
RTVSPost2010Prop48
 90
       50
102
RTVSPost2010PropOp48
 70
     1
102
RTVSPost2010Prop49
280
     0
102
RTVSPost2010PropOp49
 70
     1
102
RTVSPost2010Prop50
 90
       50
102
RTVSPost2010PropOp50
 70
     1
102
RTVSPost2010Prop51ColorIndex
 90
      256
102
RTVSPost2010Prop51ColorRGB
 90
-16777216
102
RTVSPost2010PropOp51
 70
     0
102
RTVSPost2010Prop52
140
1.0
102
RTVSPost2010PropOp52
 70
     0
102
RTVSPost2010Prop53
 90
        2
102
RTVSPost2010PropOp53
 70
     1
102
RTVSPost2010Prop54
  1
strokes_ogs.tif
102
RTVSPost2010PropOp54
 70
     1
102
RTVSPost2010Prop55
280
     0
102
RTVSPost2010PropOp55
 70
     1
102
RTVSPost2010Prop56
140
1.0
102
RTVSPost2010PropOp56
 70
     1
102
RTVSPost2010Prop57
140
1.0
102
RTVSPost2010PropOp57
 70
     1
102
RTVSPropertyOp0
 70
     1
102
RTVSPropertyOp1
 70
     1
102
RTVSPropertyOp2
 70
     1
102
RTVSPropertyOp3
 70
     1
102
RTVSPropertyOp4
 70
     1
102
RTVSPropertyOp5
 70
     1
102
RTVSPropertyOp6
 70
     1
102
RTVSPropertyOp7
 70
     1
102
RTVSPropertyOp8
 70
     1
102
RTVSPropertyOp9
 70
     1
102
RTVSPropertyOp10
 70
     1
102
RTVSPropertyOp11
 70
     1
102
RTVSPropertyOp12
 70
     1
102
RTVSPropertyOp13
 70
     1
102
RTVSPropertyOp14
 70
     1
102
RTVSPropertyOp15
 70
     1
102
RTVSPropertyOp16
 70
     1
102
RTVSPropertyOp17
 70
     1
102
RTVSPropertyOp18
 70
     1
102
RTVSPropertyOp19
 70
     1
102
RTVSPropertyOp20
 70
     1
102
RTVSPropertyOp21
 70
     1
102
RTVSPropertyOp22
 70
     1
102
RTVSPropertyOp23
 70
     1
102
RTVSPropertyOp24
 70
     1
102
RTVSPropertyOp25
 70
     1
102
RTVSPropertyOp26
 70
     1
102
RTVSPropertyOp27
 70
     1
102
RTVSPropertyOp28
 70
     1
102
RTVSPropertyOp29
 70
     1
102
RTVSPropertyOp30
 70
     1
102
RTVSPropertyOp31
 70
     1
102
RTVSPropertyOp32
 70
     1
102
RTVSPropertyOp33
 70
     1
102
RTVSPropertyOp34
 70
     1
102
RTVSPropertyOp35
 70
     1
102
RTVSPropertyOp36
 70
     1
102
RTVSPropertyOp37
 70
     1
102
RTVSPropertyOp38
 70
     1
102
RTVSPropertyOp39
 70
     1
102
RTVSPropertyOp40
 70
     1
102
RTVSPropertyOp41
 70
     1
102
RTVSPropertyOp42
 70
     1
102
RTVSPropertyOp43
 70
     1
102
RTVSPropertyOp44
 70
     1
102
RTVSPropertyOp45
 70
     1
102
RTVSPropertyOp46
 70
     1
102
RTVSPropertyOp47
 70
     1
102
RTVSPropertyOp48
 70
     1
102
RTVSPropertyOp49
 70
     1
102
RTVSPropertyOp50
 70
     1
102
RTVSPropertyOp51
 70
     0
102
RTVSPropertyOp52
 70
     0
102
RTVSPropertyOp53
 70
     1
102
RTVSPropertyOp54
 70
     1
102
RTVSPropertyOp55
 70
     1
102
RTVSPropertyOp56
 70
     1
102
RTVSPropertyOp57
 70
     1
102
RTVSPropertyOp58
 70
     1
102
RTVSPropertyOp59
 70
     1
102
RTVSPropertyOp60
 70
     1
102
RTVSPropertyOp61
 70
     1
102
RTVSPropertyOp62
 70
     1
  0
XRECORD
  5
8A51
102
{ACAD_REACTORS
330
8A50
102
}
330
8A50
100
AcDbXrecord
280
     1
102
RTVSPost2010Prop28
280
     0
102
RTVSPost2010PropOp28
 70
     1
102
RTVSPost2010Prop29
280
     1
102
RTVSPost2010PropOp29
 70
     1
102
RTVSPost2010Prop30
280
     1
102
RTVSPost2010PropOp30
 70
     1
102
RTVSPost2010Prop31
280
     0
102
RTVSPost2010PropOp31
 70
     1
102
RTVSPost2010Prop32
280
     0
102
RTVSPost2010PropOp32
 70
     1
102
RTVSPost2010Prop33
280
     0
102
RTVSPost2010PropOp33
 70
     1
102
RTVSPost2010Prop34
280
     0
102
RTVSPost2010PropOp34
 70
     1
102
RTVSPost2010Prop35
280
     0
102
RTVSPost2010PropOp35
 70
     1
102
RTVSPost2010Prop36
280
     0
102
RTVSPost2010PropOp36
 70
     1
102
RTVSPost2010Prop37
 90
       50
102
RTVSPost2010PropOp37
 70
     1
102
RTVSPost2010Prop38
140
0.0
102
RTVSPost2010PropOp38
 70
     1
102
RTVSPost2010Prop39
140
1.0
102
RTVSPost2010PropOp39
 70
     1
102
RTVSPost2010Prop40
 90
        0
102
RTVSPost2010PropOp40
 70
     1
102
RTVSPost2010Prop41ColorIndex
 90
       18
102
RTVSPost2010Prop41ColorRGB
 90
        0
102
RTVSPost2010PropOp41
 70
     1
102
RTVSPost2010Prop42
 90
       50
102
RTVSPost2010PropOp42
 70
     1
102
RTVSPost2010Prop43
 90
        3
102
RTVSPost2010PropOp43
 70
     1
102
RTVSPost2010Prop44ColorIndex
 90
        5
102
RTVSPost2010Prop44ColorRGB
 90
      255
102
RTVSPost2010PropOp44
 70
     1
102
RTVSPost2010Prop45
280
     0
102
RTVSPost2010PropOp45
 70
     1
102
RTVSPost2010Prop46
 90
       50
102
RTVSPost2010PropOp46
 70
     1
102
RTVSPost2010Prop47
 90
       50
102
RTVSPost2010PropOp47
 70
     1
102
RTVSPost2010Prop48
 90
       50
102
RTVSPost2010PropOp48
 70
     1
102
RTVSPost2010Prop49
280
     0
102
RTVSPost2010PropOp49
 70
     1
102
RTVSPost2010Prop50
 90
       50
102
RTVSPost2010PropOp50
 70
     1
102
RTVSPost2010Prop51ColorIndex
 90
      256
102
RTVSPost2010Prop51ColorRGB
 90
-16777216
102
RTVSPost2010PropOp51
 70
     0
102
RTVSPost2010Prop52
140
1.0
102
RTVSPost2010PropOp52
 70
     0
102
RTVSPost2010Prop53
 90
        2
102
RTVSPost2010PropOp53
 70
     1
102
RTVSPost2010Prop54
  1
strokes_ogs.tif
102
RTVSPost2010PropOp54
 70
     1
102
RTVSPost2010Prop55
280
     0
102
RTVSPost2010PropOp55
 70
     1
102
RTVSPost2010Prop56
140
1.0
102
RTVSPost2010PropOp56
 70
     1
102
RTVSPost2010Prop57
140
1.0
102
RTVSPost2010PropOp57
 70
     1
102
RTVSPropertyOp0
 70
     1
102
RTVSPropertyOp1
 70
     1
102
RTVSPropertyOp2
 70
     1
102
RTVSPropertyOp3
 70
     1
102
RTVSPropertyOp4
 70
     1
102
RTVSPropertyOp5
 70
     1
102
RTVSPropertyOp6
 70
     1
102
RTVSPropertyOp7
 70
     1
102
RTVSPropertyOp8
 70
     1
102
RTVSPropertyOp9
 70
     1
102
RTVSPropertyOp10
 70
     1
102
RTVSPropertyOp11
 70
     1
102
RTVSPropertyOp12
 70
     1
102
RTVSPropertyOp13
 70
     1
102
RTVSPropertyOp14
 70
     1
102
RTVSPropertyOp15
 70
     1
102
RTVSPropertyOp16
 70
     1
102
RTVSPropertyOp17
 70
     1
102
RTVSPropertyOp18
 70
     1
102
RTVSPropertyOp19
 70
     1
102
RTVSPropertyOp20
 70
     1
102
RTVSPropertyOp21
 70
     1
102
RTVSPropertyOp22
 70
     1
102
RTVSPropertyOp23
 70
     1
102
RTVSPropertyOp24
 70
     1
102
RTVSPropertyOp25
 70
     1
102
RTVSPropertyOp26
 70
     1
102
RTVSPropertyOp27
 70
     1
102
RTVSPropertyOp28
 70
     1
102
RTVSPropertyOp29
 70
     1
102
RTVSPropertyOp30
 70
     1
102
RTVSPropertyOp31
 70
     1
102
RTVSPropertyOp32
 70
     1
102
RTVSPropertyOp33
 70
     1
102
RTVSPropertyOp34
 70
     1
102
RTVSPropertyOp35
 70
     1
102
RTVSPropertyOp36
 70
     1
102
RTVSPropertyOp37
 70
     1
102
RTVSPropertyOp38
 70
     1
102
RTVSPropertyOp39
 70
     1
102
RTVSPropertyOp40
 70
     1
102
RTVSPropertyOp41
 70
     1
102
RTVSPropertyOp42
 70
     1
102
RTVSPropertyOp43
 70
     1
102
RTVSPropertyOp44
 70
     1
102
RTVSPropertyOp45
 70
     1
102
RTVSPropertyOp46
 70
     1
102
RTVSPropertyOp47
 70
     1
102
RTVSPropertyOp48
 70
     1
102
RTVSPropertyOp49
 70
     1
102
RTVSPropertyOp50
 70
     1
102
RTVSPropertyOp51
 70
     0
102
RTVSPropertyOp52
 70
     0
102
RTVSPropertyOp53
 70
     1
102
RTVSPropertyOp54
 70
     1
102
RTVSPropertyOp55
 70
     1
102
RTVSPropertyOp56
 70
     1
102
RTVSPropertyOp57
 70
     1
102
RTVSPropertyOp58
 70
     1
102
RTVSPropertyOp59
 70
     1
102
RTVSPropertyOp60
 70
     1
102
RTVSPropertyOp61
 70
     1
102
RTVSPropertyOp62
 70
     1
  0
XRECORD
  5
8A69
102
{ACAD_REACTORS
330
8A68
102
}
330
8A68
100
AcDbXrecord
280
     1
102
RTVSPost2010Prop28
280
     0
102
RTVSPost2010PropOp28
 70
     1
102
RTVSPost2010Prop29
280
     1
102
RTVSPost2010PropOp29
 70
     1
102
RTVSPost2010Prop30
280
     1
102
RTVSPost2010PropOp30
 70
     1
102
RTVSPost2010Prop31
280
     0
102
RTVSPost2010PropOp31
 70
     1
102
RTVSPost2010Prop32
280
     0
102
RTVSPost2010PropOp32
 70
     1
102
RTVSPost2010Prop33
280
     0
102
RTVSPost2010PropOp33
 70
     1
102
RTVSPost2010Prop34
280
     0
102
RTVSPost2010PropOp34
 70
     1
102
RTVSPost2010Prop35
280
     0
102
RTVSPost2010PropOp35
 70
     1
102
RTVSPost2010Prop36
280
     0
102
RTVSPost2010PropOp36
 70
     1
102
RTVSPost2010Prop37
 90
       50
102
RTVSPost2010PropOp37
 70
     1
102
RTVSPost2010Prop38
140
0.0
102
RTVSPost2010PropOp38
 70
     1
102
RTVSPost2010Prop39
140
1.0
102
RTVSPost2010PropOp39
 70
     1
102
RTVSPost2010Prop40
 90
        0
102
RTVSPost2010PropOp40
 70
     1
102
RTVSPost2010Prop41ColorIndex
 90
       18
102
RTVSPost2010Prop41ColorRGB
 90
        0
102
RTVSPost2010PropOp41
 70
     1
102
RTVSPost2010Prop42
 90
       50
102
RTVSPost2010PropOp42
 70
     1
102
RTVSPost2010Prop43
 90
        3
102
RTVSPost2010PropOp43
 70
     1
102
RTVSPost2010Prop44ColorIndex
 90
        5
102
RTVSPost2010Prop44ColorRGB
 90
      255
102
RTVSPost2010PropOp44
 70
     1
102
RTVSPost2010Prop45
280
     0
102
RTVSPost2010PropOp45
 70
     1
102
RTVSPost2010Prop46
 90
       50
102
RTVSPost2010PropOp46
 70
     1
102
RTVSPost2010Prop47
 90
       50
102
RTVSPost2010PropOp47
 70
     1
102
RTVSPost2010Prop48
 90
       50
102
RTVSPost2010PropOp48
 70
     1
102
RTVSPost2010Prop49
280
     0
102
RTVSPost2010PropOp49
 70
     1
102
RTVSPost2010Prop50
 90
       50
102
RTVSPost2010PropOp50
 70
     1
102
RTVSPost2010Prop51ColorIndex
 90
      256
102
RTVSPost2010Prop51ColorRGB
 90
-16777216
102
RTVSPost2010PropOp51
 70
     0
102
RTVSPost2010Prop52
140
1.0
102
RTVSPost2010PropOp52
 70
     0
102
RTVSPost2010Prop53
 90
        2
102
RTVSPost2010PropOp53
 70
     1
102
RTVSPost2010Prop54
  1
strokes_ogs.tif
102
RTVSPost2010PropOp54
 70
     1
102
RTVSPost2010Prop55
280
     0
102
RTVSPost2010PropOp55
 70
     1
102
RTVSPost2010Prop56
140
1.0
102
RTVSPost2010PropOp56
 70
     1
102
RTVSPost2010Prop57
140
1.0
102
RTVSPost2010PropOp57
 70
     1
102
RTVSPropertyOp0
 70
     1
102
RTVSPropertyOp1
 70
     1
102
RTVSPropertyOp2
 70
     1
102
RTVSPropertyOp3
 70
     1
102
RTVSPropertyOp4
 70
     1
102
RTVSPropertyOp5
 70
     1
102
RTVSPropertyOp6
 70
     1
102
RTVSPropertyOp7
 70
     1
102
RTVSPropertyOp8
 70
     1
102
RTVSPropertyOp9
 70
     1
102
RTVSPropertyOp10
 70
     1
102
RTVSPropertyOp11
 70
     1
102
RTVSPropertyOp12
 70
     1
102
RTVSPropertyOp13
 70
     1
102
RTVSPropertyOp14
 70
     1
102
RTVSPropertyOp15
 70
     1
102
RTVSPropertyOp16
 70
     1
102
RTVSPropertyOp17
 70
     1
102
RTVSPropertyOp18
 70
     1
102
RTVSPropertyOp19
 70
     1
102
RTVSPropertyOp20
 70
     1
102
RTVSPropertyOp21
 70
     1
102
RTVSPropertyOp22
 70
     1
102
RTVSPropertyOp23
 70
     1
102
RTVSPropertyOp24
 70
     1
102
RTVSPropertyOp25
 70
     1
102
RTVSPropertyOp26
 70
     1
102
RTVSPropertyOp27
 70
     1
102
RTVSPropertyOp28
 70
     1
102
RTVSPropertyOp29
 70
     1
102
RTVSPropertyOp30
 70
     1
102
RTVSPropertyOp31
 70
     1
102
RTVSPropertyOp32
 70
     1
102
RTVSPropertyOp33
 70
     1
102
RTVSPropertyOp34
 70
     1
102
RTVSPropertyOp35
 70
     1
102
RTVSPropertyOp36
 70
     1
102
RTVSPropertyOp37
 70
     1
102
RTVSPropertyOp38
 70
     1
102
RTVSPropertyOp39
 70
     1
102
RTVSPropertyOp40
 70
     1
102
RTVSPropertyOp41
 70
     1
102
RTVSPropertyOp42
 70
     1
102
RTVSPropertyOp43
 70
     1
102
RTVSPropertyOp44
 70
     1
102
RTVSPropertyOp45
 70
     1
102
RTVSPropertyOp46
 70
     1
102
RTVSPropertyOp47
 70
     1
102
RTVSPropertyOp48
 70
     1
102
RTVSPropertyOp49
 70
     1
102
RTVSPropertyOp50
 70
     1
102
RTVSPropertyOp51
 70
     0
102
RTVSPropertyOp52
 70
     0
102
RTVSPropertyOp53
 70
     1
102
RTVSPropertyOp54
 70
     1
102
RTVSPropertyOp55
 70
     1
102
RTVSPropertyOp56
 70
     1
102
RTVSPropertyOp57
 70
     1
102
RTVSPropertyOp58
 70
     1
102
RTVSPropertyOp59
 70
     1
102
RTVSPropertyOp60
 70
     1
102
RTVSPropertyOp61
 70
     1
102
RTVSPropertyOp62
 70
     1
  0
ENDSEC
  0
EOF
