  0
SECTION
  2
HEADER
  9
$ACADVER
  1
AC1009
  9
$INSBASE
 10
0.0
 20
0.0
 30
0.0
  9
$EXTMIN
 10
0.0
 20
0.0
 30
0.0
  9
$EXTMAX
 10
4200.0
 20
5900.0
 30
0.0
  9
$LIMMIN
 10
0.0
 20
0.0
  9
$LIMMAX
 10
297.0
 20
210.0
  9
$ORTHOMODE
 70
     0
  9
$REGENMODE
 70
     1
  9
$FILLMODE
 70
     0
  9
$QTEXTMODE
 70
     0
  9
$MIRRTEXT
 70
     1
  9
$DRAGMODE
 70
     2
  9
$LTSCALE
 40
100.0
  9
$OSMODE
 70
    37
  9
$ATTMODE
 70
     1
  9
$TEXTSIZE
 40
180.0
  9
$TRACEWID
 40
0.05
  9
$TEXTSTYLE
  7
STANDARD
  9
$CLAYER
  8
3
  9
$CELTYPE
  6
BYLAYER
  9
$CECOLOR
 62
   256
  9
$DIMSCALE
 40
20.0
  9
$DIMASZ
 40
2.0
  9
$DIMEXO
 40
0.5
  9
$DIMDLI
 40
10.0
  9
$DIMRND
 40
0.0
  9
$DIMDLE
 40
0.0
  9
$DIMEXE
 40
1.0
  9
$DIMTP
 40
1.0
  9
$DIMTM
 40
1.0
  9
$DIMTXT
 40
3.0
  9
$DIMCEN
 40
0.0
  9
$DIMTSZ
 40
0.0
  9
$DIMTOL
 70
     0
  9
$DIMLIM
 70
     0
  9
$DIMTIH
 70
     0
  9
$DIMTOH
 70
     0
  9
$DIMSE1
 70
     0
  9
$DIMSE2
 70
     0
  9
$DIMTAD
 70
     1
  9
$DIMZIN
 70
     8
  9
$DIMBLK
  1

  9
$DIMASO
 70
     1
  9
$DIMSHO
 70
     1
  9
$DIMPOST
  1

  9
$DIMAPOST
  1

  9
$DIMALT
 70
     0
  9
$DIMALTD
 70
     2
  9
$DIMALTF
 40
0.039
  9
$DIMLFAC
 40
1.0
  9
$DIMTOFL
 70
     1
  9
$DIMTVP
 40
0.0
  9
$DIMTIX
 70
     0
  9
$DIMSOXD
 70
     0
  9
$DIMSAH
 70
     1
  9
$DIMBLK1
  1
OPEN
  9
$DIMBLK2
  1
OPEN
  9
$DIMSTYLE
  2
IGA
  9
$DIMCLRD
 70
     0
  9
$DIMCLRE
 70
     0
  9
$DIMCLRT
 70
     0
  9
$DIMTFAC
 40
10.0
  9
$DIMGAP
 40
1.0
  9
$LUNITS
 70
     2
  9
$LUPREC
 70
     3
  9
$SKETCHINC
 40
0.1
  9
$FILLETRAD
 40
50.0
  9
$AUNITS
 70
     0
  9
$AUPREC
 70
     0
  9
$MENU
  1
acad
  9
$ELEVATION
 40
0.0
  9
$PELEVATION
 40
0.0
  9
$THICKNESS
 40
0.0
  9
$LIMCHECK
 70
     0
  9
$BLIPMODE
 70
     0
  9
$CHAMFERA
 40
0.0
  9
$CHAMFERB
 40
0.0
  9
$SKPOLY
 70
     0
  9
$TDCREATE
 40
2452773.6228296291
  9
$TDUPDATE
 40
2454953.8531324528
  9
$TDINDWG
 40
0.0257000116
  9
$TDUSRTIMER
 40
0.0257000116
  9
$USRTIMER
 70
     1
  9
$ANGBASE
 50
0.0
  9
$ANGDIR
 70
     0
  9
$PDMODE
 70
     0
  9
$PDSIZE
 40
0.0
  9
$PLINEWID
 40
0.0
  9
$COORDS
 70
     1
  9
$SPLFRAME
 70
     0
  9
$SPLINETYPE
 70
     6
  9
$SPLINESEGS
 70
     8
  9
$ATTDIA
 70
     0
  9
$ATTREQ
 70
     1
  9
$HANDLING
 70
 10241
  9
$HANDSEED
  5
8164
  9
$SURFTAB1
 70
     6
  9
$SURFTAB2
 70
     6
  9
$SURFTYPE
 70
     6
  9
$SURFU
 70
     6
  9
$SURFV
 70
     6
  9
$UCSNAME
  2

  9
$UCSORG
 10
0.0
 20
0.0
 30
0.0
  9
$UCSXDIR
 10
1.0
 20
0.0
 30
0.0
  9
$UCSYDIR
 10
0.0
 20
1.0
 30
0.0
  9
$PUCSNAME
  2

  9
$PUCSORG
 10
0.0
 20
0.0
 30
0.0
  9
$PUCSXDIR
 10
1.0
 20
0.0
 30
0.0
  9
$PUCSYDIR
 10
0.0
 20
1.0
 30
0.0
  9
$USERI1
 70
     0
  9
$USERI2
 70
     0
  9
$USERI3
 70
     0
  9
$USERI4
 70
     0
  9
$USERI5
 70
     0
  9
$USERR1
 40
0.0
  9
$USERR2
 40
0.0
  9
$USERR3
 40
0.0
  9
$USERR4
 40
0.0
  9
$USERR5
 40
0.0
  9
$WORLDVIEW
 70
     1
  9
$SHADEDGE
 70
     3
  9
$SHADEDIF
 70
    70
  9
$TILEMODE
 70
     1
  9
$MAXACTVP
 70
    16
  9
$PLIMCHECK
 70
     0
  9
$PEXTMIN
 10
1.0000000000000000E+020
 20
1.0000000000000000E+020
 30
1.0000000000000000E+020
  9
$PEXTMAX
 10
-1.0000000000000000E+020
 20
-1.0000000000000000E+020
 30
-1.0000000000000000E+020
  9
$PLIMMIN
 10
0.0
 20
0.0
  9
$PLIMMAX
 10
12.0
 20
9.0
  9
$UNITMODE
 70
     0
  9
$VISRETAIN
 70
     0
  9
$PLINEGEN
 70
     0
  9
$PSLTSCALE
 70
     1
  0
ENDSEC
  0
SECTION
  2
TABLES
  0
TABLE
  2
VPORT
 70
     2
  0
VPORT
  2
*ACTIVE
 70
     0
 10
0.0
 20
0.0
 11
1.0
 21
1.0
 12
6027.9826464208236
 22
4004.9978160586938
 13
0.0
 23
0.0
 14
10.0
 24
10.0
 15
10.0
 25
10.0
 16
0.0
 26
0.0
 36
1.0
 17
0.0
 27
0.0
 37
0.0
 40
8009.9956321173886
 41
1.5051150895140659
 42
50.0
 43
0.0
 44
0.0
 50
0.0
 51
0.0
 71
     0
 72
   100
 73
     1
 74
     0
 75
     0
 76
     0
 77
     0
 78
     0
  0
ENDTAB
  0
TABLE
  2
LTYPE
 70
     2
  0
LTYPE
  2
CONTINUOUS
 70
     0
  3
Solid line
 72
    65
 73
     0
 40
0.0
  0
LTYPE
  2
CENTER
 70
     0
  3
____ _ ____ _ ____ _ ____ _ ____ _ ____ _ ____ 
 72
    65
 73
     4
 40
2.0
 49
1.25
 49
-0.25
 49
0.25
 49
-0.25
  0
ENDTAB
  0
TABLE
  2
LAYER
 70
     6
  0
LAYER
  2
0
 70
     0
 62
     7
  6
CONTINUOUS
  0
LAYER
  2
3
 70
     0
 62
     2
  6
CONTINUOUS
  0
LAYER
  2
2
 70
     0
 62
     3
  6
CENTER
  0
LAYER
  2
1
 70
     0
 62
     4
  6
CONTINUOUS
  0
LAYER
  2
4
 70
     0
 62
     7
  6
CONTINUOUS
  0
LAYER
  2
DEFPOINTS
 70
     0
 62
     7
  6
CONTINUOUS
  0
ENDTAB
  0
TABLE
  2
STYLE
 70
     1
  0
STYLE
  2
STANDARD
 70
     0
 40
0.0
 41
1.0
 50
0.0
 71
     0
 42
180.0
  3
simplex.shx
  4
extfont.shx
  0
ENDTAB
  0
TABLE
  2
VIEW
 70
     0
  0
ENDTAB
  0
TABLE
  2
UCS
 70
     0
  0
ENDTAB
  0
TABLE
  2
APPID
 70
     1
  0
APPID
  2
ACAD
 70
     0
  0
ENDTAB
  0
TABLE
  2
DIMSTYLE
 70
     1
  0
DIMSTYLE
  2
IGA
 70
     0
  3

  4

  5

  6
OPEN
  7
OPEN
 40
2.0
 41
2.0
 42
0.5
 43
10.0
 44
1.0
 45
0.0
 46
0.0
 47
1.0
 48
1.0
140
3.0
141
0.0
142
0.0
143
0.03937
144
1.0
145
0.0
146
10.0
147
1.0
 71
     0
 72
     0
 73
     0
 74
     0
 75
     0
 76
     0
 77
     1
 78
     8
170
     0
171
     2
172
     0
173
     1
174
     0
175
     0
176
     0
177
     0
178
     0
  0
ENDTAB
  0
ENDSEC
  0
SECTION
  2
BLOCKS
  0
BLOCK
  8
0
  2
$MODEL_SPACE
 70
     0
 10
0.0
 20
0.0
 30
0.0
  3
$MODEL_SPACE
  1

  0
ENDBLK
  5
1B
  8
0
  0
BLOCK
 67
     1
  8
0
  2
$PAPER_SPACE
 70
     0
 10
0.0
 20
0.0
 30
0.0
  3
$PAPER_SPACE
  1

  0
ENDBLK
  5
18
 67
     1
  8
0
  0
BLOCK
  8
0
  2
_OPEN
 70
     0
 10
0.0
 20
0.0
 30
0.0
  3
_OPEN
  1

  0
LINE
  5
79FD
  8
0
  6
BYBLOCK
 62
     0
 10
-1.0
 20
0.1666666666666666
 30
0.0
 11
0.0
 21
0.0
 31
0.0
  0
LINE
  5
79FE
  8
0
  6
BYBLOCK
 62
     0
 10
0.0
 20
0.0
 30
0.0
 11
-1.0
 21
-0.1666666666666666
 31
0.0
  0
LINE
  5
79FF
  8
0
  6
BYBLOCK
 62
     0
 10
0.0
 20
0.0
 30
0.0
 11
-1.0
 21
0.0
 31
0.0
  0
ENDBLK
  5
7A01
  8
0
  0
BLOCK
  8
0
  2
*D1
 70
     1
 10
0.0
 20
0.0
 30
0.0
  3
*D1
  1

  0
LINE
  5
80CB
  8
3
 62
     0
 10
1675.88113062874
 20
2721.599298936078
 30
0.0
 11
1925.1243239974431
 21
2721.599298936078
 31
0.0
  0
LINE
  5
80CC
  8
3
 62
     0
 10
1733.195330528675
 20
2183.599298936077
 30
0.0
 11
1925.1243239974431
 21
2183.599298936077
 31
0.0
  0
LINE
  5
80CD
  8
3
 62
     0
 10
1905.1243239974431
 20
2681.599298936078
 30
0.0
 11
1905.1243239974431
 21
2223.599298936077
 31
0.0
  0
INSERT
  5
80CE
  8
3
 62
     0
  2
_OPEN
 10
1905.1243239974431
 20
2721.599298936078
 30
0.0
 41
40.0
 42
40.0
 43
40.0
 50
90.0
  0
INSERT
  5
80CF
  8
3
 62
     0
  2
_OPEN
 10
1905.1243239974431
 20
2183.599298936077
 30
0.0
 41
40.0
 42
40.0
 43
40.0
 50
270.0
  0
TEXT
  8
3
  40
60
  5
8154
  62
0
  72
0
  71
0
 10
1735.12
 20
2330.13
 30
0.000000
  1
538
  0
POINT
  5
80D1
  8
DEFPOINTS
 62
     0
 10
1665.88113062874
 20
2721.599298936078
 30
0.0
  0
POINT
  5
80D2
  8
DEFPOINTS
 62
     0
 10
1723.195330528675
 20
2183.599298936077
 30
0.0
  0
POINT
  5
80D3
  8
DEFPOINTS
 62
     0
 10
1905.1243239974431
 20
2183.599298936077
 30
0.0
  0
ENDBLK
  5
7F19
  8
0
  0
BLOCK
  8
0
  2
*D2
 70
     1
 10
0.0
 20
0.0
 30
0.0
  3
*D2
  1

  0
LINE
  5
80D4
  8
3
 62
     0
 10
1675.88113062874
 20
2721.599298936078
 30
0.0
 11
1806.7577416456729
 21
2721.599298936078
 31
0.0
  0
LINE
  5
80D5
  8
3
 62
     0
 10
1675.8811306287371
 20
2209.599298936078
 30
0.0
 11
1806.7577416456729
 21
2209.599298936078
 31
0.0
  0
LINE
  5
80D6
  8
3
 62
     0
 10
1786.7577416456741
 20
2681.599298936078
 30
0.0
 11
1786.7577416456729
 21
2249.599298936078
 31
0.0
  0
INSERT
  5
80D7
  8
3
 62
     0
  2
_OPEN
 10
1786.7577416456741
 20
2721.599298936078
 30
0.0
 41
40.0
 42
40.0
 43
40.0
 50
90.0
  0
INSERT
  5
80D8
  8
3
 62
     0
  2
_OPEN
 10
1786.7577416456729
 20
2209.599298936078
 30
0.0
 41
40.0
 42
40.0
 43
40.0
 50
270.0
  0
TEXT
  8
3
  40
60
  5
8155
  62
0
  72
0
  71
0
 10
1616.76
 20
2355.79
 30
0.000000
  1
512
  0
POINT
  5
80DA
  8
DEFPOINTS
 62
     0
 10
1665.88113062874
 20
2721.599298936078
 30
0.0
  0
POINT
  5
80DB
  8
DEFPOINTS
 62
     0
 10
1665.8811306287371
 20
2209.599298936078
 30
0.0
  0
POINT
  5
80DC
  8
DEFPOINTS
 62
     0
 10
1786.7577416456729
 20
2209.599298936078
 30
0.0
  0
ENDBLK
  5
7F24
  8
0
  0
BLOCK
  8
0
  2
*D3
 70
     1
 10
0.0
 20
0.0
 30
0.0
  3
*D3
  1

  0
LINE
  5
80DD
  8
3
 62
     0
 10
1625.8811306287339
 20
1663.5992989360791
 30
0.0
 11
1925.1243239974419
 21
1663.5992989360791
 31
0.0
  0
LINE
  5
80DE
  8
3
 62
     0
 10
1905.1243239974419
 20
2143.599298936077
 30
0.0
 11
1905.1243239974419
 21
1703.5992989360791
 31
0.0
  0
INSERT
  5
80DF
  8
3
 62
     0
  2
_OPEN
 10
1905.1243239974419
 20
2183.599298936077
 30
0.0
 41
40.0
 42
40.0
 43
40.0
 50
90.0
  0
INSERT
  5
80E0
  8
3
 62
     0
  2
_OPEN
 10
1905.1243239974419
 20
1663.5992989360791
 30
0.0
 41
40.0
 42
40.0
 43
40.0
 50
270.0
  0
TEXT
  8
3
  40
60
  5
8156
  62
0
  72
0
  71
0
 10
1735.12
 20
1817.40
 30
0.000000
  1
520
  0
POINT
  5
80E2
  8
DEFPOINTS
 62
     0
 10
1723.195330528675
 20
2183.599298936077
 30
0.0
  0
POINT
  5
80E3
  8
DEFPOINTS
 62
     0
 10
1615.8811306287339
 20
1663.5992989360791
 30
0.0
  0
POINT
  5
80E4
  8
DEFPOINTS
 62
     0
 10
1905.1243239974419
 20
1663.5992989360791
 30
0.0
  0
ENDBLK
  5
7EEA
  8
0
  0
BLOCK
  8
0
  2
_DOT
 70
     0
 10
0.0
 20
0.0
 30
0.0
  3
_DOT
  1

  0
LINE
  5
7E4B
  8
0
  6
BYBLOCK
 62
     0
 10
0.0
 20
0.0
 30
0.0
 11
-1.0
 21
-0.0000000000000284
 31
0.0
  0
POLYLINE
  5
7E4C
  8
0
  6
BYBLOCK
 62
     0
 66
     1
 10
0.0
 20
0.0
 30
0.0
 70
     1
 40
0.1666666666666666
 41
0.1666666666666666
  0
VERTEX
  5
811B
  8
0
  6
BYBLOCK
 62
     0
 10
-0.0833333333333286
 20
-0.0000000000000284
 30
0.0
 42
1.0
  0
VERTEX
  5
811C
  8
0
  6
BYBLOCK
 62
     0
 10
0.0833333333333286
 20
-0.0000000000000284
 30
0.0
 42
1.0
  0
SEQEND
  5
811D
  8
0
  6
BYBLOCK
 62
     0
  0
ENDBLK
  5
7D4D
  8
0
  0
BLOCK
  8
0
  2
*D5
 70
     1
 10
0.0
 20
0.0
 30
0.0
  3
*D5
  1

  0
LINE
  5
80E5
  8
3
 62
     0
 10
1665.8811306287409
 20
2763.2044818993818
 30
0.0
 11
1665.8811306287409
 21
2908.8098510110831
 31
0.0
  0
LINE
  5
80E6
  8
3
 62
     0
 10
1305.8811306287409
 20
2836.8920235358892
 30
0.0
 11
1305.8811306287409
 21
2908.8098510110831
 31
0.0
  0
LINE
  5
80E7
  8
3
 62
     0
 10
1625.8811306287409
 20
2888.8098510110831
 30
0.0
 11
1345.8811306287409
 21
2888.8098510110831
 31
0.0
  0
INSERT
  5
80E8
  8
3
 62
     0
  2
_OPEN
 10
1665.8811306287409
 20
2888.8098510110831
 30
0.0
 41
40.0
 42
40.0
 43
40.0
  0
INSERT
  5
80E9
  8
3
 62
     0
  2
_OPEN
 10
1305.8811306287409
 20
2888.8098510110831
 30
0.0
 41
40.0
 42
40.0
 43
40.0
 50
180.0
  0
TEXT
  8
3
  40
60
  5
8157
  62
0
  72
0
  71
0
 10
1363.21
 20
2832.61
 30
0.000000
  1
360
  0
POINT
  5
80EB
  8
DEFPOINTS
 62
     0
 10
1665.8811306287409
 20
2753.2044818993809
 30
0.0
  0
POINT
  5
80EC
  8
DEFPOINTS
 62
     0
 10
1305.8811306287409
 20
2826.8920235358901
 30
0.0
  0
POINT
  5
80ED
  8
DEFPOINTS
 62
     0
 10
1305.8811306287409
 20
2888.8098510110831
 30
0.0
  0
ENDBLK
  5
7E7C
  8
0
  0
BLOCK
  8
0
  2
*D6
 70
     1
 10
0.0
 20
0.0
 30
0.0
  3
*D6
  1

  0
LINE
  5
80EE
  8
3
 62
     0
 10
869.43313982087614
 20
2230.5992989360798
 30
0.0
 11
869.43313982087614
 21
2908.8098510110831
 31
0.0
  0
LINE
  5
80EF
  8
3
 62
     0
 10
1265.8811306287409
 20
2888.8098510110831
 30
0.0
 11
909.43313982087625
 21
2888.8098510110831
 31
0.0
  0
INSERT
  5
80F0
  8
3
 62
     0
  2
_OPEN
 10
1305.8811306287409
 20
2888.8098510110831
 30
0.0
 41
40.0
 42
40.0
 43
40.0
  0
INSERT
  5
80F1
  8
3
 62
     0
  2
_OPEN
 10
869.43313982087614
 20
2888.8098510110831
 30
0.0
 41
40.0
 42
40.0
 43
40.0
 50
180.0
  0
TEXT
  8
3
  40
60
  5
8158
  62
0
  72
0
  71
0
 10
967.657
 20
2832.61
 30
0.000000
  1
436
  0
POINT
  5
80F3
  8
DEFPOINTS
 62
     0
 10
1305.8811306287409
 20
2826.8920235358901
 30
0.0
  0
POINT
  5
80F4
  8
DEFPOINTS
 62
     0
 10
869.43313982087614
 20
2220.5992989360789
 30
0.0
  0
POINT
  5
80F5
  8
DEFPOINTS
 62
     0
 10
869.43313982087614
 20
2888.8098510110831
 30
0.0
  0
ENDBLK
  5
7E71
  8
0
  0
BLOCK
  8
0
  2
*D7
 70
     1
 10
0.0
 20
0.0
 30
0.0
  3
*D7
  1

  0
LINE
  5
80F6
  8
3
 62
     0
 10
2964.3305378057639
 20
2731.599298936083
 30
0.0
 11
2964.3305378057639
 21
2875.292870272222
 31
0.0
  0
LINE
  5
80F7
  8
3
 62
     0
 10
3339.3305378057639
 20
2731.599298936083
 30
0.0
 11
3339.3305378057639
 21
2875.292870272222
 31
0.0
  0
LINE
  5
80F8
  8
3
 62
     0
 10
3004.330537805763
 20
2855.292870272222
 30
0.0
 11
3299.3305378057648
 21
2855.292870272222
 31
0.0
  0
INSERT
  5
80F9
  8
3
 62
     0
  2
_OPEN
 10
2964.3305378057639
 20
2855.292870272222
 30
0.0
 41
40.0
 42
40.0
 43
40.0
 50
180.0
  0
INSERT
  5
80FA
  8
3
 62
     0
  2
_OPEN
 10
3339.3305378057639
 20
2855.292870272222
 30
0.0
 41
40.0
 42
40.0
 43
40.0
  0
TEXT
  8
3
  40
60
  5
8159
  62
0
  72
0
  71
0
 10
3032.44
 20
2799.09
 30
0.000000
  1
375
  0
POINT
  5
80FC
  8
DEFPOINTS
 62
     0
 10
2964.3305378057639
 20
2721.599298936083
 30
0.0
  0
POINT
  5
80FD
  8
DEFPOINTS
 62
     0
 10
3339.3305378057639
 20
2721.599298936083
 30
0.0
  0
POINT
  5
80FE
  8
DEFPOINTS
 62
     0
 10
3339.3305378057639
 20
2855.292870272222
 30
0.0
  0
ENDBLK
  5
7DA3
  8
0
  0
BLOCK
  8
0
  2
*D8
 70
     1
 10
0.0
 20
0.0
 30
0.0
  3
*D8
  1

  0
LINE
  5
80FF
  8
3
 62
     0
 10
3151.8305378057662
 20
2934.4992348544029
 30
0.0
 11
3151.8305378057662
 21
2992.8685810210809
 31
0.0
  0
LINE
  5
8100
  8
3
 62
     0
 10
3343.630537805765
 20
2473.599298936083
 30
0.0
 11
3343.630537805765
 21
2992.8685810210809
 31
0.0
  0
LINE
  5
8101
  8
3
 62
     0
 10
3111.8305378057662
 20
2972.8685810210809
 30
0.0
 11
3071.8305378057648
 21
2972.8685810210809
 31
0.0
  0
LINE
  5
8102
  8
3
 62
     0
 10
3383.630537805765
 20
2972.8685810210809
 30
0.0
 11
3423.630537805765
 21
2972.8685810210809
 31
0.0
  0
LINE
  5
8103
  8
3
 62
     0
 10
3151.8305378057662
 20
2972.8685810210809
 30
0.0
 11
3343.630537805765
 21
2972.8685810210809
 31
0.0
  0
INSERT
  5
8104
  8
3
 62
     0
  2
_OPEN
 10
3151.8305378057662
 20
2972.8685810210809
 30
0.0
 41
40.0
 42
40.0
 43
40.0
  0
INSERT
  5
8105
  8
3
 62
     0
  2
_OPEN
 10
3343.630537805765
 20
2972.8685810210809
 30
0.0
 41
40.0
 42
40.0
 43
40.0
 50
180.0
  0
TEXT
  8
3
  40
60
  5
815A
  62
0
  72
0
  71
0
 10
3127.73
 20
2916.67
 30
0.000000
  1
192
  0
POINT
  5
8107
  8
DEFPOINTS
 62
     0
 10
3151.8305378057662
 20
2924.4992348544029
 30
0.0
  0
POINT
  5
8108
  8
DEFPOINTS
 62
     0
 10
3343.630537805765
 20
2463.599298936083
 30
0.0
  0
POINT
  5
8109
  8
DEFPOINTS
 62
     0
 10
3343.630537805765
 20
2972.8685810210809
 30
0.0
  0
ENDBLK
  5
7DC0
  8
0
  0
BLOCK
  8
0
  2
*D9
 70
     1
 10
0.0
 20
0.0
 30
0.0
  3
*D9
  1

  0
LINE
  5
810A
  8
3
 62
     0
 10
2618.5902994562539
 20
2413.5992989360821
 30
0.0
 11
2618.5902994562539
 21
2992.8685810210809
 31
0.0
  0
LINE
  5
810B
  8
3
 62
     0
 10
3111.8305378057662
 20
2972.8685810210809
 30
0.0
 11
2658.590299456253
 21
2972.8685810210809
 31
0.0
  0
INSERT
  5
810C
  8
3
 62
     0
  2
_OPEN
 10
3151.8305378057662
 20
2972.8685810210809
 30
0.0
 41
40.0
 42
40.0
 43
40.0
  0
INSERT
  5
810D
  8
3
 62
     0
  2
_OPEN
 10
2618.5902994562539
 20
2972.8685810210809
 30
0.0
 41
40.0
 42
40.0
 43
40.0
 50
180.0
  0
TEXT
  8
3
  40
60
  5
815B
  62
0
  72
0
  71
0
 10
2765.21
 20
2966.67
 30
0.000000
  1
MAX
  0
TEXT
  8
3
  40
60
  5
815C
  62
0
  72
0
  71
0
 10
2765.21
 20
2888.67
 30
0.000000
  1
560
  0
POINT
  5
810F
  8
DEFPOINTS
 62
     0
 10
3151.8305378057662
 20
2924.4992348544029
 30
0.0
  0
POINT
  5
8110
  8
DEFPOINTS
 62
     0
 10
2618.5902994562539
 20
2403.5992989360821
 30
0.0
  0
POINT
  5
8111
  8
DEFPOINTS
 62
     0
 10
2618.5902994562539
 20
2972.8685810210809
 30
0.0
  0
ENDBLK
  5
7DD6
  8
0
  0
BLOCK
  8
0
  2
*D10
 70
     1
 10
0.0
 20
0.0
 30
0.0
  3
*D10
  1

  0
LINE
  5
8112
  8
3
 62
     0
 10
3381.8305378057648
 20
2433.599298936083
 30
0.0
 11
3563.2867566744462
 21
2433.599298936083
 31
0.0
  0
LINE
  5
8113
  8
3
 62
     0
 10
3381.8305378057648
 20
1933.599298936083
 30
0.0
 11
3563.2867566744462
 21
1933.599298936083
 31
0.0
  0
LINE
  5
8114
  8
3
 62
     0
 10
3543.2867566744471
 20
2393.599298936083
 30
0.0
 11
3543.2867566744471
 21
1973.599298936083
 31
0.0
  0
INSERT
  5
8115
  8
3
 62
     0
  2
_OPEN
 10
3543.2867566744471
 20
2433.599298936083
 30
0.0
 41
40.0
 42
40.0
 43
40.0
 50
90.0
  0
INSERT
  5
8116
  8
3
 62
     0
  2
_OPEN
 10
3543.2867566744471
 20
1933.599298936083
 30
0.0
 41
40.0
 42
40.0
 43
40.0
 50
270.0
  0
TEXT
  8
3
  40
60
  5
815D
  62
0
  72
0
  71
0
 10
3373.29
 20
2077.14
 30
0.000000
  1
φ500
  0
POINT
  5
8118
  8
DEFPOINTS
 62
     0
 10
3371.8305378057648
 20
2433.599298936083
 30
0.0
  0
POINT
  5
8119
  8
DEFPOINTS
 62
     0
 10
3371.8305378057648
 20
1933.599298936083
 30
0.0
  0
POINT
  5
811A
  8
DEFPOINTS
 62
     0
 10
3543.2867566744471
 20
1933.599298936083
 30
0.0
  0
ENDBLK
  5
7DEF
  8
0
  0
BLOCK
  8
0
  2
*D11
 70
     1
 10
0.0
 20
0.0
 30
0.0
  3
*D11
  1

  0
LINE
  5
811E
  8
3
 62
     0
 10
2566.8305378057648
 20
1613.5992989360909
 30
0.0
 11
2566.8305378057648
 21
1470.020907218581
 31
0.0
  0
LINE
  5
811F
  8
3
 62
     0
 10
3151.8305378057648
 20
1613.5992989360909
 30
0.0
 11
3151.8305378057648
 21
1470.020907218581
 31
0.0
  0
LINE
  5
8120
  8
3
 62
     0
 10
2606.8305378057639
 20
1490.0209072185801
 30
0.0
 11
3111.8305378057648
 21
1490.0209072185801
 31
0.0
  0
INSERT
  5
8121
  8
3
 62
     0
  2
_OPEN
 10
2566.8305378057648
 20
1490.0209072185801
 30
0.0
 41
40.0
 42
40.0
 43
40.0
 50
180.0
  0
INSERT
  5
8122
  8
3
 62
     0
  2
_OPEN
 10
3151.8305378057648
 20
1490.0209072185801
 30
0.0
 41
40.0
 42
40.0
 43
40.0
  0
TEXT
  8
3
  40
60
  5
815E
  62
0
  72
0
  71
0
 10
2739.33
 20
1433.82
 30
0.000000
  1
585
  0
POINT
  5
8124
  8
DEFPOINTS
 62
     0
 10
2566.8305378057648
 20
1623.5992989360921
 30
0.0
  0
POINT
  5
8125
  8
DEFPOINTS
 62
     0
 10
3151.8305378057648
 20
1623.5992989360909
 30
0.0
  0
POINT
  5
8126
  8
DEFPOINTS
 62
     0
 10
3151.8305378057648
 20
1490.0209072185801
 30
0.0
  0
ENDBLK
  5
7FA4
  8
0
  0
BLOCK
  8
0
  2
*D12
 70
     1
 10
0.0
 20
0.0
 30
0.0
  3
*D12
  1

  0
LINE
  5
8127
  8
3
 62
     0
 10
3151.8305378057648
 20
1613.5992989360909
 30
0.0
 11
3151.8305378057648
 21
1470.020907218581
 31
0.0
  0
LINE
  5
8128
  8
3
 62
     0
 10
3451.8305378057639
 20
1613.5992989360909
 30
0.0
 11
3451.8305378057639
 21
1470.020907218581
 31
0.0
  0
LINE
  5
8129
  8
3
 62
     0
 10
3191.8305378057648
 20
1490.0209072185801
 30
0.0
 11
3411.8305378057639
 21
1490.0209072185801
 31
0.0
  0
INSERT
  5
812A
  8
3
 62
     0
  2
_OPEN
 10
3151.8305378057648
 20
1490.0209072185801
 30
0.0
 41
40.0
 42
40.0
 43
40.0
 50
180.0
  0
INSERT
  5
812B
  8
3
 62
     0
  2
_OPEN
 10
3451.8305378057639
 20
1490.0209072185801
 30
0.0
 41
40.0
 42
40.0
 43
40.0
  0
TEXT
  8
3
  40
60
  5
815F
  62
0
  72
0
  71
0
 10
3181.83
 20
1433.82
 30
0.000000
  1
300
  0
POINT
  5
812D
  8
DEFPOINTS
 62
     0
 10
3151.8305378057648
 20
1623.5992989360909
 30
0.0
  0
POINT
  5
812E
  8
DEFPOINTS
 62
     0
 10
3451.8305378057639
 20
1623.5992989360921
 30
0.0
  0
POINT
  5
812F
  8
DEFPOINTS
 62
     0
 10
3451.8305378057639
 20
1490.0209072185801
 30
0.0
  0
ENDBLK
  5
7FB1
  8
0
  0
BLOCK
  8
0
  2
*D13
 70
     1
 10
0.0
 20
0.0
 30
0.0
  3
*D13
  1

  0
LINE
  5
8130
  8
3
 62
     0
 10
1305.8811306287321
 20
1653.5992989360809
 30
0.0
 11
1305.8811306287321
 21
1470.020907218581
 31
0.0
  0
LINE
  5
8131
  8
3
 62
     0
 10
1619.8811306287339
 20
1613.5992989360791
 30
0.0
 11
1619.8811306287339
 21
1470.020907218581
 31
0.0
  0
LINE
  5
8132
  8
3
 62
     0
 10
1345.8811306287321
 20
1490.0209072185801
 30
0.0
 11
1579.8811306287339
 21
1490.0209072185801
 31
0.0
  0
INSERT
  5
8133
  8
3
 62
     0
  2
_OPEN
 10
1305.8811306287321
 20
1490.0209072185801
 30
0.0
 41
40.0
 42
40.0
 43
40.0
 50
180.0
  0
INSERT
  5
8134
  8
3
 62
     0
  2
_OPEN
 10
1619.8811306287339
 20
1490.0209072185801
 30
0.0
 41
40.0
 42
40.0
 43
40.0
  0
TEXT
  8
3
  40
60
  5
8160
  62
0
  72
0
  71
0
 10
1342.88
 20
1433.82
 30
0.000000
  1
314
  0
POINT
  5
8136
  8
DEFPOINTS
 62
     0
 10
1305.8811306287321
 20
1663.5992989360809
 30
0.0
  0
POINT
  5
8137
  8
DEFPOINTS
 62
     0
 10
1619.8811306287339
 20
1623.5992989360791
 30
0.0
  0
POINT
  5
8138
  8
DEFPOINTS
 62
     0
 10
1619.8811306287339
 20
1490.0209072185801
 30
0.0
  0
ENDBLK
  5
7FBE
  8
0
  0
BLOCK
  8
0
  2
*D14
 70
     1
 10
0.0
 20
0.0
 30
0.0
  3
*D14
  1

  0
LINE
  5
8139
  8
3
 62
     0
 10
491.8811306287343
 20
1613.599298936088
 30
0.0
 11
491.8811306287343
 21
1470.020907218581
 31
0.0
  0
LINE
  5
813A
  8
3
 62
     0
 10
1305.8811306287321
 20
1653.5992989360809
 30
0.0
 11
1305.8811306287321
 21
1470.020907218581
 31
0.0
  0
LINE
  5
813B
  8
3
 62
     0
 10
531.88113062873435
 20
1490.0209072185801
 30
0.0
 11
1265.8811306287321
 21
1490.0209072185801
 31
0.0
  0
INSERT
  5
813C
  8
3
 62
     0
  2
_OPEN
 10
491.8811306287343
 20
1490.0209072185801
 30
0.0
 41
40.0
 42
40.0
 43
40.0
 50
180.0
  0
INSERT
  5
813D
  8
3
 62
     0
  2
_OPEN
 10
1305.8811306287321
 20
1490.0209072185801
 30
0.0
 41
40.0
 42
40.0
 43
40.0
  0
TEXT
  8
3
  40
60
  5
8161
  62
0
  72
0
  71
0
 10
778.881
 20
1433.82
 30
0.000000
  1
814
  0
POINT
  5
813F
  8
DEFPOINTS
 62
     0
 10
491.8811306287343
 20
1623.599298936088
 30
0.0
  0
POINT
  5
8140
  8
DEFPOINTS
 62
     0
 10
1305.8811306287321
 20
1663.5992989360809
 30
0.0
  0
POINT
  5
8141
  8
DEFPOINTS
 62
     0
 10
1305.8811306287321
 20
1490.0209072185801
 30
0.0
  0
ENDBLK
  5
7FCB
  8
0
  0
BLOCK
  8
0
  2
*D15
 70
     1
 10
0.0
 20
0.0
 30
0.0
  3
*D15
  1

  0
LINE
  5
8142
  8
3
 62
     0
 10
491.8811306287472
 20
4073.7134101767379
 30
0.0
 11
491.8811306287472
 21
4207.1261535325348
 31
0.0
  0
LINE
  5
8143
  8
3
 62
     0
 10
1619.881130628746
 20
4073.713410176741
 30
0.0
 11
1619.881130628746
 21
4207.1261535325348
 31
0.0
  0
LINE
  5
8144
  8
3
 62
     0
 10
531.8811306287472
 20
4187.1261535325357
 30
0.0
 11
1579.881130628746
 21
4187.1261535325357
 31
0.0
  0
INSERT
  5
8145
  8
3
 62
     0
  2
_OPEN
 10
491.8811306287472
 20
4187.1261535325357
 30
0.0
 41
40.0
 42
40.0
 43
40.0
 50
180.0
  0
INSERT
  5
8146
  8
3
 62
     0
  2
_OPEN
 10
1619.881130628746
 20
4187.1261535325357
 30
0.0
 41
40.0
 42
40.0
 43
40.0
  0
TEXT
  8
3
  40
60
  5
8162
  62
0
  72
0
  71
0
 10
935.881
 20
4130.93
 30
0.000000
  1
1128
  0
POINT
  5
8148
  8
DEFPOINTS
 62
     0
 10
491.8811306287472
 20
4063.7134101767369
 30
0.0
  0
POINT
  5
8149
  8
DEFPOINTS
 62
     0
 10
1619.881130628746
 20
4063.713410176741
 30
0.0
  0
POINT
  5
814A
  8
DEFPOINTS
 62
     0
 10
1619.881130628746
 20
4187.1261535325357
 30
0.0
  0
ENDBLK
  5
7FE5
  8
0
  0
BLOCK
  8
0
  2
*D16
 70
     1
 10
0.0
 20
0.0
 30
0.0
  3
*D16
  1

  0
LINE
  5
814B
  8
3
 62
     0
 10
481.8811306287472
 20
4063.7134101767369
 30
0.0
 11
345.49437831883932
 21
4063.7134101767369
 31
0.0
  0
LINE
  5
814C
  8
3
 62
     0
 10
481.88113062873958
 20
3178.7134101767379
 30
0.0
 11
345.4943783188391
 21
3178.7134101767379
 31
0.0
  0
LINE
  5
814D
  8
3
 62
     0
 10
365.49437831883932
 20
4023.7134101767379
 30
0.0
 11
365.49437831883921
 21
3218.7134101767379
 31
0.0
  0
INSERT
  5
814E
  8
3
 62
     0
  2
_OPEN
 10
365.49437831883932
 20
4063.7134101767369
 30
0.0
 41
40.0
 42
40.0
 43
40.0
 50
90.0
  0
INSERT
  5
814F
  8
3
 62
     0
  2
_OPEN
 10
365.4943783188391
 20
3178.7134101767379
 30
0.0
 41
40.0
 42
40.0
 43
40.0
 50
270.0
  0
TEXT
  8
3
  40
60
  5
8163
  62
0
  72
0
  71
0
 10
195.494
 20
3515.01
 30
0.000000
  1
885
  0
POINT
  5
8151
  8
DEFPOINTS
 62
     0
 10
491.8811306287472
 20
4063.7134101767369
 30
0.0
  0
POINT
  5
8152
  8
DEFPOINTS
 62
     0
 10
491.88113062873958
 20
3178.7134101767379
 30
0.0
  0
POINT
  5
8153
  8
DEFPOINTS
 62
     0
 10
365.4943783188391
 20
3178.7134101767379
 30
0.0
  0
ENDBLK
  5
7FF2
  8
0
  0
ENDSEC
  0
SECTION
  2
ENTITIES
  0
LINE
  5
7B33
  8
1
 10
2757.3305378057648
 20
2123.599298936083
 30
0.0
 11
2962.3305378057648
 21
2123.599298936083
 31
0.0
  0
LINE
  5
7B34
  8
1
 10
2756.8305378057639
 20
1738.5992989360909
 30
0.0
 11
3381.8305378057648
 21
1738.5992989360921
 31
0.0
  0
LINE
  5
7B35
  8
1
 10
2756.8305378057639
 20
1663.5992989360909
 30
0.0
 11
3381.8305378057648
 21
1663.5992989360921
 31
0.0
  0
LINE
  5
7B36
  8
1
 10
2757.3305378057648
 20
2120.3992989360818
 30
0.0
 11
2962.3305378057648
 21
2120.3992989360841
 31
0.0
  0
LINE
  5
7B37
  8
2
 10
2545.7100929573021
 20
2183.599298936083
 30
0.0
 11
3395.7067976458802
 21
2183.599298936083
 31
0.0
1001
ACAD
1000
ASC_BOUNDS
1002
{
1070
    19
1002
}
  0
LINE
  5
7B38
  8
1
 10
2566.8305378057648
 20
1663.59929893609
 30
0.0
 11
3451.8305378057639
 21
1663.5992989360909
 31
0.0
  0
CIRCLE
  5
7B39
  8
1
 10
1305.8811306287371
 20
2183.5992989360811
 30
0.0
 40
139.69999999999999
  0
ARC
  5
7B3A
  8
1
 10
1274.8811306287371
 20
2152.5992989360811
 30
0.0
 40
331.18379814435627
 50
275.0424510691704
 51
356.45117049592272
  0
LINE
  5
7B3B
  8
1
 10
1665.88113062874
 20
2721.599298936078
 30
0.0
 11
1305.8811306287409
 21
2692.5992989360811
 31
0.0
  0
LINE
  5
7B3C
  8
1
 10
2665.5305378057628
 20
2323.2992989360828
 30
0.0
 11
2665.530537805766
 21
2043.899298936082
 31
0.0
  0
LINE
  5
7B3D
  8
1
 10
2705.5305378057628
 20
2323.2992989360828
 30
0.0
 11
2705.5305378057651
 21
2043.899298936082
 31
0.0
  0
LINE
  5
7B3E
  8
1
 10
2618.5902994562539
 20
2403.599298936083
 30
0.0
 11
2618.5902994562548
 21
1738.59929893609
 31
0.0
  0
LINE
  5
7B3F
  8
2
 10
1723.195330528675
 20
2183.599298936077
 30
0.0
 11
773.24633235638964
 21
2183.5992989360848
 31
0.0
  0
ARC
  5
7B40
  8
1
 10
1342.8811306287371
 20
2220.5992989360789
 30
0.0
 40
473.44799080786078
 50
94.482240370424549
 51
179.99999999999949
  0
LINE
  5
7B41
  8
1
 10
1615.881130628735
 20
1728.599298936078
 30
0.0
 11
495.88113062873521
 21
1728.599298936088
 31
0.0
  0
LINE
  5
7B42
  8
1
 10
1619.8811306287339
 20
1663.5992989360791
 30
0.0
 11
491.8811306287343
 21
1663.5992989360871
 31
0.0
  0
CIRCLE
  5
7B43
  8
1
 10
655.88113062873617
 20
1851.5992989360859
 30
0.0
 40
57.149999999999991
  0
LINE
  5
7B44
  8
1
 10
655.88113062873526
 20
1782.615198936086
 30
0.0
 11
655.88113062873697
 21
1960.0603989360859
 31
0.0
  0
LINE
  5
7B45
  8
1
 10
532.1652361039213
 20
1728.5992989360871
 30
0.0
 11
779.59702515354718
 21
1728.599298936085
 31
0.0
  0
LINE
  5
7B46
  8
1
 10
495.8811306287343
 20
1663.5992989360871
 30
0.0
 11
495.88113062873521
 21
1728.599298936088
 31
0.0
  0
ARC
  5
7B47
  8
1
 10
1268.8811306287371
 20
2220.5992989360811
 30
0.0
 40
399.44799080786061
 50
179.99999999999949
 51
275.0424510691704
  0
LINE
  5
7B48
  8
2
 10
1305.8811306287409
 20
2826.8920235358901
 30
0.0
 11
1305.8811306287321
 21
1663.5992989360809
 31
0.0
  0
LINE
  5
7B49
  8
1
 10
1615.8811306287339
 20
1663.5992989360791
 30
0.0
 11
1615.881130628735
 21
1728.599298936078
 31
0.0
  0
LINE
  5
7B4A
  8
1
 10
2665.530537805766
 20
2043.899298936082
 30
0.0
 11
2665.5305378057651
 21
1792.449298936084
 31
0.0
  0
LINE
  5
7B4B
  8
1
 10
2705.5305378057651
 20
2043.899298936082
 30
0.0
 11
2705.5305378057651
 21
1792.449298936084
 31
0.0
  0
LINE
  5
7B4C
  8
1
 10
2757.3305378057648
 20
2123.599298936083
 30
0.0
 11
2757.3305378057671
 21
1738.5992989360909
 31
0.0
  0
LINE
  5
7B4D
  8
1
 10
2760.5305378057642
 20
2120.3992989360818
 30
0.0
 11
2760.5305378057651
 21
1738.5992989360909
 31
0.0
  0
LINE
  5
7B4E
  8
1
 10
2665.530537805766
 20
1792.4492989360849
 30
0.0
 11
2705.530537805766
 21
1792.4492989360849
 31
0.0
  0
LINE
  5
7B4F
  8
1
 10
2618.5902994562548
 20
1738.59929893609
 30
0.0
 11
2740.5902994562539
 21
1738.59929893609
 31
0.0
  0
LINE
  5
7B50
  8
1
 10
2740.5902994562539
 20
1758.59929893609
 30
0.0
 11
2740.5902994562539
 21
1738.59929893609
 31
0.0
  0
LINE
  5
7B51
  8
1
 10
2665.530537805766
 20
2043.899298936082
 30
0.0
 11
2705.5305378057651
 21
2043.899298936082
 31
0.0
1001
ACAD
1000
ASC_BOUNDS
1002
{
1070
    19
1002
}
  0
LINE
  5
7B52
  8
1
 10
2665.530537805766
 20
1906.7492989360851
 30
0.0
 11
2705.530537805766
 21
1906.7492989360851
 31
0.0
  0
LINE
  5
7B53
  8
1
 10
2705.5305378057642
 20
2202.599298936083
 30
0.0
 11
2735.5305378057651
 21
2202.5992989360811
 31
0.0
1001
ACAD
1000
ASC_BOUNDS
1002
{
1070
    19
1002
}
  0
LINE
  5
7B54
  8
1
 10
2705.5305378057651
 20
2164.599298936083
 30
0.0
 11
2735.5305378057651
 21
2164.599298936083
 31
0.0
1001
ACAD
1000
ASC_BOUNDS
1002
{
1070
    19
1002
}
  0
LINE
  5
7B55
  8
1
 10
2735.5305378057651
 20
2206.099298936083
 30
0.0
 11
2735.5305378057651
 21
2161.099298936083
 31
0.0
  0
LINE
  5
7B56
  8
1
 10
495.88113062874612
 20
3993.7134101767492
 30
0.0
 11
1615.881130628746
 21
3993.7134101767379
 31
0.0
  0
LINE
  5
7B57
  8
1
 10
495.88113062874612
 20
3953.7134101767479
 30
0.0
 11
1615.881130628746
 21
3953.7134101767379
 31
0.0
  0
LINE
  5
7B58
  8
1
 10
495.88113062874157
 20
3368.7134101767469
 30
0.0
 11
535.08113062874236
 21
3368.7134101767469
 31
0.0
  0
LINE
  5
7B59
  8
1
 10
495.88113062874157
 20
3408.7134101767479
 30
0.0
 11
535.08113062874236
 21
3408.7134101767479
 31
0.0
  0
LINE
  5
7B5A
  8
1
 10
1662.8811306287409
 20
2753.20448189938
 30
0.0
 11
1662.8811306287371
 21
2177.999298936078
 31
0.0
  0
LINE
  5
7B5B
  8
1
 10
1665.88113062874
 20
2721.599298936078
 30
0.0
 11
1665.8811306287371
 21
2209.599298936078
 31
0.0
  0
LINE
  5
7B5C
  8
1
 10
1665.8811306287371
 20
2199.599298936078
 30
0.0
 11
1665.88113062874
 21
2731.6316924567232
 31
0.0
  0
LINE
  5
7B5D
  8
1
 10
1635.8811306287409
 20
2753.2044818993809
 30
0.0
 11
1635.8811306287371
 21
2177.999298936078
 31
0.0
  0
LINE
  5
7B5E
  8
1
 10
1665.8811306287371
 20
2177.999298936078
 30
0.0
 11
1665.8811306287409
 21
2753.2044818993809
 31
0.0
  0
LINE
  5
7B5F
  8
1
 10
535.88113062874618
 20
3953.7134101767479
 30
0.0
 11
535.88113062874345
 21
3625.0634674915009
 31
0.0
  0
LINE
  5
7B60
  8
1
 10
495.88113062874612
 20
3953.7134101767479
 30
0.0
 11
495.88113062874157
 21
3408.7134101767479
 31
0.0
  0
POINT
  5
7B61
  8
1
 10
1665.88113062874
 20
2723.2044818993809
 30
0.0
  0
POINT
  5
7B62
  8
1
 10
1665.88113062874
 20
2721.599298936078
 30
0.0
  0
POINT
  5
7B63
  8
1
 10
1665.88113062874
 20
2721.599298936078
 30
0.0
  0
POINT
  5
7B64
  8
1
 10
1665.88113062874
 20
2721.599298936078
 30
0.0
  0
LINE
  5
7B65
  8
1
 10
1665.8811306287409
 20
2753.2044818993809
 30
0.0
 11
1635.8811306287409
 21
2753.2044818993809
 31
0.0
  0
LINE
  5
7B66
  8
1
 10
495.88113062874157
 20
3368.7134101767469
 30
0.0
 11
495.88113062874157
 21
3408.7134101767479
 31
0.0
  0
LINE
  5
7B67
  8
1
 10
495.88113062874612
 20
3953.7134101767479
 30
0.0
 11
495.88113062874612
 21
3993.7134101767492
 31
0.0
  0
LINE
  5
7B68
  8
1
 10
1615.8811306287409
 20
3368.7134101767379
 30
0.0
 11
1615.8811306287409
 21
3408.7134101767379
 31
0.0
  0
ARC
  5
7B69
  8
1
 10
1336.881130628735
 20
2152.5992989360811
 30
0.0
 40
269.18379814435679
 50
3.0878199365036001
 51
12.22499848893343
  0
LINE
  5
7B6A
  8
1
 10
1599.960809021846
 20
2209.599298936078
 30
0.0
 11
1665.8811306287371
 21
2209.599298936078
 31
0.0
  0
POINT
  5
7B6B
  8
1
 10
1665.8811306287371
 20
2209.599298936078
 30
0.0
  0
LINE
  5
7B6C
  8
1
 10
1635.8811306287371
 20
2177.999298936078
 30
0.0
 11
1665.8811306287371
 21
2177.999298936078
 31
0.0
  0
LINE
  5
7B6D
  8
1
 10
2740.5902994562539
 20
2403.599298936083
 30
0.0
 11
2618.5902994562539
 21
2403.599298936083
 31
0.0
  0
LINE
  5
7B6E
  8
1
 10
2618.5902994562539
 20
2403.5992989360821
 30
0.0
 11
2740.5902994562539
 21
2403.5992989360821
 31
0.0
  0
LINE
  5
7B6F
  8
1
 10
2665.5305378057628
 20
2323.2992989360828
 30
0.0
 11
2705.5305378057628
 21
2323.2992989360828
 31
0.0
1001
ACAD
1000
ASC_BOUNDS
1002
{
1070
    19
1002
}
  0
LINE
  5
7B70
  8
1
 10
2740.5902994562539
 20
2383.5992989360821
 30
0.0
 11
2740.5902994562539
 21
2403.599298936083
 31
0.0
  0
LINE
  5
7B71
  8
1
 10
2964.3305378057639
 20
2723.8992989360841
 30
0.0
 11
2964.3305378057648
 21
2209.599298936083
 31
0.0
  0
LINE
  5
7B72
  8
1
 10
3339.3305378057639
 20
2723.8992989360841
 30
0.0
 11
3339.3305378057648
 21
2209.599298936083
 31
0.0
  0
LINE
  5
7B73
  8
1
 10
3343.630537805765
 20
2177.599298936083
 30
0.0
 11
3343.630537805765
 21
2433.599298936083
 31
0.0
  0
LINE
  5
7B74
  8
1
 10
3373.6305378057659
 20
1968.2992989360821
 30
0.0
 11
3373.6305378057659
 21
2433.599298936083
 31
0.0
  0
LINE
  5
7B76
  8
1
 10
2964.3305378057662
 20
2177.599298936083
 30
0.0
 11
2964.3305378057639
 21
1738.5992989360909
 31
0.0
  0
LINE
  5
7B77
  8
1
 10
2860.8305378057662
 20
2206.099298936083
 30
0.0
 11
2931.8305378057639
 21
2206.099298936083
 31
0.0
1001
ACAD
1000
ASC_BOUNDS
1002
{
1070
    19
1002
}
  0
LINE
  5
7B78
  8
1
 10
2735.5305378057651
 20
2161.099298936083
 30
0.0
 11
2962.3305378057648
 21
2161.099298936083
 31
0.0
1001
ACAD
1000
ASC_BOUNDS
1002
{
1070
    19
1002
}
  0
LINE
  5
7B79
  8
1
 10
2864.9589551676622
 20
2161.099298936083
 30
0.0
 11
2900.823645586267
 21
2161.099298936083
 31
0.0
1001
ACAD
1000
ASC_BOUNDS
1002
{
1070
    19
1002
}
  0
LINE
  5
7B7A
  8
1
 10
2735.5305378057651
 20
2206.099298936083
 30
0.0
 11
2900.823645586267
 21
2206.099298936083
 31
0.0
1001
ACAD
1000
ASC_BOUNDS
1002
{
1070
    19
1002
}
  0
LINE
  5
7B7B
  8
1
 10
3343.630537805765
 20
1933.599298936083
 30
0.0
 11
3343.630537805765
 21
2177.599298936083
 31
0.0
  0
LINE
  5
7B7C
  8
1
 10
3339.3305378057648
 20
2177.599298936083
 30
0.0
 11
3339.3305378057639
 21
1738.5992989360921
 31
0.0
  0
LINE
  5
7B7D
  8
1
 10
3381.8305378057648
 20
1738.5992989360921
 30
0.0
 11
3381.8305378057648
 21
1663.5992989360921
 31
0.0
  0
LINE
  5
7B7E
  8
1
 10
3343.630537805765
 20
1903.599298936083
 30
0.0
 11
3339.3305378057639
 21
1903.599298936083
 31
0.0
  0
LINE
  5
7B7F
  8
1
 10
3343.630537805765
 20
1903.599298936083
 30
0.0
 11
3343.630537805765
 21
1933.599298936083
 31
0.0
  0
LINE
  5
7B80
  8
1
 10
3343.630537805765
 20
2463.599298936083
 30
0.0
 11
3343.630537805765
 21
2433.599298936083
 31
0.0
  0
LINE
  5
7B81
  8
1
 10
3343.630537805765
 20
2433.599298936083
 30
0.0
 11
3373.6305378057659
 21
2433.599298936083
 31
0.0
  0
LINE
  5
7B82
  8
1
 10
3343.630537805765
 20
2463.599298936083
 30
0.0
 11
3339.3305378057639
 21
2463.599298936083
 31
0.0
  0
POINT
  5
7B83
  8
1
 10
3343.630537805765
 20
2458.599298936083
 30
0.0
  0
LINE
  5
7B84
  8
1
 10
2964.3305378057648
 20
1821.151308128228
 30
0.0
 11
3339.3305378057639
 21
1821.1513081282301
 31
0.0
  0
LINE
  5
7B85
  8
1
 10
655.88113062873526
 20
1749.0992989360859
 30
0.0
 11
655.88113062873697
 21
1926.659770243486
 31
0.0
  0
LINE
  5
7B86
  8
1
 10
1246.2442375132589
 20
2309.930336213281
 30
0.0
 11
627.05531152745868
 21
1900.1847099557151
 31
0.0
  0
LINE
  5
7B87
  8
1
 10
1305.8811306287389
 20
2447.1821100921288
 30
0.0
 11
555.88113062873515
 21
1931.4287060838651
 31
0.0
  0
LINE
  5
7B88
  8
1
 10
1334.582244954363
 20
2046.8793807219911
 30
0.0
 11
679.39527815841666
 21
1799.510841808308
 31
0.0
  0
LINE
  5
7B89
  8
1
 10
2964.3305378057639
 20
2721.599298936083
 30
0.0
 11
3339.3305378057639
 21
2721.599298936083
 31
0.0
1001
ACAD
1000
ASC_BOUNDS
1002
{
1070
    19
1002
}
  0
LINE
  5
7B8A
  8
1
 10
2931.8305378057648
 20
2753.599298936083
 30
0.0
 11
3371.8305378057648
 21
2753.599298936083
 31
0.0
1001
ACAD
1000
ASC_BOUNDS
1002
{
1070
    19
1002
}
  0
LINE
  5
7B8B
  8
1
 10
2931.8305378057648
 20
2753.599298936083
 30
0.0
 11
2931.8305378057639
 21
2177.599298936083
 31
0.0
  0
LINE
  5
7B8C
  8
1
 10
3371.8305378057648
 20
2753.599298936083
 30
0.0
 11
3371.8305378057648
 21
2177.599298936083
 31
0.0
  0
LINE
  5
7B8D
  8
2
 10
3151.8305378057662
 20
2837.8504554860742
 30
0.0
 11
3151.8305378057648
 21
1623.5992989360909
 31
0.0
  0
LINE
  5
7B92
  8
1
 10
1073.8811306287359
 20
2132.0992989360821
 30
0.0
 11
1073.881130628733
 21
1728.599298936083
 31
0.0
  0
LINE
  5
7B93
  8
1
 10
1537.8811306287359
 20
2132.0992989360789
 30
0.0
 11
1537.881130628733
 21
1728.5992989360791
 31
0.0
  0
LINE
  5
7B94
  8
1
 10
1625.8811306287359
 20
2132.099298936077
 30
0.0
 11
985.88113062873617
 21
2132.099298936083
 31
0.0
  0
LINE
  5
7B95
  8
1
 10
985.88113062873708
 20
2167.099298936083
 30
0.0
 11
985.88113062873617
 21
2132.099298936083
 31
0.0
  0
LINE
  5
7B96
  8
1
 10
1625.8811306287371
 20
2167.099298936078
 30
0.0
 11
1625.8811306287359
 21
2132.099298936077
 31
0.0
  0
LINE
  5
7B97
  8
1
 10
1625.8811306287359
 20
2167.099298936078
 30
0.0
 11
985.88113062873708
 21
2167.099298936083
 31
0.0
  0
LINE
  5
7B98
  8
1
 10
1497.8811306287359
 20
2132.0992989360798
 30
0.0
 11
1497.881130628733
 21
1728.59929893608
 31
0.0
  0
LINE
  5
7B99
  8
1
 10
1113.8811306287359
 20
2132.0992989360821
 30
0.0
 11
1113.881130628733
 21
1728.599298936083
 31
0.0
  0
LINE
  5
7B9A
  8
1
 10
1545.881130628738
 20
2308.1253321638578
 30
0.0
 11
1545.881130628733
 21
1728.5992989360791
 31
0.0
  0
LINE
  5
7B9B
  8
1
 10
1305.8811306287389
 20
2447.1821100921288
 30
0.0
 11
1545.881130628738
 21
2308.1253321638578
 31
0.0
  0
LINE
  5
7B9C
  8
1
 10
3381.3305378057648
 20
1960.599298936083
 30
0.0
 11
3381.3305378057639
 21
1738.5992989360921
 31
0.0
  0
LINE
  5
7B9D
  8
1
 10
3339.3305378057639
 20
1968.599298936083
 30
0.0
 11
3373.3305378057648
 21
1968.599298936083
 31
0.0
  0
LINE
  5
7B9E
  8
1
 10
3373.3305378057648
 20
1968.599298936083
 30
0.0
 11
3381.3305378057648
 21
1960.599298936083
 31
0.0
  0
LINE
  5
7B9F
  8
1
 10
2756.8305378057639
 20
1738.5992989360909
 30
0.0
 11
2756.8305378057639
 21
1663.5992989360909
 31
0.0
  0
ARC
  5
7BA4
  8
1
 10
655.88113062873617
 20
1851.5992989360859
 30
0.0
 40
100.8
 50
180.0
 51
239.6066999999999
  0
ARC
  5
7BA5
  8
1
 10
655.88113062873617
 20
1851.5992989360859
 30
0.0
 40
100.8
 50
300.30070000000001
 51
180.0
  0
LINE
  5
7BA6
  8
1
 10
590.88113062873606
 20
1771.5992989360859
 30
0.0
 11
590.88113062873606
 21
1761.5992989360859
 31
0.0
  0
LINE
  5
7BA7
  8
1
 10
580.88113062873617
 20
1771.5992989360859
 30
0.0
 11
580.88113062873617
 21
1761.5992989360859
 31
0.0
  0
LINE
  5
7BA8
  8
1
 10
585.88113062873606
 20
1757.2327989360861
 30
0.0
 11
585.88113062873606
 21
1774.136198936086
 31
0.0
  0
LINE
  5
7BA9
  8
1
 10
567.88113062873617
 20
1761.5992989360859
 30
0.0
 11
567.88113062873617
 21
1769.5992989360859
 31
0.0
  0
LINE
  5
7BAA
  8
1
 10
720.88113062873606
 20
1771.5992989360859
 30
0.0
 11
720.88113062873606
 21
1761.5992989360859
 31
0.0
  0
LINE
  5
7BAB
  8
1
 10
730.88113062873617
 20
1771.5992989360859
 30
0.0
 11
730.88113062873617
 21
1761.5992989360859
 31
0.0
  0
LINE
  5
7BAC
  8
1
 10
725.88113062873617
 20
1757.2327989360861
 30
0.0
 11
725.88113062873617
 21
1774.136198936086
 31
0.0
  0
LINE
  5
7BAD
  8
2
 10
655.88113062873617
 20
1755.615198936086
 30
0.0
 11
655.88113062873617
 21
1960.0603989360859
 31
0.0
  0
LINE
  5
7BAE
  8
1
 10
743.88113062873606
 20
1761.5992989360859
 30
0.0
 11
743.88113062873606
 21
1769.5992989360859
 31
0.0
  0
ARC
  5
7BAF
  8
1
 10
655.88113062873617
 20
1851.5992989360859
 30
0.0
 40
100.8
 50
180.0
 51
239.6066999999999
  0
LINE
  5
7BB0
  8
1
 10
700.7116306287362
 20
1765.5992989360859
 30
0.0
 11
610.75723062873658
 21
1765.5992989360859
 31
0.0
  0
LINE
  5
7BB1
  8
1
 10
706.80523062873635
 20
1764.5992989360859
 30
0.0
 11
604.85013062873622
 21
1764.5992989360859
 31
0.0
  0
LINE
  5
7BB2
  8
1
 10
706.80523062873635
 20
1764.5992989360859
 30
0.0
 11
604.85013062873622
 21
1764.5992989360859
 31
0.0
  0
LINE
  5
7BB3
  8
1
 10
743.88113062873606
 20
1761.5992989360859
 30
0.0
 11
703.88113062873606
 21
1761.5992989360859
 31
0.0
  0
LINE
  5
7BB4
  8
1
 10
703.88113062873606
 20
1764.5720989360859
 30
0.0
 11
703.88113062873606
 21
1761.5992989360859
 31
0.0
  0
LINE
  5
7BB5
  8
1
 10
567.88113062873617
 20
1761.5992989360859
 30
0.0
 11
607.88113062873606
 21
1761.5992989360859
 31
0.0
  0
LINE
  5
7BB6
  8
1
 10
607.88113062873606
 20
1764.530298936086
 30
0.0
 11
607.88113062873606
 21
1761.5992989360859
 31
0.0
  0
LINE
  5
7BB7
  8
2
 10
760.34633062873581
 20
1851.5992989360859
 30
0.0
 11
549.77833062873651
 21
1851.5992989360859
 31
0.0
  0
LINE
  5
7BB8
  8
1
 10
717.20513062873567
 20
1771.5992989360859
 30
0.0
 11
741.88113062873606
 21
1771.5992989360859
 31
0.0
  0
LINE
  5
7BB9
  8
1
 10
738.02763062873601
 20
1793.1819989360861
 30
0.0
 11
743.88113062873606
 21
1769.5992989360859
 31
0.0
  0
ARC
  5
7BBA
  8
1
 10
741.88113062873606
 20
1769.5992989360859
 30
0.0
 40
2.0
 50
0.0
 51
90.0
  0
LINE
  5
7BBB
  8
1
 10
594.59223062873559
 20
1771.5992989360859
 30
0.0
 11
569.88113062873606
 21
1771.5992989360859
 31
0.0
  0
LINE
  5
7BBC
  8
1
 10
573.73453062873614
 20
1793.1819989360861
 30
0.0
 11
567.88113062873617
 21
1769.5992989360859
 31
0.0
  0
ARC
  5
7BBD
  8
1
 10
569.88113062873606
 20
1769.5992989360859
 30
0.0
 40
2.0
 50
90.0
 51
180.0
  0
LINE
  5
7BBE
  8
1
 10
532.16523610392233
 20
1728.599298936088
 30
0.0
 11
543.38113062873515
 21
1763.599298936088
 31
0.0
  0
LINE
  5
7BBF
  8
1
 10
627.47837871224874
 20
1763.5992989360871
 30
0.0
 11
627.47837871224874
 21
1757.302627301176
 31
0.0
  0
LINE
  5
7BC0
  8
1
 10
684.28388254522088
 20
1757.302627301176
 30
0.0
 11
684.28388254522179
 21
1763.5992989360859
 31
0.0
  0
LINE
  5
7BC1
  8
1
 10
768.38113062873526
 20
1763.599298936085
 30
0.0
 11
779.59702515354718
 21
1728.599298936085
 31
0.0
  0
LINE
  5
7BC2
  8
1
 10
779.59702515354718
 20
1728.599298936085
 30
0.0
 11
684.28388254522088
 21
1728.5992989360859
 31
0.0
  0
LINE
  5
7BC3
  8
1
 10
627.47837871224874
 20
1728.5992989360871
 30
0.0
 11
532.16523610392233
 21
1728.599298936088
 31
0.0
  0
LINE
  5
7BC4
  8
1
 10
684.28388254522088
 20
1735.73993371242
 30
0.0
 11
627.47837871224874
 21
1735.7399337124209
 31
0.0
  0
LINE
  5
7BC5
  8
1
 10
627.47837871224874
 20
1757.302627301176
 30
0.0
 11
684.28388254522088
 21
1757.302627301176
 31
0.0
  0
LINE
  5
7BC6
  8
1
 10
684.28388254522088
 20
1728.5992989360859
 30
0.0
 11
684.28388254522088
 21
1735.73993371242
 31
0.0
  0
LINE
  5
7BC7
  8
1
 10
627.47837871224874
 20
1735.7399337124209
 30
0.0
 11
627.47837871224874
 21
1728.5992989360871
 31
0.0
  0
LINE
  5
7BC8
  8
1
 10
684.28388254522179
 20
1763.5992989360859
 30
0.0
 11
768.38113062873526
 21
1763.599298936085
 31
0.0
  0
LINE
  5
7BC9
  8
1
 10
543.38113062873515
 20
1763.599298936088
 30
0.0
 11
627.47837871224874
 21
1763.5992989360871
 31
0.0
  0
LINE
  5
7BCA
  8
1
 10
555.88113062873515
 20
1931.4287060838651
 30
0.0
 11
555.88113062873254
 21
1728.5992989360871
 31
0.0
  0
LINE
  5
7BCB
  8
2
 10
2539.2001776145148
 20
1851.59929893609
 30
0.0
 11
2777.3844887078162
 21
1851.59929893609
 31
0.0
  0
LINE
  5
7BD1
  8
1
 10
2741.180595120522
 20
1888.0992989360909
 30
0.0
 11
2741.1805951205229
 21
1815.0992989360909
 31
0.0
  0
LINE
  5
7BD2
  8
1
 10
2751.1805951205229
 20
1769.5993989360909
 30
0.0
 11
2751.180595120521
 21
1933.5992989360909
 31
0.0
  0
LINE
  5
7BD3
  8
1
 10
2736.180595120522
 20
1863.59929893609
 30
0.0
 11
2686.180595120522
 21
1863.59929893609
 31
0.0
  0
LINE
  5
7BD4
  8
1
 10
2736.180595120522
 20
1839.59929893609
 30
0.0
 11
2686.180595120522
 21
1839.59929893609
 31
0.0
  0
LINE
  5
7BD5
  8
1
 10
2726.180595120522
 20
1866.59929893609
 30
0.0
 11
2686.180595120522
 21
1866.59929893609
 31
0.0
  0
LINE
  5
7BD6
  8
1
 10
2686.180595120522
 20
1839.59929893609
 30
0.0
 11
2686.180595120522
 21
1866.59929893609
 31
0.0
  0
LINE
  5
7BD7
  8
1
 10
2726.180595120522
 20
1863.59929893609
 30
0.0
 11
2726.180595120522
 21
1866.59929893609
 31
0.0
  0
LINE
  5
7BD8
  8
1
 10
2757.3305378057671
 20
1767.5992989360909
 30
0.0
 11
2753.1805951205229
 21
1767.5992989360909
 31
0.0
  0
ARC
  5
7BD9
  8
1
 10
2753.1807951205228
 20
1769.5993989360909
 30
0.0
 40
2.0001000000000002
 50
180.0035000000004
 51
269.99650000000048
  0
LINE
  5
7BDE
  8
1
 10
2741.180595120522
 20
1864.0992989360909
 30
0.0
 11
2736.180595120522
 21
1864.09929893609
 31
0.0
  0
LINE
  5
7BDF
  8
1
 10
2741.180595120522
 20
1839.0992989360909
 30
0.0
 11
2736.180595120522
 21
1839.09929893609
 31
0.0
  0
ARC
  5
7BE0
  8
1
 10
2742.180595120522
 20
1815.0993989360909
 30
0.0
 40
1.0000999999999991
 50
180.0035000000004
 51
270.00000000000051
  0
ARC
  5
7BE1
  8
1
 10
2750.180595120522
 20
1813.0992989360909
 30
0.0
 40
1.0000999999999991
 50
0.0035000000004913
 51
90.000000000000483
  0
LINE
  5
7BE2
  8
1
 10
2742.180595120522
 20
1814.0992989360909
 30
0.0
 11
2750.180595120522
 21
1814.0992989360909
 31
0.0
  0
LINE
  5
7BE3
  8
1
 10
2736.180595120522
 20
1839.09929893609
 30
0.0
 11
2736.180595120522
 21
1864.09929893609
 31
0.0
  0
LINE
  5
7BE4
  8
1
 10
2757.3305378057662
 20
1935.5992989360909
 30
0.0
 11
2753.180595120521
 21
1935.5992989360909
 31
0.0
  0
ARC
  5
7BE5
  8
1
 10
2753.1807951205219
 20
1933.59919893609
 30
0.0
 40
2.0001000000000002
 50
90.0035000000005
 51
179.9965000000004
  0
ARC
  5
7BE6
  8
1
 10
2742.1806951205222
 20
1888.0992989360909
 30
0.0
 40
1.0000999999999991
 50
90.0035000000005
 51
180.0000000000004
  0
ARC
  5
7BE7
  8
1
 10
2750.180595120522
 20
1890.0992989360909
 30
0.0
 40
1.0000999999999991
 50
270.00350000000037
 51
0.0000000000004941
  0
LINE
  5
7BE8
  8
1
 10
2742.180595120522
 20
1889.0992989360909
 30
0.0
 11
2750.180595120522
 21
1889.0992989360909
 31
0.0
  0
LINE
  5
7C13
  8
2
 10
1714.931394967927
 20
3763.713410176741
 30
0.0
 11
840.71621504878385
 21
3763.7134101767392
 31
0.0
  0
LINE
  5
7C14
  8
1
 10
1633.881130628745
 20
3951.2134101767392
 30
0.0
 11
1305.881130628745
 21
3951.2134101767401
 31
0.0
  0
LINE
  5
7C15
  8
1
 10
1445.5811306287451
 20
3317.413410176739
 30
0.0
 11
1166.1811306287441
 21
3317.4134101767399
 31
0.0
  0
LINE
  5
7C16
  8
1
 10
1445.5811306287451
 20
3277.4134101767381
 30
0.0
 11
1166.1811306287441
 21
3277.4134101767409
 31
0.0
  0
LINE
  5
7C17
  8
1
 10
1525.881130628745
 20
3230.4731718272292
 30
0.0
 11
542.88113062874072
 21
3230.4731718272328
 31
0.0
  0
LINE
  5
7C18
  8
1
 10
1665.881130628745
 20
3543.7134101767401
 30
0.0
 11
1633.881130628745
 21
3543.7134101767401
 31
0.0
  0
LINE
  5
7C19
  8
1
 10
1633.881130628745
 20
3576.2134101767379
 30
0.0
 11
1305.8811306287439
 21
3576.2134101767401
 31
0.0
  0
LINE
  5
7C1A
  8
2
 10
655.88113062874254
 20
3629.0004674915008
 30
0.0
 11
655.88113062874038
 21
3246.478995514547
 31
0.0
  0
LINE
  5
7C1B
  8
1
 10
1305.881130628745
 20
3626.9177133761641
 30
0.0
 11
1305.881130628745
 21
3466.4567355750132
 31
0.0
  0
LINE
  5
7C1C
  8
2
 10
1305.881130628745
 20
3237.9303742571478
 30
0.0
 11
1305.881130628745
 21
4007.5896700168551
 31
0.0
1001
ACAD
1000
ASC_BOUNDS
1002
{
1070
    19
1002
}
  0
LINE
  5
7C1D
  8
1
 10
643.88113062874072
 20
3348.0634674915009
 30
0.0
 11
643.88113062874072
 21
3298.0634674915009
 31
0.0
  0
LINE
  5
7C1E
  8
1
 10
667.88113062874072
 20
3348.0634674915009
 30
0.0
 11
667.88113062874072
 21
3298.0634674915009
 31
0.0
  0
LINE
  5
7C20
  8
1
 10
1324.881130628745
 20
3317.4134101767399
 30
0.0
 11
1324.8811306287439
 21
3347.4134101767399
 31
0.0
1001
ACAD
1000
ASC_BOUNDS
1002
{
1070
    19
1002
}
  0
LINE
  5
7C21
  8
1
 10
1286.881130628745
 20
3317.4134101767399
 30
0.0
 11
1286.881130628745
 21
3347.4134101767399
 31
0.0
1001
ACAD
1000
ASC_BOUNDS
1002
{
1070
    19
1002
}
  0
LINE
  5
7C22
  8
1
 10
542.88113062874072
 20
3230.4731718272328
 30
0.0
 11
542.88113062874072
 21
3352.4731718272328
 31
0.0
  0
LINE
  5
7C23
  8
1
 10
643.88113062874072
 20
3298.0634674915009
 30
0.0
 11
670.88113062874072
 21
3298.0634674915009
 31
0.0
  0
LINE
  5
7C24
  8
1
 10
1166.1811306287441
 20
3277.4134101767409
 30
0.0
 11
596.73113062873551
 21
3277.4134101767431
 31
0.0
  0
LINE
  5
7C25
  8
1
 10
1166.1811306287441
 20
3317.4134101767399
 30
0.0
 11
596.73113062873551
 21
3317.4134101767422
 31
0.0
  0
LINE
  5
7C26
  8
1
 10
596.73113062873551
 20
3277.4134101767449
 30
0.0
 11
596.73113062873551
 21
3317.413410176744
 31
0.0
  0
LINE
  5
7C27
  8
1
 10
711.0311306287349
 20
3277.4134101767449
 30
0.0
 11
711.0311306287349
 21
3317.4134101767449
 31
0.0
  0
LINE
  5
7C28
  8
1
 10
670.88113062874072
 20
3338.0634674915009
 30
0.0
 11
670.88113062874072
 21
3298.0634674915009
 31
0.0
  0
LINE
  5
7C29
  8
1
 10
667.88113062874072
 20
3338.0634674915009
 30
0.0
 11
670.88113062874072
 21
3338.0634674915009
 31
0.0
  0
LINE
  5
7C2A
  8
1
 10
1166.1811306287441
 20
3277.4134101767409
 30
0.0
 11
1166.1811306287441
 21
3317.4134101767399
 31
0.0
1001
ACAD
1000
ASC_BOUNDS
1002
{
1070
    19
1002
}
  0
LINE
  5
7C2B
  8
1
 10
643.38113062874072
 20
3348.0634674915009
 30
0.0
 11
668.38113062874072
 21
3348.0634674915009
 31
0.0
  0
LINE
  5
7C2C
  8
1
 10
535.08113062874236
 20
3363.0634674915018
 30
0.0
 11
776.68113062874181
 21
3363.0634674914991
 31
0.0
  0
LINE
  5
7C2D
  8
1
 10
692.38113062874072
 20
3353.0634674915
 30
0.0
 11
619.38113062874072
 21
3353.0634674915
 31
0.0
  0
LINE
  5
7C2E
  8
1
 10
562.88113062874072
 20
3352.4731718272328
 30
0.0
 11
542.88113062874072
 21
3352.4731718272328
 31
0.0
  0
LINE
  5
7C2F
  8
1
 10
618.38113062874072
 20
3354.0634674915009
 30
0.0
 11
618.38113062874072
 21
3362.0634674915009
 31
0.0
  0
ARC
  5
7C30
  8
1
 10
617.38113062874072
 20
3362.0634674915009
 30
0.0
 40
1.0000999999999991
 50
359.99999999999937
 51
89.996499999999514
  0
ARC
  5
7C31
  8
1
 10
619.38123062874183
 20
3354.0634674915009
 30
0.0
 40
1.0000999999999991
 50
179.99999999999949
 51
269.99649999999951
  0
LINE
  5
7C32
  8
1
 10
643.38113062874072
 20
3353.0634674915
 30
0.0
 11
643.38113062874072
 21
3348.0634674915009
 31
0.0
  0
LINE
  5
7C33
  8
1
 10
1328.381130628745
 20
3347.4134101767399
 30
0.0
 11
1328.381130628745
 21
3512.7065179572419
 31
0.0
1001
ACAD
1000
ASC_BOUNDS
1002
{
1070
    19
1002
}
  0
LINE
  5
7C34
  8
1
 10
1283.381130628745
 20
3347.4134101767399
 30
0.0
 11
1283.381130628745
 21
3574.2134101767401
 31
0.0
1001
ACAD
1000
ASC_BOUNDS
1002
{
1070
    19
1002
}
  0
LINE
  5
7C35
  8
1
 10
693.38113062874072
 20
3354.0634674915
 30
0.0
 11
693.38113062874072
 21
3362.0634674915
 31
0.0
  0
ARC
  5
7C36
  8
1
 10
694.38113062874072
 20
3362.0634674915
 30
0.0
 40
1.0000999999999991
 50
89.999999999999474
 51
179.99649999999949
  0
ARC
  5
7C37
  8
1
 10
692.38113062874072
 20
3354.0635674915002
 30
0.0
 40
1.0000999999999991
 50
269.99999999999937
 51
359.99649999999951
  0
LINE
  5
7C38
  8
1
 10
668.38113062874072
 20
3353.0634674915
 30
0.0
 11
668.38113062874072
 21
3348.0634674915009
 31
0.0
  0
LINE
  5
7C39
  8
1
 10
1328.381130628745
 20
3347.4134101767399
 30
0.0
 11
1283.381130628745
 21
3347.4134101767399
 31
0.0
  0
LINE
  5
7C3A
  8
1
 10
1328.381130628745
 20
3472.7134101767401
 30
0.0
 11
1328.381130628745
 21
3574.2134101767401
 31
0.0
1001
ACAD
1000
ASC_BOUNDS
1002
{
1070
    19
1002
}
  0
LINE
  5
7C3B
  8
1
 10
1283.381130628745
 20
3476.841827538638
 30
0.0
 11
1283.381130628745
 21
3512.7065179572419
 31
0.0
1001
ACAD
1000
ASC_BOUNDS
1002
{
1070
    19
1002
}
  0
LINE
  5
7C3C
  8
1
 10
535.08113062874315
 20
3625.0634674915018
 30
0.0
 11
776.68113062874272
 21
3625.0634674915
 31
0.0
  0
ARC
  5
7C3D
  8
1
 10
571.86143062874351
 20
3624.0634674915018
 30
0.0
 40
1.0000999999999991
 50
90.003499999999491
 51
178.84949999999941
  0
LINE
  5
7C3E
  8
1
 10
1305.881130628745
 20
3576.2134101767401
 30
0.0
 11
870.88113062874527
 21
3576.2134101767429
 31
0.0
  0
ARC
  5
7C3F
  8
1
 10
740.09273062874308
 20
3624.0634674915
 30
0.0
 40
1.0
 50
13.50019999999949
 51
89.999999999999474
  0
LINE
  5
7C40
  8
1
 10
1305.881130628745
 20
3951.2134101767401
 30
0.0
 11
870.88113062874527
 21
3951.2134101767379
 31
0.0
  0
LINE
  5
7C41
  8
1
 10
860.88113062875425
 20
3993.7134101767401
 30
0.0
 11
785.88113062875425
 21
3993.7134101767401
 31
0.0
  0
LINE
  5
7C42
  8
1
 10
1665.881130628745
 20
3543.7134101767401
 30
0.0
 11
1665.881130628745
 21
3983.7134101767401
 31
0.0
1001
ACAD
1000
ASC_BOUNDS
1002
{
1070
    19
1002
}
  0
LINE
  5
7C43
  8
1
 10
1525.881130628745
 20
3352.4731718272292
 30
0.0
 11
1525.881130628745
 21
3230.4731718272292
 31
0.0
  0
LINE
  5
7C44
  8
1
 10
1525.8811306287439
 20
3230.4731718272292
 30
0.0
 11
1525.8811306287439
 21
3352.4731718272292
 31
0.0
  0
LINE
  5
7C45
  8
1
 10
1445.5811306287451
 20
3277.4134101767381
 30
0.0
 11
1445.5811306287451
 21
3317.413410176739
 31
0.0
1001
ACAD
1000
ASC_BOUNDS
1002
{
1070
    19
1002
}
  0
LINE
  5
7C46
  8
1
 10
1505.881130628745
 20
3352.4731718272292
 30
0.0
 11
1525.881130628745
 21
3352.4731718272292
 31
0.0
  0
LINE
  5
7C47
  8
1
 10
1633.881130628745
 20
3543.7134101767401
 30
0.0
 11
1633.881130628745
 21
3983.7134101767401
 31
0.0
1001
ACAD
1000
ASC_BOUNDS
1002
{
1070
    19
1002
}
  0
LINE
  5
7C48
  8
1
 10
1665.881130628745
 20
3983.7134101767401
 30
0.0
 11
1633.881130628745
 21
3983.7134101767401
 31
0.0
  0
LINE
  5
7C49
  8
1
 10
870.88113062874527
 20
3576.2134101767429
 30
0.0
 11
870.88113062874527
 21
3951.2134101767392
 31
0.0
1001
ACAD
1000
ASC_BOUNDS
1002
{
1070
    19
1002
}
  0
LINE
  5
7C4A
  8
1
 10
1575.881130628745
 20
3951.2134101767392
 30
0.0
 11
1575.881130628745
 21
3953.7134101767392
 31
0.0
  0
LINE
  5
7C4B
  8
1
 10
1615.881130628746
 20
3951.2134101767392
 30
0.0
 11
1615.881130628746
 21
3993.7134101767379
 31
0.0
  0
LINE
  5
7C4C
  8
1
 10
776.68113062874181
 20
3363.0634674915
 30
0.0
 11
776.68113062874272
 21
3625.0634674915
 31
0.0
  0
LINE
  5
7C4D
  8
1
 10
535.08113062874236
 20
3363.0634674915
 30
0.0
 11
535.08113062874315
 21
3625.0634674915009
 31
0.0
  0
LINE
  5
7C4E
  8
1
 10
776.68113062874181
 20
3408.7134101767451
 30
0.0
 11
1283.381130628745
 21
3408.7134101767419
 31
0.0
  0
LINE
  5
7C4F
  8
1
 10
776.68113062874181
 20
3368.7134101767451
 30
0.0
 11
1283.381130628745
 21
3368.713410176741
 31
0.0
  0
LINE
  5
7C50
  8
1
 10
985.88113062874163
 20
3408.7134101767442
 30
0.0
 11
985.88113062874243
 21
3576.2134101767429
 31
0.0
  0
LINE
  5
7C51
  8
1
 10
1625.8811306287439
 20
3408.7134101767419
 30
0.0
 11
1625.881130628745
 21
3576.213410176741
 31
0.0
  0
LINE
  5
7C52
  8
1
 10
1328.381130628745
 20
3408.7134101767401
 30
0.0
 11
1625.8811306287439
 21
3408.7134101767392
 31
0.0
  0
LINE
  5
7C53
  8
1
 10
1328.381130628745
 20
3368.7134101767401
 30
0.0
 11
1615.8811306287409
 21
3368.7134101767379
 31
0.0
  0
LINE
  5
7C55
  8
4
 10
3700.0
 20
1000.0
 30
0.0
 11
3700.0
 21
600.0
 31
0.0
  0
LINE
  5
7C56
  8
4
 10
2300.0
 20
1000.0
 30
0.0
 11
2300.0
 21
600.0
 31
0.0
  0
LINE
  5
7C57
  8
4
 10
1300.0
 20
1000.0
 30
0.0
 11
1300.0
 21
600.0
 31
0.0
  0
LINE
  5
7C5A
  8
4
 10
1300.0
 20
600.0
 30
0.0
 11
3700.0
 21
600.0
 31
0.0
  0
LINE
  5
7C5B
  8
4
 10
1300.0
 20
800.0
 30
0.0
 11
3700.0
 21
800.0
 31
0.0
  0
TEXT
  5
7C5C
  8
4
 10
1377.0041616938031
 20
863.08605173322564
 30
0.0
 40
100.0
  1
機器名称
  0
TEXT
  5
7C5D
  8
4
 10
1372.516212049595
 20
643.29031346402189
 30
0.0
 40
100.0
  1
機器型番
  0
TEXT
  5
7C5E
  8
4
 10
2355.3574909753288
 20
845.14353791513713
 30
0.0
 40
100.0
  1
ミツヤ厨房用ファン
  0
TEXT
  5
7C5F
  8
4
 10
2373.3089911709608
 20
634.31916855988675
 30
0.0
 40
100.0
  1
MFK#3-1
  0
TEXT
  5
7C61
  8
4
 10
1632.9945486076899
 20
4766.8576826650306
 30
0.0
 40
107.9999999999999
  1
天吊ベット
  0
TEXT
  5
7C62
  8
4
 10
632.33518665889278
 20
5067.7619523985959
 30
0.0
 40
144.0
  1
ベルト駆動式片吸込片持多翼ファン
  0
LINE
  5
7C63
  8
4
 10
500.0
 20
4938.8175085296089
 30
0.0
 11
3700.0
 21
4938.8175085296089
 31
0.0
  0
LINE
  5
7C64
  8
4
 10
500.0
 20
5338.8175085296098
 30
0.0
 11
3700.0
 21
5338.8175085296098
 31
0.0
  0
LINE
  5
7C65
  8
4
 10
1300.0
 20
1000.0
 30
0.0
 11
3700.0
 21
1000.0
 31
0.0
  0
LINE
  5
7C66
  8
4
 10
500.0
 20
5338.8175085296098
 30
0.0
 11
500.0
 21
4938.8175085296089
 31
0.0
  0
TEXT
  5
7C67
  8
4
 10
761.27688412228599
 20
4764.638955092687
 30
0.0
 40
107.9999999999999
  1
右回転右横向
  0
TEXT
  5
7C68
  8
4
 10
2937.9391184985789
 20
5412.1221629906177
 30
0.0
 40
112.0
  1
No.
  0
TEXT
  5
7C69
  8
4
 10
2622.5921252000262
 20
4766.8576826650306
 30
0.0
 40
107.9999999999999
  1
縮尺：1/20
  0
LINE
  5
7C6A
  8
4
 10
3700.0
 20
5338.8175085296098
 30
0.0
 11
3700.0
 21
4938.8175085296089
 31
0.0
  0
LINE
  5
7C6B
  8
4
 10
4200.0
 20
5900.0
 30
0.0
 11
4200.0
 21
5900.0
 31
0.0
  0
LINE
  5
7C6C
  8
4
 10
2881.2348447197292
 20
5362.5271662508021
 30
0.0
 11
2881.2348447197292
 21
5573.3045230995049
 31
0.0
  0
LINE
  5
7C6D
  8
4
 10
2881.2348447197292
 20
5573.3045230995049
 30
0.0
 11
3700.0
 21
5573.3045230995049
 31
0.0
  0
LINE
  5
7C6E
  8
4
 10
3700.0
 20
5573.3045230995049
 30
0.0
 11
3700.0
 21
5362.5271662508021
 31
0.0
  0
LINE
  5
7C6F
  8
4
 10
3700.0
 20
5362.5271662508021
 30
0.0
 11
2881.2348447197292
 21
5362.5271662508021
 31
0.0
  0
LINE
  5
7C70
  8
4
 10
0.0
 20
0.0
 30
0.0
 11
0.0
 21
5900.0
 31
0.0
  0
LINE
  5
7C71
  8
4
 10
0.0
 20
5900.0
 30
0.0
 11
4200.0
 21
5900.0
 31
0.0
  0
LINE
  5
7C72
  8
4
 10
4200.0
 20
5900.0
 30
0.0
 11
4200.0
 21
0.0
 31
0.0
  0
LINE
  5
7C73
  8
4
 10
4200.0
 20
0.0
 30
0.0
 11
0.0
 21
0.0
 31
0.0
  0
DIMENSION
  5
7CC8
  8
3
  2
*D1
 10
1905.1243239974431
 20
2183.599298936077
 30
0.0
 11
1905.1243239974419
 21
2436.3305011403991
 31
0.0
 70
   128
 13
1665.88113062874
 23
2721.599298936078
 33
0.0
 14
1723.195330528675
 24
2183.599298936077
 34
0.0
 50
270.0
1001
ACAD
1000
DSTYLE
1002
{
1070
   287
1070
     3
1070
   287
1070
     3
1070
    40
1040
20.0
1070
   143
1040
0.039
1070
   172
1070
     1
1070
   271
1070
     0
1070
   279
1070
     0
1070
   288
1070
     1
1002
}
  0
DIMENSION
  5
7CD5
  8
3
  2
*D2
 10
1786.7577416456729
 20
2209.599298936078
 30
0.0
 11
1786.7577416456729
 21
2461.9851053571142
 31
0.0
 70
   128
 13
1665.88113062874
 23
2721.599298936078
 33
0.0
 14
1665.8811306287371
 24
2209.599298936078
 34
0.0
 50
270.0
1001
ACAD
1000
DSTYLE
1002
{
1070
   287
1070
     3
1070
   287
1070
     3
1070
    40
1040
20.0
1070
   143
1040
0.039
1070
   172
1070
     1
1070
   271
1070
     0
1070
   279
1070
     0
1070
   288
1070
     1
1002
}
  0
DIMENSION
  5
7CEC
  8
3
  2
*D3
 10
1905.1243239974419
 20
1663.5992989360791
 30
0.0
 11
1855.1243239974419
 21
1923.599298936078
 31
0.0
 70
     0
 13
1723.195330528675
 23
2183.599298936077
 33
0.0
 14
1615.8811306287339
 24
1663.5992989360791
 34
0.0
 50
270.0
1001
ACAD
1000
DSTYLE
1002
{
1070
   287
1070
     4
1070
   287
1070
     4
1070
    40
1040
20.0
1070
    75
1070
     1
1070
   143
1040
0.039
1070
   172
1070
     1
1070
   271
1070
     0
1070
   279
1070
     1
1070
   288
1070
     1
1002
}
  0
DIMENSION
  5
7D8B
  8
3
  2
*D5
 10
1305.8811306287409
 20
2888.8098510110831
 30
0.0
 11
1483.205478733187
 21
2888.8098510110831
 31
0.0
 70
   128
 13
1665.8811306287409
 23
2753.2044818993809
 33
0.0
 14
1305.8811306287409
 24
2826.8920235358901
 34
0.0
1001
ACAD
1000
DSTYLE
1002
{
1070
   287
1070
     3
1070
   287
1070
     3
1070
    40
1040
20.0
1070
   143
1040
0.039
1070
   172
1070
     1
1070
   271
1070
     0
1070
   279
1070
     0
1070
   288
1070
     1
1002
}
  0
DIMENSION
  5
7D97
  8
3
  2
*D6
 10
869.43313982087614
 20
2888.8098510110831
 30
0.0
 11
1087.6571352248091
 21
2938.8098510110831
 31
0.0
 70
     0
 13
1305.8811306287409
 23
2826.8920235358901
 33
0.0
 14
869.43313982087614
 24
2220.5992989360789
 34
0.0
1001
ACAD
1000
DSTYLE
1002
{
1070
   287
1070
     4
1070
   287
1070
     4
1070
    40
1040
20.0
1070
    75
1070
     1
1070
   143
1040
0.039
1070
   172
1070
     1
1070
   271
1070
     0
1070
   279
1070
     1
1070
   288
1070
     1
1002
}
  0
DIMENSION
  5
7DA4
  8
3
  2
*D7
 10
3339.3305378057639
 20
2855.292870272222
 30
0.0
 11
3152.4356551909332
 21
2855.292870272222
 31
0.0
 70
   128
 13
2964.3305378057639
 23
2721.599298936083
 33
0.0
 14
3339.3305378057639
 24
2721.599298936083
 34
0.0
1001
ACAD
1000
DSTYLE
1002
{
1070
   287
1070
     3
1070
   287
1070
     3
1070
    40
1040
20.0
1070
   143
1040
0.039
1070
   172
1070
     1
1070
   271
1070
     0
1070
   279
1070
     0
1070
   288
1070
     1
1002
}
  0
DIMENSION
  5
7DB3
  8
3
  2
*D8
 10
3343.630537805765
 20
2972.8685810210809
 30
0.0
 11
3247.7305378057649
 21
2972.8685810210809
 31
0.0
 70
   128
 13
3151.8305378057662
 23
2924.4992348544029
 33
0.0
 14
3343.630537805765
 24
2463.599298936083
 34
0.0
1001
ACAD
1000
DSTYLE
1002
{
1070
   287
1070
     3
1070
   287
1070
     3
1070
    40
1040
20.0
1070
   143
1040
0.039
1070
   172
1070
     1
1070
   271
1070
     0
1070
   279
1070
     0
1070
   288
1070
     1
1002
}
  0
DIMENSION
  5
7DCC
  8
3
  2
*D9
 10
2618.5902994562539
 20
2972.8685810210809
 30
0.0
 11
2885.2104186310098
 21
3072.8685810210809
 31
0.0
 70
     0
  1
MAX\P560
 13
3151.8305378057662
 23
2924.4992348544029
 33
0.0
 14
2618.5902994562539
 24
2403.5992989360821
 34
0.0
1001
ACAD
1000
DSTYLE
1002
{
1070
   287
1070
     4
1070
   287
1070
     4
1070
    40
1040
20.0
1070
    75
1070
     1
1070
   143
1040
0.039
1070
   172
1070
     1
1070
   271
1070
     0
1070
   279
1070
     1
1070
   288
1070
     1
1002
}
  0
DIMENSION
  5
7DE4
  8
3
  2
*D10
 10
3543.2867566744471
 20
1933.599298936083
 30
0.0
 11
3543.2867566744462
 21
2183.339885117799
 31
0.0
 70
   128
 13
3371.8305378057648
 23
2433.599298936083
 33
0.0
 14
3371.8305378057648
 24
1933.599298936083
 34
0.0
 50
90.0
1001
ACAD
1000
DSTYLE
1002
{
1070
   287
1070
     3
1070
   287
1070
     3
1070
     3
1000
φ<>
1070
    40
1040
20.0
1070
   143
1040
0.039
1070
   172
1070
     1
1070
   271
1070
     0
1070
   279
1070
     0
1070
   288
1070
     1
1002
}
  0
LINE
  5
7E2F
  8
1
 10
1357.5697096087131
 20
2631.8565752421068
 30
0.0
 11
1357.5697096087131
 21
2391.8565752421068
 31
0.0
  0
LINE
  5
7E30
  8
1
 10
1357.5697096087131
 20
2391.8565752421068
 30
0.0
 11
1557.5697096087131
 21
2391.8565752421068
 31
0.0
  0
LINE
  5
7E31
  8
1
 10
1557.5697096087131
 20
2391.8565752421068
 30
0.0
 11
1557.5697096087131
 21
2631.8565752421068
 31
0.0
  0
LINE
  5
7E32
  8
1
 10
1557.5697096087131
 20
2631.8565752421068
 30
0.0
 11
1357.5697096087131
 21
2631.8565752421068
 31
0.0
  0
LINE
  5
7F25
  8
1
 10
2964.3305378057639
 20
2209.599298936083
 30
0.0
 11
3343.630537805765
 21
2209.599298936083
 31
0.0
1001
ACAD
1000
ASC_BOUNDS
1002
{
1070
    19
1002
}
  0
LINE
  5
7F26
  8
1
 10
2931.8305378057639
 20
2177.599298936083
 30
0.0
 11
3371.8305378057648
 21
2177.599298936083
 31
0.0
1001
ACAD
1000
ASC_BOUNDS
1002
{
1070
    19
1002
}
  0
LINE
  5
7F92
  8
1
 10
2566.8305378057648
 20
1623.5992989360909
 30
0.0
 11
3451.8305378057639
 21
1623.5992989360921
 31
0.0
  0
LINE
  5
7F93
  8
1
 10
2566.8305378057648
 20
1663.5992989360909
 30
0.0
 11
2566.8305378057648
 21
1623.5992989360921
 31
0.0
  0
LINE
  5
7F94
  8
1
 10
3451.8305378057648
 20
1663.5992989360921
 30
0.0
 11
3451.8305378057639
 21
1623.5992989360909
 31
0.0
  0
LINE
  5
7F95
  8
1
 10
491.8811306287343
 20
1663.5992989360871
 30
0.0
 11
491.8811306287343
 21
1623.599298936088
 31
0.0
  0
LINE
  5
7F96
  8
1
 10
1619.8811306287339
 20
1663.5992989360791
 30
0.0
 11
1619.8811306287339
 21
1623.5992989360791
 31
0.0
  0
LINE
  5
7F97
  8
1
 10
1539.8811306287339
 20
1663.5992989360791
 30
0.0
 11
1539.8811306287339
 21
1623.5992989360791
 31
0.0
  0
LINE
  5
7F98
  8
1
 10
571.88113062873435
 20
1663.5992989360871
 30
0.0
 11
571.88113062873435
 21
1623.599298936088
 31
0.0
  0
DIMENSION
  5
7FA5
  8
3
  2
*D11
 10
3151.8305378057648
 20
1490.0209072185801
 30
0.0
 11
2859.3305378057648
 21
1540.0209072185801
 31
0.0
 70
     0
 13
2566.8305378057648
 23
1623.5992989360921
 33
0.0
 14
3151.8305378057648
 24
1623.5992989360909
 34
0.0
1001
ACAD
1000
DSTYLE
1002
{
1070
   287
1070
     3
1070
   287
1070
     3
1070
    40
1040
20.0
1070
   143
1040
0.039
1070
   172
1070
     1
1070
   271
1070
     0
1070
   279
1070
     0
1002
}
  0
DIMENSION
  5
7FB2
  8
3
  2
*D12
 10
3451.8305378057639
 20
1490.0209072185801
 30
0.0
 11
3301.8305378057648
 21
1540.0209072185801
 31
0.0
 70
     0
 13
3151.8305378057648
 23
1623.5992989360909
 33
0.0
 14
3451.8305378057639
 24
1623.5992989360921
 34
0.0
1001
ACAD
1000
DSTYLE
1002
{
1070
   287
1070
     3
1070
   287
1070
     3
1070
    40
1040
20.0
1070
   143
1040
0.039
1070
   172
1070
     1
1070
   271
1070
     0
1070
   279
1070
     0
1002
}
  0
DIMENSION
  5
7FBF
  8
3
  2
*D13
 10
1619.8811306287339
 20
1490.0209072185801
 30
0.0
 11
1462.881130628733
 21
1540.0209072185801
 31
0.0
 70
     0
 13
1305.8811306287321
 23
1663.5992989360809
 33
0.0
 14
1619.8811306287339
 24
1623.5992989360791
 34
0.0
1001
ACAD
1000
DSTYLE
1002
{
1070
   287
1070
     3
1070
   287
1070
     3
1070
    40
1040
20.0
1070
   143
1040
0.039
1070
   172
1070
     1
1070
   271
1070
     0
1070
   279
1070
     0
1002
}
  0
DIMENSION
  5
7FCC
  8
3
  2
*D14
 10
1305.8811306287321
 20
1490.0209072185801
 30
0.0
 11
898.88113062873344
 21
1540.0209072185801
 31
0.0
 70
     0
 13
491.8811306287343
 23
1623.599298936088
 33
0.0
 14
1305.8811306287321
 24
1663.5992989360809
 34
0.0
1001
ACAD
1000
DSTYLE
1002
{
1070
   287
1070
     3
1070
   287
1070
     3
1070
    40
1040
20.0
1070
   143
1040
0.039
1070
   172
1070
     1
1070
   271
1070
     0
1070
   279
1070
     0
1002
}
  0
LINE
  5
7FCD
  8
1
 10
1619.881130628746
 20
4063.7134101767401
 30
0.0
 11
1539.881130628746
 21
4063.7134101767392
 31
0.0
  0
LINE
  5
7FCF
  8
1
 10
1619.8811306287409
 20
3178.713410176741
 30
0.0
 11
1539.8811306287409
 21
3178.713410176741
 31
0.0
  0
LINE
  5
7FD0
  8
1
 10
491.88113062874697
 20
4063.7134101767379
 30
0.0
 11
491.8811306287397
 21
3178.7134101767379
 31
0.0
  0
LINE
  5
7FD1
  8
1
 10
1619.881130628746
 20
3951.2134101767392
 30
0.0
 11
1619.881130628746
 21
4063.713410176741
 31
0.0
  0
LINE
  5
7FD2
  8
1
 10
1619.8811306287409
 20
3178.7134101767401
 30
0.0
 11
1619.8811306287409
 21
3408.7134101767379
 31
0.0
  0
LINE
  5
7FD3
  8
1
 10
571.88113062874697
 20
4063.7134101767369
 30
0.0
 11
571.88113062874652
 21
3993.7134101767469
 31
0.0
  0
LINE
  5
7FD4
  8
1
 10
1539.881130628746
 20
3993.7134101767379
 30
0.0
 11
1539.881130628746
 21
4063.713410176741
 31
0.0
  0
LINE
  5
7FD5
  8
1
 10
1539.8811306287409
 20
3178.7134101767401
 30
0.0
 11
1539.8811306287409
 21
3368.7134101767392
 31
0.0
  0
LINE
  5
7FD6
  8
1
 10
571.88113062873981
 20
3178.7134101767379
 30
0.0
 11
491.88113062873958
 21
3178.7134101767379
 31
0.0
  0
LINE
  5
7FD7
  8
1
 10
571.88113062874697
 20
4063.7134101767369
 30
0.0
 11
491.8811306287472
 21
4063.7134101767369
 31
0.0
  0
LINE
  5
7FD8
  8
1
 10
571.88113062874118
 20
3363.0634674915009
 30
0.0
 11
571.88113062873958
 21
3178.7134101767369
 31
0.0
  0
LINE
  5
7FD9
  8
1
 10
571.88113062874606
 20
3953.7134101767469
 30
0.0
 11
571.88113062874345
 21
3625.0634674915018
 31
0.0
  0
DIMENSION
  5
7FE6
  8
3
  2
*D15
 10
1619.881130628746
 20
4187.1261535325357
 30
0.0
 11
1055.881130628746
 21
4237.1261535325348
 31
0.0
 70
     0
 13
491.8811306287472
 23
4063.7134101767369
 33
0.0
 14
1619.881130628746
 24
4063.713410176741
 34
0.0
1001
ACAD
1000
DSTYLE
1002
{
1070
   287
1070
     3
1070
   287
1070
     3
1070
    40
1040
20.0
1070
   143
1040
0.039
1070
   172
1070
     1
1070
   271
1070
     0
1070
   279
1070
     0
1002
}
  0
DIMENSION
  5
7FF3
  8
3
  2
*D16
 10
365.4943783188391
 20
3178.7134101767379
 30
0.0
 11
315.49437831883859
 21
3621.2134101767379
 31
0.0
 70
     0
 13
491.8811306287472
 23
4063.7134101767369
 33
0.0
 14
491.88113062873958
 24
3178.7134101767379
 34
0.0
 50
90.0
1001
ACAD
1000
DSTYLE
1002
{
1070
   287
1070
     3
1070
   287
1070
     3
1070
    40
1040
20.0
1070
   143
1040
0.039
1070
   172
1070
     1
1070
   271
1070
     0
1070
   279
1070
     0
1002
}
  0
ENDSEC
  0
EOF
