  0
SECTION
  2
HEADER
  9
$ACADVER
  1
AC1009
  9
$INSBASE
 10
0.0
 20
0.0
 30
0.0
  9
$EXTMIN
 10
0.0
 20
0.0
 30
0.0
  9
$EXTMAX
 10
4200.0
 20
5900.0
 30
0.0
  9
$LIMMIN
 10
0.0
 20
0.0
  9
$LIMMAX
 10
297.0
 20
210.0
  9
$ORTHOMODE
 70
     0
  9
$REGENMODE
 70
     1
  9
$FILLMODE
 70
     0
  9
$QTEXTMODE
 70
     0
  9
$MIRRTEXT
 70
     1
  9
$DRAGMODE
 70
     2
  9
$LTSCALE
 40
100.0
  9
$OSMODE
 70
    37
  9
$ATTMODE
 70
     1
  9
$TEXTSIZE
 40
180.0
  9
$TRACEWID
 40
0.05
  9
$TEXTSTYLE
  7
STANDARD
  9
$CLAYER
  8
1
  9
$CELTYPE
  6
BYLAYER
  9
$CECOLOR
 62
   256
  9
$DIMSCALE
 40
20.0
  9
$DIMASZ
 40
2.0
  9
$DIMEXO
 40
0.5
  9
$DIMDLI
 40
10.0
  9
$DIMRND
 40
0.0
  9
$DIMDLE
 40
0.0
  9
$DIMEXE
 40
1.0
  9
$DIMTP
 40
1.0
  9
$DIMTM
 40
1.0
  9
$DIMTXT
 40
3.0
  9
$DIMCEN
 40
0.0
  9
$DIMTSZ
 40
0.0
  9
$DIMTOL
 70
     0
  9
$DIMLIM
 70
     0
  9
$DIMTIH
 70
     0
  9
$DIMTOH
 70
     0
  9
$DIMSE1
 70
     0
  9
$DIMSE2
 70
     0
  9
$DIMTAD
 70
     1
  9
$DIMZIN
 70
     8
  9
$DIMBLK
  1

  9
$DIMASO
 70
     1
  9
$DIMSHO
 70
     1
  9
$DIMPOST
  1

  9
$DIMAPOST
  1

  9
$DIMALT
 70
     0
  9
$DIMALTD
 70
     2
  9
$DIMALTF
 40
0.039
  9
$DIMLFAC
 40
1.0
  9
$DIMTOFL
 70
     1
  9
$DIMTVP
 40
0.0
  9
$DIMTIX
 70
     0
  9
$DIMSOXD
 70
     0
  9
$DIMSAH
 70
     1
  9
$DIMBLK1
  1
OPEN
  9
$DIMBLK2
  1
OPEN
  9
$DIMSTYLE
  2
IGA
  9
$DIMCLRD
 70
     0
  9
$DIMCLRE
 70
     0
  9
$DIMCLRT
 70
     0
  9
$DIMTFAC
 40
10.0
  9
$DIMGAP
 40
1.0
  9
$LUNITS
 70
     2
  9
$LUPREC
 70
     3
  9
$SKETCHINC
 40
0.1
  9
$FILLETRAD
 40
50.0
  9
$AUNITS
 70
     0
  9
$AUPREC
 70
     0
  9
$MENU
  1
acad
  9
$ELEVATION
 40
0.0
  9
$PELEVATION
 40
0.0
  9
$THICKNESS
 40
0.0
  9
$LIMCHECK
 70
     0
  9
$BLIPMODE
 70
     0
  9
$CHAMFERA
 40
0.5
  9
$CHAMFERB
 40
0.5
  9
$SKPOLY
 70
     0
  9
$TDCREATE
 40
2452815.5942524299
  9
$TDUPDATE
 40
2454953.8528677998
  9
$TDINDWG
 40
0.0598284144
  9
$TDUSRTIMER
 40
0.0598284144
  9
$USRTIMER
 70
     1
  9
$ANGBASE
 50
0.0
  9
$ANGDIR
 70
     0
  9
$PDMODE
 70
     0
  9
$PDSIZE
 40
0.0
  9
$PLINEWID
 40
0.0
  9
$COORDS
 70
     1
  9
$SPLFRAME
 70
     0
  9
$SPLINETYPE
 70
     6
  9
$SPLINESEGS
 70
     8
  9
$ATTDIA
 70
     0
  9
$ATTREQ
 70
     1
  9
$HANDLING
 70
 10241
  9
$HANDSEED
  5
85C0
  9
$SURFTAB1
 70
     6
  9
$SURFTAB2
 70
     6
  9
$SURFTYPE
 70
     6
  9
$SURFU
 70
     6
  9
$SURFV
 70
     6
  9
$UCSNAME
  2

  9
$UCSORG
 10
0.0
 20
0.0
 30
0.0
  9
$UCSXDIR
 10
1.0
 20
0.0
 30
0.0
  9
$UCSYDIR
 10
0.0
 20
1.0
 30
0.0
  9
$PUCSNAME
  2

  9
$PUCSORG
 10
0.0
 20
0.0
 30
0.0
  9
$PUCSXDIR
 10
1.0
 20
0.0
 30
0.0
  9
$PUCSYDIR
 10
0.0
 20
1.0
 30
0.0
  9
$USERI1
 70
     0
  9
$USERI2
 70
     0
  9
$USERI3
 70
     0
  9
$USERI4
 70
     0
  9
$USERI5
 70
     0
  9
$USERR1
 40
0.0
  9
$USERR2
 40
0.0
  9
$USERR3
 40
0.0
  9
$USERR4
 40
0.0
  9
$USERR5
 40
0.0
  9
$WORLDVIEW
 70
     1
  9
$SHADEDGE
 70
     3
  9
$SHADEDIF
 70
    70
  9
$TILEMODE
 70
     1
  9
$MAXACTVP
 70
    16
  9
$PLIMCHECK
 70
     0
  9
$PEXTMIN
 10
1.0000000000000000E+020
 20
1.0000000000000000E+020
 30
1.0000000000000000E+020
  9
$PEXTMAX
 10
-1.0000000000000000E+020
 20
-1.0000000000000000E+020
 30
-1.0000000000000000E+020
  9
$PLIMMIN
 10
0.0
 20
0.0
  9
$PLIMMAX
 10
12.0
 20
9.0
  9
$UNITMODE
 70
     0
  9
$VISRETAIN
 70
     0
  9
$PLINEGEN
 70
     0
  9
$PSLTSCALE
 70
     1
  0
ENDSEC
  0
SECTION
  2
TABLES
  0
TABLE
  2
VPORT
 70
     2
  0
VPORT
  2
*ACTIVE
 70
     0
 10
0.0
 20
0.0
 11
1.0
 21
1.0
 12
6027.9826464208236
 22
4004.9978160586938
 13
0.0
 23
0.0
 14
10.0
 24
10.0
 15
10.0
 25
10.0
 16
0.0
 26
0.0
 36
1.0
 17
0.0
 27
0.0
 37
0.0
 40
8009.9956321173886
 41
1.5051150895140659
 42
50.0
 43
0.0
 44
0.0
 50
0.0
 51
0.0
 71
     0
 72
   100
 73
     1
 74
     0
 75
     0
 76
     0
 77
     0
 78
     0
  0
ENDTAB
  0
TABLE
  2
LTYPE
 70
     2
  0
LTYPE
  2
CONTINUOUS
 70
     0
  3
Solid line
 72
    65
 73
     0
 40
0.0
  0
LTYPE
  2
CENTER
 70
     0
  3
____ _ ____ _ ____ _ ____ _ ____ _ ____ _ ____ 
 72
    65
 73
     4
 40
2.0
 49
1.25
 49
-0.25
 49
0.25
 49
-0.25
  0
ENDTAB
  0
TABLE
  2
LAYER
 70
     6
  0
LAYER
  2
0
 70
     0
 62
     7
  6
CONTINUOUS
  0
LAYER
  2
3
 70
     0
 62
     2
  6
CONTINUOUS
  0
LAYER
  2
2
 70
     0
 62
     3
  6
CENTER
  0
LAYER
  2
1
 70
     0
 62
     4
  6
CONTINUOUS
  0
LAYER
  2
4
 70
     0
 62
     7
  6
CONTINUOUS
  0
LAYER
  2
DEFPOINTS
 70
     0
 62
     7
  6
CONTINUOUS
  0
ENDTAB
  0
TABLE
  2
STYLE
 70
     1
  0
STYLE
  2
STANDARD
 70
     0
 40
0.0
 41
1.0
 50
0.0
 71
     0
 42
180.0
  3
simplex.shx
  4
extfont.shx
  0
ENDTAB
  0
TABLE
  2
VIEW
 70
     0
  0
ENDTAB
  0
TABLE
  2
UCS
 70
     0
  0
ENDTAB
  0
TABLE
  2
APPID
 70
     1
  0
APPID
  2
ACAD
 70
     0
  0
ENDTAB
  0
TABLE
  2
DIMSTYLE
 70
     1
  0
DIMSTYLE
  2
IGA
 70
     0
  3

  4

  5

  6
OPEN
  7
OPEN
 40
2.0
 41
2.0
 42
0.5
 43
10.0
 44
1.0
 45
0.0
 46
0.0
 47
1.0
 48
1.0
140
3.0
141
0.0
142
0.0
143
0.03937
144
1.0
145
0.0
146
10.0
147
1.0
 71
     0
 72
     0
 73
     0
 74
     0
 75
     0
 76
     0
 77
     1
 78
     8
170
     0
171
     2
172
     0
173
     1
174
     0
175
     0
176
     0
177
     0
178
     0
  0
ENDTAB
  0
ENDSEC
  0
SECTION
  2
BLOCKS
  0
BLOCK
  8
0
  2
$MODEL_SPACE
 70
     0
 10
0.0
 20
0.0
 30
0.0
  3
$MODEL_SPACE
  1

  0
ENDBLK
  5
1B
  8
0
  0
BLOCK
 67
     1
  8
0
  2
$PAPER_SPACE
 70
     0
 10
0.0
 20
0.0
 30
0.0
  3
$PAPER_SPACE
  1

  0
ENDBLK
  5
18
 67
     1
  8
0
  0
BLOCK
  8
0
  2
_OPEN
 70
     0
 10
0.0
 20
0.0
 30
0.0
  3
_OPEN
  1

  0
LINE
  5
7C36
  8
0
  6
BYBLOCK
 62
     0
 10
-1.0
 20
0.1666666666666666
 30
0.0
 11
0.0
 21
0.0
 31
0.0
  0
LINE
  5
7C37
  8
0
  6
BYBLOCK
 62
     0
 10
0.0
 20
0.0
 30
0.0
 11
-1.0
 21
-0.1666666666666666
 31
0.0
  0
LINE
  5
7C38
  8
0
  6
BYBLOCK
 62
     0
 10
0.0
 20
0.0
 30
0.0
 11
-1.0
 21
0.0
 31
0.0
  0
ENDBLK
  5
7C39
  8
0
  0
BLOCK
  8
0
  2
*D1
 70
     1
 10
0.0
 20
0.0
 30
0.0
  3
*D1
  1

  0
LINE
  5
8527
  8
3
 62
     0
 10
620.10361847778495
 20
3793.4213759109289
 30
0.0
 11
620.10361847778495
 21
3973.7278612667778
 31
0.0
  0
LINE
  5
8528
  8
3
 62
     0
 10
1620.103618477784
 20
3793.4213759109298
 30
0.0
 11
1620.103618477784
 21
3973.7278612667778
 31
0.0
  0
LINE
  5
8529
  8
3
 62
     0
 10
660.10361847778495
 20
3953.7278612667769
 30
0.0
 11
1580.103618477784
 21
3953.7278612667769
 31
0.0
  0
INSERT
  5
852A
  8
3
 62
     0
  2
_OPEN
 10
620.10361847778495
 20
3953.7278612667769
 30
0.0
 41
40.0
 42
40.0
 43
40.0
 50
180.0
  0
INSERT
  5
852B
  8
3
 62
     0
  2
_OPEN
 10
1620.103618477784
 20
3953.7278612667769
 30
0.0
 41
40.0
 42
40.0
 43
40.0
  0
TEXT
  8
3
  40
60
  5
85B0
  62
0
  72
0
  71
0
 10
996.616
 20
3897.53
 30
0.000000
  1
1000
  0
POINT
  5
852D
  8
DEFPOINTS
 62
     0
 10
620.10361847778495
 20
3783.4213759109289
 30
0.0
  0
POINT
  5
852E
  8
DEFPOINTS
 62
     0
 10
1620.103618477784
 20
3783.4213759109298
 30
0.0
  0
POINT
  5
852F
  8
DEFPOINTS
 62
     0
 10
1620.103618477784
 20
3953.7278612667769
 30
0.0
  0
ENDBLK
  5
7C67
  8
0
  0
BLOCK
  8
0
  2
*D2
 70
     1
 10
0.0
 20
0.0
 30
0.0
  3
*D2
  1

  0
LINE
  5
8530
  8
3
 62
     0
 10
610.10361847778495
 20
3783.4213759109289
 30
0.0
 11
502.81291980455779
 21
3783.4213759109289
 31
0.0
  0
LINE
  5
8531
  8
3
 62
     0
 10
610.10361847778495
 20
3233.4213759109289
 30
0.0
 11
502.81291980455768
 21
3233.4213759109289
 31
0.0
  0
LINE
  5
8532
  8
3
 62
     0
 10
522.81291980455774
 20
3743.4213759109298
 30
0.0
 11
522.81291980455762
 21
3273.4213759109289
 31
0.0
  0
INSERT
  5
8533
  8
3
 62
     0
  2
_OPEN
 10
522.81291980455774
 20
3783.4213759109289
 30
0.0
 41
40.0
 42
40.0
 43
40.0
 50
90.0
  0
INSERT
  5
8534
  8
3
 62
     0
  2
_OPEN
 10
522.81291980455762
 20
3233.4213759109289
 30
0.0
 41
40.0
 42
40.0
 43
40.0
 50
270.0
  0
TEXT
  8
3
  40
60
  5
85B1
  62
0
  72
0
  71
0
 10
352.813
 20
3426.77
 30
0.000000
  1
550
  0
POINT
  5
8536
  8
DEFPOINTS
 62
     0
 10
620.10361847778495
 20
3783.4213759109289
 30
0.0
  0
POINT
  5
8537
  8
DEFPOINTS
 62
     0
 10
620.10361847778495
 20
3233.4213759109289
 30
0.0
  0
POINT
  5
8538
  8
DEFPOINTS
 62
     0
 10
522.81291980455762
 20
3233.4213759109289
 30
0.0
  0
ENDBLK
  5
7C74
  8
0
  0
BLOCK
  8
0
  2
*D3
 70
     1
 10
0.0
 20
0.0
 30
0.0
  3
*D3
  1

  0
LINE
  5
8539
  8
3
 62
     0
 10
936.10361847778438
 20
2245.1730162464141
 30
0.0
 11
936.10361847778438
 21
2423.1373467155399
 31
0.0
  0
LINE
  5
853A
  8
3
 62
     0
 10
1348.103618477784
 20
2245.1730162464141
 30
0.0
 11
1348.103618477784
 21
2423.1373467155399
 31
0.0
  0
LINE
  5
853B
  8
3
 62
     0
 10
976.10361847778449
 20
2403.1373467155399
 30
0.0
 11
1308.103618477784
 21
2403.1373467155399
 31
0.0
  0
INSERT
  5
853C
  8
3
 62
     0
  2
_OPEN
 10
936.10361847778438
 20
2403.1373467155399
 30
0.0
 41
40.0
 42
40.0
 43
40.0
 50
180.0
  0
INSERT
  5
853D
  8
3
 62
     0
  2
_OPEN
 10
1348.103618477784
 20
2403.1373467155399
 30
0.0
 41
40.0
 42
40.0
 43
40.0
  0
TEXT
  8
3
  40
60
  5
85B2
  62
0
  72
0
  71
0
 10
1024.87
 20
2346.94
 30
0.000000
  1
412
  0
POINT
  5
853F
  8
DEFPOINTS
 62
     0
 10
936.10361847778438
 20
2235.1730162464141
 30
0.0
  0
POINT
  5
8540
  8
DEFPOINTS
 62
     0
 10
1348.103618477784
 20
2235.1730162464141
 30
0.0
  0
POINT
  5
8541
  8
DEFPOINTS
 62
     0
 10
1348.103618477784
 20
2403.1373467155399
 30
0.0
  0
ENDBLK
  5
7E97
  8
0
  0
BLOCK
  8
0
  2
*D4
 70
     1
 10
0.0
 20
0.0
 30
0.0
  3
*D4
  1

  0
LINE
  5
8542
  8
3
 62
     0
 10
936.10361847778438
 20
2245.1730162464141
 30
0.0
 11
936.10361847778438
 21
2549.7117078899332
 31
0.0
  0
LINE
  5
8543
  8
3
 62
     0
 10
1360.103618477784
 20
2273.9789307085448
 30
0.0
 11
1360.103618477784
 21
2549.7117078899332
 31
0.0
  0
LINE
  5
8544
  8
3
 62
     0
 10
976.10361847778449
 20
2529.7117078899332
 30
0.0
 11
1320.103618477784
 21
2529.7117078899332
 31
0.0
  0
INSERT
  5
8545
  8
3
 62
     0
  2
_OPEN
 10
936.10361847778438
 20
2529.7117078899332
 30
0.0
 41
40.0
 42
40.0
 43
40.0
 50
180.0
  0
INSERT
  5
8546
  8
3
 62
     0
  2
_OPEN
 10
1360.103618477784
 20
2529.7117078899332
 30
0.0
 41
40.0
 42
40.0
 43
40.0
  0
TEXT
  8
3
  40
60
  5
85B3
  62
0
  72
0
  71
0
 10
1029.73
 20
2473.51
 30
0.000000
  1
424
  0
POINT
  5
8548
  8
DEFPOINTS
 62
     0
 10
936.10361847778438
 20
2235.1730162464141
 30
0.0
  0
POINT
  5
8549
  8
DEFPOINTS
 62
     0
 10
1360.103618477784
 20
2263.9789307085448
 30
0.0
  0
POINT
  5
854A
  8
DEFPOINTS
 62
     0
 10
1360.103618477784
 20
2529.7117078899332
 30
0.0
  0
ENDBLK
  5
7E8C
  8
0
  0
BLOCK
  8
0
  2
*D5
 70
     1
 10
0.0
 20
0.0
 30
0.0
  3
*D5
  1

  0
LINE
  5
854B
  8
3
 62
     0
 10
1678.9095329399161
 20
1955.1730162464139
 30
0.0
 11
1954.642310121304
 21
1955.1730162464139
 31
0.0
  0
LINE
  5
854C
  8
3
 62
     0
 10
1630.1036184777849
 20
1525.1730162464139
 30
0.0
 11
1954.642310121304
 21
1525.1730162464139
 31
0.0
  0
LINE
  5
854D
  8
3
 62
     0
 10
1934.642310121304
 20
1915.1730162464139
 30
0.0
 11
1934.642310121304
 21
1565.1730162464139
 31
0.0
  0
INSERT
  5
854E
  8
3
 62
     0
  2
_OPEN
 10
1934.642310121304
 20
1955.1730162464139
 30
0.0
 41
40.0
 42
40.0
 43
40.0
 50
90.0
  0
INSERT
  5
854F
  8
3
 62
     0
  2
_OPEN
 10
1934.642310121304
 20
1525.1730162464139
 30
0.0
 41
40.0
 42
40.0
 43
40.0
 50
270.0
  0
TEXT
  8
3
  40
60
  5
85B4
  62
0
  72
0
  71
0
 10
1764.64
 20
1633.97
 30
0.000000
  1
430
  0
POINT
  5
8551
  8
DEFPOINTS
 62
     0
 10
1668.9095329399161
 20
1955.1730162464139
 30
0.0
  0
POINT
  5
8552
  8
DEFPOINTS
 62
     0
 10
1620.103618477784
 20
1525.1730162464139
 30
0.0
  0
POINT
  5
8553
  8
DEFPOINTS
 62
     0
 10
1934.642310121304
 20
1525.1730162464139
 30
0.0
  0
ENDBLK
  5
7EA2
  8
0
  0
BLOCK
  8
0
  2
*D6
 70
     1
 10
0.0
 20
0.0
 30
0.0
  3
*D6
  1

  0
LINE
  5
8444
  8
0
  6
BYBLOCK
 62
     0
 10
1630.1036184777849
 20
1430.1730162464139
 30
0.0
 11
1954.642310121304
 21
1430.1730162464139
 31
0.0
  0
LINE
  5
8445
  8
0
  6
BYBLOCK
 62
     0
 10
1934.642310121304
 20
1565.1730162464139
 30
0.0
 11
1934.642310121304
 21
1605.1730162464139
 31
0.0
  0
LINE
  5
8446
  8
0
  6
BYBLOCK
 62
     0
 10
1934.642310121304
 20
1390.1730162464139
 30
0.0
 11
1934.642310121304
 21
1350.1730162464139
 31
0.0
  0
TEXT
  5
8447
  8
1
 62
     0
 10
2050.3565958355898
 20
1390.4034593844749
 30
0.0
 40
60.0
  1
(95)
 50
90.0
  0
LINE
  5
8448
  8
0
  6
BYBLOCK
 62
     0
 10
1934.642310121304
 20
1525.1730162464139
 30
0.0
 11
1934.642310121304
 21
1430.1730162464139
 31
0.0
  0
INSERT
  5
8449
  8
0
  6
BYBLOCK
 62
     0
  2
_OPEN
 10
1934.642310121304
 20
1525.1730162464139
 30
0.0
 41
40.0
 42
40.0
 43
40.0
 50
270.0
  0
INSERT
  5
844A
  8
0
  6
BYBLOCK
 62
     0
  2
_DOT
 10
1934.642310121304
 20
1430.1730162464139
 30
0.0
 41
40.0
 42
40.0
 43
40.0
 50
90.0
  0
POINT
  5
844B
  8
DEFPOINTS
  6
BYBLOCK
 62
     0
 10
1620.103618477784
 20
1525.1730162464139
 30
0.0
  0
POINT
  5
844C
  8
DEFPOINTS
  6
BYBLOCK
 62
     0
 10
1620.103618477784
 20
1430.1730162464139
 30
0.0
  0
POINT
  5
844D
  8
DEFPOINTS
  6
BYBLOCK
 62
     0
 10
1934.642310121304
 20
1430.1730162464139
 30
0.0
  0
ENDBLK
  5
844E
  8
0
  0
BLOCK
  8
0
  2
*D7
 70
     1
 10
0.0
 20
0.0
 30
0.0
  3
*D7
  1

  0
LINE
  5
8554
  8
3
 62
     0
 10
1630.1036184777849
 20
1430.1730162464139
 30
0.0
 11
1954.642310121304
 21
1430.1730162464139
 31
0.0
  0
LINE
  5
8555
  8
3
 62
     0
 10
1630.1036184777849
 20
1365.1730162464139
 30
0.0
 11
1954.642310121304
 21
1365.1730162464139
 31
0.0
  0
LINE
  5
8556
  8
3
 62
     0
 10
1934.642310121304
 20
1470.1730162464139
 30
0.0
 11
1934.642310121304
 21
1510.1730162464139
 31
0.0
  0
LINE
  5
8557
  8
3
 62
     0
 10
1934.642310121304
 20
1325.1730162464139
 30
0.0
 11
1934.642310121304
 21
1148.030159103557
 31
0.0
  0
LINE
  5
8558
  8
3
 62
     0
 10
1934.642310121304
 20
1430.1730162464139
 30
0.0
 11
1934.642310121304
 21
1365.1730162464139
 31
0.0
  0
INSERT
  5
8559
  8
3
 62
     0
  2
_DOT
 10
1934.642310121304
 20
1430.1730162464139
 30
0.0
 41
40.0
 42
40.0
 43
40.0
 50
270.0
  0
INSERT
  5
855A
  8
3
 62
     0
  2
_OPEN
 10
1934.642310121304
 20
1365.1730162464139
 30
0.0
 41
40.0
 42
40.0
 43
40.0
 50
90.0
  0
TEXT
  8
3
  40
60
  5
85B5
  62
0
  72
0
  71
0
 10
1764.64
 20
1110.40
 30
0.000000
  1
65
  0
POINT
  5
855C
  8
DEFPOINTS
 62
     0
 10
1620.103618477784
 20
1430.1730162464139
 30
0.0
  0
POINT
  5
855D
  8
DEFPOINTS
 62
     0
 10
1620.103618477784
 20
1365.1730162464139
 30
0.0
  0
POINT
  5
855E
  8
DEFPOINTS
 62
     0
 10
1934.642310121304
 20
1365.1730162464139
 30
0.0
  0
ENDBLK
  5
8436
  8
0
  0
BLOCK
  8
0
  2
_DOT
 70
     0
 10
0.0
 20
0.0
 30
0.0
  3
_DOT
  1

  0
LINE
  5
7E78
  8
0
  6
BYBLOCK
 62
     0
 10
0.0
 20
0.0
 30
0.0
 11
-1.0
 21
-0.0000000000000284
 31
0.0
  0
POLYLINE
  5
7E79
  8
0
  6
BYBLOCK
 62
     0
 66
     1
 10
0.0
 20
0.0
 30
0.0
 70
     1
 40
0.1666666666666666
 41
0.1666666666666666
  0
VERTEX
  5
858B
  8
0
  6
BYBLOCK
 62
     0
 10
-0.0833333333333286
 20
-0.0000000000000284
 30
0.0
 42
1.0
  0
VERTEX
  5
858C
  8
0
  6
BYBLOCK
 62
     0
 10
0.0833333333333286
 20
-0.0000000000000284
 30
0.0
 42
1.0
  0
SEQEND
  5
858D
  8
0
  6
BYBLOCK
 62
     0
  0
ENDBLK
  5
7D15
  8
0
  0
BLOCK
  8
0
  2
*D9
 70
     1
 10
0.0
 20
0.0
 30
0.0
  3
*D9
  1

  0
LINE
  5
855F
  8
3
 62
     0
 10
620.10361847778495
 20
1355.1730162464139
 30
0.0
 11
620.10361847778495
 21
1196.2703227725519
 31
0.0
  0
LINE
  5
8560
  8
3
 62
     0
 10
1360.1036184777849
 20
1313.7510668388049
 30
0.0
 11
1360.1036184777849
 21
1196.2703227725519
 31
0.0
  0
LINE
  5
8561
  8
3
 62
     0
 10
660.10361847778495
 20
1216.2703227725519
 30
0.0
 11
1320.1036184777849
 21
1216.2703227725519
 31
0.0
  0
INSERT
  5
8562
  8
3
 62
     0
  2
_OPEN
 10
620.10361847778495
 20
1216.2703227725519
 30
0.0
 41
40.0
 42
40.0
 43
40.0
 50
180.0
  0
INSERT
  5
8563
  8
3
 62
     0
  2
_OPEN
 10
1360.1036184777849
 20
1216.2703227725519
 30
0.0
 41
40.0
 42
40.0
 43
40.0
  0
TEXT
  8
3
  40
60
  5
85B6
  62
0
  72
0
  71
0
 10
857.259
 20
1160.07
 30
0.000000
  1
740
  0
POINT
  5
8565
  8
DEFPOINTS
 62
     0
 10
620.10361847778495
 20
1365.1730162464139
 30
0.0
  0
POINT
  5
8566
  8
DEFPOINTS
 62
     0
 10
1360.1036184777849
 20
1323.7510668388049
 30
0.0
  0
POINT
  5
8567
  8
DEFPOINTS
 62
     0
 10
1360.1036184777849
 20
1216.2703227725519
 30
0.0
  0
ENDBLK
  5
7D5F
  8
0
  0
BLOCK
  8
0
  2
*D10
 70
     1
 10
0.0
 20
0.0
 30
0.0
  3
*D10
  1

  0
LINE
  5
7D7A
  8
0
  6
BYBLOCK
 62
     0
 10
1620.103618477784
 20
1747.9860944396551
 30
0.0
 11
1620.103618477784
 21
1589.0834009657931
 31
0.0
  0
LINE
  5
7D7B
  8
0
  6
BYBLOCK
 62
     0
 10
1400.1036184777849
 20
1609.0834009657931
 30
0.0
 11
1580.103618477784
 21
1609.0834009657931
 31
0.0
  0
TEXT
  5
7D7C
  8
1
 62
     0
 10
1412.9607613349269
 20
1633.2547719696349
 30
0.0
 40
60.0
  1
260
  0
INSERT
  5
7D7D
  8
0
  6
BYBLOCK
 62
     0
  2
_OPEN
 10
1360.1036184777849
 20
1609.0834009657931
 30
0.0
 41
40.0
 42
40.0
 43
40.0
 50
180.0
  0
INSERT
  5
7D7E
  8
0
  6
BYBLOCK
 62
     0
  2
_OPEN
 10
1620.103618477784
 20
1609.0834009657931
 30
0.0
 41
40.0
 42
40.0
 43
40.0
  0
POINT
  5
7D7F
  8
DEFPOINTS
  6
BYBLOCK
 62
     0
 10
1360.1036184777849
 20
1716.564145032047
 30
0.0
  0
POINT
  5
7D80
  8
DEFPOINTS
  6
BYBLOCK
 62
     0
 10
1620.103618477784
 20
1757.9860944396551
 30
0.0
  0
POINT
  5
7D81
  8
DEFPOINTS
  6
BYBLOCK
 62
     0
 10
1620.103618477784
 20
1609.0834009657931
 30
0.0
  0
ENDBLK
  5
7D82
  8
0
  0
BLOCK
  8
0
  2
*D11
 70
     1
 10
0.0
 20
0.0
 30
0.0
  3
*D11
  1

  0
LINE
  5
8568
  8
3
 62
     0
 10
2864.4631095035111
 20
1355.1730162464139
 30
0.0
 11
2864.4631095035111
 21
1215.244729424566
 31
0.0
  0
LINE
  5
8569
  8
3
 62
     0
 10
3222.4631095035111
 20
1318.241952806045
 30
0.0
 11
3222.4631095035111
 21
1215.244729424566
 31
0.0
  0
LINE
  5
856A
  8
3
 62
     0
 10
2904.4631095035111
 20
1235.244729424566
 30
0.0
 11
3182.4631095035111
 21
1235.244729424566
 31
0.0
  0
INSERT
  5
856B
  8
3
 62
     0
  2
_OPEN
 10
2864.4631095035111
 20
1235.244729424566
 30
0.0
 41
40.0
 42
40.0
 43
40.0
 50
180.0
  0
INSERT
  5
856C
  8
3
 62
     0
  2
_OPEN
 10
3222.4631095035111
 20
1235.244729424566
 30
0.0
 41
40.0
 42
40.0
 43
40.0
  0
TEXT
  8
3
  40
60
  5
85B7
  62
0
  72
0
  71
0
 10
2922.35
 20
1179.04
 30
0.000000
  1
358
  0
POINT
  5
856E
  8
DEFPOINTS
 62
     0
 10
2864.4631095035111
 20
1365.1730162464139
 30
0.0
  0
POINT
  5
856F
  8
DEFPOINTS
 62
     0
 10
3222.4631095035111
 20
1328.2419528060441
 30
0.0
  0
POINT
  5
8570
  8
DEFPOINTS
 62
     0
 10
3222.4631095035111
 20
1235.244729424566
 30
0.0
  0
ENDBLK
  5
7D9B
  8
0
  0
BLOCK
  8
0
  2
*D12
 70
     1
 10
0.0
 20
0.0
 30
0.0
  3
*D12
  1

  0
LINE
  5
7DB6
  8
0
  6
BYBLOCK
 62
     0
 10
3414.4631095035111
 20
1428.1730162464139
 30
0.0
 11
3414.4631095035111
 21
1288.244729424566
 31
0.0
  0
LINE
  5
7DB7
  8
0
  6
BYBLOCK
 62
     0
 10
3262.4631095035111
 20
1308.244729424566
 30
0.0
 11
3374.463109503512
 21
1308.244729424566
 31
0.0
  0
TEXT
  5
7DB8
  8
1
 62
     0
 10
3247.03453807494
 20
1324.0471639805851
 30
0.0
 40
60.0
  1
192
  0
INSERT
  5
7DB9
  8
0
  6
BYBLOCK
 62
     0
  2
_OPEN
 10
3222.4631095035111
 20
1308.244729424566
 30
0.0
 41
40.0
 42
40.0
 43
40.0
 50
180.0
  0
INSERT
  5
7DBA
  8
0
  6
BYBLOCK
 62
     0
  2
_OPEN
 10
3414.4631095035111
 20
1308.244729424566
 30
0.0
 41
40.0
 42
40.0
 43
40.0
  0
POINT
  5
7DBB
  8
DEFPOINTS
  6
BYBLOCK
 62
     0
 10
3222.4631095035111
 20
1401.241952806045
 30
0.0
  0
POINT
  5
7DBC
  8
DEFPOINTS
  6
BYBLOCK
 62
     0
 10
3414.4631095035111
 20
1438.1730162464139
 30
0.0
  0
POINT
  5
7DBD
  8
DEFPOINTS
  6
BYBLOCK
 62
     0
 10
3414.4631095035111
 20
1308.244729424566
 30
0.0
  0
ENDBLK
  5
7DBE
  8
0
  0
BLOCK
  8
0
  2
*D13
 70
     1
 10
0.0
 20
0.0
 30
0.0
  3
*D13
  1

  0
LINE
  5
8571
  8
3
 62
     0
 10
3072.4631095035111
 20
2238.1433402467301
 30
0.0
 11
3072.4631095035111
 21
2384.4377439238469
 31
0.0
  0
LINE
  5
8572
  8
3
 62
     0
 10
3372.4631095035111
 20
2243.7793186731751
 30
0.0
 11
3372.4631095035111
 21
2384.4377439238469
 31
0.0
  0
LINE
  5
8573
  8
3
 62
     0
 10
3112.463109503512
 20
2364.4377439238469
 30
0.0
 11
3332.4631095035111
 21
2364.4377439238469
 31
0.0
  0
INSERT
  5
8574
  8
3
 62
     0
  2
_OPEN
 10
3072.4631095035111
 20
2364.4377439238469
 30
0.0
 41
40.0
 42
40.0
 43
40.0
 50
180.0
  0
INSERT
  5
8575
  8
3
 62
     0
  2
_OPEN
 10
3372.4631095035111
 20
2364.4377439238469
 30
0.0
 41
40.0
 42
40.0
 43
40.0
  0
TEXT
  8
3
  40
60
  5
85B8
  62
0
  72
0
  71
0
 10
3115.32
 20
2308.24
 30
0.000000
  1
300
  0
POINT
  5
8577
  8
DEFPOINTS
 62
     0
 10
3072.4631095035111
 20
2228.1433402467301
 30
0.0
  0
POINT
  5
8578
  8
DEFPOINTS
 62
     0
 10
3372.4631095035111
 20
2233.7793186731751
 30
0.0
  0
POINT
  5
8579
  8
DEFPOINTS
 62
     0
 10
3372.4631095035111
 20
2364.4377439238469
 30
0.0
  0
ENDBLK
  5
7F6C
  8
0
  0
BLOCK
  8
0
  2
*D14
 70
     1
 10
0.0
 20
0.0
 30
0.0
  3
*D14
  1

  0
LINE
  5
7F79
  8
0
  6
BYBLOCK
 62
     0
 10
3375.0631074010798
 20
2183.712702722999
 30
0.0
 11
3375.0631074010798
 21
2549.2720127030261
 31
0.0
  0
LINE
  5
7F7A
  8
0
  6
BYBLOCK
 62
     0
 10
3222.4631095035111
 20
2448.457206041247
 30
0.0
 11
3222.4631095035111
 21
2549.2720127030261
 31
0.0
  0
LINE
  5
7F7B
  8
0
  6
BYBLOCK
 62
     0
 10
3335.0631074010798
 20
2529.2720127030261
 30
0.0
 11
3262.4631095035111
 21
2529.2720127030261
 31
0.0
  0
TEXT
  5
7F7C
  8
1
 62
     0
 10
3229.159003672904
 20
2555.6202838748941
 30
0.0
 40
60.0
  1
153
  0
INSERT
  5
7F7D
  8
0
  6
BYBLOCK
 62
     0
  2
_OPEN
 10
3375.0631074010798
 20
2529.2720127030261
 30
0.0
 41
40.0
 42
40.0
 43
40.0
  0
INSERT
  5
7F7E
  8
0
  6
BYBLOCK
 62
     0
  2
_OPEN
 10
3222.4631095035111
 20
2529.2720127030261
 30
0.0
 41
40.0
 42
40.0
 43
40.0
 50
180.0
  0
POINT
  5
7F7F
  8
DEFPOINTS
  6
BYBLOCK
 62
     0
 10
3375.0631074010798
 20
2173.712702722999
 30
0.0
  0
POINT
  5
7F80
  8
DEFPOINTS
  6
BYBLOCK
 62
     0
 10
3222.4631095035111
 20
2438.457206041247
 30
0.0
  0
POINT
  5
7F81
  8
DEFPOINTS
  6
BYBLOCK
 62
     0
 10
3222.4631095035111
 20
2529.2720127030261
 30
0.0
  0
ENDBLK
  5
7F82
  8
0
  0
BLOCK
  8
0
  2
*D15
 70
     1
 10
0.0
 20
0.0
 30
0.0
  3
*D15
  1

  0
LINE
  5
857A
  8
3
 62
     0
 10
2729.4005922901351
 20
2185.1730162464119
 30
0.0
 11
2729.4005922901351
 21
2549.2720127030261
 31
0.0
  0
LINE
  5
857B
  8
3
 62
     0
 10
3182.4631095035111
 20
2529.2720127030261
 30
0.0
 11
2769.4005922901351
 21
2529.2720127030261
 31
0.0
  0
INSERT
  5
857C
  8
3
 62
     0
  2
_OPEN
 10
3222.4631095035111
 20
2529.2720127030261
 30
0.0
 41
40.0
 42
40.0
 43
40.0
  0
INSERT
  5
857D
  8
3
 62
     0
  2
_OPEN
 10
2729.4005922901351
 20
2529.2720127030261
 30
0.0
 41
40.0
 42
40.0
 43
40.0
 50
180.0
  0
TEXT
  8
3
  40
60
  5
85B9
  62
0
  72
0
  71
0
 10
2855.93
 20
2523.07
 30
0.000000
  1
MAX
  0
TEXT
  8
3
  40
60
  5
85BA
  62
0
  72
0
  71
0
 10
2855.93
 20
2445.07
 30
0.000000
  1
500
  0
POINT
  5
857F
  8
DEFPOINTS
 62
     0
 10
3222.4631095035111
 20
2438.457206041247
 30
0.0
  0
POINT
  5
8580
  8
DEFPOINTS
 62
     0
 10
2729.4005922901351
 20
2175.1730162464119
 30
0.0
  0
POINT
  5
8581
  8
DEFPOINTS
 62
     0
 10
2729.4005922901351
 20
2529.2720127030261
 30
0.0
  0
ENDBLK
  5
7EF3
  8
0
  0
BLOCK
  8
0
  2
*D16
 70
     1
 10
0.0
 20
0.0
 30
0.0
  3
*D16
  1

  0
LINE
  5
8582
  8
3
 62
     0
 10
3384.0631095035101
 20
2155.1730162464141
 30
0.0
 11
3558.632966082344
 21
2155.1730162464141
 31
0.0
  0
LINE
  5
8583
  8
3
 62
     0
 10
3385.2631095035058
 20
1755.1730162464139
 30
0.0
 11
3558.632966082344
 21
1755.1730162464139
 31
0.0
  0
LINE
  5
8584
  8
3
 62
     0
 10
3538.632966082343
 20
2115.1730162464132
 30
0.0
 11
3538.632966082343
 21
1795.1730162464139
 31
0.0
  0
INSERT
  5
8585
  8
3
 62
     0
  2
_OPEN
 10
3538.632966082343
 20
2155.1730162464141
 30
0.0
 41
40.0
 42
40.0
 43
40.0
 50
90.0
  0
INSERT
  5
8586
  8
3
 62
     0
  2
_OPEN
 10
3538.632966082343
 20
1755.1730162464139
 30
0.0
 41
40.0
 42
40.0
 43
40.0
 50
270.0
  0
TEXT
  8
3
  40
60
  5
85BB
  62
0
  72
0
  71
0
 10
3368.63
 20
1853.35
 30
0.000000
  1
φ400
  0
POINT
  5
8588
  8
DEFPOINTS
 62
     0
 10
3374.063109503511
 20
2155.1730162464141
 30
0.0
  0
POINT
  5
8589
  8
DEFPOINTS
 62
     0
 10
3375.2631095035072
 20
1755.1730162464139
 30
0.0
  0
POINT
  5
858A
  8
DEFPOINTS
 62
     0
 10
3538.632966082343
 20
1755.1730162464139
 30
0.0
  0
ENDBLK
  5
7E6F
  8
0
  0
BLOCK
  8
0
  2
*D17
 70
     1
 10
0.0
 20
0.0
 30
0.0
  3
*D17
  1

  0
LINE
  5
858E
  8
3
 62
     0
 10
1642.103618477784
 20
1942.173016246413
 30
0.0
 11
1642.103618477784
 21
2549.7117078899332
 31
0.0
  0
LINE
  5
858F
  8
3
 62
     0
 10
1400.103618477784
 20
2529.7117078899332
 30
0.0
 11
1602.103618477784
 21
2529.7117078899332
 31
0.0
  0
INSERT
  5
8590
  8
3
 62
     0
  2
_OPEN
 10
1360.103618477784
 20
2529.7117078899332
 30
0.0
 41
40.0
 42
40.0
 43
40.0
 50
180.0
  0
INSERT
  5
8591
  8
3
 62
     0
  2
_OPEN
 10
1642.103618477784
 20
2529.7117078899332
 30
0.0
 41
40.0
 42
40.0
 43
40.0
  0
TEXT
  8
3
  40
60
  5
85BC
  62
0
  72
0
  71
0
 10
1381.10
 20
2473.51
 30
0.000000
  1
282
  0
POINT
  5
8593
  8
DEFPOINTS
 62
     0
 10
1360.103618477784
 20
2263.9789307085448
 30
0.0
  0
POINT
  5
8594
  8
DEFPOINTS
 62
     0
 10
1642.103618477784
 20
1932.173016246413
 30
0.0
  0
POINT
  5
8595
  8
DEFPOINTS
 62
     0
 10
1642.103618477784
 20
2529.7117078899332
 30
0.0
  0
ENDBLK
  5
7EAD
  8
0
  0
BLOCK
  8
0
  2
*D18
 70
     1
 10
0.0
 20
0.0
 30
0.0
  3
*D18
  1

  0
LINE
  5
8596
  8
3
 62
     0
 10
1385.103618477784
 20
2260.1730162464141
 30
0.0
 11
1954.642310121304
 21
2260.1730162464141
 31
0.0
  0
LINE
  5
8597
  8
3
 62
     0
 10
1934.642310121304
 20
1995.1730162464139
 30
0.0
 11
1934.642310121304
 21
2220.1730162464141
 31
0.0
  0
INSERT
  5
8598
  8
3
 62
     0
  2
_OPEN
 10
1934.642310121304
 20
1955.1730162464139
 30
0.0
 41
40.0
 42
40.0
 43
40.0
 50
270.0
  0
INSERT
  5
8599
  8
3
 62
     0
  2
_OPEN
 10
1934.642310121304
 20
2260.1730162464141
 30
0.0
 41
40.0
 42
40.0
 43
40.0
 50
90.0
  0
TEXT
  8
3
  40
60
  5
85BD
  62
0
  72
0
  71
0
 10
1764.64
 20
2001.47
 30
0.000000
  1
305
  0
POINT
  5
859B
  8
DEFPOINTS
 62
     0
 10
1668.9095329399161
 20
1955.1730162464139
 30
0.0
  0
POINT
  5
859C
  8
DEFPOINTS
 62
     0
 10
1375.103618477784
 20
2260.1730162464141
 30
0.0
  0
POINT
  5
859D
  8
DEFPOINTS
 62
     0
 10
1934.642310121304
 20
2260.1730162464141
 30
0.0
  0
ENDBLK
  5
7EB9
  8
0
  0
BLOCK
  8
0
  2
*D19
 70
     1
 10
0.0
 20
0.0
 30
0.0
  3
*D19
  1

  0
LINE
  5
859E
  8
3
 62
     0
 10
620.10361847778495
 20
1615.1730162464139
 30
0.0
 11
620.10361847778506
 21
2692.5263336184648
 31
0.0
  0
LINE
  5
859F
  8
3
 62
     0
 10
1642.103618477784
 20
1942.173016246413
 30
0.0
 11
1642.103618477784
 21
2692.5263336184648
 31
0.0
  0
LINE
  5
85A0
  8
3
 62
     0
 10
660.10361847778495
 20
2672.5263336184648
 30
0.0
 11
1602.103618477784
 21
2672.5263336184648
 31
0.0
  0
INSERT
  5
85A1
  8
3
 62
     0
  2
_OPEN
 10
620.10361847778506
 20
2672.5263336184648
 30
0.0
 41
40.0
 42
40.0
 43
40.0
 50
180.0
  0
INSERT
  5
85A2
  8
3
 62
     0
  2
_OPEN
 10
1642.103618477784
 20
2672.5263336184648
 30
0.0
 41
40.0
 42
40.0
 43
40.0
  0
TEXT
  8
3
  40
60
  5
85BE
  62
0
  72
0
  71
0
 10
1027.84
 20
2616.33
 30
0.000000
  1
1022
  0
POINT
  5
85A4
  8
DEFPOINTS
 62
     0
 10
620.10361847778495
 20
1605.1730162464139
 30
0.0
  0
POINT
  5
85A5
  8
DEFPOINTS
 62
     0
 10
1642.103618477784
 20
1932.173016246413
 30
0.0
  0
POINT
  5
85A6
  8
DEFPOINTS
 62
     0
 10
1642.103618477784
 20
2672.5263336184648
 30
0.0
  0
ENDBLK
  5
7F16
  8
0
  0
BLOCK
  8
0
  2
*D20
 70
     1
 10
0.0
 20
0.0
 30
0.0
  3
*D20
  1

  0
LINE
  5
85A7
  8
3
 62
     0
 10
1385.103618477784
 20
2260.1730162464141
 30
0.0
 11
2187.2040964588959
 21
2260.1730162464141
 31
0.0
  0
LINE
  5
85A8
  8
3
 62
     0
 10
1630.1036184777849
 20
1365.1730162464139
 30
0.0
 11
2187.2040964588959
 21
1365.1730162464139
 31
0.0
  0
LINE
  5
85A9
  8
3
 62
     0
 10
2167.2040964588959
 20
2220.1730162464141
 30
0.0
 11
2167.2040964588959
 21
1405.1730162464139
 31
0.0
  0
INSERT
  5
85AA
  8
3
 62
     0
  2
_OPEN
 10
2167.2040964588959
 20
2260.1730162464141
 30
0.0
 41
40.0
 42
40.0
 43
40.0
 50
90.0
  0
INSERT
  5
85AB
  8
3
 62
     0
  2
_OPEN
 10
2167.2040964588959
 20
1365.1730162464139
 30
0.0
 41
40.0
 42
40.0
 43
40.0
 50
270.0
  0
TEXT
  8
3
  40
60
  5
85BF
  62
0
  72
0
  71
0
 10
1981.49
 20
1717.48
 30
0.000000
  1
(895)
  0
POINT
  5
85AD
  8
DEFPOINTS
 62
     0
 10
1375.103618477784
 20
2260.1730162464141
 30
0.0
  0
POINT
  5
85AE
  8
DEFPOINTS
 62
     0
 10
1620.103618477784
 20
1365.1730162464139
 30
0.0
  0
POINT
  5
85AF
  8
DEFPOINTS
 62
     0
 10
2167.2040964588959
 20
1365.1730162464139
 30
0.0
  0
ENDBLK
  5
8429
  8
0
  0
ENDSEC
  0
SECTION
  2
ENTITIES
  0
LINE
  5
7B2B
  8
1
 10
3372.4631095035102
 20
1613.1730162464139
 30
0.0
 11
3072.463109503512
 21
1613.1730162464139
 31
0.0
  0
LINE
  5
7B2C
  8
2
 10
2712.7574915026798
 20
1955.1730162464139
 30
0.0
 11
3422.9394634208752
 21
1955.1730162464139
 31
0.0
  0
LINE
  5
7B2D
  8
2
 10
945.81304203719401
 20
1955.1730162464139
 30
0.0
 11
1668.9095329399161
 21
1955.1730162464139
 31
0.0
  0
LINE
  5
7B2E
  8
1
 10
1532.803618477785
 20
1903.6730162464139
 30
0.0
 11
1187.4036184777849
 21
1903.6730162464139
 31
0.0
  0
LINE
  5
7B2F
  8
1
 10
1630.1036184777849
 20
1903.6730162464139
 30
0.0
 11
1090.1036184777849
 21
1903.673016246413
 31
0.0
  0
LINE
  5
7B30
  8
1
 10
1360.1036184777849
 20
1938.673016246413
 30
0.0
 11
1095.103618477784
 21
1938.6730162464139
 31
0.0
  0
ARC
  5
7B31
  8
1
 10
1330.103618477784
 20
1985.173016246413
 30
0.0
 40
372.0
 50
185.03383623402749
 51
270.0
  0
ARC
  5
7B32
  8
1
 10
1330.103618477784
 20
1925.1730162464139
 30
0.0
 40
312.0
 50
270.0
 51
0.6726517169352851
  0
LINE
  5
7B33
  8
1
 10
1182.803618477785
 20
1605.1730162464139
 30
0.0
 11
1182.803618477785
 21
1899.073016246414
 31
0.0
  0
LINE
  5
7B34
  8
1
 10
1145.1036184777849
 20
1605.1730162464139
 30
0.0
 11
1145.1036184777849
 21
1879.6730162464139
 31
0.0
  0
LINE
  5
7B35
  8
1
 10
1090.103618477784
 20
1933.6730162464139
 30
0.0
 11
1095.103618477784
 21
1938.6730162464139
 31
0.0
  0
LINE
  5
7B36
  8
1
 10
1090.1036184777849
 20
1903.673016246413
 30
0.0
 11
1090.103618477784
 21
1933.6730162464139
 31
0.0
  0
LINE
  5
7B37
  8
1
 10
1145.1036184777849
 20
1879.6730162464139
 30
0.0
 11
1165.1036184777849
 21
1899.6730162464139
 31
0.0
  0
ARC
  5
7B38
  8
1
 10
1187.4036184777849
 20
1899.073016246414
 30
0.0
 40
4.5999999999999988
 50
90.0
 51
180.0
  0
LINE
  5
7B39
  8
1
 10
1182.8429167773879
 20
1899.6730162464139
 30
0.0
 11
1165.1036184777849
 21
1899.6730162464139
 31
0.0
  0
LINE
  5
7B3A
  8
2
 10
3222.4631095035111
 20
1328.2419528060441
 30
0.0
 11
3222.4631095035111
 21
2350.6697671519191
 31
0.0
  0
LINE
  5
7B3B
  8
1
 10
2864.463109503512
 20
1899.0730162464131
 30
0.0
 11
2864.4631095035111
 21
1605.1730162464139
 31
0.0
  0
LINE
  5
7B3C
  8
2
 10
1360.1036184777849
 20
2388.3981287251781
 30
0.0
 11
1360.1036184777849
 21
1323.7510668388049
 31
0.0
  0
LINE
  5
7B3D
  8
1
 10
2868.4631095035111
 20
1605.1730162464139
 30
0.0
 11
3065.4631095035111
 21
1605.1730162464139
 31
0.0
  0
LINE
  5
7B3E
  8
1
 10
1144.103618477784
 20
2257.873016246414
 30
0.0
 11
1375.103618477784
 21
2257.873016246414
 31
0.0
  0
LINE
  5
7B3F
  8
1
 10
1144.103618477784
 20
2260.1730162464141
 30
0.0
 11
1375.103618477784
 21
2260.1730162464141
 31
0.0
  0
LINE
  5
7B40
  8
1
 10
1144.103618477784
 20
2235.1730162464141
 30
0.0
 11
1375.1036184777861
 21
2235.1730162464141
 31
0.0
  0
LINE
  5
7B41
  8
1
 10
1625.103618477784
 20
1938.6730162464139
 30
0.0
 11
1360.1036184777849
 21
1938.673016246413
 31
0.0
  0
LINE
  5
7B45
  8
1
 10
1537.4036184777849
 20
1605.1730162464139
 30
0.0
 11
1537.4036184777849
 21
1899.073016246414
 31
0.0
  0
LINE
  5
7B46
  8
1
 10
1575.1036184777849
 20
1605.1730162464139
 30
0.0
 11
1575.1036184777849
 21
1879.6730162464139
 31
0.0
  0
LINE
  5
7B47
  8
1
 10
1383.103618477784
 20
2191.1730162464141
 30
0.0
 11
1348.103618477784
 21
2191.1730162464141
 31
0.0
  0
LINE
  5
7B48
  8
1
 10
1625.103618477784
 20
1938.6730162464139
 30
0.0
 11
1630.1036184777849
 21
1933.6730162464139
 31
0.0
  0
ARC
  5
7B49
  8
1
 10
1383.103618477784
 20
1932.173016246413
 30
0.0
 40
259.0
 50
359.261724969179
 51
90.0
  0
LINE
  5
7B4A
  8
1
 10
1555.1036184777849
 20
1899.6730162464139
 30
0.0
 11
1575.1036184777849
 21
1879.6730162464139
 31
0.0
  0
LINE
  5
7B4B
  8
1
 10
1537.3643201781811
 20
1899.6730162464139
 30
0.0
 11
1555.1036184777849
 21
1899.6730162464139
 31
0.0
  0
ARC
  5
7B4C
  8
1
 10
1532.803618477785
 20
1899.073016246414
 30
0.0
 40
4.5999999999999988
 50
0.0
 51
90.0
  0
LINE
  5
7B4D
  8
1
 10
1630.1036184777849
 20
1903.6730162464139
 30
0.0
 11
1630.1036184777849
 21
1933.6730162464139
 31
0.0
  0
LINE
  5
7B4E
  8
1
 10
1375.1036184777861
 20
2235.1730162464141
 30
0.0
 11
1375.103618477784
 21
2260.1730162464141
 31
0.0
  0
LINE
  5
7B4F
  8
1
 10
960.10361847778449
 20
2190.1730162464141
 30
0.0
 11
960.10361847778449
 21
1970.1730162464139
 31
0.0
  0
LINE
  5
7B50
  8
1
 10
975.10361847778449
 20
2190.1730162464141
 30
0.0
 11
975.10361847778449
 21
1970.1730162464139
 31
0.0
  0
LINE
  5
7B51
  8
1
 10
973.11176004908032
 20
2190.1730162464141
 30
0.0
 11
973.11176004908032
 21
1970.1730162464139
 31
0.0
  0
LINE
  5
7B52
  8
1
 10
936.10361847778438
 20
2235.1730162464141
 30
0.0
 11
959.53840230200728
 21
1952.5322356093041
 31
0.0
  0
LINE
  5
7B53
  8
1
 10
1210.103618477784
 20
2190.1730162464141
 30
0.0
 11
1210.103618477784
 21
1970.1730162464139
 31
0.0
  0
LINE
  5
7B54
  8
1
 10
1210.103618477784
 20
1970.1730162464139
 30
0.0
 11
960.10361847778449
 21
1970.1730162464139
 31
0.0
  0
LINE
  5
7B55
  8
1
 10
1210.103618477784
 20
2190.1730162464141
 30
0.0
 11
960.10361847778449
 21
2190.1730162464141
 31
0.0
  0
LINE
  5
7B56
  8
1
 10
1144.103618477784
 20
2235.1730162464141
 30
0.0
 11
909.10361847778449
 21
2235.1730162464141
 31
0.0
  0
LINE
  5
7B57
  8
1
 10
1144.103618477784
 20
2260.1730162464141
 30
0.0
 11
909.10361847778449
 21
2260.1730162464141
 31
0.0
  0
LINE
  5
7B58
  8
1
 10
1144.103618477784
 20
2257.873016246414
 30
0.0
 11
909.10361847778449
 21
2257.8730162464149
 31
0.0
  0
LINE
  5
7B59
  8
1
 10
909.10361847778449
 20
2235.1730162464141
 30
0.0
 11
909.10361847778449
 21
2260.1730162464141
 31
0.0
  0
LINE
  5
7B5B
  8
1
 10
3070.8631095035139
 20
1601.33998596843
 30
0.0
 11
3070.8631095035112
 21
2235.1730162464132
 31
0.0
  0
LINE
  5
7B5C
  8
1
 10
3072.4631095035111
 20
1601.3399859684309
 30
0.0
 11
3072.4631095035111
 21
2235.1730162464132
 31
0.0
  0
LINE
  5
7B5D
  8
1
 10
3045.463109503512
 20
2260.1730162464141
 30
0.0
 11
3045.463109503512
 21
2235.1730162464132
 31
0.0
  0
LINE
  5
7B5E
  8
1
 10
2869.0631095035119
 20
1903.6730162464139
 30
0.0
 11
3069.6631095035218
 21
1903.6730162464139
 31
0.0
  0
LINE
  5
7B5F
  8
1
 10
2989.4631095035111
 20
1903.6730162464139
 30
0.0
 11
3064.8631095035112
 21
1903.6730162464139
 31
0.0
  0
LINE
  5
7B60
  8
1
 10
2864.4631095035111
 20
1899.0730162464131
 30
0.0
 11
2864.4631095035111
 21
1609.1730162464139
 31
0.0
  0
LINE
  5
7B61
  8
1
 10
2859.4631095035111
 20
1975.173016246413
 30
0.0
 11
3072.463109503512
 21
1975.173016246413
 31
0.0
  0
ARC
  5
7B62
  8
1
 10
2869.0631095035119
 20
1899.0730162464131
 30
0.0
 40
4.5999999999999988
 50
90.0
 51
180.0
  0
LINE
  5
7B63
  8
1
 10
2859.463109503512
 20
1935.173016246413
 30
0.0
 11
3070.863109503513
 21
1935.173016246413
 31
0.0
  0
LINE
  5
7B64
  8
1
 10
2869.0631095035119
 20
1903.673016246413
 30
0.0
 11
2926.963109503512
 21
1903.673016246413
 31
0.0
  0
LINE
  5
7B65
  8
1
 10
2854.4631095035111
 20
1975.173016246413
 30
0.0
 11
2854.4631095035102
 21
1935.173016246413
 31
0.0
  0
LINE
  5
7B66
  8
1
 10
2854.4631095035102
 20
1935.173016246413
 30
0.0
 11
2859.463109503512
 21
1935.173016246413
 31
0.0
  0
LINE
  5
7B67
  8
1
 10
2800.4631095035102
 20
1969.173016246413
 30
0.0
 11
2852.4631095035102
 21
1969.173016246413
 31
0.0
  0
LINE
  5
7B68
  8
1
 10
2800.4631095035102
 20
1941.1730162464139
 30
0.0
 11
2852.4631095035102
 21
1941.1730162464139
 31
0.0
  0
LINE
  5
7B69
  8
1
 10
2799.4631095035102
 20
1968.173016246413
 30
0.0
 11
2799.4631095035102
 21
1942.173016246413
 31
0.0
  0
LINE
  5
7B6A
  8
1
 10
2799.4631095035102
 20
1968.173016246413
 30
0.0
 11
2800.4631095035102
 21
1969.173016246413
 31
0.0
  0
LINE
  5
7B6B
  8
1
 10
2799.4631095035102
 20
1942.173016246413
 30
0.0
 11
2800.4631095035102
 21
1941.1730162464139
 31
0.0
  0
LINE
  5
7B6C
  8
1
 10
2854.4631095035111
 20
1975.173016246413
 30
0.0
 11
2859.4631095035111
 21
1975.173016246413
 31
0.0
  0
ARC
  5
7B6D
  8
1
 10
2852.4631095035102
 20
1971.173016246413
 30
0.0
 40
2.0
 50
270.0
 51
0.0
  0
ARC
  5
7B6E
  8
1
 10
2852.4631095035102
 20
1939.1730162464139
 30
0.0
 40
2.0
 50
0.0
 51
90.0
  0
ARC
  5
7B71
  8
1
 10
3071.6631095035118
 20
1603.173016246413
 30
0.0
 40
1.9999999999997271
 50
246.42182152184569
 51
293.57817847818319
  0
LINE
  5
7B77
  8
2
 10
1698.5754068732849
 20
3591.4213759109298
 30
0.0
 11
1000.427542966012
 21
3591.4213759109298
 31
0.0
  0
LINE
  5
7B78
  8
1
 10
936.10361847778483
 20
3442.6213759109301
 30
0.0
 11
1348.1036184777849
 21
3442.6213759109278
 31
0.0
  0
LINE
  5
7B79
  8
1
 10
1346.1036184777849
 20
3169.1213759109291
 30
0.0
 11
1346.1036184777849
 21
3221.1213759109301
 31
0.0
  0
LINE
  5
7B7A
  8
1
 10
1374.1036184777849
 20
3169.1213759109291
 30
0.0
 11
1374.1036184777849
 21
3221.1213759109301
 31
0.0
  0
LINE
  5
7B7B
  8
1
 10
1373.103618477784
 20
3168.1213759109301
 30
0.0
 11
1347.1036184777849
 21
3168.1213759109301
 31
0.0
  0
LINE
  5
7B7C
  8
1
 10
1347.1036184777849
 20
3168.1213759109301
 30
0.0
 11
1346.1036184777849
 21
3169.1213759109291
 31
0.0
  0
LINE
  5
7B7D
  8
1
 10
1373.103618477784
 20
3168.1213759109301
 30
0.0
 11
1374.1036184777849
 21
3169.1213759109291
 31
0.0
  0
LINE
  5
7B82
  8
1
 10
3414.463109503512
 20
1788.1730162464139
 30
0.0
 11
3414.463109503512
 21
1605.1730162464139
 31
0.0
  0
LINE
  5
7B83
  8
1
 10
3414.463109503512
 20
1605.1730162464139
 30
0.0
 11
3379.063109503511
 21
1605.1730162464139
 31
0.0
  0
LINE
  5
7B84
  8
1
 10
3399.4631095035111
 20
2235.1730162464141
 30
0.0
 11
3399.4631095035111
 21
2260.1730162464141
 31
0.0
  0
LINE
  5
7B85
  8
1
 10
3372.4631095035111
 20
1601.3399859684309
 30
0.0
 11
3372.4631095035111
 21
2235.1730162464141
 31
0.0
  0
LINE
  5
7B86
  8
1
 10
3374.0631095035078
 20
1601.33998596843
 30
0.0
 11
3374.0631095035101
 21
2235.1730162464141
 31
0.0
  0
LINE
  5
7B88
  8
1
 10
3400.0631074010798
 20
1798.1730162464139
 30
0.0
 11
3400.0631074010798
 21
2155.1730162464141
 31
0.0
  0
ARC
  5
7B8C
  8
1
 10
3373.2631095035108
 20
1603.173016246413
 30
0.0
 40
1.9999999999997271
 50
246.42182152180479
 51
293.5781784781251
  0
LINE
  5
7B8F
  8
1
 10
3404.463109503512
 20
1798.1730162464139
 30
0.0
 11
3374.463109503512
 21
1798.1730162464139
 31
0.0
  0
LINE
  5
7B90
  8
1
 10
3414.463109503512
 20
1788.1730162464139
 30
0.0
 11
3404.463109503512
 21
1798.1730162464139
 31
0.0
  0
LINE
  5
7B94
  8
1
 10
3400.0631074010798
 20
2155.1730162464141
 30
0.0
 11
3400.0631074010798
 21
2156.1730162464141
 31
0.0
  0
LINE
  5
7B95
  8
1
 10
3400.0631074010798
 20
2155.1730162464141
 30
0.0
 11
3400.0631074010798
 21
2156.1730162464141
 31
0.0
  0
LINE
  5
7B98
  8
1
 10
936.10361847778495
 20
3740.22137591093
 30
0.0
 11
1348.1036184777849
 21
3740.2213759109281
 31
0.0
  0
CIRCLE
  5
7B9B
  8
1
 10
1360.1036184777849
 20
1955.173016246413
 30
0.0
 40
139.69999999999999
  0
LINE
  5
7B9C
  8
1
 10
2776.340830639645
 20
2094.873016246413
 30
0.0
 11
2776.3408306396468
 21
1815.473016246412
 31
0.0
  0
LINE
  5
7B9D
  8
1
 10
2816.340830639645
 20
2094.873016246413
 30
0.0
 11
2816.3408306396468
 21
1815.473016246412
 31
0.0
  0
LINE
  5
7B9E
  8
1
 10
2729.4005922901351
 20
2175.1730162464141
 30
0.0
 11
2729.400592290136
 21
1615.173016246413
 31
0.0
  0
CIRCLE
  5
7B9F
  8
1
 10
820.10361847778495
 20
1730.1730162464139
 30
0.0
 40
57.149999999999991
  0
LINE
  5
7BA0
  8
1
 10
2776.3408306396468
 20
1815.473016246412
 30
0.0
 11
2776.3408306396468
 21
1671.023016246409
 31
0.0
  0
LINE
  5
7BA1
  8
1
 10
2816.3408306396468
 20
1815.473016246412
 30
0.0
 11
2816.3408306396468
 21
1671.023016246409
 31
0.0
  0
LINE
  5
7BA2
  8
1
 10
2776.3408306396482
 20
1671.023016246409
 30
0.0
 11
2816.3408306396468
 21
1671.023016246409
 31
0.0
  0
LINE
  5
7BA3
  8
1
 10
2729.400592290136
 20
1615.173016246413
 30
0.0
 11
2851.400592290136
 21
1615.173016246413
 31
0.0
  0
LINE
  5
7BA4
  8
1
 10
2851.400592290136
 20
1635.173016246413
 30
0.0
 11
2851.400592290136
 21
1615.173016246413
 31
0.0
  0
LINE
  5
7BA5
  8
1
 10
2776.3408306396468
 20
1815.473016246412
 30
0.0
 11
2816.3408306396468
 21
1815.473016246412
 31
0.0
1001
ACAD
1000
ASC_BOUNDS
1002
{
1070
    19
1002
}
  0
LINE
  5
7BA6
  8
1
 10
2776.3408306396482
 20
1785.323016246409
 30
0.0
 11
2816.3408306396482
 21
1785.323016246409
 31
0.0
  0
LINE
  5
7BA7
  8
1
 10
2851.4005922901351
 20
2175.1730162464141
 30
0.0
 11
2729.4005922901351
 21
2175.1730162464141
 31
0.0
  0
LINE
  5
7BA8
  8
1
 10
2729.4005922901351
 20
2175.1730162464119
 30
0.0
 11
2851.4005922901351
 21
2175.1730162464119
 31
0.0
  0
LINE
  5
7BA9
  8
1
 10
2776.340830639645
 20
2094.873016246413
 30
0.0
 11
2816.340830639645
 21
2094.873016246413
 31
0.0
1001
ACAD
1000
ASC_BOUNDS
1002
{
1070
    19
1002
}
  0
LINE
  5
7BAA
  8
1
 10
2851.4005922901351
 20
2155.1730162464132
 30
0.0
 11
2851.4005922901351
 21
2175.1730162464141
 31
0.0
  0
LINE
  5
7BAB
  8
1
 10
1300.466725362307
 20
2081.5040535236139
 30
0.0
 11
791.27779937650746
 21
1778.7584272660431
 31
0.0
  0
LINE
  5
7BAC
  8
1
 10
1360.1036184777861
 20
2218.7558274024618
 30
0.0
 11
670.10361847778404
 21
1808.002423394192
 31
0.0
  0
LINE
  5
7BAD
  8
1
 10
1388.8047328034099
 20
1818.4530980323241
 30
0.0
 11
843.61776600746555
 21
1678.084559118636
 31
0.0
  0
LINE
  5
7BAE
  8
1
 10
1360.1036184777861
 20
2218.7558274024618
 30
0.0
 11
1550.1036184777861
 21
2079.6990494741908
 31
0.0
  0
ARC
  5
7BAF
  8
1
 10
820.10361847778495
 20
1730.1730162464139
 30
0.0
 40
100.8
 50
180.0
 51
239.6066999999999
  0
ARC
  5
7BB0
  8
1
 10
820.10361847778495
 20
1730.1730162464139
 30
0.0
 40
100.8
 50
300.30070000000001
 51
180.0
  0
LINE
  5
7BB1
  8
1
 10
755.10361847778495
 20
1650.1730162464139
 30
0.0
 11
755.10361847778495
 21
1640.1730162464139
 31
0.0
  0
LINE
  5
7BB2
  8
1
 10
745.10361847778495
 20
1650.1730162464139
 30
0.0
 11
745.10361847778495
 21
1640.1730162464139
 31
0.0
  0
LINE
  5
7BB3
  8
1
 10
750.10361847778495
 20
1635.806516246414
 30
0.0
 11
750.10361847778495
 21
1652.709916246414
 31
0.0
  0
LINE
  5
7BB4
  8
1
 10
732.10361847778495
 20
1640.1730162464139
 30
0.0
 11
732.10361847778495
 21
1648.1730162464139
 31
0.0
  0
LINE
  5
7BB5
  8
1
 10
885.10361847778495
 20
1650.1730162464139
 30
0.0
 11
885.10361847778495
 21
1640.1730162464139
 31
0.0
  0
LINE
  5
7BB6
  8
1
 10
895.10361847778495
 20
1650.1730162464139
 30
0.0
 11
895.10361847778495
 21
1640.1730162464139
 31
0.0
  0
LINE
  5
7BB7
  8
1
 10
890.10361847778495
 20
1635.806516246414
 30
0.0
 11
890.10361847778495
 21
1652.709916246414
 31
0.0
  0
LINE
  5
7BB8
  8
2
 10
820.10361847778495
 20
1581.275555082422
 30
0.0
 11
820.10361847778495
 21
1838.6341162464139
 31
0.0
  0
LINE
  5
7BB9
  8
1
 10
908.10361847778495
 20
1640.1730162464139
 30
0.0
 11
908.10361847778495
 21
1648.1730162464139
 31
0.0
  0
ARC
  5
7BBA
  8
1
 10
820.10361847778495
 20
1730.1730162464139
 30
0.0
 40
100.8
 50
180.0
 51
239.6066999999999
  0
LINE
  5
7BBB
  8
1
 10
871.02771847778513
 20
1643.1730162464139
 30
0.0
 11
769.072618477785
 21
1643.1730162464139
 31
0.0
  0
LINE
  5
7BBC
  8
1
 10
871.02771847778513
 20
1643.1730162464139
 30
0.0
 11
769.072618477785
 21
1643.1730162464139
 31
0.0
  0
LINE
  5
7BBD
  8
1
 10
908.10361847778495
 20
1640.1730162464139
 30
0.0
 11
868.10361847778495
 21
1640.1730162464139
 31
0.0
  0
LINE
  5
7BBE
  8
1
 10
868.10361847778495
 20
1643.1458162464139
 30
0.0
 11
868.10361847778495
 21
1640.1730162464139
 31
0.0
  0
LINE
  5
7BBF
  8
1
 10
732.10361847778495
 20
1640.1730162464139
 30
0.0
 11
772.10361847778495
 21
1640.1730162464139
 31
0.0
  0
LINE
  5
7BC0
  8
1
 10
772.10361847778495
 20
1643.1040162464139
 30
0.0
 11
772.10361847778495
 21
1640.1730162464139
 31
0.0
  0
LINE
  5
7BC1
  8
2
 10
924.56881847778448
 20
1730.1730162464139
 30
0.0
 11
714.00081847778529
 21
1730.1730162464139
 31
0.0
  0
LINE
  5
7BC2
  8
1
 10
881.42761847778445
 20
1650.1730162464139
 30
0.0
 11
906.10361847778495
 21
1650.1730162464139
 31
0.0
  0
LINE
  5
7BC3
  8
1
 10
902.25011847778478
 20
1671.7557162464141
 30
0.0
 11
908.10361847778495
 21
1648.1730162464139
 31
0.0
  0
ARC
  5
7BC4
  8
1
 10
906.10361847778495
 20
1648.1730162464139
 30
0.0
 40
2.0
 50
0.0
 51
90.0
  0
LINE
  5
7BC5
  8
1
 10
758.81471847778437
 20
1650.1730162464139
 30
0.0
 11
734.10361847778495
 21
1650.1730162464139
 31
0.0
  0
LINE
  5
7BC6
  8
1
 10
737.95701847778491
 20
1671.7557162464141
 30
0.0
 11
732.10361847778495
 21
1648.1730162464139
 31
0.0
  0
ARC
  5
7BC7
  8
1
 10
734.10361847778495
 20
1648.1730162464139
 30
0.0
 40
2.0
 50
90.0
 51
180.0
  0
LINE
  5
7BC8
  8
1
 10
696.38772395297099
 20
1605.1730162464139
 30
0.0
 11
707.60361847778404
 21
1640.1730162464139
 31
0.0
  0
LINE
  5
7BC9
  8
1
 10
932.60361847778415
 20
1640.1730162464121
 30
0.0
 11
943.81951300259595
 21
1605.1730162464121
 31
0.0
  0
LINE
  5
7BCA
  8
1
 10
707.60361847778404
 20
1640.173016246415
 30
0.0
 11
932.60361847778415
 21
1640.1730162464121
 31
0.0
  0
LINE
  5
7BCB
  8
1
 10
670.10361847778404
 20
1808.002423394192
 30
0.0
 11
670.1036184777812
 21
1605.1730162464139
 31
0.0
  0
LINE
  5
7BCC
  8
1
 10
620.10361847778495
 20
1525.1730162464139
 30
0.0
 11
1620.103618477784
 21
1525.1730162464139
 31
0.0
  0
LINE
  5
7BCD
  8
1
 10
620.10361847778495
 20
1605.1730162464139
 30
0.0
 11
1620.103618477784
 21
1605.173016246413
 31
0.0
  0
LINE
  5
7BCE
  8
1
 10
1620.103618477784
 20
1605.173016246413
 30
0.0
 11
1620.103618477784
 21
1525.1730162464139
 31
0.0
  0
LINE
  5
7BCF
  8
1
 10
620.10361847778495
 20
1605.1730162464139
 30
0.0
 11
620.10361847778495
 21
1525.1730162464139
 31
0.0
  0
LINE
  5
7BD0
  8
1
 10
620.10361847778495
 20
1430.1730162464139
 30
0.0
 11
1620.103618477784
 21
1430.1730162464139
 31
0.0
  0
LINE
  5
7BD1
  8
1
 10
620.10361847778495
 20
1365.1730162464139
 30
0.0
 11
1620.103618477784
 21
1365.1730162464139
 31
0.0
  0
LINE
  5
7BD2
  8
1
 10
620.10361847778495
 20
1430.1730162464139
 30
0.0
 11
620.10361847778495
 21
1365.1730162464139
 31
0.0
  0
LINE
  5
7BD3
  8
1
 10
1620.103618477784
 20
1430.1730162464139
 30
0.0
 11
1620.103618477784
 21
1365.1730162464139
 31
0.0
  0
LINE
  5
7BD4
  8
1
 10
2864.4631095035111
 20
1525.1730162464139
 30
0.0
 11
3414.463109503512
 21
1525.1730162464139
 31
0.0
  0
LINE
  5
7BD5
  8
1
 10
2864.4631095035111
 20
1605.1730162464139
 30
0.0
 11
3414.463109503512
 21
1605.1730162464139
 31
0.0
  0
LINE
  5
7BD6
  8
1
 10
3414.463109503512
 20
1525.1730162464139
 30
0.0
 11
3414.463109503512
 21
1605.1730162464139
 31
0.0
  0
LINE
  5
7BD7
  8
1
 10
2864.4631095035111
 20
1525.1730162464139
 30
0.0
 11
2864.4631095035111
 21
1605.1730162464139
 31
0.0
  0
LINE
  5
7BD8
  8
1
 10
2864.4631095035111
 20
1430.1730162464139
 30
0.0
 11
3414.463109503512
 21
1430.1730162464139
 31
0.0
  0
LINE
  5
7BD9
  8
1
 10
2864.4631095035111
 20
1365.1730162464139
 30
0.0
 11
3414.463109503512
 21
1365.1730162464139
 31
0.0
  0
LINE
  5
7BDA
  8
1
 10
3414.4631095035111
 20
1365.1730162464139
 30
0.0
 11
3414.4631095035111
 21
1430.1730162464139
 31
0.0
  0
LINE
  5
7BDB
  8
1
 10
2864.4631095035111
 20
1365.1730162464139
 30
0.0
 11
2864.4631095035111
 21
1430.1730162464139
 31
0.0
  0
LINE
  5
7BDC
  8
1
 10
1550.1036184777861
 20
2079.6990494741908
 30
0.0
 11
1550.103618477782
 21
1605.1730162464139
 31
0.0
  0
LINE
  5
7BDD
  8
1
 10
1348.103618477784
 20
2191.1730162464141
 30
0.0
 11
1348.103618477784
 21
2235.1730162464141
 31
0.0
  0
LINE
  5
7BDF
  8
2
 10
1360.1036184777849
 20
3119.0869589341351
 30
0.0
 11
1360.1036184777849
 21
3791.897729828293
 31
0.0
  0
LINE
  5
7BE0
  8
1
 10
1580.103618477784
 20
3098.3588586975538
 30
0.0
 11
707.10361847778529
 21
3098.3588586975552
 31
0.0
  0
LINE
  5
7BE2
  8
1
 10
1220.403618477784
 20
3145.299097047066
 30
0.0
 11
760.95361847777986
 21
3145.2990970470628
 31
0.0
  0
LINE
  5
7BE3
  8
1
 10
1220.403618477784
 20
3185.299097047066
 30
0.0
 11
760.95361847777986
 21
3185.299097047066
 31
0.0
  0
LINE
  5
7BE4
  8
1
 10
707.10361847778529
 20
3098.3588586975552
 30
0.0
 11
707.10361847778529
 21
3220.3588586975538
 31
0.0
  0
LINE
  5
7BE5
  8
1
 10
760.95361847777986
 20
3145.2990970470669
 30
0.0
 11
760.95361847777986
 21
3185.299097047066
 31
0.0
  0
LINE
  5
7BE6
  8
1
 10
875.25361847777947
 20
3145.2990970470669
 30
0.0
 11
875.25361847777947
 21
3185.299097047066
 31
0.0
  0
LINE
  5
7BE7
  8
1
 10
727.10361847778529
 20
3220.3588586975538
 30
0.0
 11
707.10361847778529
 21
3220.3588586975538
 31
0.0
  0
LINE
  5
7BE8
  8
1
 10
1499.8036184777841
 20
3185.2990970470642
 30
0.0
 11
1220.403618477784
 21
3185.299097047066
 31
0.0
  0
LINE
  5
7BE9
  8
1
 10
1499.8036184777841
 20
3145.2990970470628
 30
0.0
 11
1220.403618477784
 21
3145.299097047066
 31
0.0
  0
LINE
  5
7BEA
  8
1
 10
1220.403618477784
 20
3145.299097047066
 30
0.0
 11
1220.403618477784
 21
3185.299097047066
 31
0.0
1001
ACAD
1000
ASC_BOUNDS
1002
{
1070
    19
1002
}
  0
LINE
  5
7BEB
  8
1
 10
1499.8036184777841
 20
3145.2990970470628
 30
0.0
 11
1499.8036184777841
 21
3185.2990970470642
 31
0.0
1001
ACAD
1000
ASC_BOUNDS
1002
{
1070
    19
1002
}
  0
LINE
  5
7BEC
  8
1
 10
1580.103618477784
 20
3098.3588586975538
 30
0.0
 11
1580.103618477784
 21
3220.3588586975538
 31
0.0
  0
LINE
  5
7BED
  8
1
 10
1580.103618477784
 20
3220.3588586975538
 30
0.0
 11
1580.103618477784
 21
3098.3588586975538
 31
0.0
  0
LINE
  5
7BEE
  8
1
 10
1560.1036184777849
 20
3220.3588586975538
 30
0.0
 11
1580.103618477784
 21
3220.3588586975538
 31
0.0
  0
LINE
  5
7BEF
  8
2
 10
820.10361847778495
 20
3532.5570960510022
 30
0.0
 11
820.10361847778495
 21
3112.5597508244082
 31
0.0
  0
LINE
  5
7BF0
  8
1
 10
620.10361847778495
 20
3233.4213759109289
 30
0.0
 11
620.10361847778495
 21
3783.4213759109289
 31
0.0
  0
LINE
  5
7BF2
  8
1
 10
1620.103618477784
 20
3783.4213759109298
 30
0.0
 11
620.10361847778495
 21
3783.4213759109289
 31
0.0
  0
LINE
  5
7BF3
  8
1
 10
660.10361847778495
 20
3273.4213759109289
 30
0.0
 11
660.10361847778495
 21
3743.4213759109298
 31
0.0
  0
LINE
  5
7BF4
  8
1
 10
1620.103618477784
 20
3743.4213759109298
 30
0.0
 11
1373.103618477784
 21
3743.4213759109298
 31
0.0
  0
LINE
  5
7BF9
  8
1
 10
1620.103618477782
 20
3273.4213759109321
 30
0.0
 11
1575.103618477784
 21
3273.4213759109321
 31
0.0
  0
LINE
  5
7BFA
  8
1
 10
1620.103618477782
 20
3233.4213759109311
 30
0.0
 11
900.49388985738358
 21
3233.4213759109289
 31
0.0
  0
LINE
  5
7BFB
  8
2
 10
2878.5857416027702
 20
1730.1730162464139
 30
0.0
 11
2705.9418933055308
 21
1730.1730162464139
 31
0.0
  0
LINE
  5
7BFC
  8
1
 10
921.10361847778495
 20
3403.6745019301688
 30
0.0
 11
921.10361847778495
 21
3435.9722650072422
 31
0.0
  0
LINE
  5
7BFD
  8
1
 10
921.10361847778495
 20
3435.9722650072422
 30
0.0
 11
719.10361847778404
 21
3435.9722650072422
 31
0.0
  0
LINE
  5
7BFE
  8
1
 10
921.10361847778495
 20
3435.9722650072422
 30
0.0
 11
900.10361847778495
 21
3486.1717176986949
 31
0.0
  0
LINE
  5
7BFF
  8
1
 10
900.10361847778495
 20
3486.1717176986949
 30
0.0
 11
740.10361847778495
 21
3486.1717176986949
 31
0.0
  0
LINE
  5
7C00
  8
1
 10
921.10361847778495
 20
3255.841290781193
 30
0.0
 11
900.49388985738335
 21
3248.1225046102022
 31
0.0
  0
LINE
  5
7C01
  8
1
 10
921.10361847778495
 20
3396.4918406020879
 30
0.0
 11
899.55739358321944
 21
3403.6745019301688
 31
0.0
  0
LINE
  5
7C02
  8
1
 10
921.10361847778495
 20
3403.6745019301688
 30
0.0
 11
719.10361847778404
 21
3403.6745019301688
 31
0.0
  0
LINE
  5
7C03
  8
1
 10
832.10361847778449
 20
3159.1717176986949
 30
0.0
 11
832.10361847778495
 21
3209.1717176986958
 31
0.0
  0
LINE
  5
7C04
  8
1
 10
808.10361847778495
 20
3159.1717176986949
 30
0.0
 11
808.10361847778449
 21
3209.1717176986958
 31
0.0
  0
LINE
  5
7C05
  8
1
 10
900.49388985738358
 20
3248.1225046102022
 30
0.0
 11
739.71334709818575
 21
3248.1225046102022
 31
0.0
  0
LINE
  5
7C06
  8
1
 10
739.7133470981862
 20
3222.1458192282521
 30
0.0
 11
820.10361847778347
 21
3222.1458192282521
 31
0.0
  0
LINE
  5
7C07
  8
1
 10
739.71334709818575
 20
3222.1458192282521
 30
0.0
 11
739.71334709818575
 21
3248.1225046102022
 31
0.0
  0
LINE
  5
7C08
  8
1
 10
833.90768959142554
 20
3209.1717176986958
 30
0.0
 11
808.10361847778449
 21
3209.1717176986958
 31
0.0
  0
LINE
  5
7C09
  8
1
 10
900.49388985738358
 20
3222.1458192282521
 30
0.0
 11
820.10361847778529
 21
3222.1458192282521
 31
0.0
  0
LINE
  5
7C0A
  8
1
 10
874.56240248105814
 20
3214.1717176986949
 30
0.0
 11
765.64483447451084
 21
3214.1717176986949
 31
0.0
  0
LINE
  5
7C0B
  8
1
 10
806.29954736414447
 20
3214.1717176986949
 30
0.0
 11
806.29954736414447
 21
3209.1717176986958
 31
0.0
  0
LINE
  5
7C0C
  8
1
 10
765.64483447451084
 20
3214.1717176986949
 30
0.0
 11
765.64483447451084
 21
3222.1458192282521
 31
0.0
  0
LINE
  5
7C0D
  8
1
 10
874.56240248105814
 20
3214.1717176986949
 30
0.0
 11
874.56240248105814
 21
3222.1458192282521
 31
0.0
  0
LINE
  5
7C0E
  8
1
 10
833.90768959142554
 20
3214.1717176986949
 30
0.0
 11
833.90768959142554
 21
3209.1717176986958
 31
0.0
  0
LINE
  5
7C0F
  8
1
 10
900.49388985738358
 20
3222.1458192282521
 30
0.0
 11
900.49388985738358
 21
3248.1225046102022
 31
0.0
  0
LINE
  5
7C10
  8
1
 10
832.10361847778449
 20
3159.1717176986949
 30
0.0
 11
808.10361847778495
 21
3159.1717176986949
 31
0.0
  0
LINE
  5
7C11
  8
1
 10
921.10361847778495
 20
3255.8412907811921
 30
0.0
 11
921.10361847778495
 21
3396.4918406020879
 31
0.0
  0
LINE
  5
7C12
  8
1
 10
719.10361847778404
 20
3255.841290781193
 30
0.0
 11
739.71334709818575
 21
3248.1225046102022
 31
0.0
  0
LINE
  5
7C13
  8
1
 10
719.10361847778404
 20
3255.8412907811921
 30
0.0
 11
719.10361847778404
 21
3396.4918406020879
 31
0.0
  0
LINE
  5
7C14
  8
1
 10
719.10361847778404
 20
3396.4918406020879
 30
0.0
 11
740.64984337234955
 21
3403.6745019301688
 31
0.0
  0
LINE
  5
7C15
  8
1
 10
719.10361847778404
 20
3403.6745019301688
 30
0.0
 11
719.10361847778404
 21
3435.9722650072422
 31
0.0
  0
LINE
  5
7C16
  8
1
 10
719.10361847778404
 20
3435.9722650072422
 30
0.0
 11
740.10361847778404
 21
3486.1717176986949
 31
0.0
  0
LINE
  5
7C3A
  8
4
 10
3700.0
 20
1000.0
 30
0.0
 11
3700.0
 21
600.0
 31
0.0
  0
LINE
  5
7C3B
  8
4
 10
2300.0
 20
1000.0
 30
0.0
 11
2300.0
 21
600.0
 31
0.0
  0
LINE
  5
7C3C
  8
4
 10
1300.0
 20
1000.0
 30
0.0
 11
1300.0
 21
600.0
 31
0.0
  0
LINE
  5
7C3F
  8
4
 10
1300.0
 20
600.0
 30
0.0
 11
3700.0
 21
600.0
 31
0.0
  0
LINE
  5
7C40
  8
4
 10
1300.0
 20
800.0
 30
0.0
 11
3700.0
 21
800.0
 31
0.0
  0
TEXT
  5
7C41
  8
4
 10
1377.0041616938031
 20
863.08605173322564
 30
0.0
 40
100.0
  1
機器名称
  0
TEXT
  5
7C42
  8
4
 10
1372.516212049595
 20
643.29031346402189
 30
0.0
 40
100.0
  1
機器型番
  0
TEXT
  5
7C43
  8
4
 10
2355.3574909753288
 20
845.14353791513713
 30
0.0
 40
100.0
  1
ミツヤ厨房用ファン
  0
TEXT
  5
7C44
  8
4
 10
2373.3089911709608
 20
634.31916855988675
 30
0.0
 40
100.0
  1
MFK#2 1/2-1
  0
TEXT
  5
7C46
  8
4
 10
1544.7060390933359
 20
4766.8576826650306
 30
0.0
 40
107.9999999999999
  1
床置防振ベット
  0
TEXT
  5
7C47
  8
4
 10
632.33518665889278
 20
5067.7619523985959
 30
0.0
 40
144.0
  1
ベルト駆動式片吸込片持多翼ファン
  0
LINE
  5
7C48
  8
4
 10
500.0
 20
4938.8175085296089
 30
0.0
 11
3700.0
 21
4938.8175085296089
 31
0.0
  0
LINE
  5
7C49
  8
4
 10
500.0
 20
5338.8175085296098
 30
0.0
 11
3700.0
 21
5338.8175085296098
 31
0.0
  0
LINE
  5
7C4A
  8
4
 10
1300.0
 20
1000.0
 30
0.0
 11
3700.0
 21
1000.0
 31
0.0
  0
LINE
  5
7C4B
  8
4
 10
500.0
 20
5338.8175085296098
 30
0.0
 11
500.0
 21
4938.8175085296089
 31
0.0
  0
TEXT
  5
7C4C
  8
4
 10
672.98837460793209
 20
4764.638955092687
 30
0.0
 40
107.9999999999999
  1
右回転上向
  0
TEXT
  5
7C4D
  8
4
 10
2937.9391184985789
 20
5412.1221629906177
 30
0.0
 40
112.0
  1
No.
  0
TEXT
  5
7C4E
  8
4
 10
2622.5921252000262
 20
4766.8576826650306
 30
0.0
 40
107.9999999999999
  1
縮尺：1/20
  0
LINE
  5
7C4F
  8
4
 10
3700.0
 20
5338.8175085296098
 30
0.0
 11
3700.0
 21
4938.8175085296089
 31
0.0
  0
LINE
  5
7C50
  8
4
 10
4200.0
 20
5900.0
 30
0.0
 11
4200.0
 21
5900.0
 31
0.0
  0
LINE
  5
7C51
  8
4
 10
2881.2348447197292
 20
5362.5271662508021
 30
0.0
 11
2881.2348447197292
 21
5573.3045230995049
 31
0.0
  0
LINE
  5
7C52
  8
4
 10
2881.2348447197292
 20
5573.3045230995049
 30
0.0
 11
3700.0
 21
5573.3045230995049
 31
0.0
  0
LINE
  5
7C53
  8
4
 10
3700.0
 20
5573.3045230995049
 30
0.0
 11
3700.0
 21
5362.5271662508021
 31
0.0
  0
LINE
  5
7C54
  8
4
 10
3700.0
 20
5362.5271662508021
 30
0.0
 11
2881.2348447197292
 21
5362.5271662508021
 31
0.0
  0
LINE
  5
7C55
  8
4
 10
0.0
 20
0.0
 30
0.0
 11
0.0
 21
5900.0
 31
0.0
  0
LINE
  5
7C56
  8
4
 10
0.0
 20
5900.0
 30
0.0
 11
4200.0
 21
5900.0
 31
0.0
  0
LINE
  5
7C57
  8
4
 10
4200.0
 20
5900.0
 30
0.0
 11
4200.0
 21
0.0
 31
0.0
  0
LINE
  5
7C58
  8
4
 10
4200.0
 20
0.0
 30
0.0
 11
0.0
 21
0.0
 31
0.0
  0
DIMENSION
  5
7C68
  8
3
  2
*D1
 10
1620.103618477784
 20
3953.7278612667769
 30
0.0
 11
1116.616115956007
 21
3953.7278612667769
 31
0.0
 70
   128
 13
620.10361847778495
 23
3783.4213759109289
 33
0.0
 14
1620.103618477784
 24
3783.4213759109298
 34
0.0
1001
ACAD
1000
DSTYLE
1002
{
1070
   287
1070
     3
1070
   287
1070
     3
1070
    40
1040
20.0
1070
   143
1040
0.039
1070
   172
1070
     1
1070
   271
1070
     0
1070
   279
1070
     0
1070
   288
1070
     1
1002
}
  0
DIMENSION
  5
7C75
  8
3
  2
*D2
 10
522.81291980455762
 20
3233.4213759109289
 30
0.0
 11
522.81291980455705
 21
3532.9735663187089
 31
0.0
 70
   128
 13
620.10361847778495
 23
3783.4213759109289
 33
0.0
 14
620.10361847778495
 24
3233.4213759109289
 34
0.0
 50
90.0
1001
ACAD
1000
DSTYLE
1002
{
1070
   287
1070
     3
1070
   287
1070
     3
1070
    40
1040
20.0
1070
   143
1040
0.039
1070
   172
1070
     1
1070
   271
1070
     0
1070
   279
1070
     0
1070
   288
1070
     1
1002
}
  0
DIMENSION
  5
7C9B
  8
3
  2
*D3
 10
1348.103618477784
 20
2403.1373467155399
 30
0.0
 11
1144.866119475766
 21
2403.1373467155399
 31
0.0
 70
   128
 13
936.10361847778438
 23
2235.1730162464141
 33
0.0
 14
1348.103618477784
 24
2235.1730162464141
 34
0.0
 50
180.0
1001
ACAD
1000
DSTYLE
1002
{
1070
   287
1070
     3
1070
   287
1070
     3
1070
    40
1040
20.0
1070
   143
1040
0.039
1070
   172
1070
     1
1070
   271
1070
     0
1070
   279
1070
     0
1070
   288
1070
     1
1002
}
  0
DIMENSION
  5
7CA8
  8
3
  2
*D4
 10
1360.103618477784
 20
2529.7117078899332
 30
0.0
 11
1149.730819787954
 21
2529.7117078899332
 31
0.0
 70
   128
 13
936.10361847778438
 23
2235.1730162464141
 33
0.0
 14
1360.103618477784
 24
2263.9789307085448
 34
0.0
 50
180.0
1001
ACAD
1000
DSTYLE
1002
{
1070
   287
1070
     3
1070
   287
1070
     3
1070
    40
1040
20.0
1070
   143
1040
0.039
1070
   172
1070
     1
1070
   271
1070
     0
1070
   279
1070
     0
1070
   288
1070
     1
1002
}
  0
DIMENSION
  5
7CB4
  8
3
  2
*D5
 10
1934.642310121304
 20
1525.1730162464139
 30
0.0
 11
1884.6423101213029
 21
1740.1730162464139
 31
0.0
 70
     0
 13
1668.9095329399161
 23
1955.1730162464139
 33
0.0
 14
1620.103618477784
 24
1525.1730162464139
 34
0.0
 50
90.0
1001
ACAD
1000
DSTYLE
1002
{
1070
   287
1070
     3
1070
   287
1070
     3
1070
    40
1040
20.0
1070
   143
1040
0.039
1070
   172
1070
     1
1070
   271
1070
     0
1070
   279
1070
     0
1070
   288
1070
     1
1002
}
  0
DIMENSION
  5
7CC4
  8
3
  2
*D6
 10
1934.642310121304
 20
1430.1730162464139
 30
0.0
 11
2030.35659583559
 21
1477.546316527332
 31
0.0
 70
   128
  1
(<>)
 13
1620.103618477784
 23
1525.1730162464139
 33
0.0
 14
1620.103618477784
 24
1430.1730162464139
 34
0.0
 50
90.0
1001
ACAD
1000
DSTYLE
1002
{
1070
   288
1070
     1
1070
   172
1070
     1
1070
    75
1070
     1
1070
    40
1040
20.0
1070
   271
1070
     0
1070
     7
1000
_DOT
1070
   143
1040
0.039
1002
}
  0
DIMENSION
  5
7CD4
  8
3
  2
*D7
 10
1934.642310121304
 20
1365.1730162464139
 30
0.0
 11
1884.6423101213029
 21
1216.6015876749859
 31
0.0
 70
     0
 13
1620.103618477784
 23
1430.1730162464139
 33
0.0
 14
1620.103618477784
 24
1365.1730162464139
 34
0.0
 50
90.0
1001
ACAD
1000
DSTYLE
1002
{
1070
   287
1070
     3
1070
   287
1070
     3
1070
    40
1040
20.0
1070
   143
1040
0.039
1070
   172
1070
     1
1070
   271
1070
     0
1070
   279
1070
     0
1070
   288
1070
     1
1070
     6
1000
DOT
1002
}
  0
DIMENSION
  5
7D60
  8
3
  2
*D9
 10
1360.1036184777849
 20
1216.2703227725519
 30
0.0
 11
977.25874486136308
 21
1216.2703227725519
 31
0.0
 70
   128
 13
620.10361847778495
 23
1365.1730162464139
 33
0.0
 14
1360.1036184777849
 24
1323.7510668388049
 34
0.0
1001
ACAD
1000
DSTYLE
1002
{
1070
   287
1070
     3
1070
   287
1070
     3
1070
    40
1040
20.0
1070
   143
1040
0.039
1070
   172
1070
     1
1070
   271
1070
     0
1070
   279
1070
     0
1070
   288
1070
     1
1002
}
  0
DIMENSION
  5
7D6E
  8
3
  2
*D10
 10
1620.103618477784
 20
1216.2703227725519
 30
0.0
 11
1490.103618477784
 21
1270.441693776394
 31
0.0
 12
0.0
 22
-392.81307819324132
 32
0.0
 70
   128
 13
1360.1036184777849
 23
1323.7510668388049
 33
0.0
 14
1620.103618477784
 24
1365.1730162464139
 34
0.0
1001
ACAD
1000
DSTYLE
1002
{
1070
   288
1070
     1
1070
   172
1070
     1
1070
    75
1070
     1
1070
    40
1040
20.0
1070
   271
1070
     0
1070
   143
1040
0.039
1002
}
  0
DIMENSION
  5
7D9C
  8
3
  2
*D11
 10
3222.4631095035111
 20
1235.244729424566
 30
0.0
 11
3042.3535095802908
 21
1235.244729424566
 31
0.0
 70
   128
 13
2864.4631095035111
 23
1365.1730162464139
 33
0.0
 14
3222.4631095035111
 24
1328.2419528060441
 34
0.0
1001
ACAD
1000
DSTYLE
1002
{
1070
   287
1070
     3
1070
   287
1070
     3
1070
    40
1040
20.0
1070
   143
1040
0.039
1070
   172
1070
     1
1070
   271
1070
     0
1070
   279
1070
     0
1070
   288
1070
     1
1002
}
  0
DIMENSION
  5
7DAA
  8
3
  2
*D12
 10
3414.4631095035111
 20
1235.244729424566
 30
0.0
 11
3318.4631095035111
 21
1281.0471639805851
 31
0.0
 12
0.0
 22
-73.0
 32
0.0
 70
   128
 13
3222.4631095035111
 23
1328.2419528060441
 33
0.0
 14
3414.4631095035111
 24
1365.1730162464139
 34
0.0
1001
ACAD
1000
DSTYLE
1002
{
1070
   288
1070
     1
1070
   172
1070
     1
1070
    75
1070
     1
1070
    40
1040
20.0
1070
   271
1070
     0
1070
   143
1040
0.039
1002
}
  0
DIMENSION
  5
7DCB
  8
3
  2
*D13
 10
3372.4631095035111
 20
2364.4377439238469
 30
0.0
 11
3235.3202523606542
 21
2364.4377439238469
 31
0.0
 70
   128
 13
3072.4631095035111
 23
2228.1433402467301
 33
0.0
 14
3372.4631095035111
 24
2233.7793186731751
 34
0.0
1001
ACAD
1000
DSTYLE
1002
{
1070
   287
1070
     3
1070
   287
1070
     3
1070
    40
1040
20.0
1070
   143
1040
0.039
1070
   172
1070
     1
1070
   271
1070
     0
1070
   279
1070
     0
1070
   288
1070
     1
1002
}
  0
DIMENSION
  5
7DE4
  8
3
  2
*D14
 10
3222.4631095035111
 20
2529.2720127030261
 30
0.0
 11
3300.5875751014751
 21
2585.6202838748941
 31
0.0
 70
   128
 13
3375.0631074010798
 23
2173.712702722999
 33
0.0
 14
3222.4631095035111
 24
2438.457206041247
 34
0.0
1001
ACAD
1000
DSTYLE
1002
{
1070
   288
1070
     1
1070
   172
1070
     1
1070
    40
1040
20.0
1070
   271
1070
     0
1070
   143
1040
0.039
1002
}
  0
DIMENSION
  5
7E12
  8
3
  2
*D15
 10
2729.4005922901351
 20
2529.2720127030261
 30
0.0
 11
2975.9318508968231
 21
2629.2720127030261
 31
0.0
 70
     0
  1
MAX\P500
 13
3222.4631095035111
 23
2438.457206041247
 33
0.0
 14
2729.4005922901351
 24
2175.1730162464119
 34
0.0
1001
ACAD
1000
DSTYLE
1002
{
1070
   287
1070
     4
1070
   287
1070
     4
1070
    40
1040
20.0
1070
    75
1070
     1
1070
   143
1040
0.039
1070
   172
1070
     1
1070
   271
1070
     0
1070
   279
1070
     1
1070
   288
1070
     1
1002
}
  0
LINE
  5
7E54
  8
1
 10
719.10361847778393
 20
3273.4213759109289
 30
0.0
 11
620.10361847778495
 21
3273.4213759109289
 31
0.0
  0
LINE
  5
7E55
  8
1
 10
739.71334709818575
 20
3233.4213759109289
 30
0.0
 11
620.10361847778495
 21
3233.4213759109289
 31
0.0
  0
DIMENSION
  5
7E64
  8
3
  2
*D16
 10
3538.632966082343
 20
1755.1730162464139
 30
0.0
 11
3538.6329660823421
 21
1959.554907007956
 31
0.0
 70
   128
 13
3374.063109503511
 23
2155.1730162464141
 33
0.0
 14
3375.2631095035072
 24
1755.1730162464139
 34
0.0
 50
90.0
1001
ACAD
1000
DSTYLE
1002
{
1070
   287
1070
     3
1070
   287
1070
     3
1070
     3
1000
φ<>
1070
    40
1040
20.0
1070
   143
1040
0.039
1070
   172
1070
     1
1070
   271
1070
     0
1070
   279
1070
     0
1070
   288
1070
     1
1002
}
  0
DIMENSION
  5
7EAE
  8
3
  2
*D17
 10
1642.103618477784
 20
2529.7117078899332
 30
0.0
 11
1501.103618477784
 21
2579.7117078899319
 31
0.0
 70
     0
 13
1360.103618477784
 23
2263.9789307085448
 33
0.0
 14
1642.103618477784
 24
1932.173016246413
 34
0.0
1001
ACAD
1000
DSTYLE
1002
{
1070
   287
1070
     4
1070
   287
1070
     4
1070
    40
1040
20.0
1070
    75
1070
     1
1070
   143
1040
0.039
1070
   172
1070
     1
1070
   271
1070
     0
1070
   279
1070
     1
1070
   288
1070
     1
1002
}
  0
DIMENSION
  5
7EBA
  8
3
  2
*D18
 10
1934.642310121304
 20
2260.1730162464141
 30
0.0
 11
1884.6423101213029
 21
2107.6730162464141
 31
0.0
 70
     0
 13
1668.9095329399161
 23
1955.1730162464139
 33
0.0
 14
1375.103618477784
 24
2260.1730162464141
 34
0.0
 50
90.0
1001
ACAD
1000
DSTYLE
1002
{
1070
   287
1070
     4
1070
   287
1070
     4
1070
    40
1040
20.0
1070
    75
1070
     1
1070
   143
1040
0.039
1070
   172
1070
     1
1070
   271
1070
     0
1070
   279
1070
     1
1070
   288
1070
     1
1002
}
  0
LINE
  5
7EBB
  8
1
 10
3045.463109503512
 20
2260.1730162464141
 30
0.0
 11
3399.463109503512
 21
2260.1730162464141
 31
0.0
  0
LINE
  5
7EBC
  8
1
 10
3045.463109503512
 20
2235.1730162464132
 30
0.0
 11
3399.4631095035111
 21
2235.1730162464141
 31
0.0
  0
LINE
  5
7ED7
  8
1
 10
1642.1036184777849
 20
3442.6213759109278
 30
0.0
 11
1642.103618477784
 21
3740.2213759109259
 31
0.0
  0
LINE
  5
7ED8
  8
1
 10
936.10361847778495
 20
3442.621375910931
 30
0.0
 11
936.10361847778495
 21
3740.22137591093
 31
0.0
  0
LINE
  5
7ED9
  8
1
 10
1620.103618477784
 20
3783.4213759109298
 30
0.0
 11
1620.103618477784
 21
3740.2213759109259
 31
0.0
  0
LINE
  5
7EDB
  8
1
 10
911.60361847778506
 20
3765.22137591093
 30
0.0
 11
1373.103618477784
 21
3765.2213759109281
 31
0.0
  0
LINE
  5
7EDC
  8
1
 10
911.60361847778506
 20
3417.621375910931
 30
0.0
 11
1373.103618477784
 21
3417.6213759109291
 31
0.0
  0
LINE
  5
7EDF
  8
1
 10
1348.1036184777849
 20
3442.621375910931
 30
0.0
 11
1348.1036184777849
 21
3740.22137591093
 31
0.0
  0
LINE
  5
7EE0
  8
1
 10
911.10361847778495
 20
3418.121375910931
 30
0.0
 11
911.10361847778495
 21
3764.72137591093
 31
0.0
  0
LINE
  5
7EE1
  8
1
 10
911.60361847778506
 20
3765.22137591093
 30
0.0
 11
911.10361847778495
 21
3764.72137591093
 31
0.0
  0
LINE
  5
7EE2
  8
1
 10
911.60361847778506
 20
3417.621375910931
 30
0.0
 11
911.10361847778495
 21
3418.121375910931
 31
0.0
  0
LINE
  5
7EE3
  8
1
 10
1373.103618477784
 20
3417.6213759109291
 30
0.0
 11
1373.103618477784
 21
3765.2213759109281
 31
0.0
  0
LINE
  5
7EE6
  8
1
 10
1373.103618477784
 20
3740.2213759109281
 30
0.0
 11
1642.1036184777849
 21
3740.2213759109259
 31
0.0
  0
LINE
  5
7EE7
  8
1
 10
911.10361847778495
 20
3743.4213759109298
 30
0.0
 11
620.10361847778495
 21
3743.4213759109298
 31
0.0
  0
LINE
  5
7EE8
  8
1
 10
1373.103618477784
 20
3442.6213759109291
 30
0.0
 11
1642.1036184777849
 21
3442.6213759109278
 31
0.0
  0
DIMENSION
  5
7F17
  8
3
  2
*D19
 10
1642.103618477784
 20
2672.5263336184648
 30
0.0
 11
1147.843266354357
 21
2672.5263336184648
 31
0.0
 70
   128
 13
620.10361847778495
 23
1605.1730162464139
 33
0.0
 14
1642.103618477784
 24
1932.173016246413
 34
0.0
1001
ACAD
1000
DSTYLE
1002
{
1070
   287
1070
     3
1070
   287
1070
     3
1070
    40
1040
20.0
1070
   143
1040
0.039
1070
   172
1070
     1
1070
   271
1070
     0
1070
   279
1070
     0
1070
   288
1070
     1
1002
}
  0
DIMENSION
  5
7F24
  8
3
  2
*D20
 10
2167.2040964588959
 20
1365.1730162464139
 30
0.0
 11
2167.204096458895
 21
1823.676649060724
 31
0.0
 70
   128
  1
(<>)
 13
1375.103618477784
 23
2260.1730162464141
 33
0.0
 14
1620.103618477784
 24
1365.1730162464139
 34
0.0
 50
90.0
1001
ACAD
1000
DSTYLE
1002
{
1070
   287
1070
     3
1070
   287
1070
     3
1070
    40
1040
20.0
1070
   143
1040
0.039
1070
   172
1070
     1
1070
   271
1070
     0
1070
   279
1070
     0
1070
   288
1070
     1
1002
}
  0
LINE
  5
7F58
  8
1
 10
3375.0631074010798
 20
2155.1730162464141
 30
0.0
 11
3400.0631074010798
 21
2155.1730162464141
 31
0.0
  0
LINE
  5
7F59
  8
1
 10
3400.0631074010798
 20
2155.1730162464141
 30
0.0
 11
3400.0631074010798
 21
2156.1730162464141
 31
0.0
  0
LINE
  5
7F5A
  8
1
 10
3382.0631074010798
 20
2158.1730162464141
 30
0.0
 11
3398.0631074010798
 21
2158.1730162464141
 31
0.0
  0
ARC
  5
7F5B
  8
1
 10
3398.0631074010798
 20
2156.1730162464141
 30
0.0
 40
2.0
 50
359.9999999999992
 51
89.999999999999588
  0
LINE
  5
7F5C
  8
1
 10
3375.0631074010798
 20
2155.1730162464141
 30
0.0
 11
3375.0631074010798
 21
2180.1730162464141
 31
0.0
  0
LINE
  5
7F5D
  8
1
 10
3378.0631074010798
 20
2162.1730162464141
 30
0.0
 11
3378.0631074010798
 21
2178.1730162464141
 31
0.0
  0
LINE
  5
7F5E
  8
1
 10
3375.0631074010798
 20
2180.1730162464141
 30
0.0
 11
3376.0631074010798
 21
2180.1730162464141
 31
0.0
  0
ARC
  5
7F5F
  8
1
 10
3376.0631074010798
 20
2178.1730162464141
 30
0.0
 40
2.0
 50
0.0
 51
90.00000000000081
  0
ARC
  5
7F60
  8
1
 10
3382.0631074010798
 20
2162.1730162464141
 30
0.0
 40
4.0
 50
180.0
 51
270.0
  0
LINE
  5
83FE
  8
1
 10
1630.1036184777849
 20
3407.6213759109291
 30
0.0
 11
1630.1036184777849
 21
3442.6213759109291
 31
0.0
  0
LINE
  5
83FF
  8
1
 10
1090.1036184777849
 20
3407.6213759109291
 30
0.0
 11
1090.1036184777849
 21
3417.6213759109291
 31
0.0
  0
LINE
  5
8400
  8
1
 10
1470.1036184777849
 20
3362.6213759109291
 30
0.0
 11
1585.1036184777849
 21
3362.6213759109291
 31
0.0
  0
LINE
  5
8401
  8
1
 10
1537.4036184777849
 20
3235.3213759109281
 30
0.0
 11
1374.1036184777849
 21
3235.3213759109281
 31
0.0
  0
LINE
  5
8402
  8
1
 10
1374.1036184777849
 20
3173.3213759109258
 30
0.0
 11
1374.1036184777849
 21
3362.6213759109291
 31
0.0
  0
LINE
  5
8403
  8
1
 10
1346.1036184777849
 20
3173.3213759109258
 30
0.0
 11
1346.1036184777849
 21
3362.6213759109291
 31
0.0
  0
LINE
  5
8404
  8
1
 10
1373.103618477784
 20
3172.3213759109258
 30
0.0
 11
1374.1036184777849
 21
3173.3213759109258
 31
0.0
  0
LINE
  5
8405
  8
1
 10
1347.1036184777849
 20
3172.3213759109258
 30
0.0
 11
1346.1036184777849
 21
3173.3213759109258
 31
0.0
  0
LINE
  5
8406
  8
1
 10
1347.1036184777849
 20
3172.3213759109258
 30
0.0
 11
1373.103618477784
 21
3172.3213759109258
 31
0.0
  0
LINE
  5
8407
  8
1
 10
1250.103618477784
 20
3362.6213759109291
 30
0.0
 11
1470.1036184777849
 21
3362.6213759109291
 31
0.0
  0
LINE
  5
8408
  8
1
 10
1346.1036184777849
 20
3235.321375910924
 30
0.0
 11
1182.803618477785
 21
3235.3213759109281
 31
0.0
  0
LINE
  5
8409
  8
1
 10
1145.1036184777849
 20
3246.6213759109269
 30
0.0
 11
1145.1036184777849
 21
3362.6213759109291
 31
0.0
  0
LINE
  5
840A
  8
1
 10
1182.803618477785
 20
3235.3213759109281
 30
0.0
 11
1182.803618477785
 21
3362.6213759109291
 31
0.0
  0
LINE
  5
840B
  8
1
 10
1145.1036184777849
 20
3246.6213759109269
 30
0.0
 11
1150.1036184777849
 21
3241.6213759109269
 31
0.0
  0
LINE
  5
840C
  8
1
 10
1150.1036184777849
 20
3241.6213759109269
 30
0.0
 11
1182.8429167773891
 21
3241.6213759109269
 31
0.0
  0
LINE
  5
840D
  8
1
 10
1135.1036184777849
 20
3362.6213759109291
 30
0.0
 11
1250.103618477784
 21
3362.6213759109291
 31
0.0
  0
LINE
  5
840E
  8
1
 10
1135.1036184777849
 20
3362.6213759109291
 30
0.0
 11
1090.1036184777849
 21
3407.6213759109291
 31
0.0
  0
LINE
  5
840F
  8
1
 10
1575.103618477784
 20
3246.6213759109269
 30
0.0
 11
1575.103618477784
 21
3362.6213759109291
 31
0.0
  0
LINE
  5
8410
  8
1
 10
1537.4036184777849
 20
3235.3213759109281
 30
0.0
 11
1537.4036184777849
 21
3362.6213759109291
 31
0.0
  0
LINE
  5
8411
  8
1
 10
1570.1036184777849
 20
3241.6213759109269
 30
0.0
 11
1575.103618477784
 21
3246.6213759109269
 31
0.0
  0
LINE
  5
8412
  8
1
 10
1537.3643201781811
 20
3241.6213759109269
 30
0.0
 11
1570.1036184777849
 21
3241.6213759109269
 31
0.0
  0
LINE
  5
8413
  8
1
 10
1630.1036184777849
 20
3407.6213759109291
 30
0.0
 11
1585.1036184777849
 21
3362.6213759109291
 31
0.0
  0
LINE
  5
8414
  8
1
 10
1373.103618477784
 20
3442.6213759109291
 30
0.0
 11
1630.1036184777849
 21
3442.6213759109291
 31
0.0
  0
LINE
  5
8415
  8
1
 10
1580.103618477784
 20
3783.4213759109298
 30
0.0
 11
1580.103618477784
 21
3740.2213759109281
 31
0.0
  0
LINE
  5
8417
  8
1
 10
1580.103618477782
 20
3362.6213759109291
 30
0.0
 11
1580.103618477782
 21
3273.4213759109311
 31
0.0
  0
LINE
  5
8418
  8
1
 10
1145.1036184777849
 20
3273.4213759109311
 30
0.0
 11
921.10361847778495
 21
3273.4213759109289
 31
0.0
  0
LINE
  5
841A
  8
1
 10
1620.103618477782
 20
3397.6213759109269
 30
0.0
 11
1620.103618477782
 21
3233.4213759109311
 31
0.0
  0
ENDSEC
  0
EOF
