  0
SECTION
  2
HEADER
  9
$ACADVER
  1
AC1009
  9
$INSBASE
 10
0.0
 20
0.0
 30
0.0
  9
$EXTMIN
 10
0.0
 20
0.0
 30
0.0
  9
$EXTMAX
 10
4200.0
 20
5900.0
 30
0.0
  9
$LIMMIN
 10
0.0
 20
0.0
  9
$LIMMAX
 10
297.0
 20
210.0
  9
$ORTHOMODE
 70
     0
  9
$REGENMODE
 70
     1
  9
$FILLMODE
 70
     0
  9
$QTEXTMODE
 70
     0
  9
$MIRRTEXT
 70
     1
  9
$DRAGMODE
 70
     2
  9
$LTSCALE
 40
100.0
  9
$OSMODE
 70
    37
  9
$ATTMODE
 70
     1
  9
$TEXTSIZE
 40
180.0
  9
$TRACEWID
 40
0.05
  9
$TEXTSTYLE
  7
STANDARD
  9
$CLAYER
  8
3
  9
$CELTYPE
  6
BYLAYER
  9
$CECOLOR
 62
   256
  9
$DIMSCALE
 40
20.0
  9
$DIMASZ
 40
2.0
  9
$DIMEXO
 40
0.5
  9
$DIMDLI
 40
10.0
  9
$DIMRND
 40
0.0
  9
$DIMDLE
 40
0.0
  9
$DIMEXE
 40
1.0
  9
$DIMTP
 40
1.0
  9
$DIMTM
 40
1.0
  9
$DIMTXT
 40
3.0
  9
$DIMCEN
 40
0.0
  9
$DIMTSZ
 40
0.0
  9
$DIMTOL
 70
     0
  9
$DIMLIM
 70
     0
  9
$DIMTIH
 70
     0
  9
$DIMTOH
 70
     0
  9
$DIMSE1
 70
     0
  9
$DIMSE2
 70
     0
  9
$DIMTAD
 70
     1
  9
$DIMZIN
 70
     8
  9
$DIMBLK
  1

  9
$DIMASO
 70
     1
  9
$DIMSHO
 70
     1
  9
$DIMPOST
  1

  9
$DIMAPOST
  1

  9
$DIMALT
 70
     0
  9
$DIMALTD
 70
     2
  9
$DIMALTF
 40
0.039
  9
$DIMLFAC
 40
1.0
  9
$DIMTOFL
 70
     1
  9
$DIMTVP
 40
0.0
  9
$DIMTIX
 70
     0
  9
$DIMSOXD
 70
     0
  9
$DIMSAH
 70
     1
  9
$DIMBLK1
  1
OPEN
  9
$DIMBLK2
  1
OPEN
  9
$DIMSTYLE
  2
IGA
  9
$DIMCLRD
 70
     0
  9
$DIMCLRE
 70
     0
  9
$DIMCLRT
 70
     0
  9
$DIMTFAC
 40
10.0
  9
$DIMGAP
 40
1.0
  9
$LUNITS
 70
     2
  9
$LUPREC
 70
     3
  9
$SKETCHINC
 40
0.1
  9
$FILLETRAD
 40
50.0
  9
$AUNITS
 70
     0
  9
$AUPREC
 70
     0
  9
$MENU
  1
acad
  9
$ELEVATION
 40
0.0
  9
$PELEVATION
 40
0.0
  9
$THICKNESS
 40
0.0
  9
$LIMCHECK
 70
     0
  9
$BLIPMODE
 70
     0
  9
$CHAMFERA
 40
0.5
  9
$CHAMFERB
 40
0.5
  9
$SKPOLY
 70
     0
  9
$TDCREATE
 40
2452815.5942524299
  9
$TDUPDATE
 40
2454953.852071689
  9
$TDINDWG
 40
0.0366177199
  9
$TDUSRTIMER
 40
0.0366177199
  9
$USRTIMER
 70
     1
  9
$ANGBASE
 50
0.0
  9
$ANGDIR
 70
     0
  9
$PDMODE
 70
     0
  9
$PDSIZE
 40
0.0
  9
$PLINEWID
 40
0.0
  9
$COORDS
 70
     1
  9
$SPLFRAME
 70
     0
  9
$SPLINETYPE
 70
     6
  9
$SPLINESEGS
 70
     8
  9
$ATTDIA
 70
     0
  9
$ATTREQ
 70
     1
  9
$HANDLING
 70
 10241
  9
$HANDSEED
  5
8120
  9
$SURFTAB1
 70
     6
  9
$SURFTAB2
 70
     6
  9
$SURFTYPE
 70
     6
  9
$SURFU
 70
     6
  9
$SURFV
 70
     6
  9
$UCSNAME
  2

  9
$UCSORG
 10
0.0
 20
0.0
 30
0.0
  9
$UCSXDIR
 10
1.0
 20
0.0
 30
0.0
  9
$UCSYDIR
 10
0.0
 20
1.0
 30
0.0
  9
$PUCSNAME
  2

  9
$PUCSORG
 10
0.0
 20
0.0
 30
0.0
  9
$PUCSXDIR
 10
1.0
 20
0.0
 30
0.0
  9
$PUCSYDIR
 10
0.0
 20
1.0
 30
0.0
  9
$USERI1
 70
     0
  9
$USERI2
 70
     0
  9
$USERI3
 70
     0
  9
$USERI4
 70
     0
  9
$USERI5
 70
     0
  9
$USERR1
 40
0.0
  9
$USERR2
 40
0.0
  9
$USERR3
 40
0.0
  9
$USERR4
 40
0.0
  9
$USERR5
 40
0.0
  9
$WORLDVIEW
 70
     1
  9
$SHADEDGE
 70
     3
  9
$SHADEDIF
 70
    70
  9
$TILEMODE
 70
     1
  9
$MAXACTVP
 70
    16
  9
$PLIMCHECK
 70
     0
  9
$PEXTMIN
 10
1.0000000000000000E+020
 20
1.0000000000000000E+020
 30
1.0000000000000000E+020
  9
$PEXTMAX
 10
-1.0000000000000000E+020
 20
-1.0000000000000000E+020
 30
-1.0000000000000000E+020
  9
$PLIMMIN
 10
0.0
 20
0.0
  9
$PLIMMAX
 10
12.0
 20
9.0
  9
$UNITMODE
 70
     0
  9
$VISRETAIN
 70
     0
  9
$PLINEGEN
 70
     0
  9
$PSLTSCALE
 70
     1
  0
ENDSEC
  0
SECTION
  2
TABLES
  0
TABLE
  2
VPORT
 70
     2
  0
VPORT
  2
*ACTIVE
 70
     0
 10
0.0
 20
0.0
 11
1.0
 21
1.0
 12
4404.9498814871886
 22
2902.5190024924441
 13
0.0
 23
0.0
 14
10.0
 24
10.0
 15
10.0
 25
10.0
 16
0.0
 26
0.0
 36
1.0
 17
0.0
 27
0.0
 37
0.0
 40
7895.707450327488
 41
1.5051150895140659
 42
50.0
 43
0.0
 44
0.0
 50
0.0
 51
0.0
 71
     0
 72
   100
 73
     1
 74
     0
 75
     0
 76
     0
 77
     0
 78
     0
  0
ENDTAB
  0
TABLE
  2
LTYPE
 70
     2
  0
LTYPE
  2
CONTINUOUS
 70
     0
  3
Solid line
 72
    65
 73
     0
 40
0.0
  0
LTYPE
  2
CENTER
 70
     0
  3
____ _ ____ _ ____ _ ____ _ ____ _ ____ _ ____ 
 72
    65
 73
     4
 40
2.0
 49
1.25
 49
-0.25
 49
0.25
 49
-0.25
  0
ENDTAB
  0
TABLE
  2
LAYER
 70
     6
  0
LAYER
  2
0
 70
     0
 62
     7
  6
CONTINUOUS
  0
LAYER
  2
3
 70
     0
 62
     2
  6
CONTINUOUS
  0
LAYER
  2
2
 70
     0
 62
     3
  6
CENTER
  0
LAYER
  2
1
 70
     0
 62
     4
  6
CONTINUOUS
  0
LAYER
  2
4
 70
     0
 62
     7
  6
CONTINUOUS
  0
LAYER
  2
DEFPOINTS
 70
     0
 62
     7
  6
CONTINUOUS
  0
ENDTAB
  0
TABLE
  2
STYLE
 70
     1
  0
STYLE
  2
STANDARD
 70
     0
 40
0.0
 41
1.0
 50
0.0
 71
     0
 42
180.0
  3
simplex.shx
  4
extfont.shx
  0
ENDTAB
  0
TABLE
  2
VIEW
 70
     0
  0
ENDTAB
  0
TABLE
  2
UCS
 70
     0
  0
ENDTAB
  0
TABLE
  2
APPID
 70
     1
  0
APPID
  2
ACAD
 70
     0
  0
ENDTAB
  0
TABLE
  2
DIMSTYLE
 70
     1
  0
DIMSTYLE
  2
IGA
 70
     0
  3

  4

  5

  6
OPEN
  7
OPEN
 40
2.0
 41
2.0
 42
0.5
 43
10.0
 44
1.0
 45
0.0
 46
0.0
 47
1.0
 48
1.0
140
3.0
141
0.0
142
0.0
143
0.03937
144
1.0
145
0.0
146
10.0
147
1.0
 71
     0
 72
     0
 73
     0
 74
     0
 75
     0
 76
     0
 77
     1
 78
     8
170
     0
171
     2
172
     0
173
     1
174
     0
175
     0
176
     0
177
     0
178
     0
  0
ENDTAB
  0
ENDSEC
  0
SECTION
  2
BLOCKS
  0
BLOCK
  8
0
  2
$MODEL_SPACE
 70
     0
 10
0.0
 20
0.0
 30
0.0
  3
$MODEL_SPACE
  1

  0
ENDBLK
  5
1B
  8
0
  0
BLOCK
 67
     1
  8
0
  2
$PAPER_SPACE
 70
     0
 10
0.0
 20
0.0
 30
0.0
  3
$PAPER_SPACE
  1

  0
ENDBLK
  5
18
 67
     1
  8
0
  0
BLOCK
  8
0
  2
_OPEN
 70
     0
 10
0.0
 20
0.0
 30
0.0
  3
_OPEN
  1

  0
LINE
  5
7C36
  8
0
  6
BYBLOCK
 62
     0
 10
-1.0
 20
0.1666666666666666
 30
0.0
 11
0.0
 21
0.0
 31
0.0
  0
LINE
  5
7C37
  8
0
  6
BYBLOCK
 62
     0
 10
0.0
 20
0.0
 30
0.0
 11
-1.0
 21
-0.1666666666666666
 31
0.0
  0
LINE
  5
7C38
  8
0
  6
BYBLOCK
 62
     0
 10
0.0
 20
0.0
 30
0.0
 11
-1.0
 21
0.0
 31
0.0
  0
ENDBLK
  5
7C39
  8
0
  0
BLOCK
  8
0
  2
*D1
 70
     1
 10
0.0
 20
0.0
 30
0.0
  3
*D1
  1

  0
LINE
  5
8093
  8
3
 62
     0
 10
1973.3709684807529
 20
3793.4213759109289
 30
0.0
 11
1973.3709684807529
 21
3973.7278612667778
 31
0.0
  0
LINE
  5
8094
  8
3
 62
     0
 10
973.37096848075362
 20
3793.4213759109298
 30
0.0
 11
973.37096848075362
 21
3973.7278612667778
 31
0.0
  0
LINE
  5
8095
  8
3
 62
     0
 10
1933.3709684807529
 20
3953.7278612667769
 30
0.0
 11
1013.370968480753
 21
3953.7278612667769
 31
0.0
  0
INSERT
  5
8096
  8
3
 62
     0
  2
_OPEN
 10
1973.3709684807529
 20
3953.7278612667769
 30
0.0
 41
40.0
 42
40.0
 43
40.0
  0
INSERT
  5
8097
  8
3
 62
     0
  2
_OPEN
 10
973.37096848075362
 20
3953.7278612667769
 30
0.0
 41
40.0
 42
40.0
 43
40.0
 50
180.0
  0
TEXT
  8
3
  40
60
  5
8111
  62
0
  72
0
  71
0
 10
1356.86
 20
3897.53
 30
0.000000
  1
1000
  0
POINT
  5
8099
  8
DEFPOINTS
 62
     0
 10
1973.3709684807529
 20
3783.4213759109289
 30
0.0
  0
POINT
  5
809A
  8
DEFPOINTS
 62
     0
 10
973.37096848075362
 20
3783.4213759109298
 30
0.0
  0
POINT
  5
809B
  8
DEFPOINTS
 62
     0
 10
973.37096848075362
 20
3953.7278612667769
 30
0.0
  0
ENDBLK
  5
7E8C
  8
0
  0
BLOCK
  8
0
  2
*D2
 70
     1
 10
0.0
 20
0.0
 30
0.0
  3
*D2
  1

  0
LINE
  5
809C
  8
3
 62
     0
 10
1983.3709684807529
 20
3783.4213759109289
 30
0.0
 11
2090.6616671539819
 21
3783.4213759109289
 31
0.0
  0
LINE
  5
809D
  8
3
 62
     0
 10
1983.3709684807529
 20
3233.4213759109289
 30
0.0
 11
2090.6616671539819
 21
3233.4213759109289
 31
0.0
  0
LINE
  5
809E
  8
3
 62
     0
 10
2070.6616671539819
 20
3743.4213759109298
 30
0.0
 11
2070.6616671539819
 21
3273.4213759109289
 31
0.0
  0
INSERT
  5
809F
  8
3
 62
     0
  2
_OPEN
 10
2070.6616671539819
 20
3783.4213759109289
 30
0.0
 41
40.0
 42
40.0
 43
40.0
 50
90.0
  0
INSERT
  5
80A0
  8
3
 62
     0
  2
_OPEN
 10
2070.6616671539819
 20
3233.4213759109289
 30
0.0
 41
40.0
 42
40.0
 43
40.0
 50
270.0
  0
TEXT
  8
3
  40
60
  5
8112
  62
0
  72
0
  71
0
 10
1900.66
 20
3426.77
 30
0.000000
  1
550
  0
POINT
  5
80A2
  8
DEFPOINTS
 62
     0
 10
1973.3709684807529
 20
3783.4213759109289
 30
0.0
  0
POINT
  5
80A3
  8
DEFPOINTS
 62
     0
 10
1973.3709684807529
 20
3233.4213759109289
 30
0.0
  0
POINT
  5
80A4
  8
DEFPOINTS
 62
     0
 10
2070.6616671539819
 20
3233.4213759109289
 30
0.0
  0
ENDBLK
  5
7E97
  8
0
  0
BLOCK
  8
0
  2
*D3
 70
     1
 10
0.0
 20
0.0
 30
0.0
  3
*D3
  1

  0
LINE
  5
80A5
  8
3
 62
     0
 10
928.37096848075305
 20
2416.1730162464141
 30
0.0
 11
928.37096848075305
 21
2523.642767857461
 31
0.0
  0
LINE
  5
80A6
  8
3
 62
     0
 10
1233.3709684807529
 20
2398.3981287251781
 30
0.0
 11
1233.3709684807529
 21
2523.642767857461
 31
0.0
  0
LINE
  5
80A7
  8
3
 62
     0
 10
968.37096848075305
 20
2503.6427678574619
 30
0.0
 11
1193.3709684807529
 21
2503.6427678574619
 31
0.0
  0
INSERT
  5
80A8
  8
3
 62
     0
  2
_OPEN
 10
928.37096848075305
 20
2503.6427678574619
 30
0.0
 41
40.0
 42
40.0
 43
40.0
 50
180.0
  0
INSERT
  5
80A9
  8
3
 62
     0
  2
_OPEN
 10
1233.3709684807529
 20
2503.6427678574619
 30
0.0
 41
40.0
 42
40.0
 43
40.0
  0
TEXT
  8
3
  40
60
  5
8113
  62
0
  72
0
  71
0
 10
976.228
 20
2447.44
 30
0.000000
  1
305
  0
POINT
  5
80AB
  8
DEFPOINTS
 62
     0
 10
928.37096848075305
 20
2406.1730162464141
 30
0.0
  0
POINT
  5
80AC
  8
DEFPOINTS
 62
     0
 10
1233.3709684807529
 20
2388.3981287251781
 30
0.0
  0
POINT
  5
80AD
  8
DEFPOINTS
 62
     0
 10
1233.3709684807529
 20
2503.6427678574619
 30
0.0
  0
ENDBLK
  5
7ECD
  8
0
  0
BLOCK
  8
0
  2
*D4
 70
     1
 10
0.0
 20
0.0
 30
0.0
  3
*D4
  1

  0
LINE
  5
80AE
  8
3
 62
     0
 10
1575.3709684807529
 20
1995.1730162464139
 30
0.0
 11
1575.3709684807529
 21
2523.642767857461
 31
0.0
  0
LINE
  5
80AF
  8
3
 62
     0
 10
1273.3709684807529
 20
2503.6427678574619
 30
0.0
 11
1535.3709684807529
 21
2503.6427678574619
 31
0.0
  0
INSERT
  5
80B0
  8
3
 62
     0
  2
_OPEN
 10
1233.3709684807529
 20
2503.6427678574619
 30
0.0
 41
40.0
 42
40.0
 43
40.0
 50
180.0
  0
INSERT
  5
80B1
  8
3
 62
     0
  2
_OPEN
 10
1575.3709684807529
 20
2503.6427678574619
 30
0.0
 41
40.0
 42
40.0
 43
40.0
  0
TEXT
  8
3
  40
60
  5
8114
  62
0
  72
0
  71
0
 10
1284.37
 20
2447.44
 30
0.000000
  1
342
  0
POINT
  5
80B3
  8
DEFPOINTS
 62
     0
 10
1233.3709684807529
 20
2388.3981287251781
 30
0.0
  0
POINT
  5
80B4
  8
DEFPOINTS
 62
     0
 10
1575.3709684807529
 20
1985.1730162464139
 30
0.0
  0
POINT
  5
80B5
  8
DEFPOINTS
 62
     0
 10
1575.3709684807529
 20
2503.6427678574619
 30
0.0
  0
ENDBLK
  5
7ED7
  8
0
  0
BLOCK
  8
0
  2
*D5
 70
     1
 10
0.0
 20
0.0
 30
0.0
  3
*D5
  1

  0
LINE
  5
80B6
  8
3
 62
     0
 10
943.37096848075305
 20
2379.1730162464141
 30
0.0
 11
765.40663801162782
 21
2379.1730162464141
 31
0.0
  0
LINE
  5
80B7
  8
3
 62
     0
 10
943.37096848075259
 20
1967.1730162464139
 30
0.0
 11
765.40663801162771
 21
1967.1730162464139
 31
0.0
  0
LINE
  5
80B8
  8
3
 62
     0
 10
785.40663801162782
 20
2339.1730162464141
 30
0.0
 11
785.40663801162771
 21
2007.1730162464139
 31
0.0
  0
INSERT
  5
80B9
  8
3
 62
     0
  2
_OPEN
 10
785.40663801162782
 20
2379.1730162464141
 30
0.0
 41
40.0
 42
40.0
 43
40.0
 50
90.0
  0
INSERT
  5
80BA
  8
3
 62
     0
  2
_OPEN
 10
785.40663801162771
 20
1967.1730162464139
 30
0.0
 41
40.0
 42
40.0
 43
40.0
 50
270.0
  0
TEXT
  8
3
  40
60
  5
8115
  62
0
  72
0
  71
0
 10
615.407
 20
2064.21
 30
0.000000
  1
412
  0
POINT
  5
80BC
  8
DEFPOINTS
 62
     0
 10
953.37096848075305
 20
2379.1730162464141
 30
0.0
  0
POINT
  5
80BD
  8
DEFPOINTS
 62
     0
 10
953.37096848075282
 20
1967.1730162464139
 30
0.0
  0
POINT
  5
80BE
  8
DEFPOINTS
 62
     0
 10
785.40663801162771
 20
1967.1730162464139
 30
0.0
  0
ENDBLK
  5
7EED
  8
0
  0
BLOCK
  8
0
  2
*D6
 70
     1
 10
0.0
 20
0.0
 30
0.0
  3
*D6
  1

  0
LINE
  5
80BF
  8
3
 62
     0
 10
943.37096848075305
 20
2379.1730162464141
 30
0.0
 11
638.83227683723499
 21
2379.1730162464141
 31
0.0
  0
LINE
  5
80C0
  8
3
 62
     0
 10
914.56505401862205
 20
1955.1730162464139
 30
0.0
 11
638.83227683723476
 21
1955.1730162464139
 31
0.0
  0
LINE
  5
80C1
  8
3
 62
     0
 10
658.83227683723499
 20
2339.1730162464141
 30
0.0
 11
658.83227683723476
 21
1995.1730162464139
 31
0.0
  0
INSERT
  5
80C2
  8
3
 62
     0
  2
_OPEN
 10
658.83227683723499
 20
2379.1730162464141
 30
0.0
 41
40.0
 42
40.0
 43
40.0
 50
90.0
  0
INSERT
  5
80C3
  8
3
 62
     0
  2
_OPEN
 10
658.83227683723476
 20
1955.1730162464139
 30
0.0
 41
40.0
 42
40.0
 43
40.0
 50
270.0
  0
TEXT
  8
3
  40
60
  5
8116
  62
0
  72
0
  71
0
 10
488.832
 20
2059.35
 30
0.000000
  1
424
  0
POINT
  5
80C5
  8
DEFPOINTS
 62
     0
 10
953.37096848075305
 20
2379.1730162464141
 30
0.0
  0
POINT
  5
80C6
  8
DEFPOINTS
 62
     0
 10
924.56505401862205
 20
1955.1730162464139
 30
0.0
  0
POINT
  5
80C7
  8
DEFPOINTS
 62
     0
 10
658.83227683723476
 20
1955.1730162464139
 30
0.0
  0
ENDBLK
  5
7EE2
  8
0
  0
BLOCK
  8
0
  2
*D7
 70
     1
 10
0.0
 20
0.0
 30
0.0
  3
*D7
  1

  0
LINE
  5
80C8
  8
3
 62
     0
 10
963.37096848075362
 20
1525.1730162464139
 30
0.0
 11
638.83227683723453
 21
1525.1730162464139
 31
0.0
  0
LINE
  5
80C9
  8
3
 62
     0
 10
658.83227683723464
 20
1915.1730162464139
 30
0.0
 11
658.83227683723453
 21
1565.1730162464139
 31
0.0
  0
INSERT
  5
80CA
  8
3
 62
     0
  2
_OPEN
 10
658.83227683723464
 20
1955.1730162464139
 30
0.0
 41
40.0
 42
40.0
 43
40.0
 50
90.0
  0
INSERT
  5
80CB
  8
3
 62
     0
  2
_OPEN
 10
658.83227683723453
 20
1525.1730162464139
 30
0.0
 41
40.0
 42
40.0
 43
40.0
 50
270.0
  0
TEXT
  8
3
  40
60
  5
8117
  62
0
  72
0
  71
0
 10
488.832
 20
1633.97
 30
0.000000
  1
430
  0
POINT
  5
80CD
  8
DEFPOINTS
 62
     0
 10
924.56505401862205
 20
1955.1730162464139
 30
0.0
  0
POINT
  5
80CE
  8
DEFPOINTS
 62
     0
 10
973.37096848075362
 20
1525.1730162464139
 30
0.0
  0
POINT
  5
80CF
  8
DEFPOINTS
 62
     0
 10
658.83227683723453
 20
1525.1730162464139
 30
0.0
  0
ENDBLK
  5
7F10
  8
0
  0
BLOCK
  8
0
  2
_DOT
 70
     0
 10
0.0
 20
0.0
 30
0.0
  3
_DOT
  1

  0
LINE
  5
7E78
  8
0
  6
BYBLOCK
 62
     0
 10
0.0
 20
0.0
 30
0.0
 11
-1.0
 21
-0.0000000000000284
 31
0.0
  0
POLYLINE
  5
7E79
  8
0
  6
BYBLOCK
 62
     0
 66
     1
 10
0.0
 20
0.0
 30
0.0
 70
     1
 40
0.1666666666666666
 41
0.1666666666666666
  0
VERTEX
  5
80EA
  8
0
  6
BYBLOCK
 62
     0
 10
-0.0833333333333286
 20
-0.0000000000000284
 30
0.0
 42
1.0
  0
VERTEX
  5
80EB
  8
0
  6
BYBLOCK
 62
     0
 10
0.0833333333333286
 20
-0.0000000000000284
 30
0.0
 42
1.0
  0
SEQEND
  5
80EC
  8
0
  6
BYBLOCK
 62
     0
  0
ENDBLK
  5
7D15
  8
0
  0
BLOCK
  8
0
  2
*D9
 70
     1
 10
0.0
 20
0.0
 30
0.0
  3
*D9
  1

  0
LINE
  5
80D0
  8
3
 62
     0
 10
3072.4631095035111
 20
2394.1730162464141
 30
0.0
 11
3072.4631095035111
 21
2542.4994118821792
 31
0.0
  0
LINE
  5
80D1
  8
3
 62
     0
 10
3372.4631095035111
 20
2394.1730162464141
 30
0.0
 11
3372.4631095035111
 21
2542.4994118821792
 31
0.0
  0
LINE
  5
80D2
  8
3
 62
     0
 10
3112.463109503512
 20
2522.4994118821792
 30
0.0
 11
3332.4631095035111
 21
2522.4994118821792
 31
0.0
  0
INSERT
  5
80D3
  8
3
 62
     0
  2
_OPEN
 10
3072.4631095035111
 20
2522.4994118821792
 30
0.0
 41
40.0
 42
40.0
 43
40.0
 50
180.0
  0
INSERT
  5
80D4
  8
3
 62
     0
  2
_OPEN
 10
3372.4631095035111
 20
2522.4994118821792
 30
0.0
 41
40.0
 42
40.0
 43
40.0
  0
TEXT
  8
3
  40
60
  5
8118
  62
0
  72
0
  71
0
 10
3115.32
 20
2466.30
 30
0.000000
  1
300
  0
POINT
  5
80D6
  8
DEFPOINTS
 62
     0
 10
3072.4631095035111
 20
2384.1730162464141
 30
0.0
  0
POINT
  5
80D7
  8
DEFPOINTS
 62
     0
 10
3372.4631095035111
 20
2384.1730162464141
 30
0.0
  0
POINT
  5
80D8
  8
DEFPOINTS
 62
     0
 10
3372.4631095035111
 20
2522.4994118821792
 30
0.0
  0
ENDBLK
  5
7E31
  8
0
  0
BLOCK
  8
0
  2
*D10
 70
     1
 10
0.0
 20
0.0
 30
0.0
  3
*D10
  1

  0
LINE
  5
7E48
  8
0
  6
BYBLOCK
 62
     0
 10
3375.0631074010798
 20
2394.1750668214868
 30
0.0
 11
3375.0631074010798
 21
2707.3336806613588
 31
0.0
  0
LINE
  5
7E49
  8
0
  6
BYBLOCK
 62
     0
 10
3222.4631095035111
 20
2606.5188739995801
 30
0.0
 11
3222.4631095035111
 21
2707.3336806613588
 31
0.0
  0
LINE
  5
7E4A
  8
0
  6
BYBLOCK
 62
     0
 10
3335.0631074010798
 20
2687.3336806613588
 30
0.0
 11
3262.4631095035111
 21
2687.3336806613588
 31
0.0
  0
TEXT
  5
7E4B
  8
3
 62
     0
 10
3229.159003672904
 20
2713.6819518332259
 30
0.0
 40
60.0
  1
153
  0
INSERT
  5
7E4C
  8
0
  6
BYBLOCK
 62
     0
  2
_OPEN
 10
3375.0631074010798
 20
2687.3336806613588
 30
0.0
 41
40.0
 42
40.0
 43
40.0
  0
INSERT
  5
7E4D
  8
0
  6
BYBLOCK
 62
     0
  2
_OPEN
 10
3222.4631095035111
 20
2687.3336806613588
 30
0.0
 41
40.0
 42
40.0
 43
40.0
 50
180.0
  0
POINT
  5
7E4E
  8
DEFPOINTS
  6
BYBLOCK
 62
     0
 10
3375.0631074010798
 20
2384.1750668214868
 30
0.0
  0
POINT
  5
7E4F
  8
DEFPOINTS
  6
BYBLOCK
 62
     0
 10
3222.4631095035111
 20
2596.5188739995801
 30
0.0
  0
POINT
  5
7E50
  8
DEFPOINTS
  6
BYBLOCK
 62
     0
 10
3222.4631095035111
 20
2687.3336806613588
 30
0.0
  0
ENDBLK
  5
7E51
  8
0
  0
BLOCK
  8
0
  2
*D11
 70
     1
 10
0.0
 20
0.0
 30
0.0
  3
*D11
  1

  0
LINE
  5
80D9
  8
3
 62
     0
 10
2729.4005922901351
 20
2185.1730162464119
 30
0.0
 11
2729.4005922901351
 21
2707.3336806613588
 31
0.0
  0
LINE
  5
80DA
  8
3
 62
     0
 10
3182.4631095035111
 20
2687.3336806613588
 30
0.0
 11
2769.4005922901351
 21
2687.3336806613588
 31
0.0
  0
INSERT
  5
80DB
  8
3
 62
     0
  2
_OPEN
 10
3222.4631095035111
 20
2687.3336806613588
 30
0.0
 41
40.0
 42
40.0
 43
40.0
  0
INSERT
  5
80DC
  8
3
 62
     0
  2
_OPEN
 10
2729.4005922901351
 20
2687.3336806613588
 30
0.0
 41
40.0
 42
40.0
 43
40.0
 50
180.0
  0
TEXT
  8
3
  40
60
  5
8119
  62
0
  72
0
  71
0
 10
2855.93
 20
2681.13
 30
0.000000
  1
MAX
  0
TEXT
  8
3
  40
60
  5
811A
  62
0
  72
0
  71
0
 10
2855.93
 20
2603.13
 30
0.000000
  1
500
  0
POINT
  5
80DE
  8
DEFPOINTS
 62
     0
 10
3222.4631095035111
 20
2596.5188739995801
 30
0.0
  0
POINT
  5
80DF
  8
DEFPOINTS
 62
     0
 10
2729.4005922901351
 20
2175.1730162464119
 30
0.0
  0
POINT
  5
80E0
  8
DEFPOINTS
 62
     0
 10
2729.4005922901351
 20
2687.3336806613588
 30
0.0
  0
ENDBLK
  5
7E46
  8
0
  0
BLOCK
  8
0
  2
*D12
 70
     1
 10
0.0
 20
0.0
 30
0.0
  3
*D12
  1

  0
LINE
  5
80E1
  8
3
 62
     0
 10
3384.0631095035101
 20
2155.1730162464141
 30
0.0
 11
3558.632966082344
 21
2155.1730162464141
 31
0.0
  0
LINE
  5
80E2
  8
3
 62
     0
 10
3385.2631095035058
 20
1755.1730162464139
 30
0.0
 11
3558.632966082344
 21
1755.1730162464139
 31
0.0
  0
LINE
  5
80E3
  8
3
 62
     0
 10
3538.632966082343
 20
2115.1730162464132
 30
0.0
 11
3538.632966082343
 21
1795.1730162464139
 31
0.0
  0
INSERT
  5
80E4
  8
3
 62
     0
  2
_OPEN
 10
3538.632966082343
 20
2155.1730162464141
 30
0.0
 41
40.0
 42
40.0
 43
40.0
 50
90.0
  0
INSERT
  5
80E5
  8
3
 62
     0
  2
_OPEN
 10
3538.632966082343
 20
1755.1730162464139
 30
0.0
 41
40.0
 42
40.0
 43
40.0
 50
270.0
  0
TEXT
  8
3
  40
60
  5
811B
  62
0
  72
0
  71
0
 10
3368.63
 20
1853.35
 30
0.000000
  1
φ400
  0
POINT
  5
80E7
  8
DEFPOINTS
 62
     0
 10
3374.063109503511
 20
2155.1730162464141
 30
0.0
  0
POINT
  5
80E8
  8
DEFPOINTS
 62
     0
 10
3375.2631095035072
 20
1755.1730162464139
 30
0.0
  0
POINT
  5
80E9
  8
DEFPOINTS
 62
     0
 10
3538.632966082343
 20
1755.1730162464139
 30
0.0
  0
ENDBLK
  5
7E6F
  8
0
  0
BLOCK
  8
0
  2
*D13
 70
     1
 10
0.0
 20
0.0
 30
0.0
  3
*D13
  1

  0
LINE
  5
80ED
  8
3
 62
     0
 10
973.37096848075362
 20
1515.1730162464139
 30
0.0
 11
973.37096848075362
 21
1369.773181979326
 31
0.0
  0
LINE
  5
80EE
  8
3
 62
     0
 10
1233.3709684807529
 20
1515.1730162464139
 30
0.0
 11
1233.3709684807529
 21
1369.773181979326
 31
0.0
  0
LINE
  5
80EF
  8
3
 62
     0
 10
1013.370968480753
 20
1389.773181979326
 30
0.0
 11
1193.3709684807529
 21
1389.773181979326
 31
0.0
  0
INSERT
  5
80F0
  8
3
 62
     0
  2
_OPEN
 10
973.37096848075362
 20
1389.773181979326
 30
0.0
 41
40.0
 42
40.0
 43
40.0
 50
180.0
  0
INSERT
  5
80F1
  8
3
 62
     0
  2
_OPEN
 10
1233.3709684807529
 20
1389.773181979326
 30
0.0
 41
40.0
 42
40.0
 43
40.0
  0
TEXT
  8
3
  40
60
  5
811C
  62
0
  72
0
  71
0
 10
983.371
 20
1333.57
 30
0.000000
  1
260
  0
POINT
  5
80F3
  8
DEFPOINTS
 62
     0
 10
973.37096848075362
 20
1525.1730162464139
 30
0.0
  0
POINT
  5
80F4
  8
DEFPOINTS
 62
     0
 10
1233.3709684807529
 20
1525.1730162464139
 30
0.0
  0
POINT
  5
80F5
  8
DEFPOINTS
 62
     0
 10
1233.3709684807529
 20
1389.773181979326
 30
0.0
  0
ENDBLK
  5
7F94
  8
0
  0
BLOCK
  8
0
  2
*D14
 70
     1
 10
0.0
 20
0.0
 30
0.0
  3
*D14
  1

  0
LINE
  5
80F6
  8
3
 62
     0
 10
1233.3709684807529
 20
1515.1730162464139
 30
0.0
 11
1233.3709684807529
 21
1369.773181979326
 31
0.0
  0
LINE
  5
80F7
  8
3
 62
     0
 10
1973.3709684807529
 20
1515.1730162464139
 30
0.0
 11
1973.3709684807529
 21
1369.773181979326
 31
0.0
  0
LINE
  5
80F8
  8
3
 62
     0
 10
1273.3709684807529
 20
1389.773181979326
 30
0.0
 11
1933.3709684807529
 21
1389.773181979326
 31
0.0
  0
INSERT
  5
80F9
  8
3
 62
     0
  2
_OPEN
 10
1233.3709684807529
 20
1389.773181979326
 30
0.0
 41
40.0
 42
40.0
 43
40.0
 50
180.0
  0
INSERT
  5
80FA
  8
3
 62
     0
  2
_OPEN
 10
1973.3709684807529
 20
1389.773181979326
 30
0.0
 41
40.0
 42
40.0
 43
40.0
  0
TEXT
  8
3
  40
60
  5
811D
  62
0
  72
0
  71
0
 10
1483.37
 20
1333.57
 30
0.000000
  1
740
  0
POINT
  5
80FC
  8
DEFPOINTS
 62
     0
 10
1233.3709684807529
 20
1525.1730162464139
 30
0.0
  0
POINT
  5
80FD
  8
DEFPOINTS
 62
     0
 10
1973.3709684807529
 20
1525.1730162464139
 30
0.0
  0
POINT
  5
80FE
  8
DEFPOINTS
 62
     0
 10
1973.3709684807529
 20
1389.773181979326
 30
0.0
  0
ENDBLK
  5
7FA1
  8
0
  0
BLOCK
  8
0
  2
*D15
 70
     1
 10
0.0
 20
0.0
 30
0.0
  3
*D15
  1

  0
LINE
  5
80FF
  8
3
 62
     0
 10
2864.4631095035111
 20
1515.1730162464139
 30
0.0
 11
2864.4631095035111
 21
1369.773181979326
 31
0.0
  0
LINE
  5
8100
  8
3
 62
     0
 10
3222.463109503512
 20
1515.1730162464139
 30
0.0
 11
3222.463109503512
 21
1369.773181979326
 31
0.0
  0
LINE
  5
8101
  8
3
 62
     0
 10
2904.4631095035111
 20
1389.773181979326
 30
0.0
 11
3182.463109503512
 21
1389.773181979326
 31
0.0
  0
INSERT
  5
8102
  8
3
 62
     0
  2
_OPEN
 10
2864.4631095035111
 20
1389.773181979326
 30
0.0
 41
40.0
 42
40.0
 43
40.0
 50
180.0
  0
INSERT
  5
8103
  8
3
 62
     0
  2
_OPEN
 10
3222.463109503512
 20
1389.773181979326
 30
0.0
 41
40.0
 42
40.0
 43
40.0
  0
TEXT
  8
3
  40
60
  5
811E
  62
0
  72
0
  71
0
 10
2923.46
 20
1333.57
 30
0.000000
  1
358
  0
POINT
  5
8105
  8
DEFPOINTS
 62
     0
 10
2864.4631095035111
 20
1525.1730162464139
 30
0.0
  0
POINT
  5
8106
  8
DEFPOINTS
 62
     0
 10
3222.463109503512
 20
1525.1730162464139
 30
0.0
  0
POINT
  5
8107
  8
DEFPOINTS
 62
     0
 10
3222.463109503512
 20
1389.773181979326
 30
0.0
  0
ENDBLK
  5
7FAE
  8
0
  0
BLOCK
  8
0
  2
*D16
 70
     1
 10
0.0
 20
0.0
 30
0.0
  3
*D16
  1

  0
LINE
  5
8108
  8
3
 62
     0
 10
3222.463109503512
 20
1515.1730162464139
 30
0.0
 11
3222.463109503512
 21
1369.773181979326
 31
0.0
  0
LINE
  5
8109
  8
3
 62
     0
 10
3414.463109503512
 20
1515.1730162464139
 30
0.0
 11
3414.463109503512
 21
1369.773181979326
 31
0.0
  0
LINE
  5
810A
  8
3
 62
     0
 10
3262.463109503512
 20
1389.773181979326
 30
0.0
 11
3374.463109503512
 21
1389.773181979326
 31
0.0
  0
INSERT
  5
810B
  8
3
 62
     0
  2
_OPEN
 10
3222.463109503512
 20
1389.773181979326
 30
0.0
 41
40.0
 42
40.0
 43
40.0
 50
180.0
  0
INSERT
  5
810C
  8
3
 62
     0
  2
_OPEN
 10
3414.463109503512
 20
1389.773181979326
 30
0.0
 41
40.0
 42
40.0
 43
40.0
  0
TEXT
  8
3
  40
60
  5
811F
  62
0
  72
0
  71
0
 10
3198.46
 20
1333.57
 30
0.000000
  1
192
  0
POINT
  5
810E
  8
DEFPOINTS
 62
     0
 10
3222.463109503512
 20
1525.1730162464139
 30
0.0
  0
POINT
  5
810F
  8
DEFPOINTS
 62
     0
 10
3414.463109503512
 20
1525.1730162464139
 30
0.0
  0
POINT
  5
8110
  8
DEFPOINTS
 62
     0
 10
3414.463109503512
 20
1389.773181979326
 30
0.0
  0
ENDBLK
  5
7FBD
  8
0
  0
ENDSEC
  0
SECTION
  2
ENTITIES
  0
LINE
  5
7B1C
  8
1
 10
1575.3709684807529
 20
3442.6213759109291
 30
0.0
 11
1575.3709684807529
 21
3740.22137591093
 31
0.0
  0
LINE
  5
7B1D
  8
1
 10
930.67096848075334
 20
3414.4213759109289
 30
0.0
 11
930.67096848075334
 21
3768.4213759109289
 31
0.0
  0
LINE
  5
7B1E
  8
1
 10
928.37096848075362
 20
3414.4213759109289
 30
0.0
 11
928.37096848075305
 21
3768.4213759109289
 31
0.0
  0
LINE
  5
7B1F
  8
1
 10
953.37096848075305
 20
3414.4213759109289
 30
0.0
 11
953.37096848075305
 21
3768.4213759109289
 31
0.0
  0
LINE
  5
7B20
  8
1
 10
928.37096848075305
 20
3414.4213759109289
 30
0.0
 11
928.37096848075305
 21
3768.4213759109289
 31
0.0
  0
LINE
  5
7B22
  8
1
 10
3045.4631095035111
 20
2406.1730162464132
 30
0.0
 11
3399.4631095035111
 21
2406.1730162464132
 31
0.0
  0
LINE
  5
7B24
  8
1
 10
3045.4631095035111
 20
2406.1730162464141
 30
0.0
 11
3399.4631095035111
 21
2406.1730162464141
 31
0.0
  0
LINE
  5
7B26
  8
1
 10
3070.8631095035112
 20
2384.1730162464141
 30
0.0
 11
3374.063109503511
 21
2384.1730162464141
 31
0.0
  0
LINE
  5
7B27
  8
1
 10
3045.4631095035111
 20
1940.1730162464139
 30
0.0
 11
3399.4631095035111
 21
1940.1730162464139
 31
0.0
  0
LINE
  5
7B28
  8
1
 10
3045.4631095035111
 20
1940.1730162464139
 30
0.0
 11
3399.4631095035111
 21
1940.1730162464139
 31
0.0
  0
LINE
  5
7B2A
  8
1
 10
3070.863109503513
 20
1962.1730162464139
 30
0.0
 11
3374.0631095035101
 21
1962.1730162464139
 31
0.0
  0
LINE
  5
7B2B
  8
1
 10
3370.463109503512
 20
1673.1730162464139
 30
0.0
 11
3123.5587519121609
 21
1673.1730162464139
 31
0.0
  0
LINE
  5
7B2C
  8
2
 10
2712.7574915026798
 20
1955.1730162464139
 30
0.0
 11
3422.9394634208752
 21
1955.1730162464139
 31
0.0
  0
LINE
  5
7B2D
  8
2
 10
1647.6615449213441
 20
1955.1730162464139
 30
0.0
 11
924.56505401862205
 21
1955.1730162464139
 31
0.0
  0
LINE
  5
7B2E
  8
1
 10
1060.670968480752
 20
1903.6730162464139
 30
0.0
 11
1406.070968480753
 21
1903.6730162464139
 31
0.0
  0
LINE
  5
7B2F
  8
1
 10
963.37096848075362
 20
1903.6730162464139
 30
0.0
 11
1503.3709684807529
 21
1903.673016246413
 31
0.0
  0
LINE
  5
7B30
  8
1
 10
1233.3709684807529
 20
1938.673016246413
 30
0.0
 11
1498.3709684807541
 21
1938.6730162464139
 31
0.0
  0
ARC
  5
7B31
  8
1
 10
1203.3709684807529
 20
1985.1730162464139
 30
0.0
 40
372.0
 50
0.0
 51
84.966163765972453
  0
ARC
  5
7B32
  8
1
 10
1263.3709684807529
 20
1985.1730162464139
 30
0.0
 40
312.0
 50
306.36653858812849
 51
0.0
  0
LINE
  5
7B33
  8
1
 10
1410.6709684807529
 20
1605.1730162464139
 30
0.0
 11
1410.6709684807529
 21
1899.073016246414
 31
0.0
  0
LINE
  5
7B34
  8
1
 10
1448.370968480752
 20
1605.1730162464139
 30
0.0
 11
1448.370968480752
 21
1879.6730162464139
 31
0.0
  0
LINE
  5
7B35
  8
1
 10
1503.3709684807541
 20
1933.6730162464139
 30
0.0
 11
1498.3709684807541
 21
1938.6730162464139
 31
0.0
  0
LINE
  5
7B36
  8
1
 10
1503.3709684807529
 20
1903.673016246413
 30
0.0
 11
1503.3709684807541
 21
1933.6730162464139
 31
0.0
  0
LINE
  5
7B37
  8
1
 10
1448.370968480752
 20
1879.6730162464139
 30
0.0
 11
1428.370968480752
 21
1899.6730162464139
 31
0.0
  0
ARC
  5
7B38
  8
1
 10
1406.070968480753
 20
1899.073016246414
 30
0.0
 40
4.5999999999999988
 50
0.0
 51
90.0
  0
LINE
  5
7B39
  8
1
 10
1410.631670181149
 20
1899.6730162464139
 30
0.0
 11
1428.370968480752
 21
1899.6730162464139
 31
0.0
  0
LINE
  5
7B3A
  8
2
 10
3222.463109503512
 20
1525.1730162464139
 30
0.0
 11
3222.4631095035111
 21
2508.7314351102518
 31
0.0
  0
LINE
  5
7B3B
  8
1
 10
2864.463109503512
 20
1899.0730162464131
 30
0.0
 11
2864.463109503512
 21
1810.5632876260131
 31
0.0
  0
LINE
  5
7B3C
  8
2
 10
1233.3709684807529
 20
2388.3981287251781
 30
0.0
 11
1233.3709684807529
 21
1525.1730162464139
 31
0.0
  0
LINE
  5
7B3D
  8
1
 10
2868.4631095035111
 20
1605.1730162464139
 30
0.0
 11
3065.4631095035111
 21
1605.1730162464139
 31
0.0
  0
LINE
  5
7B3E
  8
1
 10
930.67096848075334
 20
2171.1730162464141
 30
0.0
 11
930.67096848075334
 21
1940.1730162464139
 31
0.0
  0
LINE
  5
7B3F
  8
1
 10
928.37096848075305
 20
2171.1730162464141
 30
0.0
 11
928.37096848075305
 21
1940.1730162464139
 31
0.0
  0
LINE
  5
7B40
  8
1
 10
953.37096848075305
 20
2171.1730162464141
 30
0.0
 11
953.37096848075305
 21
1940.173016246411
 31
0.0
  0
LINE
  5
7B41
  8
1
 10
968.37096848075373
 20
1938.6730162464139
 30
0.0
 11
1233.3709684807529
 21
1938.673016246413
 31
0.0
  0
ARC
  5
7B42
  8
1
 10
1256.3709684807529
 20
1932.1730162464139
 30
0.0
 40
259.0
 50
219.3435035324982
 51
270.0
  0
ARC
  5
7B43
  8
1
 10
1263.3709684807529
 20
1985.1730162464139
 30
0.0
 40
312.0
 50
270.0
 51
298.17169856881452
  0
LINE
  5
7B44
  8
1
 10
1263.3709684807529
 20
1673.1730162464139
 30
0.0
 11
1256.3709684807529
 21
1673.1730162464139
 31
0.0
  0
LINE
  5
7B45
  8
1
 10
1056.070968480753
 20
1605.1730162464139
 30
0.0
 11
1056.070968480753
 21
1899.073016246414
 31
0.0
  0
LINE
  5
7B46
  8
1
 10
1018.370968480752
 20
1605.1730162464139
 30
0.0
 11
1018.370968480753
 21
1879.6730162464139
 31
0.0
  0
LINE
  5
7B47
  8
1
 10
997.37096848075305
 20
1932.1730162464139
 30
0.0
 11
997.37096848075271
 21
1967.1730162464139
 31
0.0
  0
LINE
  5
7B48
  8
1
 10
968.37096848075373
 20
1938.6730162464139
 30
0.0
 11
963.37096848075362
 21
1933.6730162464139
 31
0.0
  0
ARC
  5
7B49
  8
1
 10
1256.3709684807529
 20
1932.1730162464139
 30
0.0
 40
259.0
 50
180.0
 51
203.23145650500501
  0
LINE
  5
7B4A
  8
1
 10
1038.3709684807529
 20
1899.6730162464139
 30
0.0
 11
1018.370968480753
 21
1879.6730162464139
 31
0.0
  0
LINE
  5
7B4B
  8
1
 10
1056.1102667803559
 20
1899.6730162464139
 30
0.0
 11
1038.3709684807529
 21
1899.6730162464139
 31
0.0
  0
ARC
  5
7B4C
  8
1
 10
1060.670968480752
 20
1899.073016246414
 30
0.0
 40
4.5999999999999988
 50
90.0
 51
180.0
  0
LINE
  5
7B4D
  8
1
 10
963.37096848075362
 20
1903.6730162464139
 30
0.0
 11
963.37096848075362
 21
1933.6730162464139
 31
0.0
  0
LINE
  5
7B4E
  8
1
 10
953.37096848075305
 20
1940.173016246411
 30
0.0
 11
928.37096848075305
 21
1940.1730162464139
 31
0.0
  0
LINE
  5
7B4F
  8
1
 10
998.37096848075316
 20
2355.1730162464141
 30
0.0
 11
1218.3709684807529
 21
2355.1730162464141
 31
0.0
  0
LINE
  5
7B50
  8
1
 10
998.37096848075316
 20
2340.1730162464141
 30
0.0
 11
1218.3709684807529
 21
2340.1730162464141
 31
0.0
  0
LINE
  5
7B51
  8
1
 10
998.37096848075316
 20
2342.164874675118
 30
0.0
 11
1218.3709684807529
 21
2342.164874675118
 31
0.0
  0
LINE
  5
7B52
  8
1
 10
953.37096848075305
 20
2379.1730162464141
 30
0.0
 11
1236.011749117863
 21
2355.7382324221908
 31
0.0
  0
LINE
  5
7B53
  8
1
 10
998.37096848075316
 20
2105.1730162464141
 30
0.0
 11
1218.3709684807529
 21
2105.1730162464141
 31
0.0
  0
LINE
  5
7B54
  8
1
 10
1218.3709684807529
 20
2105.1730162464141
 30
0.0
 11
1218.3709684807529
 21
2355.1730162464141
 31
0.0
  0
LINE
  5
7B55
  8
1
 10
998.37096848075316
 20
2105.1730162464141
 30
0.0
 11
998.37096848075316
 21
2355.1730162464141
 31
0.0
  0
LINE
  5
7B56
  8
1
 10
953.37096848075305
 20
2171.1730162464141
 30
0.0
 11
953.37096848075305
 21
2406.1730162464141
 31
0.0
  0
LINE
  5
7B57
  8
1
 10
928.37096848075305
 20
2171.1730162464141
 30
0.0
 11
928.37096848075305
 21
2406.1730162464141
 31
0.0
  0
LINE
  5
7B58
  8
1
 10
930.67096848075334
 20
2171.1730162464141
 30
0.0
 11
930.67096848075198
 21
2406.1730162464141
 31
0.0
  0
LINE
  5
7B59
  8
1
 10
953.37096848075282
 20
2406.1730162464141
 30
0.0
 11
928.37096848075305
 21
2406.1730162464141
 31
0.0
  0
LINE
  5
7B5A
  8
1
 10
3045.4631095035111
 20
1965.173016246413
 30
0.0
 11
3045.4631095035111
 21
2381.1730162464141
 31
0.0
  0
LINE
  5
7B5B
  8
1
 10
3070.863109503513
 20
1962.1730162464139
 30
0.0
 11
3070.8631095035112
 21
2384.1730162464141
 31
0.0
  0
LINE
  5
7B5C
  8
1
 10
3072.4631095035111
 20
1962.1730162464139
 30
0.0
 11
3072.4631095035111
 21
2384.1730162464141
 31
0.0
  0
LINE
  5
7B5D
  8
1
 10
3045.4631095035111
 20
2380.1730162464141
 30
0.0
 11
3045.4631095035111
 21
1966.1730162464139
 31
0.0
  0
LINE
  5
7B5E
  8
1
 10
2869.0631095035119
 20
1903.6730162464139
 30
0.0
 11
3069.6631095035218
 21
1903.6730162464139
 31
0.0
  0
LINE
  5
7B5F
  8
1
 10
2989.4631095035111
 20
1903.6730162464139
 30
0.0
 11
3064.8631095035112
 21
1903.6730162464139
 31
0.0
  0
LINE
  5
7B60
  8
1
 10
2864.4631095035111
 20
1899.0730162464131
 30
0.0
 11
2864.4631095035111
 21
1810.5632876260131
 31
0.0
  0
LINE
  5
7B61
  8
1
 10
2859.4631095035111
 20
1975.173016246413
 30
0.0
 11
3045.4631095035111
 21
1975.173016246413
 31
0.0
  0
ARC
  5
7B62
  8
1
 10
2869.0631095035119
 20
1899.0730162464131
 30
0.0
 40
4.5999999999999988
 50
90.0
 51
180.0
  0
LINE
  5
7B63
  8
1
 10
2859.463109503512
 20
1935.173016246413
 30
0.0
 11
3069.6631095035232
 21
1935.173016246413
 31
0.0
  0
LINE
  5
7B64
  8
1
 10
2869.0631095035119
 20
1903.673016246413
 30
0.0
 11
2926.963109503512
 21
1903.673016246413
 31
0.0
  0
LINE
  5
7B65
  8
1
 10
2854.4631095035111
 20
1975.173016246413
 30
0.0
 11
2854.4631095035102
 21
1935.173016246413
 31
0.0
  0
LINE
  5
7B66
  8
1
 10
2854.4631095035102
 20
1935.173016246413
 30
0.0
 11
2859.463109503512
 21
1935.173016246413
 31
0.0
  0
LINE
  5
7B67
  8
1
 10
2800.4631095035102
 20
1969.173016246413
 30
0.0
 11
2852.4631095035102
 21
1969.173016246413
 31
0.0
  0
LINE
  5
7B68
  8
1
 10
2800.4631095035102
 20
1941.1730162464139
 30
0.0
 11
2852.4631095035102
 21
1941.1730162464139
 31
0.0
  0
LINE
  5
7B69
  8
1
 10
2799.4631095035102
 20
1968.173016246413
 30
0.0
 11
2799.4631095035102
 21
1942.173016246413
 31
0.0
  0
LINE
  5
7B6A
  8
1
 10
2799.4631095035102
 20
1968.173016246413
 30
0.0
 11
2800.4631095035102
 21
1969.173016246413
 31
0.0
  0
LINE
  5
7B6B
  8
1
 10
2799.4631095035102
 20
1942.173016246413
 30
0.0
 11
2800.4631095035102
 21
1941.1730162464139
 31
0.0
  0
LINE
  5
7B6C
  8
1
 10
2854.4631095035111
 20
1975.173016246413
 30
0.0
 11
2859.4631095035111
 21
1975.173016246413
 31
0.0
  0
ARC
  5
7B6D
  8
1
 10
2852.4631095035102
 20
1971.173016246413
 30
0.0
 40
2.0
 50
270.0
 51
0.0
  0
ARC
  5
7B6E
  8
1
 10
2852.4631095035102
 20
1939.1730162464139
 30
0.0
 40
2.0
 50
0.0
 51
90.0
  0
LINE
  5
7B6F
  8
1
 10
3073.6631095035109
 20
1831.045922909798
 30
0.0
 11
3073.6631095035109
 21
1940.173016246413
 31
0.0
  0
LINE
  5
7B70
  8
1
 10
3069.6631095035082
 20
1605.1730162464139
 30
0.0
 11
3069.6631095035091
 21
1629.173016246413
 31
0.0
  0
LINE
  5
7B73
  8
1
 10
3045.4631095035111
 20
1965.173016246413
 30
0.0
 11
3045.4631095035111
 21
1940.1730162464139
 31
0.0
  0
LINE
  5
7B74
  8
1
 10
3045.4631095035111
 20
1940.1730162464139
 30
0.0
 11
3045.4631095035111
 21
1965.1730162464139
 31
0.0
  0
LINE
  5
7B75
  8
1
 10
3045.4631095035111
 20
2381.1730162464141
 30
0.0
 11
3045.4631095035111
 21
2406.1730162464132
 31
0.0
  0
LINE
  5
7B76
  8
1
 10
3045.4631095035111
 20
2406.1730162464141
 30
0.0
 11
3045.4631095035111
 21
2381.1730162464141
 31
0.0
  0
LINE
  5
7B77
  8
2
 10
894.89918008525319
 20
3591.4213759109298
 30
0.0
 11
1593.0470439925259
 21
3591.4213759109298
 31
0.0
  0
LINE
  5
7B78
  8
1
 10
1575.3709684807529
 20
3442.6213759109301
 30
0.0
 11
954.37096848075271
 21
3442.6213759109278
 31
0.0
  0
LINE
  5
7B79
  8
1
 10
1247.3709684807529
 20
3169.1213759109291
 30
0.0
 11
1247.3709684807529
 21
3221.1213759109301
 31
0.0
  0
LINE
  5
7B7A
  8
1
 10
1219.3709684807529
 20
3169.1213759109291
 30
0.0
 11
1219.3709684807529
 21
3221.1213759109301
 31
0.0
  0
LINE
  5
7B7B
  8
1
 10
1220.3709684807529
 20
3168.1213759109301
 30
0.0
 11
1246.3709684807529
 21
3168.1213759109301
 31
0.0
  0
LINE
  5
7B7C
  8
1
 10
1246.3709684807529
 20
3168.1213759109301
 30
0.0
 11
1247.3709684807529
 21
3169.1213759109291
 31
0.0
  0
LINE
  5
7B7D
  8
1
 10
1220.3709684807529
 20
3168.1213759109301
 30
0.0
 11
1219.3709684807529
 21
3169.1213759109291
 31
0.0
  0
LINE
  5
7B80
  8
1
 10
953.37096848075305
 20
3414.4213759109289
 30
0.0
 11
928.37096848075305
 21
3414.4213759109289
 31
0.0
  0
LINE
  5
7B81
  8
1
 10
954.37096848075271
 20
3438.6213759109578
 30
0.0
 11
954.37096848075271
 21
3442.6213759109278
 31
0.0
  0
LINE
  5
7B82
  8
1
 10
3414.463109503512
 20
1788.1730162464139
 30
0.0
 11
3414.463109503512
 21
1605.1730162464139
 31
0.0
  0
LINE
  5
7B83
  8
1
 10
3414.463109503512
 20
1605.1730162464139
 30
0.0
 11
3379.063109503511
 21
1605.1730162464139
 31
0.0
  0
LINE
  5
7B84
  8
1
 10
3399.4631095035111
 20
1965.173016246413
 30
0.0
 11
3399.4631095035111
 21
2381.1730162464141
 31
0.0
  0
LINE
  5
7B85
  8
1
 10
3372.4631095035111
 20
1962.173016246413
 30
0.0
 11
3372.4631095035111
 21
2384.1730162464141
 31
0.0
  0
LINE
  5
7B86
  8
1
 10
3374.0631095035101
 20
1962.173016246413
 30
0.0
 11
3374.063109503511
 21
2384.1730162464141
 31
0.0
  0
LINE
  5
7B87
  8
1
 10
3399.4631095035111
 20
2380.1730162464141
 30
0.0
 11
3399.4631095035111
 21
1966.1730162464139
 31
0.0
  0
LINE
  5
7B88
  8
1
 10
3400.6631095035109
 20
1798.1730162464139
 30
0.0
 11
3400.6631095035109
 21
2155.1730162464141
 31
0.0
  0
LINE
  5
7B89
  8
1
 10
3375.2631095035099
 20
1663.173016246413
 30
0.0
 11
3375.2631095034981
 21
1940.1730162464139
 31
0.0
  0
LINE
  5
7B8A
  8
1
 10
3371.2631095035122
 20
1663.173016246413
 30
0.0
 11
3371.2631095035122
 21
1940.173016246413
 31
0.0
  0
LINE
  5
7B8B
  8
1
 10
3375.66310950351
 20
1798.1730162464139
 30
0.0
 11
3375.6631095035109
 21
1940.1730162464139
 31
0.0
  0
ARC
  5
7B8C
  8
1
 10
3373.2631095035108
 20
1663.173016246413
 30
0.0
 40
1.9999999999997271
 50
180.0
 51
0.0
  0
LINE
  5
7B8D
  8
1
 10
3374.463109503512
 20
1661.5730162464149
 30
0.0
 11
3374.463109503512
 21
1605.1730162464139
 31
0.0
  0
ARC
  5
7B8E
  8
1
 10
3370.463109503512
 20
1672.373016246413
 30
0.0
 40
0.8
 50
0.0
 51
90.0
  0
LINE
  5
7B8F
  8
1
 10
3404.463109503512
 20
1798.1730162464139
 30
0.0
 11
3374.463109503512
 21
1798.1730162464139
 31
0.0
  0
LINE
  5
7B90
  8
1
 10
3414.463109503512
 20
1788.1730162464139
 30
0.0
 11
3404.463109503512
 21
1798.1730162464139
 31
0.0
  0
LINE
  5
7B91
  8
1
 10
3399.4631095035111
 20
1965.1730162464139
 30
0.0
 11
3399.4631095035111
 21
1940.1730162464139
 31
0.0
  0
LINE
  5
7B92
  8
1
 10
3399.4631095035111
 20
1965.1730162464139
 30
0.0
 11
3399.4631095035111
 21
1940.1730162464139
 31
0.0
  0
ARC
  5
7B93
  8
1
 10
3398.6631095035109
 20
2156.1730162464141
 30
0.0
 40
2.0
 50
0.0
 51
66.42182152179285
  0
LINE
  5
7B94
  8
1
 10
3400.6631095035109
 20
2155.1730162464141
 30
0.0
 11
3400.6631095035109
 21
2156.1730162464141
 31
0.0
  0
LINE
  5
7B95
  8
1
 10
3400.6631095035109
 20
2155.1730162464141
 30
0.0
 11
3400.6631095035109
 21
2156.1730162464141
 31
0.0
  0
LINE
  5
7B96
  8
1
 10
3399.4631095035111
 20
2381.1730162464132
 30
0.0
 11
3399.4631095035111
 21
2406.1730162464132
 31
0.0
  0
LINE
  5
7B97
  8
1
 10
3399.4631095035111
 20
2381.1730162464141
 30
0.0
 11
3399.4631095035111
 21
2406.1730162464141
 31
0.0
  0
LINE
  5
7B98
  8
1
 10
1575.3709684807529
 20
3740.22137591093
 30
0.0
 11
953.37096848075305
 21
3740.2213759109268
 31
0.0
  0
LINE
  5
7B99
  8
1
 10
953.37096848075305
 20
3768.4213759109289
 30
0.0
 11
928.37096848075305
 21
3768.4213759109289
 31
0.0
  0
CIRCLE
  5
7B9B
  8
1
 10
1233.3709684807529
 20
1955.173016246413
 30
0.0
 40
139.69999999999999
  0
LINE
  5
7B9C
  8
1
 10
2776.340830639645
 20
2094.873016246413
 30
0.0
 11
2776.3408306396468
 21
1815.473016246412
 31
0.0
  0
LINE
  5
7B9D
  8
1
 10
2816.340830639645
 20
2094.873016246413
 30
0.0
 11
2816.3408306396468
 21
1815.473016246412
 31
0.0
  0
LINE
  5
7B9E
  8
1
 10
2729.4005922901351
 20
2175.1730162464141
 30
0.0
 11
2729.400592290136
 21
1615.173016246413
 31
0.0
  0
CIRCLE
  5
7B9F
  8
1
 10
1773.3709684807529
 20
1730.1730162464139
 30
0.0
 40
57.149999999999991
  0
LINE
  5
7BA0
  8
1
 10
2776.3408306396468
 20
1815.473016246412
 30
0.0
 11
2776.3408306396468
 21
1671.023016246409
 31
0.0
  0
LINE
  5
7BA1
  8
1
 10
2816.3408306396468
 20
1815.473016246412
 30
0.0
 11
2816.3408306396468
 21
1671.023016246409
 31
0.0
  0
LINE
  5
7BA2
  8
1
 10
2776.3408306396482
 20
1671.023016246409
 30
0.0
 11
2816.3408306396468
 21
1671.023016246409
 31
0.0
  0
LINE
  5
7BA3
  8
1
 10
2729.400592290136
 20
1615.173016246413
 30
0.0
 11
2851.400592290136
 21
1615.173016246413
 31
0.0
  0
LINE
  5
7BA4
  8
1
 10
2851.400592290136
 20
1635.173016246413
 30
0.0
 11
2851.400592290136
 21
1615.173016246413
 31
0.0
  0
LINE
  5
7BA5
  8
1
 10
2776.3408306396468
 20
1815.473016246412
 30
0.0
 11
2816.3408306396468
 21
1815.473016246412
 31
0.0
1001
ACAD
1000
ASC_BOUNDS
1002
{
1070
    19
1002
}
  0
LINE
  5
7BA6
  8
1
 10
2776.3408306396482
 20
1785.323016246409
 30
0.0
 11
2816.3408306396482
 21
1785.323016246409
 31
0.0
  0
LINE
  5
7BA7
  8
1
 10
2851.4005922901351
 20
2175.1730162464141
 30
0.0
 11
2729.4005922901351
 21
2175.1730162464141
 31
0.0
  0
LINE
  5
7BA8
  8
1
 10
2729.4005922901351
 20
2175.1730162464119
 30
0.0
 11
2851.4005922901351
 21
2175.1730162464119
 31
0.0
  0
LINE
  5
7BA9
  8
1
 10
2776.340830639645
 20
2094.873016246413
 30
0.0
 11
2816.340830639645
 21
2094.873016246413
 31
0.0
1001
ACAD
1000
ASC_BOUNDS
1002
{
1070
    19
1002
}
  0
LINE
  5
7BAA
  8
1
 10
2851.4005922901351
 20
2155.1730162464132
 30
0.0
 11
2851.4005922901351
 21
2175.1730162464141
 31
0.0
  0
LINE
  5
7BAB
  8
1
 10
1293.0078615962309
 20
2081.5040535236139
 30
0.0
 11
1802.196787582031
 21
1778.7584272660431
 31
0.0
  0
LINE
  5
7BAC
  8
1
 10
1233.3709684807509
 20
2218.7558274024618
 30
0.0
 11
1923.3709684807541
 21
1808.002423394192
 31
0.0
  0
LINE
  5
7BAD
  8
1
 10
1204.669854155127
 20
1818.4530980323241
 30
0.0
 11
1749.8568209510729
 21
1678.084559118636
 31
0.0
  0
LINE
  5
7BAE
  8
1
 10
1233.3709684807509
 20
2218.7558274024618
 30
0.0
 11
1043.370968480752
 21
2079.6990494741908
 31
0.0
  0
ARC
  5
7BAF
  8
1
 10
1773.3709684807529
 20
1730.1730162464139
 30
0.0
 40
100.8
 50
300.3932999999999
 51
0.0
  0
ARC
  5
7BB0
  8
1
 10
1773.3709684807529
 20
1730.1730162464139
 30
0.0
 40
100.8
 50
0.0
 51
239.69929999999999
  0
LINE
  5
7BB1
  8
1
 10
1838.3709684807529
 20
1650.1730162464139
 30
0.0
 11
1838.3709684807529
 21
1640.1730162464139
 31
0.0
  0
LINE
  5
7BB2
  8
1
 10
1848.3709684807529
 20
1650.1730162464139
 30
0.0
 11
1848.3709684807529
 21
1640.1730162464139
 31
0.0
  0
LINE
  5
7BB3
  8
1
 10
1843.3709684807529
 20
1635.806516246414
 30
0.0
 11
1843.3709684807529
 21
1652.709916246414
 31
0.0
  0
LINE
  5
7BB4
  8
1
 10
1861.3709684807529
 20
1640.1730162464139
 30
0.0
 11
1861.3709684807529
 21
1648.1730162464139
 31
0.0
  0
LINE
  5
7BB5
  8
1
 10
1708.3709684807529
 20
1650.1730162464139
 30
0.0
 11
1708.3709684807529
 21
1640.1730162464139
 31
0.0
  0
LINE
  5
7BB6
  8
1
 10
1698.3709684807529
 20
1650.1730162464139
 30
0.0
 11
1698.3709684807529
 21
1640.1730162464139
 31
0.0
  0
LINE
  5
7BB7
  8
1
 10
1703.3709684807529
 20
1635.806516246414
 30
0.0
 11
1703.3709684807529
 21
1652.709916246414
 31
0.0
  0
LINE
  5
7BB8
  8
2
 10
1773.3709684807529
 20
1581.275555082422
 30
0.0
 11
1773.3709684807529
 21
1838.6341162464139
 31
0.0
  0
LINE
  5
7BB9
  8
1
 10
1685.3709684807529
 20
1640.1730162464139
 30
0.0
 11
1685.3709684807529
 21
1648.1730162464139
 31
0.0
  0
ARC
  5
7BBA
  8
1
 10
1773.3709684807529
 20
1730.1730162464139
 30
0.0
 40
100.8
 50
300.3932999999999
 51
0.0
  0
LINE
  5
7BBB
  8
1
 10
1722.446868480753
 20
1643.1730162464139
 30
0.0
 11
1824.4019684807531
 21
1643.1730162464139
 31
0.0
  0
LINE
  5
7BBC
  8
1
 10
1722.446868480753
 20
1643.1730162464139
 30
0.0
 11
1824.4019684807531
 21
1643.1730162464139
 31
0.0
  0
LINE
  5
7BBD
  8
1
 10
1685.3709684807529
 20
1640.1730162464139
 30
0.0
 11
1725.3709684807529
 21
1640.1730162464139
 31
0.0
  0
LINE
  5
7BBE
  8
1
 10
1725.3709684807529
 20
1643.1458162464139
 30
0.0
 11
1725.3709684807529
 21
1640.1730162464139
 31
0.0
  0
LINE
  5
7BBF
  8
1
 10
1861.3709684807529
 20
1640.1730162464139
 30
0.0
 11
1821.3709684807529
 21
1640.1730162464139
 31
0.0
  0
LINE
  5
7BC0
  8
1
 10
1821.3709684807529
 20
1643.1040162464139
 30
0.0
 11
1821.3709684807529
 21
1640.1730162464139
 31
0.0
  0
LINE
  5
7BC1
  8
2
 10
1668.905768480754
 20
1730.1730162464139
 30
0.0
 11
1879.4737684807531
 21
1730.1730162464139
 31
0.0
  0
LINE
  5
7BC2
  8
1
 10
1712.046968480754
 20
1650.1730162464139
 30
0.0
 11
1687.3709684807529
 21
1650.1730162464139
 31
0.0
  0
LINE
  5
7BC3
  8
1
 10
1691.2244684807531
 20
1671.7557162464141
 30
0.0
 11
1685.3709684807529
 21
1648.1730162464139
 31
0.0
  0
ARC
  5
7BC4
  8
1
 10
1687.3709684807529
 20
1648.1730162464139
 30
0.0
 40
2.0
 50
90.0
 51
180.0
  0
LINE
  5
7BC5
  8
1
 10
1834.6598684807541
 20
1650.1730162464139
 30
0.0
 11
1859.3709684807529
 21
1650.1730162464139
 31
0.0
  0
LINE
  5
7BC6
  8
1
 10
1855.517568480753
 20
1671.7557162464141
 30
0.0
 11
1861.3709684807529
 21
1648.1730162464139
 31
0.0
  0
ARC
  5
7BC7
  8
1
 10
1859.3709684807529
 20
1648.1730162464139
 30
0.0
 40
2.0
 50
0.0
 51
90.0
  0
LINE
  5
7BC8
  8
1
 10
1897.086863005567
 20
1605.1730162464139
 30
0.0
 11
1885.8709684807541
 21
1640.1730162464139
 31
0.0
  0
LINE
  5
7BC9
  8
1
 10
1660.8709684807541
 20
1640.1730162464121
 30
0.0
 11
1649.655073955942
 21
1605.1730162464121
 31
0.0
  0
LINE
  5
7BCA
  8
1
 10
1885.8709684807541
 20
1640.173016246415
 30
0.0
 11
1660.8709684807541
 21
1640.1730162464121
 31
0.0
  0
LINE
  5
7BCB
  8
1
 10
1923.3709684807541
 20
1808.002423394192
 30
0.0
 11
1923.370968480757
 21
1605.1730162464139
 31
0.0
  0
LINE
  5
7BCC
  8
1
 10
1973.3709684807529
 20
1525.1730162464139
 30
0.0
 11
973.37096848075362
 21
1525.1730162464139
 31
0.0
  0
LINE
  5
7BCD
  8
1
 10
1973.3709684807529
 20
1605.1730162464139
 30
0.0
 11
973.37096848075362
 21
1605.173016246413
 31
0.0
  0
LINE
  5
7BCE
  8
1
 10
973.37096848075362
 20
1605.173016246413
 30
0.0
 11
973.37096848075362
 21
1525.1730162464139
 31
0.0
  0
LINE
  5
7BCF
  8
1
 10
1973.3709684807529
 20
1605.1730162464139
 30
0.0
 11
1973.3709684807529
 21
1525.1730162464139
 31
0.0
  0
LINE
  5
7BD4
  8
1
 10
2864.4631095035111
 20
1525.1730162464139
 30
0.0
 11
3414.463109503512
 21
1525.1730162464139
 31
0.0
  0
LINE
  5
7BD5
  8
1
 10
2864.4631095035111
 20
1605.1730162464139
 30
0.0
 11
3414.463109503512
 21
1605.1730162464139
 31
0.0
  0
LINE
  5
7BD6
  8
1
 10
3414.463109503512
 20
1525.1730162464139
 30
0.0
 11
3414.463109503512
 21
1605.1730162464139
 31
0.0
  0
LINE
  5
7BD7
  8
1
 10
2864.4631095035111
 20
1525.1730162464139
 30
0.0
 11
2864.4631095035111
 21
1605.1730162464139
 31
0.0
  0
LINE
  5
7BDC
  8
1
 10
1043.370968480752
 20
2079.6990494741908
 30
0.0
 11
1043.3709684807559
 21
1605.1730162464139
 31
0.0
  0
LINE
  5
7BDD
  8
1
 10
997.37096848075271
 20
1967.1730162464139
 30
0.0
 11
953.37096848075282
 21
1967.1730162464139
 31
0.0
  0
LINE
  5
7BDF
  8
2
 10
1233.3709684807529
 20
3119.0869589341351
 30
0.0
 11
1233.3709684807529
 21
3791.897729828293
 31
0.0
  0
LINE
  5
7BE0
  8
1
 10
1013.370968480753
 20
3098.3588586975538
 30
0.0
 11
1886.3709684807529
 21
3098.3588586975552
 31
0.0
  0
LINE
  5
7BE1
  8
1
 10
973.37096848075339
 20
3233.4213759109311
 30
0.0
 11
1219.3709684807529
 21
3233.4213759109298
 31
0.0
  0
LINE
  5
7BE2
  8
1
 10
1373.0709684807539
 20
3145.299097047066
 30
0.0
 11
1832.520968480758
 21
3145.2990970470628
 31
0.0
  0
LINE
  5
7BE3
  8
1
 10
1373.0709684807539
 20
3185.299097047066
 30
0.0
 11
1832.520968480758
 21
3185.299097047066
 31
0.0
  0
LINE
  5
7BE4
  8
1
 10
1886.3709684807529
 20
3098.3588586975552
 30
0.0
 11
1886.3709684807529
 21
3220.3588586975538
 31
0.0
  0
LINE
  5
7BE5
  8
1
 10
1832.520968480758
 20
3145.2990970470669
 30
0.0
 11
1832.520968480758
 21
3185.299097047066
 31
0.0
  0
LINE
  5
7BE6
  8
1
 10
1718.220968480759
 20
3145.2990970470669
 30
0.0
 11
1718.220968480759
 21
3185.299097047066
 31
0.0
  0
LINE
  5
7BE7
  8
1
 10
1866.3709684807529
 20
3220.3588586975538
 30
0.0
 11
1886.3709684807529
 21
3220.3588586975538
 31
0.0
  0
LINE
  5
7BE8
  8
1
 10
1093.6709684807529
 20
3185.2990970470642
 30
0.0
 11
1373.0709684807539
 21
3185.299097047066
 31
0.0
  0
LINE
  5
7BE9
  8
1
 10
1093.6709684807529
 20
3145.2990970470628
 30
0.0
 11
1373.0709684807539
 21
3145.299097047066
 31
0.0
  0
LINE
  5
7BEA
  8
1
 10
1373.0709684807539
 20
3145.299097047066
 30
0.0
 11
1373.0709684807539
 21
3185.299097047066
 31
0.0
1001
ACAD
1000
ASC_BOUNDS
1002
{
1070
    19
1002
}
  0
LINE
  5
7BEB
  8
1
 10
1093.6709684807529
 20
3145.2990970470628
 30
0.0
 11
1093.6709684807529
 21
3185.2990970470642
 31
0.0
1001
ACAD
1000
ASC_BOUNDS
1002
{
1070
    19
1002
}
  0
LINE
  5
7BEC
  8
1
 10
1013.370968480754
 20
3098.3588586975538
 30
0.0
 11
1013.370968480754
 21
3220.3588586975538
 31
0.0
  0
LINE
  5
7BED
  8
1
 10
1013.370968480753
 20
3220.3588586975538
 30
0.0
 11
1013.370968480753
 21
3098.3588586975538
 31
0.0
  0
LINE
  5
7BEE
  8
1
 10
1033.3709684807529
 20
3220.3588586975538
 30
0.0
 11
1013.370968480753
 21
3220.3588586975538
 31
0.0
  0
LINE
  5
7BEF
  8
2
 10
1773.3709684807529
 20
3532.5570960510022
 30
0.0
 11
1773.3709684807529
 21
3112.5597508244082
 31
0.0
  0
LINE
  5
7BF0
  8
1
 10
1973.3709684807529
 20
3233.4213759109289
 30
0.0
 11
1973.3709684807529
 21
3783.4213759109289
 31
0.0
  0
LINE
  5
7BF1
  8
1
 10
973.37096848075362
 20
3233.4213759109298
 30
0.0
 11
973.37096848075362
 21
3397.6213759109291
 31
0.0
  0
LINE
  5
7BF2
  8
1
 10
973.37096848075362
 20
3783.4213759109298
 30
0.0
 11
1973.3709684807529
 21
3783.4213759109289
 31
0.0
  0
LINE
  5
7BF3
  8
1
 10
1933.3709684807529
 20
3273.4213759109289
 30
0.0
 11
1933.3709684807529
 21
3743.4213759109298
 31
0.0
  0
LINE
  5
7BF4
  8
1
 10
973.37096848075362
 20
3743.4213759109298
 30
0.0
 11
1973.3709684807529
 21
3743.4213759109298
 31
0.0
  0
LINE
  5
7BF9
  8
1
 10
973.37096848075339
 20
3273.4213759109311
 30
0.0
 11
1018.370968480754
 21
3273.4213759109321
 31
0.0
  0
LINE
  5
7BFA
  8
1
 10
1247.3709684807529
 20
3233.4213759109311
 30
0.0
 11
1692.980697101154
 21
3233.4213759109289
 31
0.0
  0
LINE
  5
7BFB
  8
2
 10
2878.5857416027702
 20
1730.1730162464139
 30
0.0
 11
2705.9418933055308
 21
1730.1730162464139
 31
0.0
  0
LINE
  5
7BFC
  8
1
 10
1672.3709684807529
 20
3403.6745019301688
 30
0.0
 11
1672.3709684807529
 21
3435.9722650072422
 31
0.0
  0
LINE
  5
7BFD
  8
1
 10
1672.3709684807529
 20
3435.9722650072422
 30
0.0
 11
1874.3709684807541
 21
3435.9722650072422
 31
0.0
  0
LINE
  5
7BFE
  8
1
 10
1672.3709684807529
 20
3435.9722650072422
 30
0.0
 11
1693.3709684807529
 21
3486.1717176986949
 31
0.0
  0
LINE
  5
7BFF
  8
1
 10
1693.3709684807529
 20
3486.1717176986949
 30
0.0
 11
1853.3709684807529
 21
3486.1717176986949
 31
0.0
  0
LINE
  5
7C00
  8
1
 10
1672.3709684807529
 20
3255.841290781193
 30
0.0
 11
1692.9806971011551
 21
3248.1225046102022
 31
0.0
  0
LINE
  5
7C01
  8
1
 10
1672.3709684807529
 20
3396.4918406020879
 30
0.0
 11
1693.9171933753189
 21
3403.6745019301688
 31
0.0
  0
LINE
  5
7C02
  8
1
 10
1672.3709684807529
 20
3403.6745019301688
 30
0.0
 11
1874.3709684807541
 21
3403.6745019301688
 31
0.0
  0
LINE
  5
7C03
  8
1
 10
1761.3709684807541
 20
3159.1717176986949
 30
0.0
 11
1761.3709684807529
 21
3209.1717176986958
 31
0.0
  0
LINE
  5
7C04
  8
1
 10
1785.3709684807529
 20
3159.1717176986949
 30
0.0
 11
1785.3709684807541
 21
3209.1717176986958
 31
0.0
  0
LINE
  5
7C05
  8
1
 10
1692.980697101154
 20
3248.1225046102022
 30
0.0
 11
1853.7612398603519
 21
3248.1225046102022
 31
0.0
  0
LINE
  5
7C06
  8
1
 10
1853.7612398603519
 20
3222.1458192282521
 30
0.0
 11
1773.370968480755
 21
3222.1458192282521
 31
0.0
  0
LINE
  5
7C07
  8
1
 10
1853.7612398603519
 20
3222.1458192282521
 30
0.0
 11
1853.7612398603519
 21
3248.1225046102022
 31
0.0
  0
LINE
  5
7C08
  8
1
 10
1759.5668973671129
 20
3209.1717176986958
 30
0.0
 11
1785.3709684807541
 21
3209.1717176986958
 31
0.0
  0
LINE
  5
7C09
  8
1
 10
1692.980697101154
 20
3222.1458192282521
 30
0.0
 11
1773.3709684807529
 21
3222.1458192282521
 31
0.0
  0
LINE
  5
7C0A
  8
1
 10
1718.91218447748
 20
3214.1717176986949
 30
0.0
 11
1827.829752484027
 21
3214.1717176986949
 31
0.0
  0
LINE
  5
7C0B
  8
1
 10
1787.1750395943941
 20
3214.1717176986949
 30
0.0
 11
1787.1750395943941
 21
3209.1717176986958
 31
0.0
  0
LINE
  5
7C0C
  8
1
 10
1827.829752484027
 20
3214.1717176986949
 30
0.0
 11
1827.829752484027
 21
3222.1458192282521
 31
0.0
  0
LINE
  5
7C0D
  8
1
 10
1718.91218447748
 20
3214.1717176986949
 30
0.0
 11
1718.91218447748
 21
3222.1458192282521
 31
0.0
  0
LINE
  5
7C0E
  8
1
 10
1759.5668973671129
 20
3214.1717176986949
 30
0.0
 11
1759.5668973671129
 21
3209.1717176986958
 31
0.0
  0
LINE
  5
7C0F
  8
1
 10
1692.980697101154
 20
3222.1458192282521
 30
0.0
 11
1692.980697101154
 21
3248.1225046102022
 31
0.0
  0
LINE
  5
7C10
  8
1
 10
1761.3709684807541
 20
3159.1717176986949
 30
0.0
 11
1785.3709684807529
 21
3159.1717176986949
 31
0.0
  0
LINE
  5
7C11
  8
1
 10
1672.3709684807529
 20
3255.8412907811921
 30
0.0
 11
1672.3709684807529
 21
3396.4918406020879
 31
0.0
  0
LINE
  5
7C12
  8
1
 10
1874.3709684807541
 20
3255.841290781193
 30
0.0
 11
1853.7612398603519
 21
3248.1225046102022
 31
0.0
  0
LINE
  5
7C13
  8
1
 10
1874.3709684807541
 20
3255.8412907811921
 30
0.0
 11
1874.3709684807541
 21
3396.4918406020879
 31
0.0
  0
LINE
  5
7C14
  8
1
 10
1874.3709684807541
 20
3396.4918406020879
 30
0.0
 11
1852.824743586189
 21
3403.6745019301688
 31
0.0
  0
LINE
  5
7C15
  8
1
 10
1874.3709684807541
 20
3403.6745019301688
 30
0.0
 11
1874.3709684807541
 21
3435.9722650072422
 31
0.0
  0
LINE
  5
7C16
  8
1
 10
1874.3709684807541
 20
3435.9722650072422
 30
0.0
 11
1853.3709684807541
 21
3486.1717176986949
 31
0.0
  0
LINE
  5
7C3A
  8
4
 10
3700.0
 20
1000.0
 30
0.0
 11
3700.0
 21
600.0
 31
0.0
  0
LINE
  5
7C3B
  8
4
 10
2300.0
 20
1000.0
 30
0.0
 11
2300.0
 21
600.0
 31
0.0
  0
LINE
  5
7C3C
  8
4
 10
1300.0
 20
1000.0
 30
0.0
 11
1300.0
 21
600.0
 31
0.0
  0
LINE
  5
7C3F
  8
4
 10
1300.0
 20
600.0
 30
0.0
 11
3700.0
 21
600.0
 31
0.0
  0
LINE
  5
7C40
  8
4
 10
1300.0
 20
800.0
 30
0.0
 11
3700.0
 21
800.0
 31
0.0
  0
TEXT
  5
7C41
  8
4
 10
1377.0041616938031
 20
863.08605173322564
 30
0.0
 40
100.0
  1
機器名称
  0
TEXT
  5
7C42
  8
4
 10
1372.516212049595
 20
643.29031346402189
 30
0.0
 40
100.0
  1
機器型番
  0
TEXT
  5
7C43
  8
4
 10
2355.3574909753288
 20
845.14353791513713
 30
0.0
 40
100.0
  1
ミツヤ厨房用ファン
  0
TEXT
  5
7C44
  8
4
 10
2373.3089911709608
 20
634.31916855988675
 30
0.0
 40
100.0
  1
MFK#2 1/2-1
  0
TEXT
  5
7C46
  8
4
 10
1544.7060390933359
 20
4766.8576826650306
 30
0.0
 40
107.9999999999999
  1
床置ベット
  0
TEXT
  5
7C47
  8
4
 10
632.33518665889278
 20
5067.7619523985959
 30
0.0
 40
144.0
  1
ベルト駆動式片吸込片持多翼ファン
  0
LINE
  5
7C48
  8
4
 10
500.0
 20
4938.8175085296089
 30
0.0
 11
3700.0
 21
4938.8175085296089
 31
0.0
  0
LINE
  5
7C49
  8
4
 10
500.0
 20
5338.8175085296098
 30
0.0
 11
3700.0
 21
5338.8175085296098
 31
0.0
  0
LINE
  5
7C4A
  8
4
 10
1300.0
 20
1000.0
 30
0.0
 11
3700.0
 21
1000.0
 31
0.0
  0
LINE
  5
7C4B
  8
4
 10
500.0
 20
5338.8175085296098
 30
0.0
 11
500.0
 21
4938.8175085296089
 31
0.0
  0
TEXT
  5
7C4C
  8
4
 10
672.98837460793209
 20
4764.638955092687
 30
0.0
 40
107.9999999999999
  1
左回転左横向
  0
TEXT
  5
7C4D
  8
4
 10
2937.9391184985789
 20
5412.1221629906177
 30
0.0
 40
112.0
  1
No.
  0
TEXT
  5
7C4E
  8
4
 10
2622.5921252000262
 20
4766.8576826650306
 30
0.0
 40
107.9999999999999
  1
縮尺：1/20
  0
LINE
  5
7C4F
  8
4
 10
3700.0
 20
5338.8175085296098
 30
0.0
 11
3700.0
 21
4938.8175085296089
 31
0.0
  0
LINE
  5
7C50
  8
4
 10
4200.0
 20
5900.0
 30
0.0
 11
4200.0
 21
5900.0
 31
0.0
  0
LINE
  5
7C51
  8
4
 10
2881.2348447197292
 20
5362.5271662508021
 30
0.0
 11
2881.2348447197292
 21
5573.3045230995049
 31
0.0
  0
LINE
  5
7C52
  8
4
 10
2881.2348447197292
 20
5573.3045230995049
 30
0.0
 11
3700.0
 21
5573.3045230995049
 31
0.0
  0
LINE
  5
7C53
  8
4
 10
3700.0
 20
5573.3045230995049
 30
0.0
 11
3700.0
 21
5362.5271662508021
 31
0.0
  0
LINE
  5
7C54
  8
4
 10
3700.0
 20
5362.5271662508021
 30
0.0
 11
2881.2348447197292
 21
5362.5271662508021
 31
0.0
  0
LINE
  5
7C55
  8
4
 10
0.0
 20
0.0
 30
0.0
 11
0.0
 21
5900.0
 31
0.0
  0
LINE
  5
7C56
  8
4
 10
0.0
 20
5900.0
 30
0.0
 11
4200.0
 21
5900.0
 31
0.0
  0
LINE
  5
7C57
  8
4
 10
4200.0
 20
5900.0
 30
0.0
 11
4200.0
 21
0.0
 31
0.0
  0
LINE
  5
7C58
  8
4
 10
4200.0
 20
0.0
 30
0.0
 11
0.0
 21
0.0
 31
0.0
  0
DIMENSION
  5
7C68
  8
3
  2
*D1
 10
973.37096848075362
 20
3953.7278612667769
 30
0.0
 11
1476.8584710025309
 21
3953.7278612667769
 31
0.0
 70
   128
 13
1973.3709684807529
 23
3783.4213759109289
 33
0.0
 14
973.37096848075362
 24
3783.4213759109298
 34
0.0
1001
ACAD
1000
DSTYLE
1002
{
1070
   287
1070
     3
1070
   287
1070
     3
1070
    40
1040
20.0
1070
   143
1040
0.039
1070
   172
1070
     1
1070
   271
1070
     0
1070
   279
1070
     0
1070
   288
1070
     1
1002
}
  0
DIMENSION
  5
7C75
  8
3
  2
*D2
 10
2070.6616671539819
 20
3233.4213759109289
 30
0.0
 11
2070.6616671539809
 21
3532.9735663187089
 31
0.0
 70
   128
 13
1973.3709684807529
 23
3783.4213759109289
 33
0.0
 14
1973.3709684807529
 24
3233.4213759109289
 34
0.0
 50
270.0
1001
ACAD
1000
DSTYLE
1002
{
1070
   287
1070
     3
1070
   287
1070
     3
1070
    40
1040
20.0
1070
   143
1040
0.039
1070
   172
1070
     1
1070
   271
1070
     0
1070
   279
1070
     0
1070
   288
1070
     1
1002
}
  0
DIMENSION
  5
7C82
  8
3
  2
*D3
 10
1233.3709684807529
 20
2503.6427678574619
 30
0.0
 11
1096.2281113378961
 21
2503.6427678574619
 31
0.0
 70
   128
 13
928.37096848075305
 23
2406.1730162464141
 33
0.0
 14
1233.3709684807529
 24
2388.3981287251781
 34
0.0
1001
ACAD
1000
DSTYLE
1002
{
1070
   287
1070
     3
1070
   287
1070
     3
1070
    40
1040
20.0
1070
   143
1040
0.039
1070
   172
1070
     1
1070
   271
1070
     0
1070
   279
1070
     0
1070
   288
1070
     1
1002
}
  0
DIMENSION
  5
7C8E
  8
3
  2
*D4
 10
1575.3709684807529
 20
2503.6427678574619
 30
0.0
 11
1404.3709684807529
 21
2553.6427678574619
 31
0.0
 70
     0
 13
1233.3709684807529
 23
2388.3981287251781
 33
0.0
 14
1575.3709684807529
 24
1985.1730162464139
 34
0.0
1001
ACAD
1000
DSTYLE
1002
{
1070
   287
1070
     4
1070
   287
1070
     4
1070
    40
1040
20.0
1070
    75
1070
     1
1070
   143
1040
0.039
1070
   172
1070
     1
1070
   271
1070
     0
1070
   279
1070
     1
1070
   288
1070
     1
1002
}
  0
DIMENSION
  5
7C9B
  8
3
  2
*D5
 10
785.40663801162771
 20
1967.1730162464139
 30
0.0
 11
785.40663801162736
 21
2170.4105152484308
 31
0.0
 70
   128
 13
953.37096848075305
 23
2379.1730162464141
 33
0.0
 14
953.37096848075282
 24
1967.1730162464139
 34
0.0
 50
270.0
1001
ACAD
1000
DSTYLE
1002
{
1070
   287
1070
     3
1070
   287
1070
     3
1070
    40
1040
20.0
1070
   143
1040
0.039
1070
   172
1070
     1
1070
   271
1070
     0
1070
   279
1070
     0
1070
   288
1070
     1
1002
}
  0
DIMENSION
  5
7CA8
  8
3
  2
*D6
 10
658.83227683723476
 20
1955.1730162464139
 30
0.0
 11
658.83227683723453
 21
2165.5458149362439
 31
0.0
 70
   128
 13
953.37096848075305
 23
2379.1730162464141
 33
0.0
 14
924.56505401862205
 24
1955.1730162464139
 34
0.0
 50
270.0
1001
ACAD
1000
DSTYLE
1002
{
1070
   287
1070
     3
1070
   287
1070
     3
1070
    40
1040
20.0
1070
   143
1040
0.039
1070
   172
1070
     1
1070
   271
1070
     0
1070
   279
1070
     0
1070
   288
1070
     1
1002
}
  0
DIMENSION
  5
7CB4
  8
3
  2
*D7
 10
658.83227683723453
 20
1525.1730162464139
 30
0.0
 11
608.8322768372343
 21
1740.1730162464139
 31
0.0
 70
     0
 13
924.56505401862205
 23
1955.1730162464139
 33
0.0
 14
973.37096848075362
 24
1525.1730162464139
 34
0.0
 50
270.0
1001
ACAD
1000
DSTYLE
1002
{
1070
   287
1070
     4
1070
   287
1070
     4
1070
    40
1040
20.0
1070
    75
1070
     1
1070
   143
1040
0.039
1070
   172
1070
     1
1070
   271
1070
     0
1070
   279
1070
     1
1070
   288
1070
     1
1002
}
  0
DIMENSION
  5
7DCB
  8
3
  2
*D9
 10
3372.4631095035111
 20
2522.4994118821792
 30
0.0
 11
3235.3202523606542
 21
2522.4994118821792
 31
0.0
 70
   128
 13
3072.4631095035111
 23
2384.1730162464141
 33
0.0
 14
3372.4631095035111
 24
2384.1730162464141
 34
0.0
1001
ACAD
1000
DSTYLE
1002
{
1070
   287
1070
     3
1070
   287
1070
     3
1070
    40
1040
20.0
1070
   143
1040
0.039
1070
   172
1070
     1
1070
   271
1070
     0
1070
   279
1070
     0
1070
   288
1070
     1
1002
}
  0
DIMENSION
  5
7DE4
  8
3
  2
*D10
 10
3222.4631095035111
 20
2687.3336806613588
 30
0.0
 11
3300.5875751014751
 21
2743.6819518332259
 31
0.0
 70
   128
 13
3375.0631074010798
 23
2384.1750668214868
 33
0.0
 14
3222.4631095035111
 24
2596.5188739995801
 34
0.0
1001
ACAD
1000
DSTYLE
1002
{
1070
   288
1070
     1
1070
   172
1070
     1
1070
    40
1040
20.0
1070
   271
1070
     0
1070
   143
1040
0.039
1002
}
  0
DIMENSION
  5
7E12
  8
3
  2
*D11
 10
2729.4005922901351
 20
2687.3336806613588
 30
0.0
 11
2975.9318508968231
 21
2787.3336806613588
 31
0.0
 70
     0
  1
MAX\P500
 13
3222.4631095035111
 23
2596.5188739995801
 33
0.0
 14
2729.4005922901351
 24
2175.1730162464119
 34
0.0
1001
ACAD
1000
DSTYLE
1002
{
1070
   287
1070
     4
1070
   287
1070
     4
1070
    40
1040
20.0
1070
    75
1070
     1
1070
   143
1040
0.039
1070
   172
1070
     1
1070
   271
1070
     0
1070
   279
1070
     1
1070
   288
1070
     1
1002
}
  0
LINE
  5
7E54
  8
1
 10
1874.3709684807541
 20
3273.4213759109289
 30
0.0
 11
1973.3709684807529
 21
3273.4213759109289
 31
0.0
  0
LINE
  5
7E55
  8
1
 10
1853.7612398603519
 20
3233.4213759109289
 30
0.0
 11
1973.3709684807529
 21
3233.4213759109289
 31
0.0
  0
DIMENSION
  5
7E64
  8
3
  2
*D12
 10
3538.632966082343
 20
1755.1730162464139
 30
0.0
 11
3538.6329660823421
 21
1959.554907007956
 31
0.0
 70
   128
 13
3374.063109503511
 23
2155.1730162464141
 33
0.0
 14
3375.2631095035072
 24
1755.1730162464139
 34
0.0
 50
90.0
1001
ACAD
1000
DSTYLE
1002
{
1070
   287
1070
     3
1070
   287
1070
     3
1070
     3
1000
φ<>
1070
    40
1040
20.0
1070
   143
1040
0.039
1070
   172
1070
     1
1070
   271
1070
     0
1070
   279
1070
     0
1070
   288
1070
     1
1002
}
  0
LINE
  5
7F11
  8
1
 10
2846.5587519121618
 20
1743.9770873600551
 30
0.0
 11
2846.5587519121618
 21
1718.1730162464139
 31
0.0
  0
LINE
  5
7F12
  8
1
 10
2859.5328534417172
 20
1810.5632876260131
 30
0.0
 11
2859.5328534417172
 21
1730.173016246415
 31
0.0
  0
LINE
  5
7F13
  8
1
 10
2796.5587519121609
 20
1742.1730162464139
 30
0.0
 11
2796.5587519121609
 21
1718.1730162464139
 31
0.0
  0
LINE
  5
7F14
  8
1
 10
3073.3592992207082
 20
1831.1730162464139
 30
0.0
 11
3073.3592992207082
 21
1629.173016246413
 31
0.0
  0
LINE
  5
7F15
  8
1
 10
3123.5587519121609
 20
1810.1730162464139
 30
0.0
 11
3123.5587519121609
 21
1650.1730162464139
 31
0.0
  0
LINE
  5
7F16
  8
1
 10
3041.0615361436348
 20
1831.1730162464139
 30
0.0
 11
3041.0615361436348
 21
1629.173016246413
 31
0.0
  0
LINE
  5
7F17
  8
1
 10
2885.5095388236668
 20
1810.5632876260131
 30
0.0
 11
2885.5095388236668
 21
1649.7827448668149
 31
0.0
  0
LINE
  5
7F18
  8
1
 10
2851.5587519121618
 20
1784.6318002496871
 30
0.0
 11
2851.5587519121618
 21
1675.71423224314
 31
0.0
  0
LINE
  5
7F19
  8
1
 10
3041.0615361436348
 20
1831.1730162464139
 30
0.0
 11
3073.3592992207082
 21
1831.1730162464139
 31
0.0
  0
LINE
  5
7F1B
  8
1
 10
2796.5587519121609
 20
1742.1730162464139
 30
0.0
 11
2846.5587519121618
 21
1742.1730162464139
 31
0.0
  0
LINE
  5
7F1C
  8
1
 10
3033.8788748155539
 20
1831.1730162464139
 30
0.0
 11
3041.0615361436348
 21
1809.6267913518491
 31
0.0
  0
LINE
  5
7F1D
  8
1
 10
2893.2283249946581
 20
1831.1730162464139
 30
0.0
 11
2885.5095388236668
 21
1810.563287626012
 31
0.0
  0
LINE
  5
7F1E
  8
1
 10
2893.2283249946572
 20
1831.1730162464139
 30
0.0
 11
3033.8788748155539
 21
1831.1730162464139
 31
0.0
  0
LINE
  5
7F1F
  8
1
 10
2851.5587519121618
 20
1784.6318002496871
 30
0.0
 11
2859.5328534417172
 21
1784.6318002496871
 31
0.0
  0
LINE
  5
7F20
  8
1
 10
2859.5328534417172
 20
1810.5632876260131
 30
0.0
 11
2885.5095388236668
 21
1810.5632876260131
 31
0.0
  0
LINE
  5
7F21
  8
1
 10
2851.5587519121618
 20
1743.9770873600551
 30
0.0
 11
2846.5587519121618
 21
1743.9770873600551
 31
0.0
  0
LINE
  5
7F22
  8
1
 10
3073.3592992207082
 20
1831.1730162464139
 30
0.0
 11
3123.5587519121609
 21
1810.1730162464139
 31
0.0
  0
LINE
  5
7F23
  8
2
 10
3169.9441302644682
 20
1730.1730162464139
 30
0.0
 11
2749.9467850378742
 21
1730.1730162464139
 31
0.0
  0
LINE
  5
7F24
  8
1
 10
3041.0615361436348
 20
1629.173016246413
 30
0.0
 11
3073.3592992207082
 21
1629.173016246413
 31
0.0
  0
LINE
  5
7F25
  8
1
 10
2796.5587519121609
 20
1718.1730162464139
 30
0.0
 11
2846.5587519121618
 21
1718.1730162464139
 31
0.0
  0
LINE
  5
7F28
  8
1
 10
3033.8788748155539
 20
1629.173016246413
 30
0.0
 11
3041.0615361436348
 21
1650.719241140979
 31
0.0
  0
LINE
  5
7F29
  8
1
 10
2893.2283249946581
 20
1629.173016246413
 30
0.0
 11
2885.5095388236668
 21
1649.7827448668149
 31
0.0
  0
LINE
  5
7F2A
  8
1
 10
2859.5328534417172
 20
1649.7827448668149
 30
0.0
 11
2859.5328534417172
 21
1730.173016246413
 31
0.0
  0
LINE
  5
7F2B
  8
1
 10
2851.5587519121618
 20
1716.3689451327739
 30
0.0
 11
2846.5587519121618
 21
1716.3689451327739
 31
0.0
  0
LINE
  5
7F2C
  8
1
 10
2851.5587519121618
 20
1675.71423224314
 30
0.0
 11
2859.5328534417172
 21
1675.71423224314
 31
0.0
  0
LINE
  5
7F2D
  8
1
 10
2859.5328534417172
 20
1649.7827448668149
 30
0.0
 11
2885.5095388236668
 21
1649.7827448668149
 31
0.0
  0
LINE
  5
7F2E
  8
1
 10
2893.2283249946572
 20
1629.173016246413
 30
0.0
 11
3033.8788748155539
 21
1629.173016246413
 31
0.0
  0
LINE
  5
7F30
  8
1
 10
3073.3592992207082
 20
1629.173016246413
 30
0.0
 11
3123.5587519121609
 21
1650.173016246413
 31
0.0
  0
LINE
  5
7F31
  8
1
 10
2864.4631095035111
 20
1649.7827448668149
 30
0.0
 11
2864.4631095035111
 21
1609.1730162464139
 31
0.0
  0
LINE
  5
7F32
  8
1
 10
2864.463109503512
 20
1649.7827448668149
 30
0.0
 11
2864.4631095035111
 21
1605.1730162464139
 31
0.0
  0
LINE
  5
7F33
  8
1
 10
3069.6631095035182
 20
1831.1730162464139
 30
0.0
 11
3069.6631095035241
 21
1940.1730162464139
 31
0.0
  0
LINE
  5
7F34
  8
1
 10
2900.4627634955941
 20
1629.173016246413
 30
0.0
 11
2900.4627634955941
 21
1605.1730162464139
 31
0.0
  0
LINE
  5
7F35
  8
1
 10
3055.565856183191
 20
1629.173016246413
 30
0.0
 11
3055.565856183191
 21
1605.1730162464139
 31
0.0
  0
LINE
  5
7F68
  8
1
 10
1503.3709684807541
 20
3407.6213759109278
 30
0.0
 11
1503.3709684807541
 21
3442.6213759109278
 31
0.0
  0
LINE
  5
7F69
  8
1
 10
963.37096848075362
 20
3407.6213759109278
 30
0.0
 11
963.37096848075362
 21
3442.6213759109278
 31
0.0
  0
LINE
  5
7F6A
  8
1
 10
1343.3709684807541
 20
3362.6213759109291
 30
0.0
 11
1458.3709684807541
 21
3362.6213759109291
 31
0.0
  0
LINE
  5
7F6B
  8
1
 10
1410.6709684807529
 20
3235.3213759109271
 30
0.0
 11
1247.3709684807529
 21
3235.3213759109271
 31
0.0
  0
LINE
  5
7F6C
  8
1
 10
1247.3709684807529
 20
3173.3213759109258
 30
0.0
 11
1247.3709684807529
 21
3362.6213759109291
 31
0.0
  0
LINE
  5
7F6D
  8
1
 10
1219.3709684807529
 20
3173.3213759109258
 30
0.0
 11
1219.3709684807541
 21
3362.6213759109291
 31
0.0
  0
LINE
  5
7F6E
  8
1
 10
1246.3709684807529
 20
3172.3213759109258
 30
0.0
 11
1247.3709684807529
 21
3173.3213759109258
 31
0.0
  0
LINE
  5
7F6F
  8
1
 10
1220.3709684807529
 20
3172.3213759109258
 30
0.0
 11
1219.3709684807529
 21
3173.3213759109258
 31
0.0
  0
LINE
  5
7F70
  8
1
 10
1220.3709684807529
 20
3172.3213759109258
 30
0.0
 11
1246.3709684807529
 21
3172.3213759109258
 31
0.0
  0
LINE
  5
7F71
  8
1
 10
1123.3709684807529
 20
3362.6213759109291
 30
0.0
 11
1343.3709684807541
 21
3362.6213759109291
 31
0.0
  0
LINE
  5
7F72
  8
1
 10
1219.3709684807529
 20
3235.321375910924
 30
0.0
 11
1056.0709684807539
 21
3235.3213759109271
 31
0.0
  0
LINE
  5
7F73
  8
1
 10
1018.370968480754
 20
3246.621375910926
 30
0.0
 11
1018.370968480754
 21
3362.6213759109291
 31
0.0
  0
LINE
  5
7F74
  8
1
 10
1056.0709684807539
 20
3235.3213759109271
 30
0.0
 11
1056.0709684807539
 21
3362.6213759109291
 31
0.0
  0
LINE
  5
7F75
  8
1
 10
1018.370968480754
 20
3246.621375910926
 30
0.0
 11
1023.370968480754
 21
3241.6213759109269
 31
0.0
  0
LINE
  5
7F76
  8
1
 10
1023.370968480754
 20
3241.6213759109269
 30
0.0
 11
1056.1102667803571
 21
3241.6213759109269
 31
0.0
  0
LINE
  5
7F77
  8
1
 10
1008.370968480753
 20
3362.6213759109291
 30
0.0
 11
1123.3709684807529
 21
3362.6213759109291
 31
0.0
  0
LINE
  5
7F78
  8
1
 10
1008.370968480753
 20
3362.6213759109291
 30
0.0
 11
963.37096848075362
 21
3407.6213759109278
 31
0.0
  0
LINE
  5
7F79
  8
1
 10
1448.3709684807529
 20
3246.621375910926
 30
0.0
 11
1448.3709684807529
 21
3362.6213759109291
 31
0.0
  0
LINE
  5
7F7A
  8
1
 10
1410.6709684807529
 20
3235.3213759109271
 30
0.0
 11
1410.6709684807529
 21
3362.6213759109291
 31
0.0
  0
LINE
  5
7F7B
  8
1
 10
1443.3709684807529
 20
3241.6213759109269
 30
0.0
 11
1448.3709684807529
 21
3246.621375910926
 31
0.0
  0
LINE
  5
7F7C
  8
1
 10
1410.63167018115
 20
3241.6213759109269
 30
0.0
 11
1443.3709684807529
 21
3241.6213759109269
 31
0.0
  0
LINE
  5
7F7D
  8
1
 10
1503.3709684807541
 20
3407.6213759109278
 30
0.0
 11
1458.3709684807541
 21
3362.6213759109291
 31
0.0
  0
LINE
  5
7F7E
  8
1
 10
963.37096848075362
 20
3442.6213759109278
 30
0.0
 11
1503.3709684807541
 21
3442.6213759109278
 31
0.0
  0
LINE
  5
7F7F
  8
1
 10
1013.370968480753
 20
3273.4213759109311
 30
0.0
 11
1013.370968480753
 21
3362.6213759109291
 31
0.0
  0
LINE
  5
7F80
  8
1
 10
1013.370968480753
 20
3740.2213759109281
 30
0.0
 11
1013.370968480753
 21
3783.4213759109289
 31
0.0
  0
LINE
  5
7F81
  8
1
 10
973.37096848075362
 20
3740.2213759109281
 30
0.0
 11
973.37096848075362
 21
3783.4213759109289
 31
0.0
  0
LINE
  5
7F82
  8
1
 10
1448.3709684807529
 20
3273.4213759109311
 30
0.0
 11
1672.3709684807529
 21
3273.4213759109289
 31
0.0
  0
DIMENSION
  5
7F95
  8
3
  2
*D13
 10
1233.3709684807529
 20
1389.773181979326
 30
0.0
 11
1103.3709684807529
 21
1439.773181979326
 31
0.0
 70
     0
 13
973.37096848075362
 23
1525.1730162464139
 33
0.0
 14
1233.3709684807529
 24
1525.1730162464139
 34
0.0
1001
ACAD
1000
DSTYLE
1002
{
1070
   287
1070
     3
1070
   287
1070
     3
1070
    40
1040
20.0
1070
   143
1040
0.039
1070
   172
1070
     1
1070
   271
1070
     0
1070
   279
1070
     0
1002
}
  0
DIMENSION
  5
7FA2
  8
3
  2
*D14
 10
1973.3709684807529
 20
1389.773181979326
 30
0.0
 11
1603.3709684807529
 21
1439.773181979326
 31
0.0
 70
     0
 13
1233.3709684807529
 23
1525.1730162464139
 33
0.0
 14
1973.3709684807529
 24
1525.1730162464139
 34
0.0
1001
ACAD
1000
DSTYLE
1002
{
1070
   287
1070
     3
1070
   287
1070
     3
1070
    40
1040
20.0
1070
   143
1040
0.039
1070
   172
1070
     1
1070
   271
1070
     0
1070
   279
1070
     0
1002
}
  0
DIMENSION
  5
7FAF
  8
3
  2
*D15
 10
3222.463109503512
 20
1389.773181979326
 30
0.0
 11
3043.463109503512
 21
1439.773181979326
 31
0.0
 70
     0
 13
2864.4631095035111
 23
1525.1730162464139
 33
0.0
 14
3222.463109503512
 24
1525.1730162464139
 34
0.0
1001
ACAD
1000
DSTYLE
1002
{
1070
   287
1070
     3
1070
   287
1070
     3
1070
    40
1040
20.0
1070
   143
1040
0.039
1070
   172
1070
     1
1070
   271
1070
     0
1070
   279
1070
     0
1002
}
  0
DIMENSION
  5
7FBE
  8
3
  2
*D16
 10
3414.463109503512
 20
1389.773181979326
 30
0.0
 11
3318.463109503512
 21
1439.773181979326
 31
0.0
 70
     0
 13
3222.463109503512
 23
1525.1730162464139
 33
0.0
 14
3414.463109503512
 24
1525.1730162464139
 34
0.0
1001
ACAD
1000
DSTYLE
1002
{
1070
   287
1070
     3
1070
   287
1070
     3
1070
    40
1040
20.0
1070
   143
1040
0.039
1070
   172
1070
     1
1070
   271
1070
     0
1070
   279
1070
     0
1002
}
  0
ENDSEC
  0
EOF
