  0
SECTION
  2
HEADER
  9
$ACADVER
  1
AC1009
  9
$INSBASE
 10
0.0
 20
0.0
 30
0.0
  9
$EXTMIN
 10
0.0
 20
0.0
 30
0.0
  9
$EXTMAX
 10
4200.0
 20
5900.0
 30
0.0
  9
$LIMMIN
 10
0.0
 20
0.0
  9
$LIMMAX
 10
297.0
 20
210.0
  9
$ORTHOMODE
 70
     0
  9
$REGENMODE
 70
     1
  9
$FILLMODE
 70
     0
  9
$QTEXTMODE
 70
     0
  9
$MIRRTEXT
 70
     1
  9
$DRAGMODE
 70
     2
  9
$LTSCALE
 40
100.0
  9
$OSMODE
 70
    37
  9
$ATTMODE
 70
     1
  9
$TEXTSIZE
 40
180.0
  9
$TRACEWID
 40
0.05
  9
$TEXTSTYLE
  7
STANDARD
  9
$CLAYER
  8
3
  9
$CELTYPE
  6
BYLAYER
  9
$CECOLOR
 62
   256
  9
$DIMSCALE
 40
20.0
  9
$DIMASZ
 40
2.0
  9
$DIMEXO
 40
0.5
  9
$DIMDLI
 40
10.0
  9
$DIMRND
 40
0.0
  9
$DIMDLE
 40
0.0
  9
$DIMEXE
 40
1.0
  9
$DIMTP
 40
1.0
  9
$DIMTM
 40
1.0
  9
$DIMTXT
 40
3.0
  9
$DIMCEN
 40
0.0
  9
$DIMTSZ
 40
0.0
  9
$DIMTOL
 70
     0
  9
$DIMLIM
 70
     0
  9
$DIMTIH
 70
     0
  9
$DIMTOH
 70
     0
  9
$DIMSE1
 70
     0
  9
$DIMSE2
 70
     0
  9
$DIMTAD
 70
     1
  9
$DIMZIN
 70
     8
  9
$DIMBLK
  1

  9
$DIMASO
 70
     1
  9
$DIMSHO
 70
     1
  9
$DIMPOST
  1
(<>)
  9
$DIMAPOST
  1

  9
$DIMALT
 70
     0
  9
$DIMALTD
 70
     2
  9
$DIMALTF
 40
0.039
  9
$DIMLFAC
 40
1.0
  9
$DIMTOFL
 70
     1
  9
$DIMTVP
 40
0.0
  9
$DIMTIX
 70
     0
  9
$DIMSOXD
 70
     0
  9
$DIMSAH
 70
     1
  9
$DIMBLK1
  1
OPEN
  9
$DIMBLK2
  1
OPEN
  9
$DIMSTYLE
  2
IGA
  9
$DIMCLRD
 70
     0
  9
$DIMCLRE
 70
     0
  9
$DIMCLRT
 70
     0
  9
$DIMTFAC
 40
10.0
  9
$DIMGAP
 40
1.0
  9
$LUNITS
 70
     2
  9
$LUPREC
 70
     3
  9
$SKETCHINC
 40
0.1
  9
$FILLETRAD
 40
50.0
  9
$AUNITS
 70
     0
  9
$AUPREC
 70
     0
  9
$MENU
  1
acad
  9
$ELEVATION
 40
0.0
  9
$PELEVATION
 40
0.0
  9
$THICKNESS
 40
0.0
  9
$LIMCHECK
 70
     0
  9
$BLIPMODE
 70
     0
  9
$CHAMFERA
 40
0.5
  9
$CHAMFERB
 40
0.5
  9
$SKPOLY
 70
     0
  9
$TDCREATE
 40
2452815.5942524299
  9
$TDUPDATE
 40
2454953.8519477779
  9
$TDINDWG
 40
0.0563310532
  9
$TDUSRTIMER
 40
0.0563310532
  9
$USRTIMER
 70
     1
  9
$ANGBASE
 50
0.0
  9
$ANGDIR
 70
     0
  9
$PDMODE
 70
     0
  9
$PDSIZE
 40
0.0
  9
$PLINEWID
 40
0.0
  9
$COORDS
 70
     1
  9
$SPLFRAME
 70
     0
  9
$SPLINETYPE
 70
     6
  9
$SPLINESEGS
 70
     8
  9
$ATTDIA
 70
     0
  9
$ATTREQ
 70
     1
  9
$HANDLING
 70
 10241
  9
$HANDSEED
  5
86AB
  9
$SURFTAB1
 70
     6
  9
$SURFTAB2
 70
     6
  9
$SURFTYPE
 70
     6
  9
$SURFU
 70
     6
  9
$SURFV
 70
     6
  9
$UCSNAME
  2

  9
$UCSORG
 10
0.0
 20
0.0
 30
0.0
  9
$UCSXDIR
 10
1.0
 20
0.0
 30
0.0
  9
$UCSYDIR
 10
0.0
 20
1.0
 30
0.0
  9
$PUCSNAME
  2

  9
$PUCSORG
 10
0.0
 20
0.0
 30
0.0
  9
$PUCSXDIR
 10
1.0
 20
0.0
 30
0.0
  9
$PUCSYDIR
 10
0.0
 20
1.0
 30
0.0
  9
$USERI1
 70
     0
  9
$USERI2
 70
     0
  9
$USERI3
 70
     0
  9
$USERI4
 70
     0
  9
$USERI5
 70
     0
  9
$USERR1
 40
0.0
  9
$USERR2
 40
0.0
  9
$USERR3
 40
0.0
  9
$USERR4
 40
0.0
  9
$USERR5
 40
0.0
  9
$WORLDVIEW
 70
     1
  9
$SHADEDGE
 70
     3
  9
$SHADEDIF
 70
    70
  9
$TILEMODE
 70
     1
  9
$MAXACTVP
 70
    16
  9
$PLIMCHECK
 70
     0
  9
$PEXTMIN
 10
1.0000000000000000E+020
 20
1.0000000000000000E+020
 30
1.0000000000000000E+020
  9
$PEXTMAX
 10
-1.0000000000000000E+020
 20
-1.0000000000000000E+020
 30
-1.0000000000000000E+020
  9
$PLIMMIN
 10
0.0
 20
0.0
  9
$PLIMMAX
 10
12.0
 20
9.0
  9
$UNITMODE
 70
     0
  9
$VISRETAIN
 70
     0
  9
$PLINEGEN
 70
     0
  9
$PSLTSCALE
 70
     1
  0
ENDSEC
  0
SECTION
  2
TABLES
  0
TABLE
  2
VPORT
 70
     2
  0
VPORT
  2
*ACTIVE
 70
     0
 10
0.0
 20
0.0
 11
1.0
 21
1.0
 12
6027.9826464208236
 22
4004.9978160586938
 13
0.0
 23
0.0
 14
10.0
 24
10.0
 15
10.0
 25
10.0
 16
0.0
 26
0.0
 36
1.0
 17
0.0
 27
0.0
 37
0.0
 40
8009.9956321173886
 41
1.5051150895140659
 42
50.0
 43
0.0
 44
0.0
 50
0.0
 51
0.0
 71
     0
 72
   100
 73
     1
 74
     0
 75
     0
 76
     0
 77
     0
 78
     0
  0
ENDTAB
  0
TABLE
  2
LTYPE
 70
     2
  0
LTYPE
  2
CONTINUOUS
 70
     0
  3
Solid line
 72
    65
 73
     0
 40
0.0
  0
LTYPE
  2
CENTER
 70
     0
  3
____ _ ____ _ ____ _ ____ _ ____ _ ____ _ ____ 
 72
    65
 73
     4
 40
2.0
 49
1.25
 49
-0.25
 49
0.25
 49
-0.25
  0
ENDTAB
  0
TABLE
  2
LAYER
 70
     6
  0
LAYER
  2
0
 70
     0
 62
     7
  6
CONTINUOUS
  0
LAYER
  2
3
 70
     0
 62
     2
  6
CONTINUOUS
  0
LAYER
  2
2
 70
     0
 62
     3
  6
CENTER
  0
LAYER
  2
1
 70
     0
 62
     4
  6
CONTINUOUS
  0
LAYER
  2
4
 70
     0
 62
     7
  6
CONTINUOUS
  0
LAYER
  2
DEFPOINTS
 70
     0
 62
     7
  6
CONTINUOUS
  0
ENDTAB
  0
TABLE
  2
STYLE
 70
     1
  0
STYLE
  2
STANDARD
 70
     0
 40
0.0
 41
1.0
 50
0.0
 71
     0
 42
180.0
  3
simplex.shx
  4
extfont.shx
  0
ENDTAB
  0
TABLE
  2
VIEW
 70
     0
  0
ENDTAB
  0
TABLE
  2
UCS
 70
     0
  0
ENDTAB
  0
TABLE
  2
APPID
 70
     1
  0
APPID
  2
ACAD
 70
     0
  0
ENDTAB
  0
TABLE
  2
DIMSTYLE
 70
     1
  0
DIMSTYLE
  2
IGA
 70
     0
  3

  4

  5

  6
OPEN
  7
OPEN
 40
2.0
 41
2.0
 42
0.5
 43
10.0
 44
1.0
 45
0.0
 46
0.0
 47
1.0
 48
1.0
140
3.0
141
0.0
142
0.0
143
0.03937
144
1.0
145
0.0
146
10.0
147
1.0
 71
     0
 72
     0
 73
     0
 74
     0
 75
     0
 76
     0
 77
     1
 78
     8
170
     0
171
     2
172
     0
173
     1
174
     0
175
     0
176
     0
177
     0
178
     0
  0
ENDTAB
  0
ENDSEC
  0
SECTION
  2
BLOCKS
  0
BLOCK
  8
0
  2
$MODEL_SPACE
 70
     0
 10
0.0
 20
0.0
 30
0.0
  3
$MODEL_SPACE
  1

  0
ENDBLK
  5
1B
  8
0
  0
BLOCK
 67
     1
  8
0
  2
$PAPER_SPACE
 70
     0
 10
0.0
 20
0.0
 30
0.0
  3
$PAPER_SPACE
  1

  0
ENDBLK
  5
18
 67
     1
  8
0
  0
BLOCK
  8
0
  2
_OPEN
 70
     0
 10
0.0
 20
0.0
 30
0.0
  3
_OPEN
  1

  0
LINE
  5
7C36
  8
0
  6
BYBLOCK
 62
     0
 10
-1.0
 20
0.1666666666666666
 30
0.0
 11
0.0
 21
0.0
 31
0.0
  0
LINE
  5
7C37
  8
0
  6
BYBLOCK
 62
     0
 10
0.0
 20
0.0
 30
0.0
 11
-1.0
 21
-0.1666666666666666
 31
0.0
  0
LINE
  5
7C38
  8
0
  6
BYBLOCK
 62
     0
 10
0.0
 20
0.0
 30
0.0
 11
-1.0
 21
0.0
 31
0.0
  0
ENDBLK
  5
7C39
  8
0
  0
BLOCK
  8
0
  2
_DOT
 70
     0
 10
0.0
 20
0.0
 30
0.0
  3
_DOT
  1

  0
LINE
  5
7E78
  8
0
  6
BYBLOCK
 62
     0
 10
0.0
 20
0.0
 30
0.0
 11
-1.0
 21
-0.0000000000000284
 31
0.0
  0
POLYLINE
  5
7E79
  8
0
  6
BYBLOCK
 62
     0
 66
     1
 10
0.0
 20
0.0
 30
0.0
 70
     1
 40
0.1666666666666666
 41
0.1666666666666666
  0
VERTEX
  5
8604
  8
0
  6
BYBLOCK
 62
     0
 10
-0.0833333333333286
 20
-0.0000000000000284
 30
0.0
 42
1.0
  0
VERTEX
  5
8605
  8
0
  6
BYBLOCK
 62
     0
 10
0.0833333333333286
 20
-0.0000000000000284
 30
0.0
 42
1.0
  0
SEQEND
  5
8606
  8
0
  6
BYBLOCK
 62
     0
  0
ENDBLK
  5
7D15
  8
0
  0
BLOCK
  8
0
  2
*D2
 70
     1
 10
0.0
 20
0.0
 30
0.0
  3
*D2
  1

  0
LINE
  5
8607
  8
3
 62
     0
 10
2768.05307731414
 20
2458.340122832356
 30
0.0
 11
2768.05307731414
 21
2980.5007872473029
 31
0.0
  0
LINE
  5
8608
  8
3
 62
     0
 10
3221.1155945275159
 20
2960.500787247302
 30
0.0
 11
2808.05307731414
 21
2960.500787247302
 31
0.0
  0
INSERT
  5
8609
  8
3
 62
     0
  2
_OPEN
 10
3261.1155945275168
 20
2960.500787247302
 30
0.0
 41
40.0
 42
40.0
 43
40.0
  0
INSERT
  5
860A
  8
3
 62
     0
  2
_OPEN
 10
2768.05307731414
 20
2960.500787247302
 30
0.0
 41
40.0
 42
40.0
 43
40.0
 50
180.0
  0
TEXT
  8
3
  40
60
  5
869A
  62
0
  72
0
  71
0
 10
2894.58
 20
2954.30
 30
0.000000
  1
MAX
  0
TEXT
  8
3
  40
60
  5
869B
  62
0
  72
0
  71
0
 10
2894.58
 20
2876.30
 30
0.000000
  1
500
  0
POINT
  5
860C
  8
DEFPOINTS
 62
     0
 10
3261.1155945275168
 20
2869.6859805855238
 30
0.0
  0
POINT
  5
860D
  8
DEFPOINTS
 62
     0
 10
2768.05307731414
 20
2448.340122832356
 30
0.0
  0
POINT
  5
860E
  8
DEFPOINTS
 62
     0
 10
2768.05307731414
 20
2960.500787247302
 30
0.0
  0
ENDBLK
  5
839B
  8
0
  0
BLOCK
  8
0
  2
*D3
 70
     1
 10
0.0
 20
0.0
 30
0.0
  3
*D3
  1

  0
LINE
  5
860F
  8
3
 62
     0
 10
3111.1155945275159
 20
2667.3401228323569
 30
0.0
 11
3111.1155945275159
 21
2815.6665184681228
 31
0.0
  0
LINE
  5
8610
  8
3
 62
     0
 10
3411.1155945275168
 20
2667.3401228323578
 30
0.0
 11
3411.1155945275168
 21
2815.6665184681228
 31
0.0
  0
LINE
  5
8611
  8
3
 62
     0
 10
3071.1155945275168
 20
2795.6665184681228
 30
0.0
 11
3031.1155945275159
 21
2795.6665184681228
 31
0.0
  0
LINE
  5
8612
  8
3
 62
     0
 10
3451.1155945275168
 20
2795.6665184681228
 30
0.0
 11
3491.1155945275168
 21
2795.6665184681228
 31
0.0
  0
LINE
  5
8613
  8
3
 62
     0
 10
3111.1155945275159
 20
2795.6665184681228
 30
0.0
 11
3411.1155945275168
 21
2795.6665184681228
 31
0.0
  0
INSERT
  5
8614
  8
3
 62
     0
  2
_OPEN
 10
3111.1155945275159
 20
2795.6665184681228
 30
0.0
 41
40.0
 42
40.0
 43
40.0
  0
INSERT
  5
8615
  8
3
 62
     0
  2
_OPEN
 10
3411.1155945275168
 20
2795.6665184681228
 30
0.0
 41
40.0
 42
40.0
 43
40.0
 50
180.0
  0
TEXT
  8
3
  40
60
  5
869C
  62
0
  72
0
  71
0
 10
3153.97
 20
2739.47
 30
0.000000
  1
300
  0
POINT
  5
8617
  8
DEFPOINTS
 62
     0
 10
3111.1155945275159
 20
2657.3401228323578
 30
0.0
  0
POINT
  5
8618
  8
DEFPOINTS
 62
     0
 10
3411.1155945275168
 20
2657.3401228323578
 30
0.0
  0
POINT
  5
8619
  8
DEFPOINTS
 62
     0
 10
3411.1155945275168
 20
2795.6665184681228
 30
0.0
  0
ENDBLK
  5
83A6
  8
0
  0
BLOCK
  8
0
  2
*D4
 70
     1
 10
0.0
 20
0.0
 30
0.0
  3
*D4
  1

  0
LINE
  5
861A
  8
3
 62
     0
 10
1701.4561035017921
 20
2689.3401228323578
 30
0.0
 11
1701.4561035017921
 21
2927.693100436928
 31
0.0
  0
LINE
  5
861B
  8
3
 62
     0
 10
658.75610350179056
 20
1888.3401228323571
 30
0.0
 11
658.75610350179068
 21
2927.693100436928
 31
0.0
  0
LINE
  5
861C
  8
3
 62
     0
 10
1661.4561035017921
 20
2907.693100436928
 30
0.0
 11
698.75610350179079
 21
2907.693100436928
 31
0.0
  0
INSERT
  5
861D
  8
3
 62
     0
  2
_OPEN
 10
1701.4561035017921
 20
2907.693100436928
 30
0.0
 41
40.0
 42
40.0
 43
40.0
  0
INSERT
  5
861E
  8
3
 62
     0
  2
_OPEN
 10
658.75610350179068
 20
2907.693100436928
 30
0.0
 41
40.0
 42
40.0
 43
40.0
 50
180.0
  0
TEXT
  8
3
  40
60
  5
869D
  62
0
  72
0
  71
0
 10
1072.10
 20
2851.49
 30
0.000000
  1
1043
  0
POINT
  5
8620
  8
DEFPOINTS
 62
     0
 10
1701.4561035017921
 20
2679.3401228323569
 30
0.0
  0
POINT
  5
8621
  8
DEFPOINTS
 62
     0
 10
658.75610350179056
 20
1878.340122832358
 30
0.0
  0
POINT
  5
8622
  8
DEFPOINTS
 62
     0
 10
658.75610350179068
 20
2907.693100436928
 30
0.0
  0
ENDBLK
  5
83BC
  8
0
  0
BLOCK
  8
0
  2
*D5
 70
     1
 10
0.0
 20
0.0
 30
0.0
  3
*D5
  1

  0
LINE
  5
8623
  8
3
 62
     0
 10
1056.75610350179
 20
2268.3401228323569
 30
0.0
 11
1056.75610350179
 21
2796.8098744434051
 31
0.0
  0
LINE
  5
8624
  8
3
 62
     0
 10
1358.75610350179
 20
2776.8098744434051
 30
0.0
 11
1096.75610350179
 21
2776.8098744434051
 31
0.0
  0
INSERT
  5
8625
  8
3
 62
     0
  2
_OPEN
 10
1398.75610350179
 20
2776.8098744434051
 30
0.0
 41
40.0
 42
40.0
 43
40.0
  0
INSERT
  5
8626
  8
3
 62
     0
  2
_OPEN
 10
1056.75610350179
 20
2776.8098744434051
 30
0.0
 41
40.0
 42
40.0
 43
40.0
 50
180.0
  0
TEXT
  8
3
  40
60
  5
869E
  62
0
  72
0
  71
0
 10
1107.76
 20
2720.61
 30
0.000000
  1
342
  0
POINT
  5
8628
  8
DEFPOINTS
 62
     0
 10
1398.75610350179
 20
2661.5652353111218
 30
0.0
  0
POINT
  5
8629
  8
DEFPOINTS
 62
     0
 10
1056.75610350179
 20
2258.3401228323569
 30
0.0
  0
POINT
  5
862A
  8
DEFPOINTS
 62
     0
 10
1056.75610350179
 20
2776.8098744434051
 30
0.0
  0
ENDBLK
  5
83D1
  8
0
  0
BLOCK
  8
0
  2
*D6
 70
     1
 10
0.0
 20
0.0
 30
0.0
  3
*D6
  1

  0
LINE
  5
862B
  8
3
 62
     0
 10
1688.7561035017909
 20
2652.3401228323578
 30
0.0
 11
1993.29479514531
 21
2652.3401228323578
 31
0.0
  0
LINE
  5
862C
  8
3
 62
     0
 10
1717.562017963922
 20
2228.3401228323578
 30
0.0
 11
1993.29479514531
 21
2228.3401228323578
 31
0.0
  0
LINE
  5
862D
  8
3
 62
     0
 10
1973.29479514531
 20
2612.3401228323578
 30
0.0
 11
1973.2947951453091
 21
2268.3401228323569
 31
0.0
  0
INSERT
  5
862E
  8
3
 62
     0
  2
_OPEN
 10
1973.29479514531
 20
2652.3401228323578
 30
0.0
 41
40.0
 42
40.0
 43
40.0
 50
90.0
  0
INSERT
  5
862F
  8
3
 62
     0
  2
_OPEN
 10
1973.2947951453091
 20
2228.3401228323578
 30
0.0
 41
40.0
 42
40.0
 43
40.0
 50
270.0
  0
TEXT
  8
3
  40
60
  5
869F
  62
0
  72
0
  71
0
 10
1803.29
 20
2332.51
 30
0.000000
  1
424
  0
POINT
  5
8631
  8
DEFPOINTS
 62
     0
 10
1678.7561035017909
 20
2652.3401228323578
 30
0.0
  0
POINT
  5
8632
  8
DEFPOINTS
 62
     0
 10
1707.562017963922
 20
2228.3401228323578
 30
0.0
  0
POINT
  5
8633
  8
DEFPOINTS
 62
     0
 10
1973.2947951453091
 20
2228.3401228323578
 30
0.0
  0
ENDBLK
  5
83E7
  8
0
  0
BLOCK
  8
0
  2
*D7
 70
     1
 10
0.0
 20
0.0
 30
0.0
  3
*D7
  1

  0
LINE
  5
8634
  8
3
 62
     0
 10
1688.7561035017909
 20
2652.3401228323578
 30
0.0
 11
1866.7204339709169
 21
2652.3401228323578
 31
0.0
  0
LINE
  5
8635
  8
3
 62
     0
 10
1688.7561035017909
 20
2240.3401228323569
 30
0.0
 11
1866.7204339709169
 21
2240.3401228323569
 31
0.0
  0
LINE
  5
8636
  8
3
 62
     0
 10
1846.7204339709169
 20
2612.3401228323578
 30
0.0
 11
1846.7204339709169
 21
2280.3401228323569
 31
0.0
  0
INSERT
  5
8637
  8
3
 62
     0
  2
_OPEN
 10
1846.7204339709169
 20
2652.3401228323578
 30
0.0
 41
40.0
 42
40.0
 43
40.0
 50
90.0
  0
INSERT
  5
8638
  8
3
 62
     0
  2
_OPEN
 10
1846.7204339709169
 20
2240.3401228323569
 30
0.0
 41
40.0
 42
40.0
 43
40.0
 50
270.0
  0
TEXT
  8
3
  40
60
  5
86A0
  62
0
  72
0
  71
0
 10
1676.72
 20
2337.38
 30
0.000000
  1
412
  0
POINT
  5
863A
  8
DEFPOINTS
 62
     0
 10
1678.7561035017909
 20
2652.3401228323578
 30
0.0
  0
POINT
  5
863B
  8
DEFPOINTS
 62
     0
 10
1678.7561035017909
 20
2240.3401228323569
 30
0.0
  0
POINT
  5
863C
  8
DEFPOINTS
 62
     0
 10
1846.7204339709169
 20
2240.3401228323569
 30
0.0
  0
ENDBLK
  5
83F2
  8
0
  0
BLOCK
  8
0
  2
*D8
 70
     1
 10
0.0
 20
0.0
 30
0.0
  3
*D8
  1

  0
LINE
  5
863D
  8
3
 62
     0
 10
1668.75610350179
 20
1798.340122832358
 30
0.0
 11
1993.2947951453091
 21
1798.340122832358
 31
0.0
  0
LINE
  5
863E
  8
3
 62
     0
 10
1973.2947951453091
 20
2188.3401228323569
 30
0.0
 11
1973.2947951453091
 21
1838.3401228323571
 31
0.0
  0
INSERT
  5
863F
  8
3
 62
     0
  2
_OPEN
 10
1973.2947951453091
 20
2228.3401228323578
 30
0.0
 41
40.0
 42
40.0
 43
40.0
 50
90.0
  0
INSERT
  5
8640
  8
3
 62
     0
  2
_OPEN
 10
1973.2947951453091
 20
1798.340122832358
 30
0.0
 41
40.0
 42
40.0
 43
40.0
 50
270.0
  0
TEXT
  8
3
  40
60
  5
86A1
  62
0
  72
0
  71
0
 10
1803.29
 20
1907.14
 30
0.000000
  1
430
  0
POINT
  5
8642
  8
DEFPOINTS
 62
     0
 10
1707.562017963922
 20
2228.3401228323578
 30
0.0
  0
POINT
  5
8643
  8
DEFPOINTS
 62
     0
 10
1658.75610350179
 20
1798.340122832358
 30
0.0
  0
POINT
  5
8644
  8
DEFPOINTS
 62
     0
 10
1973.2947951453091
 20
1798.340122832358
 30
0.0
  0
ENDBLK
  5
8415
  8
0
  0
BLOCK
  8
0
  2
*D9
 70
     1
 10
0.0
 20
0.0
 30
0.0
  3
*D9
  1

  0
LINE
  5
8645
  8
3
 62
     0
 10
1703.7561035017909
 20
2689.3401228323578
 30
0.0
 11
1703.7561035017909
 21
2796.8098744434051
 31
0.0
  0
LINE
  5
8646
  8
3
 62
     0
 10
1398.75610350179
 20
2671.5652353111209
 30
0.0
 11
1398.75610350179
 21
2796.8098744434051
 31
0.0
  0
LINE
  5
8647
  8
3
 62
     0
 10
1743.7561035017909
 20
2776.8098744434051
 30
0.0
 11
1783.7561035017909
 21
2776.8098744434051
 31
0.0
  0
LINE
  5
8648
  8
3
 62
     0
 10
1358.75610350179
 20
2776.8098744434051
 30
0.0
 11
1318.75610350179
 21
2776.8098744434051
 31
0.0
  0
LINE
  5
8649
  8
3
 62
     0
 10
1703.7561035017909
 20
2776.8098744434051
 30
0.0
 11
1398.75610350179
 21
2776.8098744434051
 31
0.0
  0
INSERT
  5
864A
  8
3
 62
     0
  2
_OPEN
 10
1703.7561035017909
 20
2776.8098744434051
 30
0.0
 41
40.0
 42
40.0
 43
40.0
 50
180.0
  0
INSERT
  5
864B
  8
3
 62
     0
  2
_OPEN
 10
1398.75610350179
 20
2776.8098744434051
 30
0.0
 41
40.0
 42
40.0
 43
40.0
  0
TEXT
  8
3
  40
60
  5
86A2
  62
0
  72
0
  71
0
 10
1415.90
 20
2720.61
 30
0.000000
  1
305
  0
POINT
  5
864D
  8
DEFPOINTS
 62
     0
 10
1703.7561035017909
 20
2679.3401228323569
 30
0.0
  0
POINT
  5
864E
  8
DEFPOINTS
 62
     0
 10
1398.75610350179
 20
2661.5652353111218
 30
0.0
  0
POINT
  5
864F
  8
DEFPOINTS
 62
     0
 10
1398.75610350179
 20
2776.8098744434051
 30
0.0
  0
ENDBLK
  5
842A
  8
0
  0
BLOCK
  8
0
  2
*D10
 70
     1
 10
0.0
 20
0.0
 30
0.0
  3
*D10
  1

  0
LINE
  5
8650
  8
3
 62
     0
 10
3422.7155945275172
 20
2428.3401228323578
 30
0.0
 11
3597.2854511063488
 21
2428.3401228323578
 31
0.0
  0
LINE
  5
8651
  8
3
 62
     0
 10
3423.915594527512
 20
2028.340122832358
 30
0.0
 11
3597.2854511063488
 21
2028.3401228323571
 31
0.0
  0
LINE
  5
8652
  8
3
 62
     0
 10
3577.2854511063488
 20
2388.3401228323569
 30
0.0
 11
3577.2854511063488
 21
2068.3401228323569
 31
0.0
  0
INSERT
  5
8653
  8
3
 62
     0
  2
_OPEN
 10
3577.2854511063488
 20
2428.3401228323578
 30
0.0
 41
40.0
 42
40.0
 43
40.0
 50
90.0
  0
INSERT
  5
8654
  8
3
 62
     0
  2
_OPEN
 10
3577.2854511063488
 20
2028.340122832358
 30
0.0
 41
40.0
 42
40.0
 43
40.0
 50
270.0
  0
TEXT
  8
3
  40
60
  5
86A3
  62
0
  72
0
  71
0
 10
3407.29
 20
2126.52
 30
0.000000
  1
φ400
  0
POINT
  5
8656
  8
DEFPOINTS
 62
     0
 10
3412.7155945275172
 20
2428.3401228323578
 30
0.0
  0
POINT
  5
8657
  8
DEFPOINTS
 62
     0
 10
3413.915594527512
 20
2028.340122832358
 30
0.0
  0
POINT
  5
8658
  8
DEFPOINTS
 62
     0
 10
3577.2854511063488
 20
2028.340122832358
 30
0.0
  0
ENDBLK
  5
844B
  8
0
  0
BLOCK
  8
0
  2
*D11
 70
     1
 10
0.0
 20
0.0
 30
0.0
  3
*D11
  1

  0
LINE
  5
8457
  8
0
  6
BYBLOCK
 62
     0
 10
8402.0156466131502
 20
2755.5664725087991
 30
0.0
 11
8402.0156466131502
 21
3068.7250863486711
 31
0.0
  0
LINE
  5
8458
  8
0
  6
BYBLOCK
 62
     0
 10
8249.4156487155815
 20
2967.910279686892
 30
0.0
 11
8249.4156487155815
 21
3068.7250863486711
 31
0.0
  0
LINE
  5
8459
  8
0
  6
BYBLOCK
 62
     0
 10
8362.0156466131502
 20
3048.7250863486711
 30
0.0
 11
8289.4156487155797
 21
3048.7250863486711
 31
0.0
  0
TEXT
  5
845A
  8
3
 62
     0
 10
8256.1115428849753
 20
3075.073357520539
 30
0.0
 40
60.0
  1
153
  0
INSERT
  5
845B
  8
0
  6
BYBLOCK
 62
     0
  2
_OPEN
 10
8402.0156466131502
 20
3048.7250863486711
 30
0.0
 41
40.0
 42
40.0
 43
40.0
  0
INSERT
  5
845C
  8
0
  6
BYBLOCK
 62
     0
  2
_OPEN
 10
8249.4156487155815
 20
3048.7250863486711
 30
0.0
 41
40.0
 42
40.0
 43
40.0
 50
180.0
  0
POINT
  5
845D
  8
DEFPOINTS
  6
BYBLOCK
 62
     0
 10
8402.0156466131502
 20
2745.5664725087991
 30
0.0
  0
POINT
  5
845E
  8
DEFPOINTS
  6
BYBLOCK
 62
     0
 10
8249.4156487155815
 20
2957.910279686892
 30
0.0
  0
POINT
  5
845F
  8
DEFPOINTS
  6
BYBLOCK
 62
     0
 10
8249.4156487155815
 20
3048.7250863486711
 30
0.0
  0
ENDBLK
  5
8460
  8
0
  0
BLOCK
  8
0
  2
*D12
 70
     1
 10
0.0
 20
0.0
 30
0.0
  3
*D12
  1

  0
LINE
  5
8659
  8
3
 62
     0
 10
2728.1155945275159
 20
1588.3401228323571
 30
0.0
 11
2728.1155945275159
 21
1442.234648045363
 31
0.0
  0
LINE
  5
865A
  8
3
 62
     0
 10
3261.1155945275168
 20
1588.3401228323571
 30
0.0
 11
3261.1155945275168
 21
1442.234648045363
 31
0.0
  0
LINE
  5
865B
  8
3
 62
     0
 10
2768.1155945275159
 20
1462.234648045363
 30
0.0
 11
3221.1155945275159
 21
1462.234648045363
 31
0.0
  0
INSERT
  5
865C
  8
3
 62
     0
  2
_OPEN
 10
2728.1155945275159
 20
1462.234648045363
 30
0.0
 41
40.0
 42
40.0
 43
40.0
 50
180.0
  0
INSERT
  5
865D
  8
3
 62
     0
  2
_OPEN
 10
3261.1155945275168
 20
1462.234648045363
 30
0.0
 41
40.0
 42
40.0
 43
40.0
  0
TEXT
  8
3
  40
60
  5
86A4
  62
0
  72
0
  71
0
 10
2874.62
 20
1406.03
 30
0.000000
  1
533
  0
POINT
  5
865F
  8
DEFPOINTS
 62
     0
 10
2728.1155945275159
 20
1598.3401228323571
 30
0.0
  0
POINT
  5
8660
  8
DEFPOINTS
 62
     0
 10
3261.1155945275168
 20
1598.3401228323571
 30
0.0
  0
POINT
  5
8661
  8
DEFPOINTS
 62
     0
 10
3261.1155945275168
 20
1462.234648045363
 30
0.0
  0
ENDBLK
  5
8479
  8
0
  0
BLOCK
  8
0
  2
*D13
 70
     1
 10
0.0
 20
0.0
 30
0.0
  3
*D13
  1

  0
LINE
  5
8662
  8
3
 62
     0
 10
3261.1155945275168
 20
1588.3401228323571
 30
0.0
 11
3261.1155945275168
 21
1442.234648045363
 31
0.0
  0
LINE
  5
8663
  8
3
 62
     0
 10
3523.1155945275168
 20
1588.3401228323571
 30
0.0
 11
3523.1155945275168
 21
1442.234648045363
 31
0.0
  0
LINE
  5
8664
  8
3
 62
     0
 10
3301.1155945275168
 20
1462.234648045363
 30
0.0
 11
3483.1155945275168
 21
1462.234648045363
 31
0.0
  0
INSERT
  5
8665
  8
3
 62
     0
  2
_OPEN
 10
3261.1155945275168
 20
1462.234648045363
 30
0.0
 41
40.0
 42
40.0
 43
40.0
 50
180.0
  0
INSERT
  5
8666
  8
3
 62
     0
  2
_OPEN
 10
3523.1155945275168
 20
1462.234648045363
 30
0.0
 41
40.0
 42
40.0
 43
40.0
  0
TEXT
  8
3
  40
60
  5
86A5
  62
0
  72
0
  71
0
 10
3272.12
 20
1406.03
 30
0.000000
  1
262
  0
POINT
  5
8668
  8
DEFPOINTS
 62
     0
 10
3261.1155945275168
 20
1598.3401228323571
 30
0.0
  0
POINT
  5
8669
  8
DEFPOINTS
 62
     0
 10
3523.1155945275168
 20
1598.3401228323571
 30
0.0
  0
POINT
  5
866A
  8
DEFPOINTS
 62
     0
 10
3523.1155945275168
 20
1462.234648045363
 30
0.0
  0
ENDBLK
  5
8488
  8
0
  0
BLOCK
  8
0
  2
*D14
 70
     1
 10
0.0
 20
0.0
 30
0.0
  3
*D14
  1

  0
LINE
  5
866B
  8
3
 62
     0
 10
1398.75610350179
 20
1628.3401228323571
 30
0.0
 11
1398.75610350179
 21
1442.234648045363
 31
0.0
  0
LINE
  5
866C
  8
3
 62
     0
 10
1662.7561035017909
 20
1588.3401228323571
 30
0.0
 11
1662.7561035017909
 21
1442.234648045363
 31
0.0
  0
LINE
  5
866D
  8
3
 62
     0
 10
1438.75610350179
 20
1462.234648045363
 30
0.0
 11
1622.75610350179
 21
1462.234648045363
 31
0.0
  0
INSERT
  5
866E
  8
3
 62
     0
  2
_OPEN
 10
1398.75610350179
 20
1462.234648045363
 30
0.0
 41
40.0
 42
40.0
 43
40.0
 50
180.0
  0
INSERT
  5
866F
  8
3
 62
     0
  2
_OPEN
 10
1662.7561035017909
 20
1462.234648045363
 30
0.0
 41
40.0
 42
40.0
 43
40.0
  0
TEXT
  8
3
  40
60
  5
86A6
  62
0
  72
0
  71
0
 10
1410.76
 20
1406.03
 30
0.000000
  1
264
  0
POINT
  5
8671
  8
DEFPOINTS
 62
     0
 10
1398.75610350179
 20
1638.3401228323571
 30
0.0
  0
POINT
  5
8672
  8
DEFPOINTS
 62
     0
 10
1662.7561035017909
 20
1598.3401228323571
 30
0.0
  0
POINT
  5
8673
  8
DEFPOINTS
 62
     0
 10
1662.7561035017909
 20
1462.234648045363
 30
0.0
  0
ENDBLK
  5
8497
  8
0
  0
BLOCK
  8
0
  2
*D15
 70
     1
 10
0.0
 20
0.0
 30
0.0
  3
*D15
  1

  0
LINE
  5
8674
  8
3
 62
     0
 10
1398.75610350179
 20
1628.3401228323571
 30
0.0
 11
1398.75610350179
 21
1442.234648045363
 31
0.0
  0
LINE
  5
8675
  8
3
 62
     0
 10
654.75610350179056
 20
1588.3401228323571
 30
0.0
 11
654.75610350179056
 21
1442.234648045363
 31
0.0
  0
LINE
  5
8676
  8
3
 62
     0
 10
1358.75610350179
 20
1462.234648045363
 30
0.0
 11
694.75610350179068
 21
1462.234648045363
 31
0.0
  0
INSERT
  5
8677
  8
3
 62
     0
  2
_OPEN
 10
1398.75610350179
 20
1462.234648045363
 30
0.0
 41
40.0
 42
40.0
 43
40.0
  0
INSERT
  5
8678
  8
3
 62
     0
  2
_OPEN
 10
654.75610350179056
 20
1462.234648045363
 30
0.0
 41
40.0
 42
40.0
 43
40.0
 50
180.0
  0
TEXT
  8
3
  40
60
  5
86A7
  62
0
  72
0
  71
0
 10
906.756
 20
1406.03
 30
0.000000
  1
744
  0
POINT
  5
867A
  8
DEFPOINTS
 62
     0
 10
1398.75610350179
 20
1638.3401228323571
 30
0.0
  0
POINT
  5
867B
  8
DEFPOINTS
 62
     0
 10
654.75610350179056
 20
1598.3401228323571
 30
0.0
  0
POINT
  5
867C
  8
DEFPOINTS
 62
     0
 10
654.75610350179056
 20
1462.234648045363
 30
0.0
  0
ENDBLK
  5
84A4
  8
0
  0
BLOCK
  8
0
  2
*D16
 70
     1
 10
0.0
 20
0.0
 30
0.0
  3
*D16
  1

  0
LINE
  5
867D
  8
3
 62
     0
 10
1668.75610350179
 20
1703.3401228323571
 30
0.0
 11
1992.3639524988639
 21
1703.3401228323571
 31
0.0
  0
LINE
  5
867E
  8
3
 62
     0
 10
1672.75610350179
 20
1598.3401228323571
 30
0.0
 11
1992.3639524988639
 21
1598.3401228323571
 31
0.0
  0
LINE
  5
867F
  8
3
 62
     0
 10
1972.363952498865
 20
1743.3401228323571
 30
0.0
 11
1972.363952498865
 21
1783.3401228323571
 31
0.0
  0
LINE
  5
8680
  8
3
 62
     0
 10
1972.363952498865
 20
1558.3401228323571
 30
0.0
 11
1972.3639524988639
 21
1335.4829799752149
 31
0.0
  0
LINE
  5
8681
  8
3
 62
     0
 10
1972.363952498865
 20
1703.3401228323571
 30
0.0
 11
1972.363952498865
 21
1598.3401228323571
 31
0.0
  0
INSERT
  5
8682
  8
3
 62
     0
  2
_DOT
 10
1972.363952498865
 20
1703.3401228323571
 30
0.0
 41
40.0
 42
40.0
 43
40.0
 50
270.0
  0
INSERT
  5
8683
  8
3
 62
     0
  2
_OPEN
 10
1972.363952498865
 20
1598.3401228323571
 30
0.0
 41
40.0
 42
40.0
 43
40.0
 50
90.0
  0
TEXT
  8
3
  40
60
  5
86A8
  62
0
  72
0
  71
0
 10
1802.36
 20
1320.71
 30
0.000000
  1
105
  0
POINT
  5
8685
  8
DEFPOINTS
 62
     0
 10
1658.75610350179
 20
1703.3401228323571
 30
0.0
  0
POINT
  5
8686
  8
DEFPOINTS
 62
     0
 10
1662.7561035017909
 20
1598.3401228323571
 30
0.0
  0
POINT
  5
8687
  8
DEFPOINTS
 62
     0
 10
1972.363952498865
 20
1598.3401228323571
 30
0.0
  0
ENDBLK
  5
84B3
  8
0
  0
BLOCK
  8
0
  2
*D17
 70
     1
 10
0.0
 20
0.0
 30
0.0
  3
*D17
  1

  0
LINE
  5
8688
  8
3
 62
     0
 10
654.75610350179056
 20
4136.5884824968743
 30
0.0
 11
654.75610350179056
 21
4269.6819465651042
 31
0.0
  0
LINE
  5
8689
  8
3
 62
     0
 10
1662.7561035017941
 20
4136.5884824968743
 30
0.0
 11
1662.7561035017941
 21
4269.6819465651042
 31
0.0
  0
LINE
  5
868A
  8
3
 62
     0
 10
694.75610350179068
 20
4249.6819465651042
 30
0.0
 11
1622.7561035017941
 21
4249.6819465651042
 31
0.0
  0
INSERT
  5
868B
  8
3
 62
     0
  2
_OPEN
 10
654.75610350179056
 20
4249.6819465651042
 30
0.0
 41
40.0
 42
40.0
 43
40.0
 50
180.0
  0
INSERT
  5
868C
  8
3
 62
     0
  2
_OPEN
 10
1662.7561035017941
 20
4249.6819465651042
 30
0.0
 41
40.0
 42
40.0
 43
40.0
  0
TEXT
  8
3
  40
60
  5
86A9
  62
0
  72
0
  71
0
 10
1038.76
 20
4193.48
 30
0.000000
  1
1008
  0
POINT
  5
868E
  8
DEFPOINTS
 62
     0
 10
654.75610350179056
 20
4126.5884824968734
 30
0.0
  0
POINT
  5
868F
  8
DEFPOINTS
 62
     0
 10
1662.7561035017941
 20
4126.5884824968734
 30
0.0
  0
POINT
  5
8690
  8
DEFPOINTS
 62
     0
 10
1662.7561035017941
 20
4249.6819465651042
 30
0.0
  0
ENDBLK
  5
84F4
  8
0
  0
BLOCK
  8
0
  2
*D18
 70
     1
 10
0.0
 20
0.0
 30
0.0
  3
*D18
  1

  0
LINE
  5
8691
  8
3
 62
     0
 10
644.75610350179068
 20
4126.5884824968734
 30
0.0
 11
514.97814910564557
 21
4126.5884824968734
 31
0.0
  0
LINE
  5
8692
  8
3
 62
     0
 10
644.75610350179068
 20
3331.588482496873
 30
0.0
 11
514.97814910564546
 21
3331.588482496873
 31
0.0
  0
LINE
  5
8693
  8
3
 62
     0
 10
534.97814910564557
 20
4086.5884824968739
 30
0.0
 11
534.97814910564557
 21
3371.588482496873
 31
0.0
  0
INSERT
  5
8694
  8
3
 62
     0
  2
_OPEN
 10
534.97814910564557
 20
4126.5884824968734
 30
0.0
 41
40.0
 42
40.0
 43
40.0
 50
90.0
  0
INSERT
  5
8695
  8
3
 62
     0
  2
_OPEN
 10
534.97814910564557
 20
3331.588482496873
 30
0.0
 41
40.0
 42
40.0
 43
40.0
 50
270.0
  0
TEXT
  8
3
  40
60
  5
86AA
  62
0
  72
0
  71
0
 10
364.978
 20
3622.89
 30
0.000000
  1
795
  0
POINT
  5
8697
  8
DEFPOINTS
 62
     0
 10
654.75610350179056
 20
4126.5884824968734
 30
0.0
  0
POINT
  5
8698
  8
DEFPOINTS
 62
     0
 10
654.75610350179056
 20
3331.588482496873
 30
0.0
  0
POINT
  5
8699
  8
DEFPOINTS
 62
     0
 10
534.97814910564557
 20
3331.588482496873
 30
0.0
  0
ENDBLK
  5
8501
  8
0
  0
BLOCK
  8
0
  2
*D19
 70
     1
 10
0.0
 20
0.0
 30
0.0
  3
*D19
  1

  0
LINE
  5
8509
  8
0
  6
BYBLOCK
 62
     0
 10
1668.75610350179
 20
1703.3401228323571
 30
0.0
 11
1992.1371331873411
 21
1703.3401228323571
 31
0.0
  0
LINE
  5
850A
  8
0
  6
BYBLOCK
 62
     0
 10
1668.75610350179
 20
1798.340122832358
 30
0.0
 11
1992.1371331873411
 21
1798.340122832358
 31
0.0
  0
LINE
  5
850B
  8
0
  6
BYBLOCK
 62
     0
 10
1972.1371331873411
 20
1663.3401228323571
 30
0.0
 11
1972.1371331873411
 21
1623.340122832358
 31
0.0
  0
LINE
  5
850C
  8
0
  6
BYBLOCK
 62
     0
 10
1972.1371331873411
 20
1838.3401228323571
 30
0.0
 11
1972.1371331873411
 21
1878.340122832358
 31
0.0
  0
TEXT
  5
850D
  8
3
 62
     0
 10
2087.8514189016269
 20
1663.6972656895
 30
0.0
 40
60.0
  1
(95)
 50
90.0
  0
LINE
  5
850E
  8
0
  6
BYBLOCK
 62
     0
 10
1972.1371331873411
 20
1703.3401228323571
 30
0.0
 11
1972.1371331873411
 21
1798.340122832358
 31
0.0
  0
INSERT
  5
850F
  8
0
  6
BYBLOCK
 62
     0
  2
_DOT
 10
1972.1371331873411
 20
1703.3401228323571
 30
0.0
 41
40.0
 42
40.0
 43
40.0
 50
90.0
  0
INSERT
  5
8510
  8
0
  6
BYBLOCK
 62
     0
  2
_OPEN
 10
1972.1371331873411
 20
1798.340122832358
 30
0.0
 41
40.0
 42
40.0
 43
40.0
 50
270.0
  0
POINT
  5
8511
  8
DEFPOINTS
  6
BYBLOCK
 62
     0
 10
1658.75610350179
 20
1703.3401228323571
 30
0.0
  0
POINT
  5
8512
  8
DEFPOINTS
  6
BYBLOCK
 62
     0
 10
1658.75610350179
 20
1798.340122832358
 30
0.0
  0
POINT
  5
8513
  8
DEFPOINTS
  6
BYBLOCK
 62
     0
 10
1972.1371331873411
 20
1798.340122832358
 30
0.0
  0
ENDBLK
  5
8514
  8
0
  0
BLOCK
  8
0
  2
*D20
 70
     1
 10
0.0
 20
0.0
 30
0.0
  3
*D20
  1

  0
LINE
  5
8518
  8
0
  6
BYBLOCK
 62
     0
 10
1713.7561035017909
 20
2679.3401228323569
 30
0.0
 11
2196.9298947822749
 21
2679.3401228323569
 31
0.0
  0
LINE
  5
8519
  8
0
  6
BYBLOCK
 62
     0
 10
1672.75610350179
 20
1598.3401228323571
 30
0.0
 11
2196.9298947822749
 21
1598.3401228323571
 31
0.0
  0
LINE
  5
851A
  8
0
  6
BYBLOCK
 62
     0
 10
2176.9298947822749
 20
2639.3401228323578
 30
0.0
 11
2176.9298947822749
 21
1638.3401228323571
 31
0.0
  0
INSERT
  5
851B
  8
0
  6
BYBLOCK
 62
     0
  2
_OPEN
 10
2176.9298947822749
 20
2679.3401228323569
 30
0.0
 41
40.0
 42
40.0
 43
40.0
 50
90.0
  0
INSERT
  5
851C
  8
0
  6
BYBLOCK
 62
     0
  2
_OPEN
 10
2176.9298947822749
 20
1598.3401228323571
 30
0.0
 41
40.0
 42
40.0
 43
40.0
 50
270.0
  0
TEXT
  5
851D
  8
3
 62
     0
 10
2131.2156090679891
 20
2005.982979975214
 30
0.0
 40
60.0
  1
(1081)
 50
90.0
  0
POINT
  5
851E
  8
DEFPOINTS
  6
BYBLOCK
 62
     0
 10
1703.7561035017909
 20
2679.3401228323569
 30
0.0
  0
POINT
  5
851F
  8
DEFPOINTS
  6
BYBLOCK
 62
     0
 10
1662.7561035017909
 20
1598.3401228323571
 30
0.0
  0
POINT
  5
8520
  8
DEFPOINTS
  6
BYBLOCK
 62
     0
 10
2176.9298947822749
 20
1598.3401228323571
 30
0.0
  0
ENDBLK
  5
8521
  8
0
  0
ENDSEC
  0
SECTION
  2
ENTITIES
  0
LINE
  5
7C3A
  8
4
 10
3700.0
 20
1000.0
 30
0.0
 11
3700.0
 21
600.0
 31
0.0
  0
LINE
  5
7C3B
  8
4
 10
2300.0
 20
1000.0
 30
0.0
 11
2300.0
 21
600.0
 31
0.0
  0
LINE
  5
7C3C
  8
4
 10
1300.0
 20
1000.0
 30
0.0
 11
1300.0
 21
600.0
 31
0.0
  0
LINE
  5
7C3F
  8
4
 10
1300.0
 20
600.0
 30
0.0
 11
3700.0
 21
600.0
 31
0.0
  0
LINE
  5
7C40
  8
4
 10
1300.0
 20
800.0
 30
0.0
 11
3700.0
 21
800.0
 31
0.0
  0
TEXT
  5
7C41
  8
4
 10
1377.0041616938031
 20
863.08605173322564
 30
0.0
 40
100.0
  1
機器名称
  0
TEXT
  5
7C42
  8
4
 10
1372.516212049595
 20
643.29031346402189
 30
0.0
 40
100.0
  1
機器型番
  0
TEXT
  5
7C43
  8
4
 10
2355.3574909753288
 20
845.14353791513713
 30
0.0
 40
100.0
  1
ミツヤ厨房用ファン
  0
TEXT
  5
7C44
  8
4
 10
2373.3089911709608
 20
634.31916855988675
 30
0.0
 40
100.0
  1
MFK#2 1/2-1
  0
TEXT
  5
7C46
  8
4
 10
1544.7060390933359
 20
4766.8576826650306
 30
0.0
 40
107.9999999999999
  1
天吊防振ベット
  0
TEXT
  5
7C47
  8
4
 10
632.33518665889278
 20
5067.7619523985959
 30
0.0
 40
144.0
  1
ベルト駆動式片吸込片持多翼ファン
  0
LINE
  5
7C48
  8
4
 10
500.0
 20
4938.8175085296089
 30
0.0
 11
3700.0
 21
4938.8175085296089
 31
0.0
  0
LINE
  5
7C49
  8
4
 10
500.0
 20
5338.8175085296098
 30
0.0
 11
3700.0
 21
5338.8175085296098
 31
0.0
  0
LINE
  5
7C4A
  8
4
 10
1300.0
 20
1000.0
 30
0.0
 11
3700.0
 21
1000.0
 31
0.0
  0
LINE
  5
7C4B
  8
4
 10
500.0
 20
5338.8175085296098
 30
0.0
 11
500.0
 21
4938.8175085296089
 31
0.0
  0
TEXT
  5
7C4C
  8
4
 10
672.98837460793209
 20
4764.638955092687
 30
0.0
 40
107.9999999999999
  1
右回転右横向
  0
TEXT
  5
7C4D
  8
4
 10
2937.9391184985789
 20
5412.1221629906177
 30
0.0
 40
112.0
  1
No.
  0
TEXT
  5
7C4E
  8
4
 10
2622.5921252000262
 20
4766.8576826650306
 30
0.0
 40
107.9999999999999
  1
縮尺：1/20
  0
LINE
  5
7C4F
  8
4
 10
3700.0
 20
5338.8175085296098
 30
0.0
 11
3700.0
 21
4938.8175085296089
 31
0.0
  0
LINE
  5
7C50
  8
4
 10
4200.0
 20
5900.0
 30
0.0
 11
4200.0
 21
5900.0
 31
0.0
  0
LINE
  5
7C51
  8
4
 10
2881.2348447197292
 20
5362.5271662508021
 30
0.0
 11
2881.2348447197292
 21
5573.3045230995049
 31
0.0
  0
LINE
  5
7C52
  8
4
 10
2881.2348447197292
 20
5573.3045230995049
 30
0.0
 11
3700.0
 21
5573.3045230995049
 31
0.0
  0
LINE
  5
7C53
  8
4
 10
3700.0
 20
5573.3045230995049
 30
0.0
 11
3700.0
 21
5362.5271662508021
 31
0.0
  0
LINE
  5
7C54
  8
4
 10
3700.0
 20
5362.5271662508021
 30
0.0
 11
2881.2348447197292
 21
5362.5271662508021
 31
0.0
  0
LINE
  5
7C55
  8
4
 10
0.0
 20
0.0
 30
0.0
 11
0.0
 21
5900.0
 31
0.0
  0
LINE
  5
7C56
  8
4
 10
0.0
 20
5900.0
 30
0.0
 11
4200.0
 21
5900.0
 31
0.0
  0
LINE
  5
7C57
  8
4
 10
4200.0
 20
5900.0
 30
0.0
 11
4200.0
 21
0.0
 31
0.0
  0
LINE
  5
7C58
  8
4
 10
4200.0
 20
0.0
 30
0.0
 11
0.0
 21
0.0
 31
0.0
  0
DIMENSION
  5
8190
  8
3
  2
*D2
 10
2768.05307731414
 20
2960.500787247302
 30
0.0
 11
3014.5843359208288
 21
3060.500787247302
 31
0.0
 70
     0
  1
MAX\P500
 13
3261.1155945275168
 23
2869.6859805855238
 33
0.0
 14
2768.05307731414
 24
2448.340122832356
 34
0.0
1001
ACAD
1000
DSTYLE
1002
{
1070
   287
1070
     4
1070
   287
1070
     4
1070
    40
1040
20.0
1070
    75
1070
     1
1070
   143
1040
0.039
1070
   172
1070
     1
1070
   271
1070
     0
1070
   279
1070
     1
1070
   288
1070
     1
1002
}
  0
DIMENSION
  5
8191
  8
3
  2
*D3
 10
3411.1155945275168
 20
2795.6665184681228
 30
0.0
 11
3273.9727373846599
 21
2795.6665184681228
 31
0.0
 70
   128
 13
3111.1155945275159
 23
2657.3401228323578
 33
0.0
 14
3411.1155945275168
 24
2657.3401228323578
 34
0.0
1001
ACAD
1000
DSTYLE
1002
{
1070
   287
1070
     3
1070
   287
1070
     3
1070
    40
1040
20.0
1070
   143
1040
0.039
1070
   172
1070
     1
1070
   271
1070
     0
1070
   279
1070
     0
1070
   288
1070
     1
1002
}
  0
LINE
  5
8193
  8
1
 10
2728.1155945275168
 20
1638.340122832358
 30
0.0
 11
3523.1155945275168
 21
1638.3401228323571
 31
0.0
  0
LINE
  5
8194
  8
1
 10
2903.1155945275168
 20
1703.3401228323571
 30
0.0
 11
3453.1155945275159
 21
1703.3401228323571
 31
0.0
  0
LINE
  5
8195
  8
1
 10
2903.1155945275168
 20
1878.340122832358
 30
0.0
 11
3453.1155945275159
 21
1878.340122832358
 31
0.0
  0
LINE
  5
8196
  8
1
 10
2903.1155945275168
 20
1798.340122832358
 30
0.0
 11
3453.1155945275159
 21
1798.340122832358
 31
0.0
  0
LINE
  5
8197
  8
2
 10
2751.4099765266851
 20
2228.3401228323578
 30
0.0
 11
3461.59194844488
 21
2228.3401228323578
 31
0.0
  0
LINE
  5
8198
  8
1
 10
3409.1155945275159
 20
1946.3401228323571
 30
0.0
 11
3113.1155945275168
 21
1946.3401228323571
 31
0.0
  0
LINE
  5
8199
  8
1
 10
3109.5155945275178
 20
2235.3401228323569
 30
0.0
 11
3412.7155945275149
 21
2235.3401228323569
 31
0.0
  0
LINE
  5
819A
  8
1
 10
3109.5155945275178
 20
2238.3401228323578
 30
0.0
 11
3412.7155945275149
 21
2238.3401228323578
 31
0.0
  0
LINE
  5
819B
  8
1
 10
3084.1155945275168
 20
2213.3401228323569
 30
0.0
 11
3438.1155945275159
 21
2213.3401228323569
 31
0.0
  0
LINE
  5
819C
  8
1
 10
3084.1155945275168
 20
2213.3401228323569
 30
0.0
 11
3438.1155945275159
 21
2213.3401228323569
 31
0.0
  0
LINE
  5
819D
  8
1
 10
3109.5155945275169
 20
2657.3401228323578
 30
0.0
 11
3412.7155945275172
 21
2657.3401228323578
 31
0.0
  0
LINE
  5
819E
  8
1
 10
3109.5155945275169
 20
2654.3401228323569
 30
0.0
 11
3412.7155945275172
 21
2654.3401228323578
 31
0.0
  0
LINE
  5
819F
  8
1
 10
3084.1155945275168
 20
2679.3401228323578
 30
0.0
 11
3438.1155945275159
 21
2679.3401228323578
 31
0.0
  0
LINE
  5
81A0
  8
1
 10
3113.5155945275178
 20
2654.3401228323569
 30
0.0
 11
3408.7155945275172
 21
2654.3401228323569
 31
0.0
  0
LINE
  5
81A1
  8
1
 10
3084.1155945275168
 20
2679.3401228323569
 30
0.0
 11
3438.1155945275159
 21
2679.3401228323569
 31
0.0
  0
DIMENSION
  5
81A2
  8
3
  2
*D4
 10
658.75610350179068
 20
2907.693100436928
 30
0.0
 11
1192.0962876876799
 21
2907.693100436928
 31
0.0
 70
   128
 13
1701.4561035017921
 23
2679.3401228323569
 33
0.0
 14
658.75610350179056
 24
1878.340122832358
 34
0.0
1001
ACAD
1000
DSTYLE
1002
{
1070
   287
1070
     3
1070
   287
1070
     3
1070
    40
1040
20.0
1070
   143
1040
0.039
1070
   172
1070
     1
1070
   271
1070
     0
1070
   279
1070
     0
1070
   288
1070
     1
1002
}
  0
DIMENSION
  5
81A4
  8
3
  2
*D5
 10
1056.75610350179
 20
2776.8098744434051
 30
0.0
 11
1227.75610350179
 21
2826.8098744434051
 31
0.0
 70
     0
 13
1398.75610350179
 23
2661.5652353111218
 33
0.0
 14
1056.75610350179
 24
2258.3401228323569
 34
0.0
1001
ACAD
1000
DSTYLE
1002
{
1070
   287
1070
     4
1070
   287
1070
     4
1070
    40
1040
20.0
1070
    75
1070
     1
1070
   143
1040
0.039
1070
   172
1070
     1
1070
   271
1070
     0
1070
   279
1070
     1
1070
   288
1070
     1
1002
}
  0
LINE
  5
81A5
  8
1
 10
654.75610350179056
 20
1638.3401228323571
 30
0.0
 11
1662.7561035017909
 21
1638.3401228323571
 31
0.0
  0
LINE
  5
81A6
  8
1
 10
658.75610350179056
 20
1703.3401228323571
 30
0.0
 11
1658.75610350179
 21
1703.3401228323571
 31
0.0
  0
LINE
  5
81A7
  8
1
 10
658.75610350179056
 20
1878.340122832358
 30
0.0
 11
1658.75610350179
 21
1878.3401228323571
 31
0.0
  0
LINE
  5
81A8
  8
1
 10
658.75610350179056
 20
1798.340122832358
 30
0.0
 11
1658.75610350179
 21
1798.340122832358
 31
0.0
  0
LINE
  5
81A9
  8
1
 10
1427.4572178274159
 20
2091.6202046182671
 30
0.0
 11
882.27025103147105
 21
1951.2516657045801
 31
0.0
  0
LINE
  5
81AA
  8
1
 10
1398.756103501792
 20
2491.922933988405
 30
0.0
 11
708.75610350178965
 21
2081.1695299801349
 31
0.0
  0
LINE
  5
81AB
  8
1
 10
1339.1192103863129
 20
2354.6711601095571
 30
0.0
 11
829.9302844005133
 21
2051.9255338519861
 31
0.0
  0
LINE
  5
81AC
  8
1
 10
1221.4954018013941
 20
2172.8401228323569
 30
0.0
 11
1203.7561035017909
 21
2172.8401228323569
 31
0.0
  0
ARC
  5
81AD
  8
1
 10
1428.75610350179
 20
2258.3401228323569
 30
0.0
 40
372.0
 50
95.033836234027561
 51
180.0
  0
LINE
  5
81AE
  8
1
 10
1398.75610350179
 20
2211.8401228323569
 30
0.0
 11
1133.7561035017891
 21
2211.8401228323569
 31
0.0
  0
LINE
  5
81AF
  8
1
 10
1668.75610350179
 20
2176.8401228323569
 30
0.0
 11
1128.7561035017909
 21
2176.8401228323569
 31
0.0
  0
LINE
  5
81B0
  8
2
 10
984.46552706120008
 20
2228.3401228323578
 30
0.0
 11
1707.562017963922
 21
2228.3401228323578
 31
0.0
  0
LINE
  5
81B1
  8
1
 10
658.75610350179056
 20
1878.340122832358
 30
0.0
 11
658.75610350179056
 21
1798.340122832358
 31
0.0
  0
LINE
  5
81B2
  8
1
 10
658.75610350179056
 20
1703.3401228323571
 30
0.0
 11
658.75610350179056
 21
1638.3401228323571
 31
0.0
  0
LINE
  5
81B3
  8
1
 10
708.75610350178965
 20
2081.1695299801349
 30
0.0
 11
708.75610350178704
 21
1878.340122832358
 31
0.0
  0
LINE
  5
81B4
  8
1
 10
746.25610350178965
 20
1913.3401228323589
 30
0.0
 11
971.25610350178965
 21
1913.340122832356
 31
0.0
  0
LINE
  5
81B5
  8
2
 10
858.75610350179068
 20
1854.4426616683661
 30
0.0
 11
858.75610350179068
 21
2111.8012228323578
 31
0.0
  0
ARC
  5
81B6
  8
1
 10
858.75610350179068
 20
2003.340122832358
 30
0.0
 40
100.8
 50
300.30070000000001
 51
180.0
  0
LINE
  5
81B7
  8
2
 10
963.22130350179032
 20
2003.340122832358
 30
0.0
 11
752.65330350179102
 21
2003.340122832358
 31
0.0
  0
LINE
  5
81B8
  8
1
 10
909.68020350179086
 20
1916.340122832358
 30
0.0
 11
807.72510350179073
 21
1916.340122832358
 31
0.0
  0
LINE
  5
81B9
  8
1
 10
909.68020350179086
 20
1916.340122832358
 30
0.0
 11
807.72510350179073
 21
1916.340122832358
 31
0.0
  0
CIRCLE
  5
81BA
  8
1
 10
858.75610350179068
 20
2003.340122832358
 30
0.0
 40
57.149999999999991
  0
ARC
  5
81BB
  8
1
 10
858.75610350179068
 20
2003.340122832358
 30
0.0
 40
100.8
 50
180.0
 51
239.6066999999999
  0
ARC
  5
81BC
  8
1
 10
858.75610350179068
 20
2003.340122832358
 30
0.0
 40
100.8
 50
180.0
 51
239.6066999999999
  0
LINE
  5
81BD
  8
1
 10
797.46720350179021
 20
1923.340122832358
 30
0.0
 11
772.75610350179068
 21
1923.340122832358
 31
0.0
  0
LINE
  5
81BE
  8
1
 10
770.75610350179056
 20
1913.340122832358
 30
0.0
 11
810.75610350179068
 21
1913.340122832358
 31
0.0
  0
LINE
  5
81BF
  8
1
 10
735.04020897697683
 20
1878.340122832358
 30
0.0
 11
746.25610350178965
 21
1913.340122832358
 31
0.0
  0
ARC
  5
81C0
  8
1
 10
772.75610350179068
 20
1921.340122832358
 30
0.0
 40
2.0
 50
90.0
 51
180.0
  0
LINE
  5
81C1
  8
1
 10
776.60950350179064
 20
1944.922822832358
 30
0.0
 11
770.75610350179056
 21
1921.340122832358
 31
0.0
  0
LINE
  5
81C2
  8
1
 10
770.75610350179056
 20
1913.340122832358
 30
0.0
 11
770.75610350179056
 21
1921.340122832358
 31
0.0
  0
LINE
  5
81C3
  8
1
 10
810.75610350179068
 20
1916.2711228323581
 30
0.0
 11
810.75610350179068
 21
1913.340122832358
 31
0.0
  0
LINE
  5
81C4
  8
1
 10
788.75610350179056
 20
1908.9736228323579
 30
0.0
 11
788.75610350179056
 21
1925.8770228323581
 31
0.0
  0
LINE
  5
81C5
  8
1
 10
783.75610350179056
 20
1923.340122832358
 30
0.0
 11
783.75610350179056
 21
1913.340122832358
 31
0.0
  0
LINE
  5
81C6
  8
1
 10
793.75610350179068
 20
1923.340122832358
 30
0.0
 11
793.75610350179068
 21
1913.340122832358
 31
0.0
  0
ARC
  5
81C7
  8
1
 10
944.75610350179068
 20
1921.340122832358
 30
0.0
 40
2.0
 50
0.0
 51
90.0
  0
LINE
  5
81C8
  8
1
 10
940.90260350179051
 20
1944.922822832358
 30
0.0
 11
946.75610350179056
 21
1921.340122832358
 31
0.0
  0
LINE
  5
81C9
  8
1
 10
920.08010350179029
 20
1923.340122832358
 30
0.0
 11
944.75610350179068
 21
1923.340122832358
 31
0.0
  0
LINE
  5
81CA
  8
1
 10
906.75610350179056
 20
1916.312922832358
 30
0.0
 11
906.75610350179056
 21
1913.340122832358
 31
0.0
  0
LINE
  5
81CB
  8
1
 10
946.75610350179056
 20
1913.340122832358
 30
0.0
 11
906.75610350179056
 21
1913.340122832358
 31
0.0
  0
LINE
  5
81CC
  8
1
 10
946.75610350179056
 20
1913.340122832358
 30
0.0
 11
946.75610350179056
 21
1921.340122832358
 31
0.0
  0
LINE
  5
81CD
  8
1
 10
928.75610350179056
 20
1908.9736228323579
 30
0.0
 11
928.75610350179056
 21
1925.8770228323581
 31
0.0
  0
LINE
  5
81CE
  8
1
 10
933.75610350179068
 20
1923.340122832358
 30
0.0
 11
933.75610350179068
 21
1913.340122832358
 31
0.0
  0
LINE
  5
81CF
  8
1
 10
923.75610350179056
 20
1923.340122832358
 30
0.0
 11
923.75610350179056
 21
1913.340122832358
 31
0.0
  0
LINE
  5
81D0
  8
1
 10
1183.7561035017909
 20
1878.340122832358
 30
0.0
 11
1183.7561035017909
 21
2152.8401228323569
 31
0.0
  0
ARC
  5
81D1
  8
1
 10
1368.75610350179
 20
2258.3401228323569
 30
0.0
 40
312.0
 50
180.0
 51
233.63346141187139
  0
LINE
  5
81D2
  8
1
 10
971.25610350178965
 20
1913.340122832356
 30
0.0
 11
982.47199802660168
 21
1878.340122832356
 31
0.0
  0
LINE
  5
81D3
  8
1
 10
1128.75610350179
 20
2176.8401228323569
 30
0.0
 11
1128.7561035017891
 21
2206.8401228323569
 31
0.0
  0
LINE
  5
81D4
  8
1
 10
1183.7561035017909
 20
2152.8401228323569
 30
0.0
 11
1203.7561035017909
 21
2172.8401228323569
 31
0.0
  0
LINE
  5
81D5
  8
1
 10
1128.7561035017891
 20
2206.8401228323569
 30
0.0
 11
1133.7561035017891
 21
2211.8401228323569
 31
0.0
  0
DIMENSION
  5
81D7
  8
3
  2
*D6
 10
1973.2947951453091
 20
2228.3401228323578
 30
0.0
 11
1973.2947951453091
 21
2438.7129215221871
 31
0.0
 70
   128
 13
1678.7561035017909
 23
2652.3401228323578
 33
0.0
 14
1707.562017963922
 24
2228.3401228323578
 34
0.0
 50
90.0
1001
ACAD
1000
DSTYLE
1002
{
1070
   287
1070
     3
1070
   287
1070
     3
1070
    40
1040
20.0
1070
   143
1040
0.039
1070
   172
1070
     1
1070
   271
1070
     0
1070
   279
1070
     0
1070
   288
1070
     1
1002
}
  0
DIMENSION
  5
81D8
  8
3
  2
*D7
 10
1846.7204339709169
 20
2240.3401228323569
 30
0.0
 11
1846.7204339709169
 21
2443.5776218343749
 31
0.0
 70
   128
 13
1678.7561035017909
 23
2652.3401228323578
 33
0.0
 14
1678.7561035017909
 24
2240.3401228323569
 34
0.0
 50
90.0
1001
ACAD
1000
DSTYLE
1002
{
1070
   287
1070
     3
1070
   287
1070
     3
1070
    40
1040
20.0
1070
   143
1040
0.039
1070
   172
1070
     1
1070
   271
1070
     0
1070
   279
1070
     0
1070
   288
1070
     1
1002
}
  0
LINE
  5
81D9
  8
1
 10
1588.7561035017909
 20
2352.8661560601349
 30
0.0
 11
1588.7561035017879
 21
1878.340122832358
 31
0.0
  0
CIRCLE
  5
81DA
  8
1
 10
1398.75610350179
 20
2228.3401228323569
 30
0.0
 40
139.69999999999999
  0
LINE
  5
81DB
  8
1
 10
1678.7561035017909
 20
2444.3401228323578
 30
0.0
 11
1678.7561035017909
 21
2213.3401228323551
 31
0.0
  0
LINE
  5
81DC
  8
1
 10
1703.7561035017909
 20
2444.3401228323578
 30
0.0
 11
1703.7561035017909
 21
2213.3401228323578
 31
0.0
  0
LINE
  5
81DD
  8
1
 10
1701.45610350179
 20
2444.3401228323578
 30
0.0
 11
1701.45610350179
 21
2213.3401228323569
 31
0.0
  0
LINE
  5
81DE
  8
2
 10
1398.75610350179
 20
2661.5652353111218
 30
0.0
 11
1398.75610350179
 21
1638.3401228323571
 31
0.0
  0
DIMENSION
  5
81E1
  8
3
  2
*D8
 10
1973.2947951453091
 20
1798.340122832358
 30
0.0
 11
1923.2947951453091
 21
2013.340122832358
 31
0.0
 70
     0
 13
1707.562017963922
 23
2228.3401228323578
 33
0.0
 14
1658.75610350179
 24
1798.340122832358
 34
0.0
 50
90.0
1001
ACAD
1000
DSTYLE
1002
{
1070
   287
1070
     4
1070
   287
1070
     4
1070
    40
1040
20.0
1070
    75
1070
     1
1070
   143
1040
0.039
1070
   172
1070
     1
1070
   271
1070
     0
1070
   279
1070
     1
1070
   288
1070
     1
1002
}
  0
LINE
  5
81E2
  8
1
 10
1678.7561035017909
 20
2213.3401228323551
 30
0.0
 11
1703.7561035017909
 21
2213.3401228323578
 31
0.0
  0
LINE
  5
81E3
  8
1
 10
1658.75610350179
 20
1878.3401228323571
 30
0.0
 11
1658.75610350179
 21
1798.340122832358
 31
0.0
  0
LINE
  5
81E5
  8
1
 10
1658.75610350179
 20
1703.3401228323571
 30
0.0
 11
1658.75610350179
 21
1638.3401228323571
 31
0.0
  0
ARC
  5
81E6
  8
1
 10
1375.75610350179
 20
2205.3401228323578
 30
0.0
 40
259.0
 50
270.0
 51
320.65649646750171
  0
LINE
  5
81E7
  8
1
 10
1663.75610350179
 20
2211.8401228323569
 30
0.0
 11
1398.75610350179
 21
2211.8401228323569
 31
0.0
  0
LINE
  5
81E8
  8
1
 10
1571.4561035017909
 20
2176.8401228323569
 30
0.0
 11
1226.0561035017899
 21
2176.8401228323569
 31
0.0
  0
LINE
  5
81E9
  8
1
 10
1221.4561035017909
 20
1878.340122832358
 30
0.0
 11
1221.4561035017909
 21
2172.2401228323579
 31
0.0
  0
ARC
  5
81EA
  8
1
 10
1368.75610350179
 20
2258.3401228323569
 30
0.0
 40
312.0
 50
241.82830143118539
 51
270.0
  0
LINE
  5
81EB
  8
1
 10
1368.75610350179
 20
1946.3401228323571
 30
0.0
 11
1375.75610350179
 21
1946.3401228323571
 31
0.0
  0
ARC
  5
81EC
  8
1
 10
1226.0561035017899
 20
2172.2401228323579
 30
0.0
 40
4.5999999999999988
 50
90.0
 51
180.0
  0
LINE
  5
81ED
  8
1
 10
1613.7561035017909
 20
1878.340122832358
 30
0.0
 11
1613.7561035017909
 21
2152.8401228323569
 31
0.0
  0
LINE
  5
81EE
  8
1
 10
1576.0561035017911
 20
1878.340122832358
 30
0.0
 11
1576.0561035017911
 21
2172.2401228323579
 31
0.0
  0
ARC
  5
81EF
  8
1
 10
1571.4561035017909
 20
2172.2401228323579
 30
0.0
 40
4.5999999999999988
 50
0.0
 51
90.0
  0
LINE
  5
81F0
  8
1
 10
1668.75610350179
 20
2176.8401228323569
 30
0.0
 11
1668.75610350179
 21
2206.8401228323569
 31
0.0
  0
ARC
  5
81F1
  8
1
 10
1375.75610350179
 20
2205.3401228323578
 30
0.0
 40
259.0
 50
336.76854349499422
 51
0.0
  0
LINE
  5
81F2
  8
1
 10
1576.016805202187
 20
2172.8401228323569
 30
0.0
 11
1593.7561035017909
 21
2172.8401228323569
 31
0.0
  0
LINE
  5
81F3
  8
1
 10
1593.7561035017909
 20
2172.8401228323569
 30
0.0
 11
1613.7561035017909
 21
2152.8401228323569
 31
0.0
  0
LINE
  5
81F4
  8
1
 10
1634.7561035017909
 20
2240.3401228323569
 30
0.0
 11
1678.7561035017909
 21
2240.3401228323569
 31
0.0
  0
LINE
  5
81F5
  8
1
 10
1663.75610350179
 20
2211.8401228323569
 30
0.0
 11
1668.75610350179
 21
2206.8401228323569
 31
0.0
  0
LINE
  5
81F6
  8
1
 10
1634.7561035017909
 20
2205.3401228323578
 30
0.0
 11
1634.7561035017909
 21
2240.3401228323569
 31
0.0
  0
DIMENSION
  5
81F7
  8
3
  2
*D9
 10
1398.75610350179
 20
2776.8098744434051
 30
0.0
 11
1535.8989606446471
 21
2776.8098744434051
 31
0.0
 70
   128
 13
1703.7561035017909
 23
2679.3401228323569
 33
0.0
 14
1398.75610350179
 24
2661.5652353111218
 34
0.0
1001
ACAD
1000
DSTYLE
1002
{
1070
   287
1070
     3
1070
   287
1070
     3
1070
    40
1040
20.0
1070
   143
1040
0.039
1070
   172
1070
     1
1070
   271
1070
     0
1070
   279
1070
     0
1070
   288
1070
     1
1002
}
  0
LINE
  5
81F8
  8
1
 10
1678.7561035017909
 20
2679.3401228323569
 30
0.0
 11
1703.7561035017909
 21
2679.3401228323569
 31
0.0
  0
LINE
  5
81F9
  8
1
 10
1398.756103501792
 20
2491.922933988405
 30
0.0
 11
1588.7561035017909
 21
2352.8661560601349
 31
0.0
  0
LINE
  5
81FA
  8
1
 10
1633.7561035017909
 20
2378.3401228323578
 30
0.0
 11
1413.7561035017909
 21
2378.3401228323578
 31
0.0
  0
LINE
  5
81FB
  8
1
 10
1678.7561035017909
 20
2652.3401228323578
 30
0.0
 11
1396.1153228646799
 21
2628.905339008134
 31
0.0
  0
LINE
  5
81FC
  8
1
 10
1633.7561035017909
 20
2615.3319812610621
 30
0.0
 11
1413.7561035017909
 21
2615.3319812610621
 31
0.0
  0
LINE
  5
81FD
  8
1
 10
1633.7561035017909
 20
2613.3401228323578
 30
0.0
 11
1413.7561035017909
 21
2613.3401228323578
 31
0.0
  0
LINE
  5
81FE
  8
1
 10
1633.7561035017909
 20
2628.3401228323578
 30
0.0
 11
1413.7561035017909
 21
2628.3401228323578
 31
0.0
  0
LINE
  5
81FF
  8
1
 10
1413.7561035017909
 20
2378.3401228323578
 30
0.0
 11
1413.7561035017909
 21
2628.3401228323578
 31
0.0
  0
LINE
  5
8200
  8
1
 10
1678.7561035017909
 20
2444.3401228323578
 30
0.0
 11
1678.7561035017909
 21
2679.3401228323569
 31
0.0
  0
LINE
  5
8201
  8
1
 10
1633.7561035017909
 20
2378.3401228323578
 30
0.0
 11
1633.7561035017909
 21
2628.3401228323578
 31
0.0
  0
LINE
  5
8202
  8
1
 10
1701.45610350179
 20
2444.3401228323578
 30
0.0
 11
1701.4561035017921
 21
2679.3401228323569
 31
0.0
  0
LINE
  5
8203
  8
1
 10
1703.7561035017909
 20
2444.3401228323578
 30
0.0
 11
1703.7561035017909
 21
2679.3401228323569
 31
0.0
  0
LINE
  5
8204
  8
1
 10
2768.05307731414
 20
2448.3401228323569
 30
0.0
 11
2768.0530773141409
 21
1888.3401228323571
 31
0.0
  0
LINE
  5
8205
  8
1
 10
2854.9933156636512
 20
2368.0401228323572
 30
0.0
 11
2854.9933156636521
 21
2088.6401228323571
 31
0.0
  0
LINE
  5
8206
  8
1
 10
2814.9933156636512
 20
2368.0401228323572
 30
0.0
 11
2814.993315663653
 21
2088.6401228323571
 31
0.0
  0
LINE
  5
8207
  8
1
 10
3084.1155945275168
 20
2653.3401228323578
 30
0.0
 11
3084.1155945275168
 21
2239.3401228323569
 31
0.0
  0
LINE
  5
8208
  8
1
 10
3111.1155945275159
 20
2235.3401228323569
 30
0.0
 11
3111.1155945275159
 21
2657.3401228323578
 31
0.0
  0
LINE
  5
8209
  8
1
 10
3109.5155945275178
 20
2235.3401228323569
 30
0.0
 11
3109.5155945275169
 21
2657.3401228323578
 31
0.0
  0
LINE
  5
820A
  8
1
 10
3084.1155945275168
 20
2238.3401228323569
 30
0.0
 11
3084.1155945275168
 21
2654.3401228323578
 31
0.0
  0
LINE
  5
820B
  8
1
 10
2903.1155945275168
 20
1798.340122832358
 30
0.0
 11
2903.1155945275168
 21
1878.340122832358
 31
0.0
  0
LINE
  5
820C
  8
1
 10
2903.1155945275168
 20
1638.3401228323571
 30
0.0
 11
2903.1155945275168
 21
1703.3401228323571
 31
0.0
  0
LINE
  5
820D
  8
2
 10
2917.2382266267759
 20
2003.340122832358
 30
0.0
 11
2744.594378329537
 21
2003.340122832358
 31
0.0
  0
LINE
  5
820E
  8
1
 10
2907.7155945275172
 20
2176.8401228323569
 30
0.0
 11
2965.6155945275182
 21
2176.8401228323569
 31
0.0
  0
LINE
  5
820F
  8
1
 10
2898.1155945275191
 20
2208.3401228323569
 30
0.0
 11
3108.3155945275289
 21
2208.3401228323569
 31
0.0
  0
LINE
  5
8210
  8
1
 10
2898.1155945275168
 20
2248.3401228323569
 30
0.0
 11
3084.1155945275168
 21
2248.3401228323569
 31
0.0
  0
LINE
  5
8211
  8
1
 10
2907.7155945275172
 20
2176.8401228323569
 30
0.0
 11
3108.315594527528
 21
2176.8401228323569
 31
0.0
  0
LINE
  5
8212
  8
1
 10
2907.1155945275168
 20
1878.340122832358
 30
0.0
 11
3104.1155945275168
 21
1878.340122832358
 31
0.0
  0
LINE
  5
8213
  8
1
 10
2854.9933156636521
 20
2088.6401228323571
 30
0.0
 11
2854.9933156636521
 21
1944.1901228323529
 31
0.0
  0
LINE
  5
8214
  8
1
 10
2814.993315663653
 20
2088.6401228323571
 30
0.0
 11
2814.9933156636521
 21
1944.1901228323529
 31
0.0
  0
LINE
  5
8215
  8
1
 10
2903.1155945275168
 20
2172.240122832357
 30
0.0
 11
2903.1155945275168
 21
1882.3401228323571
 31
0.0
  0
LINE
  5
8216
  8
1
 10
2903.1155945275182
 20
2172.240122832357
 30
0.0
 11
2903.1155945275168
 21
1878.340122832358
 31
0.0
  0
LINE
  5
8217
  8
1
 10
2768.0530773141409
 20
1888.3401228323571
 30
0.0
 11
2890.0530773141418
 21
1888.3401228323571
 31
0.0
  0
LINE
  5
8218
  8
1
 10
2814.9933156636539
 20
1944.1901228323529
 30
0.0
 11
2854.9933156636521
 21
1944.1901228323529
 31
0.0
  0
LINE
  5
8219
  8
1
 10
2890.0530773141418
 20
1908.3401228323571
 30
0.0
 11
2890.0530773141418
 21
1888.3401228323571
 31
0.0
  0
LINE
  5
821A
  8
1
 10
2814.9933156636539
 20
2058.490122832352
 30
0.0
 11
2854.993315663653
 21
2058.490122832352
 31
0.0
  0
LINE
  5
821B
  8
1
 10
2814.993315663653
 20
2088.6401228323571
 30
0.0
 11
2854.9933156636521
 21
2088.6401228323571
 31
0.0
1001
ACAD
1000
ASC_BOUNDS
1002
{
1070
    19
1002
}
  0
ARC
  5
821C
  8
1
 10
2907.7155945275172
 20
2172.240122832357
 30
0.0
 40
4.5999999999999988
 50
90.0
 51
180.0
  0
LINE
  5
821D
  8
1
 10
2839.1155945275159
 20
2214.3401228323569
 30
0.0
 11
2891.1155945275168
 21
2214.3401228323569
 31
0.0
  0
LINE
  5
821E
  8
1
 10
2839.1155945275159
 20
2242.3401228323569
 30
0.0
 11
2891.1155945275168
 21
2242.3401228323569
 31
0.0
  0
LINE
  5
821F
  8
1
 10
2838.1155945275159
 20
2215.3401228323569
 30
0.0
 11
2839.1155945275159
 21
2214.3401228323569
 31
0.0
  0
LINE
  5
8220
  8
1
 10
2838.1155945275159
 20
2241.3401228323569
 30
0.0
 11
2839.1155945275159
 21
2242.3401228323569
 31
0.0
  0
LINE
  5
8221
  8
1
 10
2838.1155945275159
 20
2241.3401228323569
 30
0.0
 11
2838.1155945275159
 21
2215.3401228323569
 31
0.0
  0
ARC
  5
8222
  8
1
 10
2891.1155945275168
 20
2212.3401228323569
 30
0.0
 40
2.0
 50
0.0
 51
90.0
  0
ARC
  5
8223
  8
1
 10
2891.1155945275168
 20
2244.3401228323569
 30
0.0
 40
2.0
 50
270.0
 51
0.0
  0
LINE
  5
8224
  8
1
 10
2893.1155945275159
 20
2248.3401228323569
 30
0.0
 11
2898.1155945275168
 21
2248.3401228323569
 31
0.0
  0
LINE
  5
8225
  8
1
 10
2893.115594527515
 20
2208.3401228323569
 30
0.0
 11
2898.1155945275191
 21
2208.3401228323569
 31
0.0
  0
LINE
  5
8226
  8
1
 10
2893.1155945275159
 20
2248.3401228323569
 30
0.0
 11
2893.115594527515
 21
2208.3401228323569
 31
0.0
  0
LINE
  5
8227
  8
1
 10
3108.3155945275139
 20
1878.340122832358
 30
0.0
 11
3108.3155945275298
 21
2213.3401228323569
 31
0.0
  0
LINE
  5
8228
  8
1
 10
3112.3155945275171
 20
1936.3401228323571
 30
0.0
 11
3112.3155945275171
 21
2213.3401228323569
 31
0.0
  0
ARC
  5
8229
  8
1
 10
3113.1155945275168
 20
1945.5401228323569
 30
0.0
 40
0.8
 50
90.0
 51
180.0
  0
ARC
  5
822A
  8
1
 10
3110.3155945275171
 20
1936.3401228323571
 30
0.0
 40
1.9999999999997271
 50
179.9999999999967
 51
0.0
  0
LINE
  5
822B
  8
1
 10
3028.1155945275168
 20
2176.8401228323569
 30
0.0
 11
3103.5155945275169
 21
2176.8401228323569
 31
0.0
  0
LINE
  5
822C
  8
1
 10
3084.1155945275168
 20
2213.3401228323569
 30
0.0
 11
3084.1155945275168
 21
2238.3401228323578
 31
0.0
  0
LINE
  5
822D
  8
1
 10
3084.1155945275168
 20
2238.3401228323569
 30
0.0
 11
3084.1155945275168
 21
2213.3401228323569
 31
0.0
  0
LINE
  5
822E
  8
1
 10
2768.05307731414
 20
2448.340122832356
 30
0.0
 11
2890.05307731414
 21
2448.340122832356
 31
0.0
  0
LINE
  5
822F
  8
1
 10
2890.05307731414
 20
2448.3401228323569
 30
0.0
 11
2768.05307731414
 21
2448.3401228323569
 31
0.0
  0
LINE
  5
8230
  8
1
 10
2814.9933156636512
 20
2368.0401228323572
 30
0.0
 11
2854.9933156636512
 21
2368.0401228323572
 31
0.0
1001
ACAD
1000
ASC_BOUNDS
1002
{
1070
    19
1002
}
  0
LINE
  5
8231
  8
1
 10
2890.05307731414
 20
2428.3401228323569
 30
0.0
 11
2890.05307731414
 21
2448.3401228323569
 31
0.0
  0
LINE
  5
8232
  8
1
 10
3084.1155945275168
 20
2679.3401228323578
 30
0.0
 11
3084.1155945275168
 21
2654.3401228323578
 31
0.0
  0
LINE
  5
8233
  8
1
 10
3084.1155945275168
 20
2654.3401228323578
 30
0.0
 11
3084.1155945275168
 21
2679.3401228323569
 31
0.0
  0
LINE
  5
8234
  8
1
 10
1221.4561035017909
 20
3506.5884824968748
 30
0.0
 11
939.14637488138942
 21
3506.588482496873
 31
0.0
  0
LINE
  5
8235
  8
1
 10
1188.7561035017909
 20
3510.5884824968739
 30
0.0
 11
1221.495401801395
 21
3510.5884824968739
 31
0.0
  0
LINE
  5
8236
  8
1
 10
1173.75610350179
 20
3631.5884824968762
 30
0.0
 11
1288.7561035017891
 21
3631.5884824968762
 31
0.0
  0
LINE
  5
8237
  8
1
 10
1128.75610350179
 20
3711.5884824968762
 30
0.0
 11
1668.7561035017909
 21
3711.5884824968762
 31
0.0
  0
LINE
  5
8239
  8
1
 10
1658.75610350179
 20
4016.5884824968739
 30
0.0
 11
658.75610350179056
 21
4016.5884824968739
 31
0.0
  0
LINE
  5
823A
  8
1
 10
1658.75610350179
 20
4056.5884824968739
 30
0.0
 11
658.75610350179056
 21
4056.588482496873
 31
0.0
  0
LINE
  5
823B
  8
1
 10
1259.056103501789
 20
3458.4662036330092
 30
0.0
 11
799.60610350178558
 21
3458.4662036330092
 31
0.0
  0
LINE
  5
823C
  8
1
 10
1259.056103501789
 20
3418.4662036330101
 30
0.0
 11
799.60610350178558
 21
3418.466203633006
 31
0.0
  0
LINE
  5
823D
  8
1
 10
1618.75610350179
 20
3371.525965283497
 30
0.0
 11
745.75610350179147
 21
3371.5259652834989
 31
0.0
  0
LINE
  5
823E
  8
1
 10
1056.7561035017909
 20
4013.3884824968741
 30
0.0
 11
1678.7561035017909
 21
4013.38848249687
 31
0.0
  0
LINE
  5
823F
  8
1
 10
1056.7561035017909
 20
3715.7884824968742
 30
0.0
 11
1678.7561035017909
 21
3715.7884824968719
 31
0.0
  0
LINE
  5
8240
  8
2
 10
1737.2278918972911
 20
3864.588482496873
 30
0.0
 11
1039.080027990017
 21
3864.588482496873
 31
0.0
  0
LINE
  5
8241
  8
1
 10
778.36583212219193
 20
3506.588482496873
 30
0.0
 11
658.75610350179056
 21
3506.588482496873
 31
0.0
  0
LINE
  5
8242
  8
1
 10
757.75610350178977
 20
3546.588482496873
 30
0.0
 11
658.75610350179056
 21
3546.588482496873
 31
0.0
  0
LINE
  5
8244
  8
1
 10
698.75610350179068
 20
3546.588482496873
 30
0.0
 11
698.75610350179068
 21
4016.5884824968739
 31
0.0
  0
LINE
  5
8245
  8
1
 10
658.75610350179056
 20
3506.588482496873
 30
0.0
 11
658.75610350179056
 21
4056.588482496873
 31
0.0
  0
LINE
  5
8246
  8
1
 10
1128.75610350179
 20
3676.5884824968762
 30
0.0
 11
1128.75610350179
 21
3711.5884824968762
 31
0.0
  0
LINE
  5
8247
  8
1
 10
757.75610350178977
 20
3676.841608516113
 30
0.0
 11
757.75610350178977
 21
3709.1393715931858
 31
0.0
  0
LINE
  5
8248
  8
1
 10
959.75610350179068
 20
3676.841608516113
 30
0.0
 11
959.75610350179068
 21
3709.1393715931858
 31
0.0
  0
LINE
  5
8249
  8
2
 10
858.75610350179068
 20
3805.7242026369449
 30
0.0
 11
858.75610350179068
 21
3385.7268574103518
 31
0.0
  0
LINE
  5
824A
  8
1
 10
1183.7561035017909
 20
3546.5884824968739
 30
0.0
 11
959.75610350179068
 21
3546.588482496873
 31
0.0
  0
LINE
  5
824B
  8
1
 10
846.75610350179056
 20
3432.3388242846399
 30
0.0
 11
846.75610350178965
 21
3482.3388242846399
 31
0.0
  0
LINE
  5
824C
  8
1
 10
870.75610350178977
 20
3432.3388242846399
 30
0.0
 11
870.75610350179056
 21
3482.3388242846399
 31
0.0
  0
LINE
  5
824D
  8
1
 10
913.90610350178576
 20
3418.466203633011
 30
0.0
 11
913.90610350178576
 21
3458.4662036330101
 31
0.0
  0
LINE
  5
824E
  8
1
 10
799.60610350178558
 20
3418.466203633011
 30
0.0
 11
799.60610350178558
 21
3458.4662036330092
 31
0.0
  0
LINE
  5
824F
  8
1
 10
745.75610350179147
 20
3371.5259652834989
 30
0.0
 11
745.75610350179147
 21
3493.525965283498
 31
0.0
  0
LINE
  5
8250
  8
1
 10
870.75610350178977
 20
3432.3388242846399
 30
0.0
 11
846.75610350179056
 21
3432.3388242846399
 31
0.0
  0
LINE
  5
8251
  8
1
 10
913.21488750506444
 20
3487.338824284639
 30
0.0
 11
804.29731949851714
 21
3487.338824284639
 31
0.0
  0
LINE
  5
8252
  8
1
 10
778.36583212219193
 20
3495.3129258141948
 30
0.0
 11
858.75610350178965
 21
3495.3129258141948
 31
0.0
  0
LINE
  5
8253
  8
1
 10
939.14637488138942
 20
3521.289611196145
 30
0.0
 11
778.36583212219193
 21
3521.289611196145
 31
0.0
  0
LINE
  5
8254
  8
1
 10
959.75610350179068
 20
3676.841608516113
 30
0.0
 11
757.75610350178977
 21
3676.841608516113
 31
0.0
  0
LINE
  5
8255
  8
1
 10
757.75610350178977
 20
3529.0083973671349
 30
0.0
 11
757.75610350178977
 21
3669.6589471880311
 31
0.0
  0
LINE
  5
8256
  8
1
 10
757.75610350178977
 20
3529.0083973671358
 30
0.0
 11
778.36583212219193
 21
3521.289611196145
 31
0.0
  0
LINE
  5
8257
  8
1
 10
778.36583212219193
 20
3495.3129258141948
 30
0.0
 11
778.36583212219193
 21
3521.289611196145
 31
0.0
  0
LINE
  5
8258
  8
1
 10
765.75610350179147
 20
3493.525965283498
 30
0.0
 11
745.75610350179147
 21
3493.525965283498
 31
0.0
  0
LINE
  5
8259
  8
1
 10
804.29731949851714
 20
3487.338824284639
 30
0.0
 11
804.29731949851714
 21
3495.3129258141948
 31
0.0
  0
LINE
  5
825A
  8
1
 10
757.75610350178977
 20
3669.6589471880311
 30
0.0
 11
779.30232839635573
 21
3676.841608516113
 31
0.0
  0
LINE
  5
825B
  8
1
 10
959.75610350179068
 20
3529.0083973671349
 30
0.0
 11
959.75610350179068
 21
3669.6589471880311
 31
0.0
  0
LINE
  5
825C
  8
1
 10
939.14637488138942
 20
3495.3129258141948
 30
0.0
 11
858.75610350179159
 21
3495.3129258141948
 31
0.0
  0
LINE
  5
825D
  8
1
 10
872.56017461543161
 20
3487.338824284639
 30
0.0
 11
872.56017461543161
 21
3482.3388242846399
 31
0.0
  0
LINE
  5
825E
  8
1
 10
844.95203238814975
 20
3487.338824284639
 30
0.0
 11
844.95203238814975
 21
3482.3388242846399
 31
0.0
  0
LINE
  5
825F
  8
1
 10
872.56017461543161
 20
3482.3388242846399
 30
0.0
 11
846.75610350178965
 21
3482.3388242846399
 31
0.0
  0
LINE
  5
8260
  8
1
 10
939.14637488138942
 20
3495.3129258141948
 30
0.0
 11
939.14637488138942
 21
3521.289611196145
 31
0.0
  0
LINE
  5
8261
  8
1
 10
913.21488750506444
 20
3487.338824284639
 30
0.0
 11
913.21488750506444
 21
3495.3129258141948
 31
0.0
  0
LINE
  5
8262
  8
1
 10
959.75610350179068
 20
3529.0083973671358
 30
0.0
 11
939.14637488138942
 21
3521.289611196145
 31
0.0
  0
LINE
  5
8263
  8
1
 10
959.75610350179068
 20
3669.6589471880311
 30
0.0
 11
938.20987860722573
 21
3676.841608516113
 31
0.0
  0
LINE
  5
8264
  8
1
 10
1183.7561035017909
 20
3515.5884824968739
 30
0.0
 11
1183.7561035017909
 21
3631.5884824968762
 31
0.0
  0
LINE
  5
8265
  8
1
 10
1183.7561035017909
 20
3515.5884824968739
 30
0.0
 11
1188.7561035017909
 21
3510.5884824968739
 31
0.0
  0
LINE
  5
8266
  8
1
 10
1173.75610350179
 20
3631.5884824968762
 30
0.0
 11
1128.75610350179
 21
3676.5884824968762
 31
0.0
  0
LINE
  5
8267
  8
1
 10
938.75610350179056
 20
3759.338824284639
 30
0.0
 11
778.75610350179056
 21
3759.338824284639
 31
0.0
  0
LINE
  5
8268
  8
1
 10
959.75610350179068
 20
3709.1393715931858
 30
0.0
 11
757.75610350178977
 21
3709.1393715931858
 31
0.0
  0
LINE
  5
8269
  8
1
 10
757.75610350178977
 20
3709.1393715931858
 30
0.0
 11
778.75610350178977
 21
3759.338824284639
 31
0.0
  0
LINE
  5
826A
  8
1
 10
959.75610350179068
 20
3709.1393715931858
 30
0.0
 11
938.75610350179056
 21
3759.338824284639
 31
0.0
  0
LINE
  5
826B
  8
1
 10
1056.7561035017909
 20
3715.7884824968728
 30
0.0
 11
1056.7561035017909
 21
4013.3884824968741
 31
0.0
  0
LINE
  5
826C
  8
1
 10
1678.7561035017909
 20
4041.588482496873
 30
0.0
 11
1703.7561035017909
 21
4041.588482496873
 31
0.0
  0
LINE
  5
826D
  8
1
 10
1678.7561035017909
 20
3687.588482496873
 30
0.0
 11
1703.7561035017909
 21
3687.588482496873
 31
0.0
  0
LINE
  5
826E
  8
2
 10
1398.75610350179
 20
3422.7732104116299
 30
0.0
 11
1398.75610350179
 21
4076.8552611145651
 31
0.0
  0
LINE
  5
826F
  8
1
 10
1668.7561035017909
 20
3676.5884824968762
 30
0.0
 11
1668.7561035017909
 21
3711.5884824968762
 31
0.0
  0
LINE
  5
8270
  8
1
 10
1288.7561035017891
 20
3631.5884824968762
 30
0.0
 11
1508.7561035017909
 21
3631.5884824968762
 31
0.0
  0
LINE
  5
8271
  8
1
 10
1576.0561035017911
 20
3504.2884824968751
 30
0.0
 11
1412.75610350179
 21
3504.2884824968751
 31
0.0
  0
LINE
  5
8272
  8
1
 10
1538.45610350179
 20
3418.4662036330069
 30
0.0
 11
1259.056103501789
 21
3418.4662036330101
 31
0.0
  0
LINE
  5
8273
  8
1
 10
1538.45610350179
 20
3458.4662036330069
 30
0.0
 11
1259.056103501789
 21
3458.4662036330092
 31
0.0
  0
LINE
  5
8274
  8
1
 10
1412.75610350179
 20
3442.2884824968728
 30
0.0
 11
1412.75610350179
 21
3631.5884824968762
 31
0.0
  0
LINE
  5
8275
  8
1
 10
1384.75610350179
 20
3442.2884824968728
 30
0.0
 11
1384.7561035017909
 21
3631.5884824968762
 31
0.0
  0
LINE
  5
8276
  8
1
 10
1259.056103501789
 20
3418.4662036330101
 30
0.0
 11
1259.056103501789
 21
3458.4662036330092
 31
0.0
1001
ACAD
1000
ASC_BOUNDS
1002
{
1070
    19
1002
}
  0
LINE
  5
8277
  8
1
 10
1412.75610350179
 20
3442.2884824968728
 30
0.0
 11
1412.75610350179
 21
3494.2884824968728
 31
0.0
  0
LINE
  5
8278
  8
1
 10
1384.75610350179
 20
3442.2884824968728
 30
0.0
 11
1384.75610350179
 21
3494.2884824968728
 31
0.0
  0
LINE
  5
8279
  8
1
 10
1385.75610350179
 20
3441.2884824968728
 30
0.0
 11
1411.75610350179
 21
3441.2884824968728
 31
0.0
  0
LINE
  5
827A
  8
1
 10
1411.75610350179
 20
3441.2884824968728
 30
0.0
 11
1385.75610350179
 21
3441.2884824968728
 31
0.0
  0
LINE
  5
827B
  8
1
 10
1385.75610350179
 20
3441.2884824968728
 30
0.0
 11
1384.75610350179
 21
3442.2884824968728
 31
0.0
  0
LINE
  5
827C
  8
1
 10
1385.75610350179
 20
3441.2884824968728
 30
0.0
 11
1384.75610350179
 21
3442.2884824968728
 31
0.0
  0
LINE
  5
827D
  8
1
 10
1411.75610350179
 20
3441.2884824968728
 30
0.0
 11
1412.75610350179
 21
3442.2884824968728
 31
0.0
  0
LINE
  5
827E
  8
1
 10
1411.75610350179
 20
3441.2884824968728
 30
0.0
 11
1412.75610350179
 21
3442.2884824968728
 31
0.0
  0
LINE
  5
827F
  8
1
 10
1384.75610350179
 20
3504.288482496871
 30
0.0
 11
1221.4561035017909
 21
3504.2884824968751
 31
0.0
  0
LINE
  5
8280
  8
1
 10
1221.4561035017909
 20
3504.2884824968751
 30
0.0
 11
1221.45610350179
 21
3631.5884824968762
 31
0.0
  0
LINE
  5
8281
  8
1
 10
1618.75610350179
 20
3493.525965283498
 30
0.0
 11
1618.75610350179
 21
3371.525965283497
 31
0.0
  0
LINE
  5
8282
  8
1
 10
1618.7561035017891
 20
3371.525965283497
 30
0.0
 11
1618.7561035017891
 21
3493.525965283498
 31
0.0
  0
LINE
  5
8283
  8
1
 10
1538.45610350179
 20
3418.4662036330069
 30
0.0
 11
1538.45610350179
 21
3458.4662036330069
 31
0.0
1001
ACAD
1000
ASC_BOUNDS
1002
{
1070
    19
1002
}
  0
LINE
  5
8284
  8
1
 10
1508.7561035017909
 20
3631.5884824968762
 30
0.0
 11
1623.7561035017909
 21
3631.5884824968762
 31
0.0
  0
LINE
  5
8285
  8
1
 10
1618.75610350179
 20
3506.5884824968762
 30
0.0
 11
1618.7561035017909
 21
3631.5884824968762
 31
0.0
  0
LINE
  5
8286
  8
1
 10
1613.75610350179
 20
3515.5884824968739
 30
0.0
 11
1613.75610350179
 21
3631.5884824968762
 31
0.0
  0
LINE
  5
8287
  8
1
 10
1576.0561035017911
 20
3504.2884824968751
 30
0.0
 11
1576.0561035017911
 21
3631.5884824968762
 31
0.0
  0
LINE
  5
8288
  8
1
 10
1658.75610350179
 20
3506.5884824968762
 30
0.0
 11
1658.7561035017909
 21
3666.5884824968748
 31
0.0
  0
LINE
  5
8289
  8
1
 10
1658.75610350179
 20
3506.5884824968762
 30
0.0
 11
1576.0561035017911
 21
3506.5884824968762
 31
0.0
  0
LINE
  5
828A
  8
1
 10
1618.7561035017909
 20
3546.5884824968762
 30
0.0
 11
1613.75610350179
 21
3546.5884824968762
 31
0.0
  0
LINE
  5
828B
  8
1
 10
1608.75610350179
 20
3510.5884824968739
 30
0.0
 11
1613.75610350179
 21
3515.5884824968739
 31
0.0
  0
LINE
  5
828C
  8
1
 10
1576.016805202187
 20
3510.5884824968739
 30
0.0
 11
1608.75610350179
 21
3510.5884824968739
 31
0.0
  0
LINE
  5
828D
  8
1
 10
1598.75610350179
 20
3493.525965283498
 30
0.0
 11
1618.75610350179
 21
3493.525965283498
 31
0.0
  0
LINE
  5
828E
  8
1
 10
1668.7561035017909
 20
3676.5884824968762
 30
0.0
 11
1623.7561035017909
 21
3631.5884824968762
 31
0.0
  0
LINE
  5
828F
  8
1
 10
1678.7561035017909
 20
3687.588482496873
 30
0.0
 11
1678.7561035017909
 21
4041.588482496873
 31
0.0
  0
LINE
  5
8290
  8
1
 10
1658.75610350179
 20
4013.38848249687
 30
0.0
 11
1658.75610350179
 21
4056.588482496873
 31
0.0
  0
LINE
  5
8291
  8
1
 10
1703.7561035017909
 20
3687.588482496873
 30
0.0
 11
1703.7561035017909
 21
4041.588482496873
 31
0.0
  0
LINE
  5
8292
  8
1
 10
1703.75610350179
 20
3687.588482496873
 30
0.0
 11
1703.7561035017909
 21
4041.588482496873
 31
0.0
  0
LINE
  5
8293
  8
1
 10
1701.45610350179
 20
3687.588482496873
 30
0.0
 11
1701.45610350179
 21
4041.588482496873
 31
0.0
  0
DIMENSION
  5
8294
  8
3
  2
*D10
 10
3577.2854511063488
 20
2028.340122832358
 30
0.0
 11
3577.2854511063479
 21
2232.7220135938992
 31
0.0
 70
   128
 13
3412.7155945275172
 23
2428.3401228323578
 33
0.0
 14
3413.915594527512
 24
2028.340122832358
 34
0.0
 50
90.0
1001
ACAD
1000
DSTYLE
1002
{
1070
   287
1070
     3
1070
   287
1070
     3
1070
     3
1000
φ<>
1070
    40
1040
20.0
1070
   143
1040
0.039
1070
   172
1070
     1
1070
   271
1070
     0
1070
   279
1070
     0
1070
   288
1070
     1
1002
}
  0
LINE
  5
8295
  8
1
 10
3439.3155945275171
 20
2071.3401228323578
 30
0.0
 11
3439.3155945275171
 21
2428.3401228323578
 31
0.0
  0
LINE
  5
8296
  8
1
 10
3438.1155945275159
 20
2653.3401228323578
 30
0.0
 11
3438.1155945275159
 21
2239.3401228323569
 31
0.0
  0
LINE
  5
8297
  8
1
 10
3412.7155945275149
 20
2235.3401228323569
 30
0.0
 11
3412.7155945275172
 21
2657.3401228323578
 31
0.0
  0
LINE
  5
8298
  8
1
 10
3411.1155945275168
 20
2235.3401228323569
 30
0.0
 11
3411.1155945275168
 21
2657.3401228323578
 31
0.0
  0
LINE
  5
8299
  8
1
 10
3438.1155945275159
 20
2238.3401228323569
 30
0.0
 11
3438.1155945275159
 21
2654.3401228323578
 31
0.0
  0
LINE
  5
829A
  8
2
 10
3261.1155945275168
 20
1598.3401228323571
 30
0.0
 11
3261.1155945275168
 21
2781.8985416961959
 31
0.0
  0
LINE
  5
829B
  8
1
 10
3453.1155945275159
 20
1798.340122832358
 30
0.0
 11
3453.1155945275159
 21
1878.340122832358
 31
0.0
  0
LINE
  5
829D
  8
1
 10
3453.1155945275159
 20
1638.3401228323571
 30
0.0
 11
3453.1155945275159
 21
1703.3401228323571
 31
0.0
  0
LINE
  5
829E
  8
1
 10
3453.1155945275159
 20
2061.3401228323578
 30
0.0
 11
3443.1155945275168
 21
2071.3401228323578
 31
0.0
  0
LINE
  5
829F
  8
1
 10
3409.9155945275179
 20
1936.3401228323571
 30
0.0
 11
3409.9155945275179
 21
2213.3401228323569
 31
0.0
  0
LINE
  5
82A0
  8
1
 10
3413.9155945275161
 20
1936.3401228323571
 30
0.0
 11
3413.9155945275029
 21
2213.3401228323569
 31
0.0
  0
LINE
  5
82A1
  8
1
 10
3453.1155945275159
 20
2061.3401228323578
 30
0.0
 11
3453.1155945275159
 21
1878.340122832358
 31
0.0
  0
ARC
  5
82A2
  8
1
 10
3409.1155945275159
 20
1945.5401228323569
 30
0.0
 40
0.8
 50
0.0
 51
90.0
  0
LINE
  5
82A3
  8
1
 10
3413.1155945275159
 20
1934.7401228323581
 30
0.0
 11
3413.1155945275159
 21
1878.340122832358
 31
0.0
  0
ARC
  5
82A4
  8
1
 10
3411.9155945275161
 20
1936.3401228323571
 30
0.0
 40
1.9999999999997271
 50
180.0
 51
0.0
  0
LINE
  5
82A5
  8
1
 10
3453.1155945275159
 20
1878.340122832358
 30
0.0
 11
3417.7155945275172
 21
1878.340122832358
 31
0.0
  0
LINE
  5
82A6
  8
1
 10
3414.3155945275162
 20
2071.3401228323578
 30
0.0
 11
3414.3155945275171
 21
2213.3401228323569
 31
0.0
  0
LINE
  5
82A7
  8
1
 10
3443.1155945275168
 20
2071.3401228323578
 30
0.0
 11
3413.1155945275159
 21
2071.3401228323578
 31
0.0
  0
LINE
  5
82A8
  8
1
 10
3438.1155945275159
 20
2238.3401228323578
 30
0.0
 11
3438.1155945275159
 21
2213.3401228323569
 31
0.0
  0
LINE
  5
82A9
  8
1
 10
3438.1155945275159
 20
2238.3401228323578
 30
0.0
 11
3438.1155945275159
 21
2213.3401228323569
 31
0.0
  0
DIMENSION
  5
82AA
  8
3
  2
*D11
 10
3261.1155945275168
 20
2960.500787247302
 30
0.0
 11
3339.2400601254808
 21
3016.84905841917
 31
0.0
 12
-4988.3000541880647
 22
-88.224299101368175
 32
0.0
 70
   128
 13
3413.7155924250851
 23
2657.34217340743
 33
0.0
 14
3261.1155945275168
 24
2869.6859805855238
 34
0.0
1001
ACAD
1000
DSTYLE
1002
{
1070
   288
1070
     1
1070
   172
1070
     1
1070
    40
1040
20.0
1070
   271
1070
     0
1070
   143
1040
0.039
1002
}
  0
LINE
  5
82AB
  8
1
 10
3439.3155945275171
 20
2428.3401228323578
 30
0.0
 11
3439.3155945275171
 21
2429.3401228323578
 31
0.0
  0
LINE
  5
82AC
  8
1
 10
3439.3155945275171
 20
2428.3401228323578
 30
0.0
 11
3439.3155945275171
 21
2429.3401228323578
 31
0.0
  0
ARC
  5
82AD
  8
1
 10
3437.315594527518
 20
2429.3401228323578
 30
0.0
 40
2.0
 50
0.0
 51
66.42182152179285
  0
LINE
  5
82AE
  8
1
 10
3438.1155945275159
 20
2654.3401228323578
 30
0.0
 11
3438.1155945275159
 21
2679.3401228323578
 31
0.0
  0
LINE
  5
82AF
  8
1
 10
3438.1155945275159
 20
2654.3401228323569
 30
0.0
 11
3438.1155945275159
 21
2679.3401228323569
 31
0.0
  0
LINE
  5
8465
  8
1
 10
2728.1155945275159
 20
1598.3401228323571
 30
0.0
 11
3523.1155945275168
 21
1598.3401228323571
 31
0.0
  0
LINE
  5
8468
  8
1
 10
2728.1155945275168
 20
1598.3401228323571
 30
0.0
 11
2728.1155945275168
 21
1638.3401228323571
 31
0.0
  0
LINE
  5
8469
  8
1
 10
3523.1155945275168
 20
1598.3401228323571
 30
0.0
 11
3523.1155945275168
 21
1638.3401228323571
 31
0.0
  0
LINE
  5
846A
  8
1
 10
654.75610350179056
 20
1638.3401228323571
 30
0.0
 11
654.75610350179056
 21
1598.3401228323571
 31
0.0
  0
LINE
  5
846B
  8
1
 10
1662.7561035017909
 20
1638.3401228323571
 30
0.0
 11
1662.7561035017909
 21
1598.3401228323571
 31
0.0
  0
LINE
  5
846C
  8
1
 10
1582.75610350179
 20
1638.3401228323571
 30
0.0
 11
1582.75610350179
 21
1598.3401228323571
 31
0.0
  0
LINE
  5
846D
  8
1
 10
734.75610350179056
 20
1638.3401228323571
 30
0.0
 11
734.75610350179056
 21
1598.3401228323571
 31
0.0
  0
DIMENSION
  5
847A
  8
3
  2
*D12
 10
3261.1155945275168
 20
1462.234648045363
 30
0.0
 11
2994.6155945275159
 21
1512.234648045363
 31
0.0
 70
     0
 13
2728.1155945275159
 23
1598.3401228323571
 33
0.0
 14
3261.1155945275168
 24
1598.3401228323571
 34
0.0
1001
ACAD
1000
DSTYLE
1002
{
1070
   287
1070
     3
1070
   287
1070
     3
1070
    40
1040
20.0
1070
   143
1040
0.039
1070
   172
1070
     1
1070
   271
1070
     0
1070
   279
1070
     0
1002
}
  0
DIMENSION
  5
8489
  8
3
  2
*D13
 10
3523.1155945275168
 20
1462.234648045363
 30
0.0
 11
3392.1155945275159
 21
1512.234648045363
 31
0.0
 70
     0
 13
3261.1155945275168
 23
1598.3401228323571
 33
0.0
 14
3523.1155945275168
 24
1598.3401228323571
 34
0.0
1001
ACAD
1000
DSTYLE
1002
{
1070
   287
1070
     3
1070
   287
1070
     3
1070
    40
1040
20.0
1070
   143
1040
0.039
1070
   172
1070
     1
1070
   271
1070
     0
1070
   279
1070
     0
1002
}
  0
DIMENSION
  5
8498
  8
3
  2
*D14
 10
1662.7561035017909
 20
1462.234648045363
 30
0.0
 11
1530.75610350179
 21
1512.234648045363
 31
0.0
 70
     0
 13
1398.75610350179
 23
1638.3401228323571
 33
0.0
 14
1662.7561035017909
 24
1598.3401228323571
 34
0.0
1001
ACAD
1000
DSTYLE
1002
{
1070
   287
1070
     3
1070
   287
1070
     3
1070
    40
1040
20.0
1070
   143
1040
0.039
1070
   172
1070
     1
1070
   271
1070
     0
1070
   279
1070
     0
1002
}
  0
DIMENSION
  5
84A5
  8
3
  2
*D15
 10
654.75610350179056
 20
1462.234648045363
 30
0.0
 11
1026.75610350179
 21
1512.234648045363
 31
0.0
 70
     0
 13
1398.75610350179
 23
1638.3401228323571
 33
0.0
 14
654.75610350179056
 24
1598.3401228323571
 34
0.0
1001
ACAD
1000
DSTYLE
1002
{
1070
   287
1070
     3
1070
   287
1070
     3
1070
    40
1040
20.0
1070
   143
1040
0.039
1070
   172
1070
     1
1070
   271
1070
     0
1070
   279
1070
     0
1002
}
  0
DIMENSION
  5
84B4
  8
3
  2
*D16
 10
1972.363952498865
 20
1598.3401228323571
 30
0.0
 11
1922.3639524988639
 21
1426.911551403786
 31
0.0
 70
     0
 13
1658.75610350179
 23
1703.3401228323571
 33
0.0
 14
1662.7561035017909
 24
1598.3401228323571
 34
0.0
 50
90.0
1001
ACAD
1000
DSTYLE
1002
{
1070
   287
1070
     3
1070
   287
1070
     3
1070
    40
1040
20.0
1070
   143
1040
0.039
1070
   172
1070
     1
1070
   271
1070
     0
1070
   279
1070
     0
1070
     6
1000
DOT
1002
}
  0
LINE
  5
84DC
  8
1
 10
1662.7561035017941
 20
4126.5884824968734
 30
0.0
 11
1582.7561035017941
 21
4126.5884824968734
 31
0.0
  0
LINE
  5
84DE
  8
1
 10
1662.7561035017891
 20
3331.5884824968739
 30
0.0
 11
1582.7561035017891
 21
3331.588482496873
 31
0.0
  0
LINE
  5
84DF
  8
1
 10
654.75610350179056
 20
3331.588482496873
 30
0.0
 11
654.75610350179056
 21
4126.5884824968734
 31
0.0
  0
LINE
  5
84E0
  8
1
 10
1662.7561035017891
 20
3331.5884824968739
 30
0.0
 11
1662.7561035017909
 21
3670.5884824968771
 31
0.0
  0
LINE
  5
84E1
  8
1
 10
734.75610350179056
 20
3331.588482496873
 30
0.0
 11
734.75610350179079
 21
3506.588482496873
 31
0.0
  0
LINE
  5
84E2
  8
1
 10
1582.7561035017891
 20
3331.5884824968739
 30
0.0
 11
1582.75610350179
 21
3506.5884824968762
 31
0.0
  0
LINE
  5
84E3
  8
1
 10
734.75610350179045
 20
4126.5884824968734
 30
0.0
 11
654.75610350179045
 21
4126.5884824968734
 31
0.0
  0
LINE
  5
84E4
  8
1
 10
734.75610350179045
 20
3331.588482496873
 30
0.0
 11
654.75610350179056
 21
3331.588482496873
 31
0.0
  0
LINE
  5
84E5
  8
1
 10
734.75610350179045
 20
4056.588482496873
 30
0.0
 11
734.75610350179056
 21
4126.5884824968734
 31
0.0
  0
LINE
  5
84E6
  8
1
 10
734.75610350179056
 20
3546.588482496873
 30
0.0
 11
734.75610350179045
 21
4016.5884824968739
 31
0.0
  0
LINE
  5
84E7
  8
1
 10
1582.7561035017941
 20
4056.5884824968739
 30
0.0
 11
1582.7561035017941
 21
4126.5884824968743
 31
0.0
  0
LINE
  5
84E8
  8
1
 10
1662.7561035017941
 20
4013.38848249687
 30
0.0
 11
1662.7561035017941
 21
4126.5884824968734
 31
0.0
  0
DIMENSION
  5
84F5
  8
3
  2
*D17
 10
1662.7561035017941
 20
4249.6819465651042
 30
0.0
 11
1158.756103501792
 21
4299.6819465651042
 31
0.0
 70
     0
 13
654.75610350179056
 23
4126.5884824968734
 33
0.0
 14
1662.7561035017941
 24
4126.5884824968734
 34
0.0
1001
ACAD
1000
DSTYLE
1002
{
1070
   287
1070
     3
1070
   287
1070
     3
1070
    40
1040
20.0
1070
   143
1040
0.039
1070
   172
1070
     1
1070
   271
1070
     0
1070
   279
1070
     0
1002
}
  0
DIMENSION
  5
8502
  8
3
  2
*D18
 10
534.97814910564557
 20
3331.588482496873
 30
0.0
 11
484.97814910564489
 21
3729.088482496873
 31
0.0
 70
     0
 13
654.75610350179056
 23
4126.5884824968734
 33
0.0
 14
654.75610350179056
 24
3331.588482496873
 34
0.0
 50
90.0
1001
ACAD
1000
DSTYLE
1002
{
1070
   287
1070
     3
1070
   287
1070
     3
1070
    40
1040
20.0
1070
   143
1040
0.039
1070
   172
1070
     1
1070
   271
1070
     0
1070
   279
1070
     0
1002
}
  0
DIMENSION
  5
8515
  8
3
  2
*D19
 10
1972.1371331873411
 20
1798.340122832358
 30
0.0
 11
2067.8514189016269
 21
1750.8401228323571
 31
0.0
 70
     0
 13
1658.75610350179
 23
1703.3401228323571
 33
0.0
 14
1658.75610350179
 24
1798.340122832358
 34
0.0
 50
90.0
1001
ACAD
1000
DSTYLE
1002
{
1070
   172
1070
     1
1070
    40
1040
20.0
1070
     3
1000
(<>)
1070
   271
1070
     0
1070
     6
1000
_DOT
1070
   143
1040
0.039
1002
}
  0
DIMENSION
  5
8522
  8
3
  2
*D20
 10
2176.9298947822749
 20
1598.3401228323571
 30
0.0
 11
2111.2156090679891
 21
2138.8401228323569
 31
0.0
 70
     0
 13
1703.7561035017909
 23
2679.3401228323569
 33
0.0
 14
1662.7561035017909
 24
1598.3401228323571
 34
0.0
 50
90.0
1001
ACAD
1000
DSTYLE
1002
{
1070
   172
1070
     1
1070
    40
1040
20.0
1070
     3
1000
(<>)
1070
   271
1070
     0
1070
   143
1040
0.039
1002
}
  0
ENDSEC
  0
EOF
