  0
SECTION
  2
HEADER
  9
$ACADVER
  1
AC1009
  9
$INSBASE
 10
0.0
 20
0.0
 30
0.0
  9
$EXTMIN
 10
0.0
 20
0.0
 30
0.0
  9
$EXTMAX
 10
4200.0
 20
5900.0
 30
0.0
  9
$LIMMIN
 10
0.0
 20
0.0
  9
$LIMMAX
 10
297.0
 20
210.0
  9
$ORTHOMODE
 70
     0
  9
$REGENMODE
 70
     1
  9
$FILLMODE
 70
     0
  9
$QTEXTMODE
 70
     0
  9
$MIRRTEXT
 70
     1
  9
$DRAGMODE
 70
     2
  9
$LTSCALE
 40
100.0
  9
$OSMODE
 70
    37
  9
$ATTMODE
 70
     1
  9
$TEXTSIZE
 40
180.0
  9
$TRACEWID
 40
0.05
  9
$TEXTSTYLE
  7
STANDARD
  9
$CLAYER
  8
3
  9
$CELTYPE
  6
BYLAYER
  9
$CECOLOR
 62
   256
  9
$DIMSCALE
 40
20.0
  9
$DIMASZ
 40
2.0
  9
$DIMEXO
 40
0.5
  9
$DIMDLI
 40
10.0
  9
$DIMRND
 40
0.0
  9
$DIMDLE
 40
0.0
  9
$DIMEXE
 40
1.0
  9
$DIMTP
 40
1.0
  9
$DIMTM
 40
1.0
  9
$DIMTXT
 40
3.0
  9
$DIMCEN
 40
0.0
  9
$DIMTSZ
 40
0.0
  9
$DIMTOL
 70
     0
  9
$DIMLIM
 70
     0
  9
$DIMTIH
 70
     0
  9
$DIMTOH
 70
     0
  9
$DIMSE1
 70
     0
  9
$DIMSE2
 70
     0
  9
$DIMTAD
 70
     1
  9
$DIMZIN
 70
     8
  9
$DIMBLK
  1

  9
$DIMASO
 70
     1
  9
$DIMSHO
 70
     1
  9
$DIMPOST
  1
(<>)
  9
$DIMAPOST
  1

  9
$DIMALT
 70
     0
  9
$DIMALTD
 70
     2
  9
$DIMALTF
 40
0.039
  9
$DIMLFAC
 40
1.0
  9
$DIMTOFL
 70
     1
  9
$DIMTVP
 40
0.0
  9
$DIMTIX
 70
     0
  9
$DIMSOXD
 70
     0
  9
$DIMSAH
 70
     1
  9
$DIMBLK1
  1
OPEN
  9
$DIMBLK2
  1
OPEN
  9
$DIMSTYLE
  2
IGA
  9
$DIMCLRD
 70
     0
  9
$DIMCLRE
 70
     0
  9
$DIMCLRT
 70
     0
  9
$DIMTFAC
 40
10.0
  9
$DIMGAP
 40
1.0
  9
$LUNITS
 70
     2
  9
$LUPREC
 70
     3
  9
$SKETCHINC
 40
0.1
  9
$FILLETRAD
 40
50.0
  9
$AUNITS
 70
     0
  9
$AUPREC
 70
     0
  9
$MENU
  1
acad
  9
$ELEVATION
 40
0.0
  9
$PELEVATION
 40
0.0
  9
$THICKNESS
 40
0.0
  9
$LIMCHECK
 70
     0
  9
$BLIPMODE
 70
     0
  9
$CHAMFERA
 40
0.5
  9
$CHAMFERB
 40
0.5
  9
$SKPOLY
 70
     0
  9
$TDCREATE
 40
2452815.5942524299
  9
$TDUPDATE
 40
2454953.8518834598
  9
$TDINDWG
 40
0.0640775347
  9
$TDUSRTIMER
 40
0.0640775347
  9
$USRTIMER
 70
     1
  9
$ANGBASE
 50
0.0
  9
$ANGDIR
 70
     0
  9
$PDMODE
 70
     0
  9
$PDSIZE
 40
0.0
  9
$PLINEWID
 40
0.0
  9
$COORDS
 70
     1
  9
$SPLFRAME
 70
     0
  9
$SPLINETYPE
 70
     6
  9
$SPLINESEGS
 70
     8
  9
$ATTDIA
 70
     0
  9
$ATTREQ
 70
     1
  9
$HANDLING
 70
 10241
  9
$HANDSEED
  5
82C3
  9
$SURFTAB1
 70
     6
  9
$SURFTAB2
 70
     6
  9
$SURFTYPE
 70
     6
  9
$SURFU
 70
     6
  9
$SURFV
 70
     6
  9
$UCSNAME
  2

  9
$UCSORG
 10
0.0
 20
0.0
 30
0.0
  9
$UCSXDIR
 10
1.0
 20
0.0
 30
0.0
  9
$UCSYDIR
 10
0.0
 20
1.0
 30
0.0
  9
$PUCSNAME
  2

  9
$PUCSORG
 10
0.0
 20
0.0
 30
0.0
  9
$PUCSXDIR
 10
1.0
 20
0.0
 30
0.0
  9
$PUCSYDIR
 10
0.0
 20
1.0
 30
0.0
  9
$USERI1
 70
     0
  9
$USERI2
 70
     0
  9
$USERI3
 70
     0
  9
$USERI4
 70
     0
  9
$USERI5
 70
     0
  9
$USERR1
 40
0.0
  9
$USERR2
 40
0.0
  9
$USERR3
 40
0.0
  9
$USERR4
 40
0.0
  9
$USERR5
 40
0.0
  9
$WORLDVIEW
 70
     1
  9
$SHADEDGE
 70
     3
  9
$SHADEDIF
 70
    70
  9
$TILEMODE
 70
     1
  9
$MAXACTVP
 70
    16
  9
$PLIMCHECK
 70
     0
  9
$PEXTMIN
 10
1.0000000000000000E+020
 20
1.0000000000000000E+020
 30
1.0000000000000000E+020
  9
$PEXTMAX
 10
-1.0000000000000000E+020
 20
-1.0000000000000000E+020
 30
-1.0000000000000000E+020
  9
$PLIMMIN
 10
0.0
 20
0.0
  9
$PLIMMAX
 10
12.0
 20
9.0
  9
$UNITMODE
 70
     0
  9
$VISRETAIN
 70
     0
  9
$PLINEGEN
 70
     0
  9
$PSLTSCALE
 70
     1
  0
ENDSEC
  0
SECTION
  2
TABLES
  0
TABLE
  2
VPORT
 70
     2
  0
VPORT
  2
*ACTIVE
 70
     0
 10
0.0
 20
0.0
 11
1.0
 21
1.0
 12
6027.9826464208236
 22
4004.9978160586938
 13
0.0
 23
0.0
 14
10.0
 24
10.0
 15
10.0
 25
10.0
 16
0.0
 26
0.0
 36
1.0
 17
0.0
 27
0.0
 37
0.0
 40
8009.9956321173886
 41
1.5051150895140659
 42
50.0
 43
0.0
 44
0.0
 50
0.0
 51
0.0
 71
     0
 72
   100
 73
     1
 74
     0
 75
     0
 76
     0
 77
     0
 78
     0
  0
ENDTAB
  0
TABLE
  2
LTYPE
 70
     2
  0
LTYPE
  2
CONTINUOUS
 70
     0
  3
Solid line
 72
    65
 73
     0
 40
0.0
  0
LTYPE
  2
CENTER
 70
     0
  3
____ _ ____ _ ____ _ ____ _ ____ _ ____ _ ____ 
 72
    65
 73
     4
 40
2.0
 49
1.25
 49
-0.25
 49
0.25
 49
-0.25
  0
ENDTAB
  0
TABLE
  2
LAYER
 70
     6
  0
LAYER
  2
0
 70
     0
 62
     7
  6
CONTINUOUS
  0
LAYER
  2
3
 70
     0
 62
     2
  6
CONTINUOUS
  0
LAYER
  2
2
 70
     0
 62
     3
  6
CENTER
  0
LAYER
  2
1
 70
     0
 62
     4
  6
CONTINUOUS
  0
LAYER
  2
4
 70
     0
 62
     7
  6
CONTINUOUS
  0
LAYER
  2
DEFPOINTS
 70
     0
 62
     7
  6
CONTINUOUS
  0
ENDTAB
  0
TABLE
  2
STYLE
 70
     1
  0
STYLE
  2
STANDARD
 70
     0
 40
0.0
 41
1.0
 50
0.0
 71
     0
 42
180.0
  3
simplex.shx
  4
extfont.shx
  0
ENDTAB
  0
TABLE
  2
VIEW
 70
     0
  0
ENDTAB
  0
TABLE
  2
UCS
 70
     0
  0
ENDTAB
  0
TABLE
  2
APPID
 70
     1
  0
APPID
  2
ACAD
 70
     0
  0
ENDTAB
  0
TABLE
  2
DIMSTYLE
 70
     1
  0
DIMSTYLE
  2
IGA
 70
     0
  3

  4

  5

  6
OPEN
  7
OPEN
 40
2.0
 41
2.0
 42
0.5
 43
10.0
 44
1.0
 45
0.0
 46
0.0
 47
1.0
 48
1.0
140
3.0
141
0.0
142
0.0
143
0.03937
144
1.0
145
0.0
146
10.0
147
1.0
 71
     0
 72
     0
 73
     0
 74
     0
 75
     0
 76
     0
 77
     1
 78
     8
170
     0
171
     2
172
     0
173
     1
174
     0
175
     0
176
     0
177
     0
178
     0
  0
ENDTAB
  0
ENDSEC
  0
SECTION
  2
BLOCKS
  0
BLOCK
  8
0
  2
$MODEL_SPACE
 70
     0
 10
0.0
 20
0.0
 30
0.0
  3
$MODEL_SPACE
  1

  0
ENDBLK
  5
1B
  8
0
  0
BLOCK
 67
     1
  8
0
  2
$PAPER_SPACE
 70
     0
 10
0.0
 20
0.0
 30
0.0
  3
$PAPER_SPACE
  1

  0
ENDBLK
  5
18
 67
     1
  8
0
  0
BLOCK
  8
0
  2
_OPEN
 70
     0
 10
0.0
 20
0.0
 30
0.0
  3
_OPEN
  1

  0
LINE
  5
7C36
  8
0
  6
BYBLOCK
 62
     0
 10
-1.0
 20
0.1666666666666666
 30
0.0
 11
0.0
 21
0.0
 31
0.0
  0
LINE
  5
7C37
  8
0
  6
BYBLOCK
 62
     0
 10
0.0
 20
0.0
 30
0.0
 11
-1.0
 21
-0.1666666666666666
 31
0.0
  0
LINE
  5
7C38
  8
0
  6
BYBLOCK
 62
     0
 10
0.0
 20
0.0
 30
0.0
 11
-1.0
 21
0.0
 31
0.0
  0
ENDBLK
  5
7C39
  8
0
  0
BLOCK
  8
0
  2
*D1
 70
     1
 10
0.0
 20
0.0
 30
0.0
  3
*D1
  1

  0
LINE
  5
8216
  8
3
 62
     0
 10
1900.1643135558329
 20
2245.1730162464141
 30
0.0
 11
1900.1643135558329
 21
2423.1373467155399
 31
0.0
  0
LINE
  5
8217
  8
3
 62
     0
 10
1488.1643135558329
 20
2245.1730162464141
 30
0.0
 11
1488.1643135558329
 21
2423.1373467155399
 31
0.0
  0
LINE
  5
8218
  8
3
 62
     0
 10
1860.1643135558329
 20
2403.1373467155399
 30
0.0
 11
1528.1643135558329
 21
2403.1373467155399
 31
0.0
  0
INSERT
  5
8219
  8
3
 62
     0
  2
_OPEN
 10
1900.1643135558329
 20
2403.1373467155399
 30
0.0
 41
40.0
 42
40.0
 43
40.0
  0
INSERT
  5
821A
  8
3
 62
     0
  2
_OPEN
 10
1488.1643135558329
 20
2403.1373467155399
 30
0.0
 41
40.0
 42
40.0
 43
40.0
 50
180.0
  0
TEXT
  8
3
  40
60
  5
82B1
  62
0
  72
0
  71
0
 10
1571.40
 20
2346.94
 30
0.000000
  1
412
  0
POINT
  5
821C
  8
DEFPOINTS
 62
     0
 10
1900.1643135558329
 20
2235.1730162464141
 30
0.0
  0
POINT
  5
821D
  8
DEFPOINTS
 62
     0
 10
1488.1643135558329
 20
2235.1730162464141
 30
0.0
  0
POINT
  5
821E
  8
DEFPOINTS
 62
     0
 10
1488.1643135558329
 20
2403.1373467155399
 30
0.0
  0
ENDBLK
  5
7FAB
  8
0
  0
BLOCK
  8
0
  2
*D2
 70
     1
 10
0.0
 20
0.0
 30
0.0
  3
*D2
  1

  0
LINE
  5
821F
  8
3
 62
     0
 10
1900.1643135558329
 20
2245.1730162464141
 30
0.0
 11
1900.1643135558329
 21
2549.7117078899332
 31
0.0
  0
LINE
  5
8220
  8
3
 62
     0
 10
1476.1643135558329
 20
2273.9789307085448
 30
0.0
 11
1476.1643135558329
 21
2549.7117078899332
 31
0.0
  0
LINE
  5
8221
  8
3
 62
     0
 10
1860.1643135558329
 20
2529.7117078899332
 30
0.0
 11
1516.164313555832
 21
2529.7117078899332
 31
0.0
  0
INSERT
  5
8222
  8
3
 62
     0
  2
_OPEN
 10
1900.1643135558329
 20
2529.7117078899332
 30
0.0
 41
40.0
 42
40.0
 43
40.0
  0
INSERT
  5
8223
  8
3
 62
     0
  2
_OPEN
 10
1476.1643135558329
 20
2529.7117078899332
 30
0.0
 41
40.0
 42
40.0
 43
40.0
 50
180.0
  0
TEXT
  8
3
  40
60
  5
82B2
  62
0
  72
0
  71
0
 10
1566.54
 20
2473.51
 30
0.000000
  1
424
  0
POINT
  5
8225
  8
DEFPOINTS
 62
     0
 10
1900.1643135558329
 20
2235.1730162464141
 30
0.0
  0
POINT
  5
8226
  8
DEFPOINTS
 62
     0
 10
1476.1643135558329
 20
2263.9789307085448
 30
0.0
  0
POINT
  5
8227
  8
DEFPOINTS
 62
     0
 10
1476.1643135558329
 20
2529.7117078899332
 30
0.0
  0
ENDBLK
  5
7FA0
  8
0
  0
BLOCK
  8
0
  2
*D3
 70
     1
 10
0.0
 20
0.0
 30
0.0
  3
*D3
  1

  0
LINE
  5
8228
  8
3
 62
     0
 10
1157.3583990937
 20
1955.1730162464139
 30
0.0
 11
881.62562191231336
 21
1955.1730162464139
 31
0.0
  0
LINE
  5
8229
  8
3
 62
     0
 10
1206.164313555832
 20
1525.1730162464139
 30
0.0
 11
881.62562191231325
 21
1525.1730162464139
 31
0.0
  0
LINE
  5
822A
  8
3
 62
     0
 10
901.62562191231336
 20
1915.1730162464139
 30
0.0
 11
901.62562191231336
 21
1565.1730162464139
 31
0.0
  0
INSERT
  5
822B
  8
3
 62
     0
  2
_OPEN
 10
901.62562191231336
 20
1955.1730162464139
 30
0.0
 41
40.0
 42
40.0
 43
40.0
 50
90.0
  0
INSERT
  5
822C
  8
3
 62
     0
  2
_OPEN
 10
901.62562191231336
 20
1525.1730162464139
 30
0.0
 41
40.0
 42
40.0
 43
40.0
 50
270.0
  0
TEXT
  8
3
  40
60
  5
82B3
  62
0
  72
0
  71
0
 10
731.626
 20
1633.97
 30
0.000000
  1
430
  0
POINT
  5
822E
  8
DEFPOINTS
 62
     0
 10
1167.3583990937011
 20
1955.1730162464139
 30
0.0
  0
POINT
  5
822F
  8
DEFPOINTS
 62
     0
 10
1216.164313555832
 20
1525.1730162464139
 30
0.0
  0
POINT
  5
8230
  8
DEFPOINTS
 62
     0
 10
901.62562191231336
 20
1525.1730162464139
 30
0.0
  0
ENDBLK
  5
7FCF
  8
0
  0
BLOCK
  8
0
  2
_DOT
 70
     0
 10
0.0
 20
0.0
 30
0.0
  3
_DOT
  1

  0
LINE
  5
7E78
  8
0
  6
BYBLOCK
 62
     0
 10
0.0
 20
0.0
 30
0.0
 11
-1.0
 21
-0.0000000000000284
 31
0.0
  0
POLYLINE
  5
7E79
  8
0
  6
BYBLOCK
 62
     0
 66
     1
 10
0.0
 20
0.0
 30
0.0
 70
     1
 40
0.1666666666666666
 41
0.1666666666666666
  0
VERTEX
  5
824B
  8
0
  6
BYBLOCK
 62
     0
 10
-0.0833333333333286
 20
-0.0000000000000284
 30
0.0
 42
1.0
  0
VERTEX
  5
824C
  8
0
  6
BYBLOCK
 62
     0
 10
0.0833333333333286
 20
-0.0000000000000284
 30
0.0
 42
1.0
  0
SEQEND
  5
824D
  8
0
  6
BYBLOCK
 62
     0
  0
ENDBLK
  5
7D15
  8
0
  0
BLOCK
  8
0
  2
*D5
 70
     1
 10
0.0
 20
0.0
 30
0.0
  3
*D5
  1

  0
LINE
  5
8231
  8
3
 62
     0
 10
3072.4631095035111
 20
2234.687328828983
 30
0.0
 11
3072.4631095035111
 21
2384.4377439238469
 31
0.0
  0
LINE
  5
8232
  8
3
 62
     0
 10
3372.4631095035111
 20
2237.1285462556052
 30
0.0
 11
3372.4631095035111
 21
2384.4377439238469
 31
0.0
  0
LINE
  5
8233
  8
3
 62
     0
 10
3112.463109503512
 20
2364.4377439238469
 30
0.0
 11
3332.4631095035111
 21
2364.4377439238469
 31
0.0
  0
INSERT
  5
8234
  8
3
 62
     0
  2
_OPEN
 10
3072.4631095035111
 20
2364.4377439238469
 30
0.0
 41
40.0
 42
40.0
 43
40.0
 50
180.0
  0
INSERT
  5
8235
  8
3
 62
     0
  2
_OPEN
 10
3372.4631095035111
 20
2364.4377439238469
 30
0.0
 41
40.0
 42
40.0
 43
40.0
  0
TEXT
  8
3
  40
60
  5
82B4
  62
0
  72
0
  71
0
 10
3115.32
 20
2308.24
 30
0.000000
  1
300
  0
POINT
  5
8237
  8
DEFPOINTS
 62
     0
 10
3072.4631095035111
 20
2224.687328828983
 30
0.0
  0
POINT
  5
8238
  8
DEFPOINTS
 62
     0
 10
3372.4631095035111
 20
2227.1285462556052
 30
0.0
  0
POINT
  5
8239
  8
DEFPOINTS
 62
     0
 10
3372.4631095035111
 20
2364.4377439238469
 30
0.0
  0
ENDBLK
  5
803E
  8
0
  0
BLOCK
  8
0
  2
*D6
 70
     1
 10
0.0
 20
0.0
 30
0.0
  3
*D6
  1

  0
LINE
  5
801E
  8
0
  6
BYBLOCK
 62
     0
 10
3375.0631074010798
 20
2182.0676535247471
 30
0.0
 11
3375.0631074010798
 21
2549.2720127030261
 31
0.0
  0
LINE
  5
801F
  8
0
  6
BYBLOCK
 62
     0
 10
3222.4631095035111
 20
2448.457206041247
 30
0.0
 11
3222.4631095035111
 21
2549.2720127030261
 31
0.0
  0
LINE
  5
8020
  8
0
  6
BYBLOCK
 62
     0
 10
3335.0631074010798
 20
2529.2720127030261
 30
0.0
 11
3262.4631095035111
 21
2529.2720127030261
 31
0.0
  0
TEXT
  5
8021
  8
3
 62
     0
 10
3229.159003672904
 20
2555.6202838748941
 30
0.0
 40
60.0
  1
153
  0
INSERT
  5
8022
  8
0
  6
BYBLOCK
 62
     0
  2
_OPEN
 10
3375.0631074010798
 20
2529.2720127030261
 30
0.0
 41
40.0
 42
40.0
 43
40.0
  0
INSERT
  5
8023
  8
0
  6
BYBLOCK
 62
     0
  2
_OPEN
 10
3222.4631095035111
 20
2529.2720127030261
 30
0.0
 41
40.0
 42
40.0
 43
40.0
 50
180.0
  0
POINT
  5
8024
  8
DEFPOINTS
  6
BYBLOCK
 62
     0
 10
3375.0631074010798
 20
2172.0676535247471
 30
0.0
  0
POINT
  5
8025
  8
DEFPOINTS
  6
BYBLOCK
 62
     0
 10
3222.4631095035111
 20
2438.457206041247
 30
0.0
  0
POINT
  5
8026
  8
DEFPOINTS
  6
BYBLOCK
 62
     0
 10
3222.4631095035111
 20
2529.2720127030261
 30
0.0
  0
ENDBLK
  5
8027
  8
0
  0
BLOCK
  8
0
  2
*D7
 70
     1
 10
0.0
 20
0.0
 30
0.0
  3
*D7
  1

  0
LINE
  5
823A
  8
3
 62
     0
 10
2729.4005922901351
 20
2185.1730162464119
 30
0.0
 11
2729.4005922901351
 21
2549.2720127030261
 31
0.0
  0
LINE
  5
823B
  8
3
 62
     0
 10
3182.4631095035111
 20
2529.2720127030261
 30
0.0
 11
2769.4005922901351
 21
2529.2720127030261
 31
0.0
  0
INSERT
  5
823C
  8
3
 62
     0
  2
_OPEN
 10
3222.4631095035111
 20
2529.2720127030261
 30
0.0
 41
40.0
 42
40.0
 43
40.0
  0
INSERT
  5
823D
  8
3
 62
     0
  2
_OPEN
 10
2729.4005922901351
 20
2529.2720127030261
 30
0.0
 41
40.0
 42
40.0
 43
40.0
 50
180.0
  0
TEXT
  8
3
  40
60
  5
82B5
  62
0
  72
0
  71
0
 10
2855.93
 20
2523.07
 30
0.000000
  1
MAX
  0
TEXT
  8
3
  40
60
  5
82B6
  62
0
  72
0
  71
0
 10
2855.93
 20
2445.07
 30
0.000000
  1
500
  0
POINT
  5
823F
  8
DEFPOINTS
 62
     0
 10
3222.4631095035111
 20
2438.457206041247
 30
0.0
  0
POINT
  5
8240
  8
DEFPOINTS
 62
     0
 10
2729.4005922901351
 20
2175.1730162464119
 30
0.0
  0
POINT
  5
8241
  8
DEFPOINTS
 62
     0
 10
2729.4005922901351
 20
2529.2720127030261
 30
0.0
  0
ENDBLK
  5
7EF3
  8
0
  0
BLOCK
  8
0
  2
*D8
 70
     1
 10
0.0
 20
0.0
 30
0.0
  3
*D8
  1

  0
LINE
  5
8242
  8
3
 62
     0
 10
3384.0631095035101
 20
2155.1730162464141
 30
0.0
 11
3558.632966082344
 21
2155.1730162464141
 31
0.0
  0
LINE
  5
8243
  8
3
 62
     0
 10
3385.2631095035058
 20
1755.1730162464139
 30
0.0
 11
3558.632966082344
 21
1755.1730162464139
 31
0.0
  0
LINE
  5
8244
  8
3
 62
     0
 10
3538.632966082343
 20
2115.1730162464132
 30
0.0
 11
3538.632966082343
 21
1795.1730162464139
 31
0.0
  0
INSERT
  5
8245
  8
3
 62
     0
  2
_OPEN
 10
3538.632966082343
 20
2155.1730162464141
 30
0.0
 41
40.0
 42
40.0
 43
40.0
 50
90.0
  0
INSERT
  5
8246
  8
3
 62
     0
  2
_OPEN
 10
3538.632966082343
 20
1755.1730162464139
 30
0.0
 41
40.0
 42
40.0
 43
40.0
 50
270.0
  0
TEXT
  8
3
  40
60
  5
82B7
  62
0
  72
0
  71
0
 10
3368.63
 20
1853.35
 30
0.000000
  1
φ400
  0
POINT
  5
8248
  8
DEFPOINTS
 62
     0
 10
3374.063109503511
 20
2155.1730162464141
 30
0.0
  0
POINT
  5
8249
  8
DEFPOINTS
 62
     0
 10
3375.2631095035072
 20
1755.1730162464139
 30
0.0
  0
POINT
  5
824A
  8
DEFPOINTS
 62
     0
 10
3538.632966082343
 20
1755.1730162464139
 30
0.0
  0
ENDBLK
  5
7E6F
  8
0
  0
BLOCK
  8
0
  2
*D9
 70
     1
 10
0.0
 20
0.0
 30
0.0
  3
*D9
  1

  0
LINE
  5
824E
  8
3
 62
     0
 10
1194.1643135558329
 20
1942.173016246413
 30
0.0
 11
1194.1643135558329
 21
2549.7117078899332
 31
0.0
  0
LINE
  5
824F
  8
3
 62
     0
 10
1436.1643135558329
 20
2529.7117078899332
 30
0.0
 11
1234.164313555832
 21
2529.7117078899332
 31
0.0
  0
INSERT
  5
8250
  8
3
 62
     0
  2
_OPEN
 10
1476.1643135558329
 20
2529.7117078899332
 30
0.0
 41
40.0
 42
40.0
 43
40.0
  0
INSERT
  5
8251
  8
3
 62
     0
  2
_OPEN
 10
1194.1643135558329
 20
2529.7117078899332
 30
0.0
 41
40.0
 42
40.0
 43
40.0
 50
180.0
  0
TEXT
  8
3
  40
60
  5
82B8
  62
0
  72
0
  71
0
 10
1215.16
 20
2473.51
 30
0.000000
  1
282
  0
POINT
  5
8253
  8
DEFPOINTS
 62
     0
 10
1476.1643135558329
 20
2263.9789307085448
 30
0.0
  0
POINT
  5
8254
  8
DEFPOINTS
 62
     0
 10
1194.1643135558329
 20
1932.173016246413
 30
0.0
  0
POINT
  5
8255
  8
DEFPOINTS
 62
     0
 10
1194.1643135558329
 20
2529.7117078899332
 30
0.0
  0
ENDBLK
  5
7F8B
  8
0
  0
BLOCK
  8
0
  2
*D10
 70
     1
 10
0.0
 20
0.0
 30
0.0
  3
*D10
  1

  0
LINE
  5
8256
  8
3
 62
     0
 10
1451.1643135558329
 20
2260.1730162464141
 30
0.0
 11
881.62562191231325
 21
2260.1730162464141
 31
0.0
  0
LINE
  5
8257
  8
3
 62
     0
 10
901.62562191231336
 20
1995.1730162464139
 30
0.0
 11
901.62562191231336
 21
2220.1730162464141
 31
0.0
  0
INSERT
  5
8258
  8
3
 62
     0
  2
_OPEN
 10
901.62562191231336
 20
1955.1730162464139
 30
0.0
 41
40.0
 42
40.0
 43
40.0
 50
270.0
  0
INSERT
  5
8259
  8
3
 62
     0
  2
_OPEN
 10
901.62562191231336
 20
2260.1730162464141
 30
0.0
 41
40.0
 42
40.0
 43
40.0
 50
90.0
  0
TEXT
  8
3
  40
60
  5
82B9
  62
0
  72
0
  71
0
 10
731.626
 20
2001.47
 30
0.000000
  1
305
  0
POINT
  5
825B
  8
DEFPOINTS
 62
     0
 10
1167.3583990937011
 20
1955.1730162464139
 30
0.0
  0
POINT
  5
825C
  8
DEFPOINTS
 62
     0
 10
1461.1643135558329
 20
2260.1730162464141
 30
0.0
  0
POINT
  5
825D
  8
DEFPOINTS
 62
     0
 10
901.62562191231336
 20
2260.1730162464141
 30
0.0
  0
ENDBLK
  5
7F81
  8
0
  0
BLOCK
  8
0
  2
*D11
 70
     1
 10
0.0
 20
0.0
 30
0.0
  3
*D11
  1

  0
LINE
  5
825E
  8
3
 62
     0
 10
2216.164313555832
 20
1615.1730162464139
 30
0.0
 11
2216.164313555832
 21
2692.5263336184648
 31
0.0
  0
LINE
  5
825F
  8
3
 62
     0
 10
1194.1643135558329
 20
1942.173016246413
 30
0.0
 11
1194.1643135558329
 21
2692.5263336184648
 31
0.0
  0
LINE
  5
8260
  8
3
 62
     0
 10
2176.164313555832
 20
2672.5263336184648
 30
0.0
 11
1234.164313555832
 21
2672.5263336184648
 31
0.0
  0
INSERT
  5
8261
  8
3
 62
     0
  2
_OPEN
 10
2216.164313555832
 20
2672.5263336184648
 30
0.0
 41
40.0
 42
40.0
 43
40.0
  0
INSERT
  5
8262
  8
3
 62
     0
  2
_OPEN
 10
1194.1643135558329
 20
2672.5263336184648
 30
0.0
 41
40.0
 42
40.0
 43
40.0
 50
180.0
  0
TEXT
  8
3
  40
60
  5
82BA
  62
0
  72
0
  71
0
 10
1568.42
 20
2616.33
 30
0.000000
  1
1022
  0
POINT
  5
8264
  8
DEFPOINTS
 62
     0
 10
2216.164313555832
 20
1605.1730162464139
 30
0.0
  0
POINT
  5
8265
  8
DEFPOINTS
 62
     0
 10
1194.1643135558329
 20
1932.173016246413
 30
0.0
  0
POINT
  5
8266
  8
DEFPOINTS
 62
     0
 10
1194.1643135558329
 20
2672.5263336184648
 30
0.0
  0
ENDBLK
  5
7F6C
  8
0
  0
BLOCK
  8
0
  2
*D12
 70
     1
 10
0.0
 20
0.0
 30
0.0
  3
*D12
  1

  0
LINE
  5
8267
  8
3
 62
     0
 10
2689.4631095035111
 20
1315.1730162464139
 30
0.0
 11
2689.4631095035111
 21
1192.832248405389
 31
0.0
  0
LINE
  5
8268
  8
3
 62
     0
 10
3222.4631095035111
 20
1315.1730162464139
 30
0.0
 11
3222.4631095035111
 21
1192.832248405389
 31
0.0
  0
LINE
  5
8269
  8
3
 62
     0
 10
2729.4631095035111
 20
1212.832248405389
 30
0.0
 11
3182.4631095035111
 21
1212.832248405389
 31
0.0
  0
INSERT
  5
826A
  8
3
 62
     0
  2
_OPEN
 10
2689.4631095035111
 20
1212.832248405389
 30
0.0
 41
40.0
 42
40.0
 43
40.0
 50
180.0
  0
INSERT
  5
826B
  8
3
 62
     0
  2
_OPEN
 10
3222.4631095035111
 20
1212.832248405389
 30
0.0
 41
40.0
 42
40.0
 43
40.0
  0
TEXT
  8
3
  40
60
  5
82BB
  62
0
  72
0
  71
0
 10
2835.96
 20
1156.63
 30
0.000000
  1
533
  0
POINT
  5
826D
  8
DEFPOINTS
 62
     0
 10
2689.4631095035111
 20
1325.1730162464139
 30
0.0
  0
POINT
  5
826E
  8
DEFPOINTS
 62
     0
 10
3222.4631095035111
 20
1325.1730162464139
 30
0.0
  0
POINT
  5
826F
  8
DEFPOINTS
 62
     0
 10
3222.4631095035111
 20
1212.832248405389
 30
0.0
  0
ENDBLK
  5
809B
  8
0
  0
BLOCK
  8
0
  2
*D13
 70
     1
 10
0.0
 20
0.0
 30
0.0
  3
*D13
  1

  0
LINE
  5
8270
  8
3
 62
     0
 10
3222.4631095035111
 20
1315.1730162464139
 30
0.0
 11
3222.4631095035111
 21
1192.832248405389
 31
0.0
  0
LINE
  5
8271
  8
3
 62
     0
 10
3484.4631095035111
 20
1315.173016246413
 30
0.0
 11
3484.4631095035111
 21
1192.832248405389
 31
0.0
  0
LINE
  5
8272
  8
3
 62
     0
 10
3262.4631095035111
 20
1212.832248405389
 30
0.0
 11
3444.4631095035111
 21
1212.832248405389
 31
0.0
  0
INSERT
  5
8273
  8
3
 62
     0
  2
_OPEN
 10
3222.4631095035111
 20
1212.832248405389
 30
0.0
 41
40.0
 42
40.0
 43
40.0
 50
180.0
  0
INSERT
  5
8274
  8
3
 62
     0
  2
_OPEN
 10
3484.4631095035111
 20
1212.832248405389
 30
0.0
 41
40.0
 42
40.0
 43
40.0
  0
TEXT
  8
3
  40
60
  5
82BC
  62
0
  72
0
  71
0
 10
3233.46
 20
1156.63
 30
0.000000
  1
262
  0
POINT
  5
8276
  8
DEFPOINTS
 62
     0
 10
3222.4631095035111
 20
1325.1730162464139
 30
0.0
  0
POINT
  5
8277
  8
DEFPOINTS
 62
     0
 10
3484.4631095035111
 20
1325.1730162464139
 30
0.0
  0
POINT
  5
8278
  8
DEFPOINTS
 62
     0
 10
3484.4631095035111
 20
1212.832248405389
 30
0.0
  0
ENDBLK
  5
80AA
  8
0
  0
BLOCK
  8
0
  2
*D14
 70
     1
 10
0.0
 20
0.0
 30
0.0
  3
*D14
  1

  0
LINE
  5
8279
  8
3
 62
     0
 10
1476.164313555832
 20
1355.1730162464139
 30
0.0
 11
1476.164313555832
 21
1192.832248405389
 31
0.0
  0
LINE
  5
827A
  8
3
 62
     0
 10
2220.164313555832
 20
1315.1730162464139
 30
0.0
 11
2220.164313555832
 21
1192.832248405389
 31
0.0
  0
LINE
  5
827B
  8
3
 62
     0
 10
1516.164313555832
 20
1212.832248405389
 30
0.0
 11
2180.164313555832
 21
1212.832248405389
 31
0.0
  0
INSERT
  5
827C
  8
3
 62
     0
  2
_OPEN
 10
1476.164313555832
 20
1212.832248405389
 30
0.0
 41
40.0
 42
40.0
 43
40.0
 50
180.0
  0
INSERT
  5
827D
  8
3
 62
     0
  2
_OPEN
 10
2220.164313555832
 20
1212.832248405389
 30
0.0
 41
40.0
 42
40.0
 43
40.0
  0
TEXT
  8
3
  40
60
  5
82BD
  62
0
  72
0
  71
0
 10
1728.16
 20
1156.63
 30
0.000000
  1
744
  0
POINT
  5
827F
  8
DEFPOINTS
 62
     0
 10
1476.164313555832
 20
1365.1730162464139
 30
0.0
  0
POINT
  5
8280
  8
DEFPOINTS
 62
     0
 10
2220.164313555832
 20
1325.1730162464139
 30
0.0
  0
POINT
  5
8281
  8
DEFPOINTS
 62
     0
 10
2220.164313555832
 20
1212.832248405389
 30
0.0
  0
ENDBLK
  5
80B7
  8
0
  0
BLOCK
  8
0
  2
*D15
 70
     1
 10
0.0
 20
0.0
 30
0.0
  3
*D15
  1

  0
LINE
  5
8282
  8
3
 62
     0
 10
1476.164313555832
 20
1355.1730162464139
 30
0.0
 11
1476.164313555832
 21
1192.832248405389
 31
0.0
  0
LINE
  5
8283
  8
3
 62
     0
 10
1212.164313555832
 20
1315.1730162464139
 30
0.0
 11
1212.164313555832
 21
1192.832248405389
 31
0.0
  0
LINE
  5
8284
  8
3
 62
     0
 10
1436.164313555832
 20
1212.832248405389
 30
0.0
 11
1252.164313555832
 21
1212.832248405389
 31
0.0
  0
INSERT
  5
8285
  8
3
 62
     0
  2
_OPEN
 10
1476.164313555832
 20
1212.832248405389
 30
0.0
 41
40.0
 42
40.0
 43
40.0
  0
INSERT
  5
8286
  8
3
 62
     0
  2
_OPEN
 10
1212.164313555832
 20
1212.832248405389
 30
0.0
 41
40.0
 42
40.0
 43
40.0
 50
180.0
  0
TEXT
  8
3
  40
60
  5
82BE
  62
0
  72
0
  71
0
 10
1224.16
 20
1156.63
 30
0.000000
  1
264
  0
POINT
  5
8288
  8
DEFPOINTS
 62
     0
 10
1476.164313555832
 20
1365.1730162464139
 30
0.0
  0
POINT
  5
8289
  8
DEFPOINTS
 62
     0
 10
1212.164313555832
 20
1325.1730162464139
 30
0.0
  0
POINT
  5
828A
  8
DEFPOINTS
 62
     0
 10
1212.164313555832
 20
1212.832248405389
 30
0.0
  0
ENDBLK
  5
80C6
  8
0
  0
BLOCK
  8
0
  2
*D16
 70
     1
 10
0.0
 20
0.0
 30
0.0
  3
*D16
  1

  0
LINE
  5
828B
  8
3
 62
     0
 10
1206.164313555832
 20
1430.1730162464139
 30
0.0
 11
882.73368032577855
 21
1430.1730162464139
 31
0.0
  0
LINE
  5
828C
  8
3
 62
     0
 10
1202.164313555832
 20
1325.1730162464139
 30
0.0
 11
882.73368032577855
 21
1325.1730162464139
 31
0.0
  0
LINE
  5
828D
  8
3
 62
     0
 10
902.73368032577855
 20
1470.1730162464139
 30
0.0
 11
902.73368032577855
 21
1510.1730162464139
 31
0.0
  0
LINE
  5
828E
  8
3
 62
     0
 10
902.73368032577855
 20
1285.1730162464139
 30
0.0
 11
902.73368032577832
 21
1062.315873389271
 31
0.0
  0
LINE
  5
828F
  8
3
 62
     0
 10
902.73368032577855
 20
1430.1730162464139
 30
0.0
 11
902.73368032577855
 21
1325.1730162464139
 31
0.0
  0
INSERT
  5
8290
  8
3
 62
     0
  2
_DOT
 10
902.73368032577855
 20
1430.1730162464139
 30
0.0
 41
40.0
 42
40.0
 43
40.0
 50
270.0
  0
INSERT
  5
8291
  8
3
 62
     0
  2
_OPEN
 10
902.73368032577855
 20
1325.1730162464139
 30
0.0
 41
40.0
 42
40.0
 43
40.0
 50
90.0
  0
TEXT
  8
3
  40
60
  5
82BF
  62
0
  72
0
  71
0
 10
732.734
 20
1047.54
 30
0.000000
  1
105
  0
POINT
  5
8293
  8
DEFPOINTS
 62
     0
 10
1216.164313555832
 20
1430.1730162464139
 30
0.0
  0
POINT
  5
8294
  8
DEFPOINTS
 62
     0
 10
1212.164313555832
 20
1325.1730162464139
 30
0.0
  0
POINT
  5
8295
  8
DEFPOINTS
 62
     0
 10
902.73368032577855
 20
1325.1730162464139
 30
0.0
  0
ENDBLK
  5
80D5
  8
0
  0
BLOCK
  8
0
  2
*D17
 70
     1
 10
0.0
 20
0.0
 30
0.0
  3
*D17
  1

  0
LINE
  5
8296
  8
3
 62
     0
 10
1212.164313555832
 20
3863.4213759109298
 30
0.0
 11
1212.164313555832
 21
3999.1283048262171
 31
0.0
  0
LINE
  5
8297
  8
3
 62
     0
 10
2220.164313555832
 20
3863.421375910928
 30
0.0
 11
2220.164313555832
 21
3999.1283048262171
 31
0.0
  0
LINE
  5
8298
  8
3
 62
     0
 10
1252.164313555832
 20
3979.128304826218
 30
0.0
 11
2180.164313555832
 21
3979.128304826218
 31
0.0
  0
INSERT
  5
8299
  8
3
 62
     0
  2
_OPEN
 10
1212.164313555832
 20
3979.128304826218
 30
0.0
 41
40.0
 42
40.0
 43
40.0
 50
180.0
  0
INSERT
  5
829A
  8
3
 62
     0
  2
_OPEN
 10
2220.164313555832
 20
3979.128304826218
 30
0.0
 41
40.0
 42
40.0
 43
40.0
  0
TEXT
  8
3
  40
60
  5
82C0
  62
0
  72
0
  71
0
 10
1596.16
 20
3922.93
 30
0.000000
  1
1008
  0
POINT
  5
829C
  8
DEFPOINTS
 62
     0
 10
1212.164313555832
 20
3853.4213759109289
 30
0.0
  0
POINT
  5
829D
  8
DEFPOINTS
 62
     0
 10
2220.164313555832
 20
3853.4213759109289
 30
0.0
  0
POINT
  5
829E
  8
DEFPOINTS
 62
     0
 10
2220.164313555832
 20
3979.128304826218
 30
0.0
  0
ENDBLK
  5
80FC
  8
0
  0
BLOCK
  8
0
  2
*D18
 70
     1
 10
0.0
 20
0.0
 30
0.0
  3
*D18
  1

  0
LINE
  5
829F
  8
3
 62
     0
 10
1202.164313555832
 20
3853.4213759109289
 30
0.0
 11
1047.140738670925
 21
3853.4213759109289
 31
0.0
  0
LINE
  5
82A0
  8
3
 62
     0
 10
1202.1643135558361
 20
3058.4213759109289
 30
0.0
 11
1047.140738670925
 21
3058.4213759109289
 31
0.0
  0
LINE
  5
82A1
  8
3
 62
     0
 10
1067.140738670925
 20
3813.4213759109298
 30
0.0
 11
1067.140738670925
 21
3098.4213759109298
 31
0.0
  0
INSERT
  5
82A2
  8
3
 62
     0
  2
_OPEN
 10
1067.140738670925
 20
3853.4213759109289
 30
0.0
 41
40.0
 42
40.0
 43
40.0
 50
90.0
  0
INSERT
  5
82A3
  8
3
 62
     0
  2
_OPEN
 10
1067.140738670925
 20
3058.4213759109289
 30
0.0
 41
40.0
 42
40.0
 43
40.0
 50
270.0
  0
TEXT
  8
3
  40
60
  5
82C1
  62
0
  72
0
  71
0
 10
897.141
 20
3349.72
 30
0.000000
  1
795
  0
POINT
  5
82A5
  8
DEFPOINTS
 62
     0
 10
1212.164313555832
 20
3853.4213759109289
 30
0.0
  0
POINT
  5
82A6
  8
DEFPOINTS
 62
     0
 10
1212.1643135558361
 20
3058.4213759109289
 30
0.0
  0
POINT
  5
82A7
  8
DEFPOINTS
 62
     0
 10
1067.140738670925
 20
3058.4213759109289
 30
0.0
  0
ENDBLK
  5
8109
  8
0
  0
BLOCK
  8
0
  2
*D19
 70
     1
 10
0.0
 20
0.0
 30
0.0
  3
*D19
  1

  0
LINE
  5
8112
  8
0
  6
BYBLOCK
 62
     0
 10
1206.164313555832
 20
1430.1730162464139
 30
0.0
 11
880.61719649485894
 21
1430.1730162464139
 31
0.0
  0
LINE
  5
8113
  8
0
  6
BYBLOCK
 62
     0
 10
1206.164313555832
 20
1525.1730162464139
 30
0.0
 11
880.61719649485894
 21
1525.1730162464139
 31
0.0
  0
LINE
  5
8114
  8
0
  6
BYBLOCK
 62
     0
 10
900.61719649485894
 20
1390.1730162464139
 30
0.0
 11
900.61719649485894
 21
1350.1730162464139
 31
0.0
  0
LINE
  5
8115
  8
0
  6
BYBLOCK
 62
     0
 10
900.61719649485894
 20
1565.1730162464139
 30
0.0
 11
900.61719649485894
 21
1605.1730162464139
 31
0.0
  0
TEXT
  5
8116
  8
3
 62
     0
 10
824.90291078057317
 20
1390.530159103557
 30
0.0
 40
60.0
  1
(95)
 50
90.0
  0
LINE
  5
8117
  8
0
  6
BYBLOCK
 62
     0
 10
900.61719649485894
 20
1430.1730162464139
 30
0.0
 11
900.61719649485894
 21
1525.1730162464139
 31
0.0
  0
INSERT
  5
8118
  8
0
  6
BYBLOCK
 62
     0
  2
_DOT
 10
900.61719649485894
 20
1430.1730162464139
 30
0.0
 41
40.0
 42
40.0
 43
40.0
 50
90.0
  0
INSERT
  5
8119
  8
0
  6
BYBLOCK
 62
     0
  2
_OPEN
 10
900.61719649485894
 20
1525.1730162464139
 30
0.0
 41
40.0
 42
40.0
 43
40.0
 50
270.0
  0
POINT
  5
811A
  8
DEFPOINTS
  6
BYBLOCK
 62
     0
 10
1216.164313555832
 20
1430.1730162464139
 30
0.0
  0
POINT
  5
811B
  8
DEFPOINTS
  6
BYBLOCK
 62
     0
 10
1216.164313555832
 20
1525.1730162464139
 30
0.0
  0
POINT
  5
811C
  8
DEFPOINTS
  6
BYBLOCK
 62
     0
 10
900.61719649485894
 20
1525.1730162464139
 30
0.0
  0
ENDBLK
  5
811D
  8
0
  0
BLOCK
  8
0
  2
*D20
 70
     1
 10
0.0
 20
0.0
 30
0.0
  3
*D20
  1

  0
LINE
  5
82A8
  8
3
 62
     0
 10
1451.1643135558329
 20
2260.1730162464141
 30
0.0
 11
691.36104131265904
 21
2260.1730162464141
 31
0.0
  0
LINE
  5
82A9
  8
3
 62
     0
 10
1202.164313555832
 20
1325.1730162464139
 30
0.0
 11
691.36104131265893
 21
1325.1730162464139
 31
0.0
  0
LINE
  5
82AA
  8
3
 62
     0
 10
711.36104131265904
 20
2220.1730162464141
 30
0.0
 11
711.36104131265893
 21
1365.1730162464139
 31
0.0
  0
INSERT
  5
82AB
  8
3
 62
     0
  2
_OPEN
 10
711.36104131265904
 20
2260.1730162464141
 30
0.0
 41
40.0
 42
40.0
 43
40.0
 50
90.0
  0
INSERT
  5
82AC
  8
3
 62
     0
  2
_OPEN
 10
711.36104131265893
 20
1325.1730162464139
 30
0.0
 41
40.0
 42
40.0
 43
40.0
 50
270.0
  0
TEXT
  8
3
  40
60
  5
82C2
  62
0
  72
0
  71
0
 10
525.647
 20
1686.47
 30
0.000000
  1
(935)
  0
POINT
  5
82AE
  8
DEFPOINTS
 62
     0
 10
1461.1643135558329
 20
2260.1730162464141
 30
0.0
  0
POINT
  5
82AF
  8
DEFPOINTS
 62
     0
 10
1212.164313555832
 20
1325.1730162464139
 30
0.0
  0
POINT
  5
82B0
  8
DEFPOINTS
 62
     0
 10
711.36104131265893
 20
1325.1730162464139
 30
0.0
  0
ENDBLK
  5
812A
  8
0
  0
ENDSEC
  0
SECTION
  2
ENTITIES
  0
LINE
  5
7B2B
  8
1
 10
3372.4631095035102
 20
1613.1730162464139
 30
0.0
 11
3072.463109503512
 21
1613.1730162464139
 31
0.0
  0
LINE
  5
7B2C
  8
2
 10
2712.7574915026798
 20
1955.1730162464139
 30
0.0
 11
3422.9394634208752
 21
1955.1730162464139
 31
0.0
  0
LINE
  5
7B2D
  8
2
 10
1890.4548899964229
 20
1955.1730162464139
 30
0.0
 11
1167.3583990937011
 21
1955.1730162464139
 31
0.0
  0
LINE
  5
7B2E
  8
1
 10
1303.464313555831
 20
1903.6730162464139
 30
0.0
 11
1648.864313555832
 21
1903.6730162464139
 31
0.0
  0
LINE
  5
7B2F
  8
1
 10
1206.164313555832
 20
1903.6730162464139
 30
0.0
 11
1746.164313555832
 21
1903.673016246413
 31
0.0
  0
LINE
  5
7B30
  8
1
 10
1476.164313555832
 20
1938.673016246413
 30
0.0
 11
1741.1643135558329
 21
1938.6730162464139
 31
0.0
  0
ARC
  5
7B31
  8
1
 10
1506.164313555832
 20
1985.173016246413
 30
0.0
 40
372.0
 50
270.0
 51
354.9661637659724
  0
ARC
  5
7B32
  8
1
 10
1506.164313555832
 20
1925.1730162464139
 30
0.0
 40
312.0
 50
179.32734828306471
 51
270.0
  0
LINE
  5
7B33
  8
1
 10
1653.4643135558319
 20
1605.1730162464139
 30
0.0
 11
1653.4643135558319
 21
1899.073016246414
 31
0.0
  0
LINE
  5
7B34
  8
1
 10
1691.1643135558311
 20
1605.1730162464139
 30
0.0
 11
1691.1643135558311
 21
1879.6730162464139
 31
0.0
  0
LINE
  5
7B35
  8
1
 10
1746.1643135558329
 20
1933.6730162464139
 30
0.0
 11
1741.1643135558329
 21
1938.6730162464139
 31
0.0
  0
LINE
  5
7B36
  8
1
 10
1746.164313555832
 20
1903.673016246413
 30
0.0
 11
1746.1643135558329
 21
1933.6730162464139
 31
0.0
  0
LINE
  5
7B37
  8
1
 10
1691.1643135558311
 20
1879.6730162464139
 30
0.0
 11
1671.1643135558311
 21
1899.6730162464139
 31
0.0
  0
ARC
  5
7B38
  8
1
 10
1648.864313555832
 20
1899.073016246414
 30
0.0
 40
4.5999999999999988
 50
0.0
 51
90.0
  0
LINE
  5
7B39
  8
1
 10
1653.4250152562281
 20
1899.6730162464139
 30
0.0
 11
1671.1643135558311
 21
1899.6730162464139
 31
0.0
  0
LINE
  5
7B3A
  8
2
 10
3222.4631095035111
 20
1325.1730162464139
 30
0.0
 11
3222.4631095035111
 21
2350.6697671519191
 31
0.0
  0
LINE
  5
7B3B
  8
1
 10
2864.463109503512
 20
1899.0730162464131
 30
0.0
 11
2864.463109503512
 21
1810.5632876260131
 31
0.0
  0
LINE
  5
7B3C
  8
2
 10
1476.164313555832
 20
2388.3981287251781
 30
0.0
 11
1476.164313555832
 21
1365.1730162464139
 31
0.0
  0
LINE
  5
7B3D
  8
1
 10
2868.4631095035111
 20
1605.1730162464139
 30
0.0
 11
3065.4631095035111
 21
1605.1730162464139
 31
0.0
  0
LINE
  5
7B3E
  8
1
 10
1692.1643135558329
 20
2257.873016246414
 30
0.0
 11
1461.164313555832
 21
2257.873016246414
 31
0.0
  0
LINE
  5
7B3F
  8
1
 10
1692.1643135558329
 20
2260.1730162464141
 30
0.0
 11
1461.1643135558329
 21
2260.1730162464141
 31
0.0
  0
LINE
  5
7B40
  8
1
 10
1692.1643135558329
 20
2235.1730162464141
 30
0.0
 11
1461.1643135558299
 21
2235.1730162464141
 31
0.0
  0
LINE
  5
7B41
  8
1
 10
1211.164313555832
 20
1938.6730162464139
 30
0.0
 11
1476.164313555832
 21
1938.673016246413
 31
0.0
  0
LINE
  5
7B45
  8
1
 10
1298.8643135558309
 20
1605.1730162464139
 30
0.0
 11
1298.8643135558309
 21
1899.073016246414
 31
0.0
  0
LINE
  5
7B46
  8
1
 10
1261.1643135558311
 20
1605.1730162464139
 30
0.0
 11
1261.164313555832
 21
1879.6730162464139
 31
0.0
  0
LINE
  5
7B47
  8
1
 10
1453.164313555832
 20
2191.1730162464141
 30
0.0
 11
1488.1643135558329
 21
2191.1730162464141
 31
0.0
  0
LINE
  5
7B48
  8
1
 10
1211.164313555832
 20
1938.6730162464139
 30
0.0
 11
1206.164313555832
 21
1933.6730162464139
 31
0.0
  0
ARC
  5
7B49
  8
1
 10
1453.164313555832
 20
1932.173016246413
 30
0.0
 40
259.0
 50
90.0
 51
180.73827503082089
  0
LINE
  5
7B4A
  8
1
 10
1281.164313555832
 20
1899.6730162464139
 30
0.0
 11
1261.164313555832
 21
1879.6730162464139
 31
0.0
  0
LINE
  5
7B4B
  8
1
 10
1298.903611855435
 20
1899.6730162464139
 30
0.0
 11
1281.164313555832
 21
1899.6730162464139
 31
0.0
  0
ARC
  5
7B4C
  8
1
 10
1303.464313555831
 20
1899.073016246414
 30
0.0
 40
4.5999999999999988
 50
90.0
 51
180.0
  0
LINE
  5
7B4D
  8
1
 10
1206.164313555832
 20
1903.6730162464139
 30
0.0
 11
1206.164313555832
 21
1933.6730162464139
 31
0.0
  0
LINE
  5
7B4E
  8
1
 10
1461.1643135558299
 20
2235.1730162464141
 30
0.0
 11
1461.1643135558329
 21
2260.1730162464141
 31
0.0
  0
LINE
  5
7B4F
  8
1
 10
1876.1643135558329
 20
2190.1730162464141
 30
0.0
 11
1876.1643135558329
 21
1970.1730162464139
 31
0.0
  0
LINE
  5
7B50
  8
1
 10
1861.164313555832
 20
2190.1730162464141
 30
0.0
 11
1861.164313555832
 21
1970.1730162464139
 31
0.0
  0
LINE
  5
7B51
  8
1
 10
1863.156171984537
 20
2190.1730162464141
 30
0.0
 11
1863.156171984537
 21
1970.1730162464139
 31
0.0
  0
LINE
  5
7B52
  8
1
 10
1900.1643135558329
 20
2235.1730162464141
 30
0.0
 11
1876.7295297316091
 21
1952.5322356093041
 31
0.0
  0
LINE
  5
7B53
  8
1
 10
1626.1643135558329
 20
2190.1730162464141
 30
0.0
 11
1626.1643135558329
 21
1970.1730162464139
 31
0.0
  0
LINE
  5
7B54
  8
1
 10
1626.1643135558329
 20
1970.1730162464139
 30
0.0
 11
1876.1643135558329
 21
1970.1730162464139
 31
0.0
  0
LINE
  5
7B55
  8
1
 10
1626.1643135558329
 20
2190.1730162464141
 30
0.0
 11
1876.1643135558329
 21
2190.1730162464141
 31
0.0
  0
LINE
  5
7B56
  8
1
 10
1692.1643135558329
 20
2235.1730162464141
 30
0.0
 11
1927.164313555832
 21
2235.1730162464141
 31
0.0
  0
LINE
  5
7B57
  8
1
 10
1692.1643135558329
 20
2260.1730162464141
 30
0.0
 11
1927.164313555832
 21
2260.1730162464141
 31
0.0
  0
LINE
  5
7B58
  8
1
 10
1692.1643135558329
 20
2257.873016246414
 30
0.0
 11
1927.164313555832
 21
2257.8730162464149
 31
0.0
  0
LINE
  5
7B59
  8
1
 10
1927.164313555832
 20
2235.1730162464141
 30
0.0
 11
1927.164313555832
 21
2260.1730162464141
 31
0.0
  0
LINE
  5
7B5B
  8
1
 10
3070.8631095035139
 20
1601.33998596843
 30
0.0
 11
3070.8631095035139
 21
1629.3067007124171
 31
0.0
  0
LINE
  5
7B5C
  8
1
 10
3072.4631095035111
 20
1601.3399859684309
 30
0.0
 11
3072.4631095035111
 21
1629.9760307189899
 31
0.0
  0
LINE
  5
7B5D
  8
1
 10
3045.463109503512
 20
2260.1730162464141
 30
0.0
 11
3045.463109503512
 21
2235.1730162464132
 31
0.0
  0
LINE
  5
7B5E
  8
1
 10
2869.0631095035119
 20
1903.6730162464139
 30
0.0
 11
3069.6631095035218
 21
1903.6730162464139
 31
0.0
  0
LINE
  5
7B5F
  8
1
 10
2989.4631095035111
 20
1903.6730162464139
 30
0.0
 11
3064.8631095035112
 21
1903.6730162464139
 31
0.0
  0
LINE
  5
7B60
  8
1
 10
2864.4631095035111
 20
1899.0730162464131
 30
0.0
 11
2864.4631095035111
 21
1810.5632876260131
 31
0.0
  0
LINE
  5
7B61
  8
1
 10
2859.4631095035111
 20
1975.173016246413
 30
0.0
 11
3072.463109503512
 21
1975.173016246413
 31
0.0
  0
ARC
  5
7B62
  8
1
 10
2869.0631095035119
 20
1899.0730162464131
 30
0.0
 40
4.5999999999999988
 50
90.0
 51
180.0
  0
LINE
  5
7B63
  8
1
 10
2859.463109503512
 20
1935.173016246413
 30
0.0
 11
3070.863109503513
 21
1935.173016246413
 31
0.0
  0
LINE
  5
7B64
  8
1
 10
2869.0631095035119
 20
1903.673016246413
 30
0.0
 11
2926.963109503512
 21
1903.673016246413
 31
0.0
  0
LINE
  5
7B65
  8
1
 10
2854.4631095035111
 20
1975.173016246413
 30
0.0
 11
2854.4631095035102
 21
1935.173016246413
 31
0.0
  0
LINE
  5
7B66
  8
1
 10
2854.4631095035102
 20
1935.173016246413
 30
0.0
 11
2859.463109503512
 21
1935.173016246413
 31
0.0
  0
LINE
  5
7B67
  8
1
 10
2800.4631095035102
 20
1969.173016246413
 30
0.0
 11
2852.4631095035102
 21
1969.173016246413
 31
0.0
  0
LINE
  5
7B68
  8
1
 10
2800.4631095035102
 20
1941.1730162464139
 30
0.0
 11
2852.4631095035102
 21
1941.1730162464139
 31
0.0
  0
LINE
  5
7B69
  8
1
 10
2799.4631095035102
 20
1968.173016246413
 30
0.0
 11
2799.4631095035102
 21
1942.173016246413
 31
0.0
  0
LINE
  5
7B6A
  8
1
 10
2799.4631095035102
 20
1968.173016246413
 30
0.0
 11
2800.4631095035102
 21
1969.173016246413
 31
0.0
  0
LINE
  5
7B6B
  8
1
 10
2799.4631095035102
 20
1942.173016246413
 30
0.0
 11
2800.4631095035102
 21
1941.1730162464139
 31
0.0
  0
LINE
  5
7B6C
  8
1
 10
2854.4631095035111
 20
1975.173016246413
 30
0.0
 11
2859.4631095035111
 21
1975.173016246413
 31
0.0
  0
ARC
  5
7B6D
  8
1
 10
2852.4631095035102
 20
1971.173016246413
 30
0.0
 40
2.0
 50
270.0
 51
0.0
  0
ARC
  5
7B6E
  8
1
 10
2852.4631095035102
 20
1939.1730162464139
 30
0.0
 40
2.0
 50
0.0
 51
90.0
  0
ARC
  5
7B71
  8
1
 10
3071.6631095035118
 20
1603.173016246413
 30
0.0
 40
1.9999999999997271
 50
246.42182152184569
 51
293.57817847818319
  0
LINE
  5
7B77
  8
2
 10
1137.692525160332
 20
3591.4213759109298
 30
0.0
 11
1835.840389067605
 21
3591.4213759109298
 31
0.0
  0
LINE
  5
7B78
  8
1
 10
1900.164313555832
 20
3442.6213759109301
 30
0.0
 11
1488.164313555832
 21
3442.6213759109278
 31
0.0
  0
LINE
  5
7B79
  8
1
 10
1490.164313555832
 20
3169.1213759109291
 30
0.0
 11
1490.164313555832
 21
3221.1213759109301
 31
0.0
  0
LINE
  5
7B7A
  8
1
 10
1462.164313555832
 20
3169.1213759109291
 30
0.0
 11
1462.164313555832
 21
3221.1213759109301
 31
0.0
  0
LINE
  5
7B7B
  8
1
 10
1463.164313555832
 20
3168.1213759109301
 30
0.0
 11
1489.164313555832
 21
3168.1213759109301
 31
0.0
  0
LINE
  5
7B7C
  8
1
 10
1489.164313555832
 20
3168.1213759109301
 30
0.0
 11
1490.164313555832
 21
3169.1213759109291
 31
0.0
  0
LINE
  5
7B7D
  8
1
 10
1463.164313555832
 20
3168.1213759109301
 30
0.0
 11
1462.164313555832
 21
3169.1213759109291
 31
0.0
  0
LINE
  5
7B82
  8
1
 10
3414.463109503512
 20
1788.1730162464139
 30
0.0
 11
3414.463109503512
 21
1605.1730162464139
 31
0.0
  0
LINE
  5
7B83
  8
1
 10
3414.463109503512
 20
1605.1730162464139
 30
0.0
 11
3379.063109503511
 21
1605.1730162464139
 31
0.0
  0
LINE
  5
7B84
  8
1
 10
3399.4631095035111
 20
2235.1730162464141
 30
0.0
 11
3399.4631095035111
 21
2260.1730162464141
 31
0.0
  0
LINE
  5
7B85
  8
1
 10
3372.4631095035111
 20
1601.3399859684309
 30
0.0
 11
3372.4631095035111
 21
2235.1730162464141
 31
0.0
  0
LINE
  5
7B86
  8
1
 10
3374.0631095035078
 20
1601.33998596843
 30
0.0
 11
3374.0631095035101
 21
2235.1730162464141
 31
0.0
  0
LINE
  5
7B88
  8
1
 10
3400.0631074010798
 20
1798.1730162464139
 30
0.0
 11
3400.0631074010798
 21
2155.1730162464141
 31
0.0
  0
ARC
  5
7B8C
  8
1
 10
3373.2631095035108
 20
1603.173016246413
 30
0.0
 40
1.9999999999997271
 50
246.42182152180479
 51
293.5781784781251
  0
LINE
  5
7B8F
  8
1
 10
3404.463109503512
 20
1798.1730162464139
 30
0.0
 11
3374.463109503512
 21
1798.1730162464139
 31
0.0
  0
LINE
  5
7B90
  8
1
 10
3414.463109503512
 20
1788.1730162464139
 30
0.0
 11
3404.463109503512
 21
1798.1730162464139
 31
0.0
  0
LINE
  5
7B94
  8
1
 10
3400.0631074010798
 20
2155.1730162464141
 30
0.0
 11
3400.0631074010798
 21
2156.1730162464141
 31
0.0
  0
LINE
  5
7B95
  8
1
 10
3400.0631074010798
 20
2155.1730162464141
 30
0.0
 11
3400.0631074010798
 21
2156.1730162464141
 31
0.0
  0
LINE
  5
7B98
  8
1
 10
1900.164313555832
 20
3740.22137591093
 30
0.0
 11
1488.164313555832
 21
3740.2213759109281
 31
0.0
  0
CIRCLE
  5
7B9B
  8
1
 10
1476.164313555832
 20
1955.173016246413
 30
0.0
 40
139.69999999999999
  0
LINE
  5
7B9C
  8
1
 10
2776.340830639645
 20
2094.873016246413
 30
0.0
 11
2776.3408306396468
 21
1815.473016246412
 31
0.0
  0
LINE
  5
7B9D
  8
1
 10
2816.340830639645
 20
2094.873016246413
 30
0.0
 11
2816.3408306396468
 21
1815.473016246412
 31
0.0
  0
LINE
  5
7B9E
  8
1
 10
2729.4005922901351
 20
2175.1730162464141
 30
0.0
 11
2729.400592290136
 21
1615.173016246413
 31
0.0
  0
CIRCLE
  5
7B9F
  8
1
 10
2016.164313555832
 20
1730.1730162464139
 30
0.0
 40
57.149999999999991
  0
LINE
  5
7BA0
  8
1
 10
2776.3408306396468
 20
1815.473016246412
 30
0.0
 11
2776.3408306396468
 21
1671.023016246409
 31
0.0
  0
LINE
  5
7BA1
  8
1
 10
2816.3408306396468
 20
1815.473016246412
 30
0.0
 11
2816.3408306396468
 21
1671.023016246409
 31
0.0
  0
LINE
  5
7BA2
  8
1
 10
2776.3408306396482
 20
1671.023016246409
 30
0.0
 11
2816.3408306396468
 21
1671.023016246409
 31
0.0
  0
LINE
  5
7BA3
  8
1
 10
2729.400592290136
 20
1615.173016246413
 30
0.0
 11
2851.400592290136
 21
1615.173016246413
 31
0.0
  0
LINE
  5
7BA4
  8
1
 10
2851.400592290136
 20
1635.173016246413
 30
0.0
 11
2851.400592290136
 21
1615.173016246413
 31
0.0
  0
LINE
  5
7BA5
  8
1
 10
2776.3408306396468
 20
1815.473016246412
 30
0.0
 11
2816.3408306396468
 21
1815.473016246412
 31
0.0
1001
ACAD
1000
ASC_BOUNDS
1002
{
1070
    19
1002
}
  0
LINE
  5
7BA6
  8
1
 10
2776.3408306396482
 20
1785.323016246409
 30
0.0
 11
2816.3408306396482
 21
1785.323016246409
 31
0.0
  0
LINE
  5
7BA7
  8
1
 10
2851.4005922901351
 20
2175.1730162464141
 30
0.0
 11
2729.4005922901351
 21
2175.1730162464141
 31
0.0
  0
LINE
  5
7BA8
  8
1
 10
2729.4005922901351
 20
2175.1730162464119
 30
0.0
 11
2851.4005922901351
 21
2175.1730162464119
 31
0.0
  0
LINE
  5
7BA9
  8
1
 10
2776.340830639645
 20
2094.873016246413
 30
0.0
 11
2816.340830639645
 21
2094.873016246413
 31
0.0
1001
ACAD
1000
ASC_BOUNDS
1002
{
1070
    19
1002
}
  0
LINE
  5
7BAA
  8
1
 10
2851.4005922901351
 20
2155.1730162464132
 30
0.0
 11
2851.4005922901351
 21
2175.1730162464141
 31
0.0
  0
LINE
  5
7BAB
  8
1
 10
1535.80120667131
 20
2081.5040535236139
 30
0.0
 11
2044.9901326571101
 21
1778.7584272660431
 31
0.0
  0
LINE
  5
7BAC
  8
1
 10
1476.1643135558299
 20
2218.7558274024618
 30
0.0
 11
2166.1643135558329
 21
1808.002423394192
 31
0.0
  0
LINE
  5
7BAD
  8
1
 10
1447.4631992302061
 20
1818.4530980323241
 30
0.0
 11
1992.650166026152
 21
1678.084559118636
 31
0.0
  0
LINE
  5
7BAE
  8
1
 10
1476.1643135558299
 20
2218.7558274024618
 30
0.0
 11
1286.1643135558311
 21
2079.6990494741908
 31
0.0
  0
ARC
  5
7BAF
  8
1
 10
2016.164313555832
 20
1730.1730162464139
 30
0.0
 40
100.8
 50
300.3932999999999
 51
0.0
  0
ARC
  5
7BB0
  8
1
 10
2016.164313555832
 20
1730.1730162464139
 30
0.0
 40
100.8
 50
0.0
 51
239.69929999999999
  0
LINE
  5
7BB1
  8
1
 10
2081.164313555832
 20
1650.1730162464139
 30
0.0
 11
2081.164313555832
 21
1640.1730162464139
 31
0.0
  0
LINE
  5
7BB2
  8
1
 10
2091.164313555832
 20
1650.1730162464139
 30
0.0
 11
2091.164313555832
 21
1640.1730162464139
 31
0.0
  0
LINE
  5
7BB3
  8
1
 10
2086.164313555832
 20
1635.806516246414
 30
0.0
 11
2086.164313555832
 21
1652.709916246414
 31
0.0
  0
LINE
  5
7BB4
  8
1
 10
2104.164313555832
 20
1640.1730162464139
 30
0.0
 11
2104.164313555832
 21
1648.1730162464139
 31
0.0
  0
LINE
  5
7BB5
  8
1
 10
1951.164313555832
 20
1650.1730162464139
 30
0.0
 11
1951.164313555832
 21
1640.1730162464139
 31
0.0
  0
LINE
  5
7BB6
  8
1
 10
1941.164313555832
 20
1650.1730162464139
 30
0.0
 11
1941.164313555832
 21
1640.1730162464139
 31
0.0
  0
LINE
  5
7BB7
  8
1
 10
1946.164313555832
 20
1635.806516246414
 30
0.0
 11
1946.164313555832
 21
1652.709916246414
 31
0.0
  0
LINE
  5
7BB8
  8
2
 10
2016.164313555832
 20
1581.275555082422
 30
0.0
 11
2016.164313555832
 21
1838.6341162464139
 31
0.0
  0
LINE
  5
7BB9
  8
1
 10
1928.164313555832
 20
1640.1730162464139
 30
0.0
 11
1928.164313555832
 21
1648.1730162464139
 31
0.0
  0
ARC
  5
7BBA
  8
1
 10
2016.164313555832
 20
1730.1730162464139
 30
0.0
 40
100.8
 50
300.3932999999999
 51
0.0
  0
LINE
  5
7BBB
  8
1
 10
1965.240213555832
 20
1643.1730162464139
 30
0.0
 11
2067.1953135558319
 21
1643.1730162464139
 31
0.0
  0
LINE
  5
7BBC
  8
1
 10
1965.240213555832
 20
1643.1730162464139
 30
0.0
 11
2067.1953135558319
 21
1643.1730162464139
 31
0.0
  0
LINE
  5
7BBD
  8
1
 10
1928.164313555832
 20
1640.1730162464139
 30
0.0
 11
1968.164313555832
 21
1640.1730162464139
 31
0.0
  0
LINE
  5
7BBE
  8
1
 10
1968.164313555832
 20
1643.1458162464139
 30
0.0
 11
1968.164313555832
 21
1640.1730162464139
 31
0.0
  0
LINE
  5
7BBF
  8
1
 10
2104.164313555832
 20
1640.1730162464139
 30
0.0
 11
2064.164313555832
 21
1640.1730162464139
 31
0.0
  0
LINE
  5
7BC0
  8
1
 10
2064.164313555832
 20
1643.1040162464139
 30
0.0
 11
2064.164313555832
 21
1640.1730162464139
 31
0.0
  0
LINE
  5
7BC1
  8
2
 10
1911.6991135558319
 20
1730.1730162464139
 30
0.0
 11
2122.2671135558321
 21
1730.1730162464139
 31
0.0
  0
LINE
  5
7BC2
  8
1
 10
1954.8403135558319
 20
1650.1730162464139
 30
0.0
 11
1930.164313555832
 21
1650.1730162464139
 31
0.0
  0
LINE
  5
7BC3
  8
1
 10
1934.0178135558319
 20
1671.7557162464141
 30
0.0
 11
1928.164313555832
 21
1648.1730162464139
 31
0.0
  0
ARC
  5
7BC4
  8
1
 10
1930.164313555832
 20
1648.1730162464139
 30
0.0
 40
2.0
 50
90.0
 51
180.0
  0
LINE
  5
7BC5
  8
1
 10
2077.453213555832
 20
1650.1730162464139
 30
0.0
 11
2102.164313555832
 21
1650.1730162464139
 31
0.0
  0
LINE
  5
7BC6
  8
1
 10
2098.310913555832
 20
1671.7557162464141
 30
0.0
 11
2104.164313555832
 21
1648.1730162464139
 31
0.0
  0
ARC
  5
7BC7
  8
1
 10
2102.164313555832
 20
1648.1730162464139
 30
0.0
 40
2.0
 50
0.0
 51
90.0
  0
LINE
  5
7BC8
  8
1
 10
2139.8802080806458
 20
1605.1730162464139
 30
0.0
 11
2128.6643135558329
 21
1640.1730162464139
 31
0.0
  0
LINE
  5
7BC9
  8
1
 10
1903.6643135558329
 20
1640.1730162464121
 30
0.0
 11
1892.4484190310211
 21
1605.1730162464121
 31
0.0
  0
LINE
  5
7BCA
  8
1
 10
2128.6643135558329
 20
1640.173016246415
 30
0.0
 11
1903.6643135558329
 21
1640.1730162464121
 31
0.0
  0
LINE
  5
7BCB
  8
1
 10
2166.1643135558329
 20
1808.002423394192
 30
0.0
 11
2166.1643135558361
 21
1605.1730162464139
 31
0.0
  0
LINE
  5
7BCC
  8
1
 10
2216.164313555832
 20
1525.1730162464139
 30
0.0
 11
1216.164313555832
 21
1525.1730162464139
 31
0.0
  0
LINE
  5
7BCD
  8
1
 10
2216.164313555832
 20
1605.1730162464139
 30
0.0
 11
1216.164313555832
 21
1605.173016246413
 31
0.0
  0
LINE
  5
7BCE
  8
1
 10
1216.164313555832
 20
1605.173016246413
 30
0.0
 11
1216.164313555832
 21
1525.1730162464139
 31
0.0
  0
LINE
  5
7BCF
  8
1
 10
2216.164313555832
 20
1605.1730162464139
 30
0.0
 11
2216.164313555832
 21
1525.1730162464139
 31
0.0
  0
LINE
  5
7BD0
  8
1
 10
2216.164313555832
 20
1430.1730162464139
 30
0.0
 11
1216.164313555832
 21
1430.1730162464139
 31
0.0
  0
LINE
  5
7BD1
  8
1
 10
2220.164313555832
 20
1365.173016246413
 30
0.0
 11
1212.164313555832
 21
1365.1730162464139
 31
0.0
  0
LINE
  5
7BD2
  8
1
 10
2216.164313555832
 20
1430.1730162464139
 30
0.0
 11
2216.164313555832
 21
1365.1730162464139
 31
0.0
  0
LINE
  5
7BD3
  8
1
 10
1216.164313555832
 20
1430.1730162464139
 30
0.0
 11
1216.164313555832
 21
1365.1730162464139
 31
0.0
  0
LINE
  5
7BD4
  8
1
 10
2864.4631095035111
 20
1525.1730162464139
 30
0.0
 11
3414.463109503512
 21
1525.1730162464139
 31
0.0
  0
LINE
  5
7BD5
  8
1
 10
2864.4631095035111
 20
1605.1730162464139
 30
0.0
 11
3414.463109503512
 21
1605.1730162464139
 31
0.0
  0
LINE
  5
7BD6
  8
1
 10
3414.463109503512
 20
1525.1730162464139
 30
0.0
 11
3414.463109503512
 21
1605.1730162464139
 31
0.0
  0
LINE
  5
7BD7
  8
1
 10
2864.4631095035111
 20
1525.1730162464139
 30
0.0
 11
2864.4631095035111
 21
1605.1730162464139
 31
0.0
  0
LINE
  5
7BD8
  8
1
 10
2864.4631095035111
 20
1430.1730162464139
 30
0.0
 11
3414.463109503512
 21
1430.1730162464139
 31
0.0
  0
LINE
  5
7BD9
  8
1
 10
2689.4631095035111
 20
1365.1730162464139
 30
0.0
 11
3484.4631095035111
 21
1365.1730162464139
 31
0.0
  0
LINE
  5
7BDA
  8
1
 10
3414.4631095035111
 20
1365.1730162464139
 30
0.0
 11
3414.4631095035111
 21
1430.1730162464139
 31
0.0
  0
LINE
  5
7BDB
  8
1
 10
2864.4631095035111
 20
1365.1730162464139
 30
0.0
 11
2864.4631095035111
 21
1430.1730162464139
 31
0.0
  0
LINE
  5
7BDC
  8
1
 10
1286.1643135558311
 20
2079.6990494741908
 30
0.0
 11
1286.164313555835
 21
1605.1730162464139
 31
0.0
  0
LINE
  5
7BDD
  8
1
 10
1488.1643135558329
 20
2191.1730162464141
 30
0.0
 11
1488.1643135558329
 21
2235.1730162464141
 31
0.0
  0
LINE
  5
7BDF
  8
2
 10
1476.164313555832
 20
3119.0869589341351
 30
0.0
 11
1476.164313555832
 21
3791.897729828293
 31
0.0
  0
LINE
  5
7BE0
  8
1
 10
1256.164313555832
 20
3098.3588586975538
 30
0.0
 11
2129.164313555832
 21
3098.3588586975552
 31
0.0
  0
LINE
  5
7BE1
  8
1
 10
1216.164313555835
 20
3233.4213759109311
 30
0.0
 11
1456.164313555832
 21
3233.4213759109311
 31
0.0
  0
LINE
  5
7BE2
  8
1
 10
1615.864313555833
 20
3145.299097047066
 30
0.0
 11
2075.3143135558371
 21
3145.2990970470628
 31
0.0
  0
LINE
  5
7BE3
  8
1
 10
1615.864313555833
 20
3185.299097047066
 30
0.0
 11
2075.3143135558371
 21
3185.299097047066
 31
0.0
  0
LINE
  5
7BE4
  8
1
 10
2129.164313555832
 20
3098.3588586975552
 30
0.0
 11
2129.164313555832
 21
3220.3588586975538
 31
0.0
  0
LINE
  5
7BE5
  8
1
 10
2075.3143135558371
 20
3145.2990970470669
 30
0.0
 11
2075.3143135558371
 21
3185.299097047066
 31
0.0
  0
LINE
  5
7BE6
  8
1
 10
1961.0143135558369
 20
3145.2990970470669
 30
0.0
 11
1961.0143135558369
 21
3185.299097047066
 31
0.0
  0
LINE
  5
7BE7
  8
1
 10
2109.164313555832
 20
3220.3588586975538
 30
0.0
 11
2129.164313555832
 21
3220.3588586975538
 31
0.0
  0
LINE
  5
7BE8
  8
1
 10
1336.4643135558319
 20
3185.2990970470642
 30
0.0
 11
1615.864313555833
 21
3185.299097047066
 31
0.0
  0
LINE
  5
7BE9
  8
1
 10
1336.4643135558319
 20
3145.2990970470628
 30
0.0
 11
1615.864313555833
 21
3145.299097047066
 31
0.0
  0
LINE
  5
7BEA
  8
1
 10
1615.864313555833
 20
3145.299097047066
 30
0.0
 11
1615.864313555833
 21
3185.299097047066
 31
0.0
1001
ACAD
1000
ASC_BOUNDS
1002
{
1070
    19
1002
}
  0
LINE
  5
7BEB
  8
1
 10
1336.4643135558319
 20
3145.2990970470628
 30
0.0
 11
1336.4643135558319
 21
3185.2990970470642
 31
0.0
1001
ACAD
1000
ASC_BOUNDS
1002
{
1070
    19
1002
}
  0
LINE
  5
7BEC
  8
1
 10
1256.1643135558329
 20
3098.3588586975538
 30
0.0
 11
1256.1643135558329
 21
3220.3588586975538
 31
0.0
  0
LINE
  5
7BED
  8
1
 10
1256.164313555832
 20
3220.3588586975538
 30
0.0
 11
1256.164313555832
 21
3098.3588586975538
 31
0.0
  0
LINE
  5
7BEE
  8
1
 10
1276.164313555832
 20
3220.3588586975538
 30
0.0
 11
1256.164313555832
 21
3220.3588586975538
 31
0.0
  0
LINE
  5
7BEF
  8
2
 10
2016.164313555832
 20
3532.5570960510022
 30
0.0
 11
2016.164313555832
 21
3112.5597508244082
 31
0.0
  0
LINE
  5
7BF0
  8
1
 10
2216.164313555832
 20
3233.4213759109289
 30
0.0
 11
2216.164313555832
 21
3783.4213759109289
 31
0.0
  0
LINE
  5
7BF2
  8
1
 10
1216.164313555832
 20
3783.4213759109298
 30
0.0
 11
2216.164313555832
 21
3783.4213759109289
 31
0.0
  0
LINE
  5
7BF3
  8
1
 10
2176.164313555832
 20
3273.4213759109289
 30
0.0
 11
2176.164313555832
 21
3743.4213759109298
 31
0.0
  0
LINE
  5
7BF4
  8
1
 10
1216.164313555832
 20
3743.4213759109298
 30
0.0
 11
1463.164313555832
 21
3743.4213759109298
 31
0.0
  0
LINE
  5
7BF9
  8
1
 10
1256.164313555835
 20
3273.4213759109321
 30
0.0
 11
1261.164313555832
 21
3273.4213759109311
 31
0.0
  0
LINE
  5
7BFA
  8
1
 10
1496.164313555832
 20
3233.4213759109311
 30
0.0
 11
1935.774042176233
 21
3233.4213759109289
 31
0.0
  0
LINE
  5
7BFB
  8
2
 10
2878.5857416027702
 20
1730.1730162464139
 30
0.0
 11
2705.9418933055308
 21
1730.1730162464139
 31
0.0
  0
LINE
  5
7BFC
  8
1
 10
1915.164313555832
 20
3403.6745019301688
 30
0.0
 11
1915.164313555832
 21
3435.9722650072422
 31
0.0
  0
LINE
  5
7BFD
  8
1
 10
1915.164313555832
 20
3435.9722650072422
 30
0.0
 11
2117.1643135558329
 21
3435.9722650072422
 31
0.0
  0
LINE
  5
7BFE
  8
1
 10
1915.164313555832
 20
3435.9722650072422
 30
0.0
 11
1936.164313555832
 21
3486.1717176986949
 31
0.0
  0
LINE
  5
7BFF
  8
1
 10
1936.164313555832
 20
3486.1717176986949
 30
0.0
 11
2096.164313555832
 21
3486.1717176986949
 31
0.0
  0
LINE
  5
7C00
  8
1
 10
1915.164313555832
 20
3255.841290781193
 30
0.0
 11
1935.7740421762339
 21
3248.1225046102022
 31
0.0
  0
LINE
  5
7C01
  8
1
 10
1915.164313555832
 20
3396.4918406020879
 30
0.0
 11
1936.7105384503971
 21
3403.6745019301688
 31
0.0
  0
LINE
  5
7C02
  8
1
 10
1915.164313555832
 20
3403.6745019301688
 30
0.0
 11
2117.1643135558329
 21
3403.6745019301688
 31
0.0
  0
LINE
  5
7C03
  8
1
 10
2004.164313555832
 20
3159.1717176986949
 30
0.0
 11
2004.164313555832
 21
3209.1717176986958
 31
0.0
  0
LINE
  5
7C04
  8
1
 10
2028.164313555832
 20
3159.1717176986949
 30
0.0
 11
2028.1643135558329
 21
3209.1717176986958
 31
0.0
  0
LINE
  5
7C05
  8
1
 10
1935.774042176233
 20
3248.1225046102022
 30
0.0
 11
2096.5545849354312
 21
3248.1225046102022
 31
0.0
  0
LINE
  5
7C06
  8
1
 10
2096.5545849354312
 20
3222.1458192282521
 30
0.0
 11
2016.164313555834
 21
3222.1458192282521
 31
0.0
  0
LINE
  5
7C07
  8
1
 10
2096.5545849354312
 20
3222.1458192282521
 30
0.0
 11
2096.5545849354312
 21
3248.1225046102022
 31
0.0
  0
LINE
  5
7C08
  8
1
 10
2002.360242442192
 20
3209.1717176986958
 30
0.0
 11
2028.1643135558329
 21
3209.1717176986958
 31
0.0
  0
LINE
  5
7C09
  8
1
 10
1935.774042176233
 20
3222.1458192282521
 30
0.0
 11
2016.164313555832
 21
3222.1458192282521
 31
0.0
  0
LINE
  5
7C0A
  8
1
 10
1961.705529552559
 20
3214.1717176986949
 30
0.0
 11
2070.6230975591061
 21
3214.1717176986949
 31
0.0
  0
LINE
  5
7C0B
  8
1
 10
2029.968384669472
 20
3214.1717176986949
 30
0.0
 11
2029.968384669472
 21
3209.1717176986958
 31
0.0
  0
LINE
  5
7C0C
  8
1
 10
2070.6230975591061
 20
3214.1717176986949
 30
0.0
 11
2070.6230975591061
 21
3222.1458192282521
 31
0.0
  0
LINE
  5
7C0D
  8
1
 10
1961.705529552559
 20
3214.1717176986949
 30
0.0
 11
1961.705529552559
 21
3222.1458192282521
 31
0.0
  0
LINE
  5
7C0E
  8
1
 10
2002.360242442192
 20
3214.1717176986949
 30
0.0
 11
2002.360242442192
 21
3209.1717176986958
 31
0.0
  0
LINE
  5
7C0F
  8
1
 10
1935.774042176233
 20
3222.1458192282521
 30
0.0
 11
1935.774042176233
 21
3248.1225046102022
 31
0.0
  0
LINE
  5
7C10
  8
1
 10
2004.164313555832
 20
3159.1717176986949
 30
0.0
 11
2028.164313555832
 21
3159.1717176986949
 31
0.0
  0
LINE
  5
7C11
  8
1
 10
1915.164313555832
 20
3255.8412907811921
 30
0.0
 11
1915.164313555832
 21
3396.4918406020879
 31
0.0
  0
LINE
  5
7C12
  8
1
 10
2117.1643135558329
 20
3255.841290781193
 30
0.0
 11
2096.5545849354312
 21
3248.1225046102022
 31
0.0
  0
LINE
  5
7C13
  8
1
 10
2117.1643135558329
 20
3255.8412907811921
 30
0.0
 11
2117.1643135558329
 21
3396.4918406020879
 31
0.0
  0
LINE
  5
7C14
  8
1
 10
2117.1643135558329
 20
3396.4918406020879
 30
0.0
 11
2095.6180886612678
 21
3403.6745019301688
 31
0.0
  0
LINE
  5
7C15
  8
1
 10
2117.1643135558329
 20
3403.6745019301688
 30
0.0
 11
2117.1643135558329
 21
3435.9722650072422
 31
0.0
  0
LINE
  5
7C16
  8
1
 10
2117.1643135558329
 20
3435.9722650072422
 30
0.0
 11
2096.1643135558329
 21
3486.1717176986949
 31
0.0
  0
LINE
  5
7C3A
  8
4
 10
3700.0
 20
1000.0
 30
0.0
 11
3700.0
 21
600.0
 31
0.0
  0
LINE
  5
7C3B
  8
4
 10
2300.0
 20
1000.0
 30
0.0
 11
2300.0
 21
600.0
 31
0.0
  0
LINE
  5
7C3C
  8
4
 10
1300.0
 20
1000.0
 30
0.0
 11
1300.0
 21
600.0
 31
0.0
  0
LINE
  5
7C3F
  8
4
 10
1300.0
 20
600.0
 30
0.0
 11
3700.0
 21
600.0
 31
0.0
  0
LINE
  5
7C40
  8
4
 10
1300.0
 20
800.0
 30
0.0
 11
3700.0
 21
800.0
 31
0.0
  0
TEXT
  5
7C41
  8
4
 10
1377.0041616938031
 20
863.08605173322564
 30
0.0
 40
100.0
  1
機器名称
  0
TEXT
  5
7C42
  8
4
 10
1372.516212049595
 20
643.29031346402189
 30
0.0
 40
100.0
  1
機器型番
  0
TEXT
  5
7C43
  8
4
 10
2355.3574909753288
 20
845.14353791513713
 30
0.0
 40
100.0
  1
ミツヤ厨房用ファン
  0
TEXT
  5
7C44
  8
4
 10
2373.3089911709608
 20
634.31916855988675
 30
0.0
 40
100.0
  1
MFK#2 1/2-1
  0
TEXT
  5
7C46
  8
4
 10
1544.7060390933359
 20
4766.8576826650306
 30
0.0
 40
107.9999999999999
  1
天吊防振ベット
  0
TEXT
  5
7C47
  8
4
 10
632.33518665889278
 20
5067.7619523985959
 30
0.0
 40
144.0
  1
ベルト駆動式片吸込片持多翼ファン
  0
LINE
  5
7C48
  8
4
 10
500.0
 20
4938.8175085296089
 30
0.0
 11
3700.0
 21
4938.8175085296089
 31
0.0
  0
LINE
  5
7C49
  8
4
 10
500.0
 20
5338.8175085296098
 30
0.0
 11
3700.0
 21
5338.8175085296098
 31
0.0
  0
LINE
  5
7C4A
  8
4
 10
1300.0
 20
1000.0
 30
0.0
 11
3700.0
 21
1000.0
 31
0.0
  0
LINE
  5
7C4B
  8
4
 10
500.0
 20
5338.8175085296098
 30
0.0
 11
500.0
 21
4938.8175085296089
 31
0.0
  0
TEXT
  5
7C4C
  8
4
 10
672.98837460793209
 20
4764.638955092687
 30
0.0
 40
107.9999999999999
  1
左回転上向
  0
TEXT
  5
7C4D
  8
4
 10
2937.9391184985789
 20
5412.1221629906177
 30
0.0
 40
112.0
  1
No.
  0
TEXT
  5
7C4E
  8
4
 10
2622.5921252000262
 20
4766.8576826650306
 30
0.0
 40
107.9999999999999
  1
縮尺：1/20
  0
LINE
  5
7C4F
  8
4
 10
3700.0
 20
5338.8175085296098
 30
0.0
 11
3700.0
 21
4938.8175085296089
 31
0.0
  0
LINE
  5
7C50
  8
4
 10
4200.0
 20
5900.0
 30
0.0
 11
4200.0
 21
5900.0
 31
0.0
  0
LINE
  5
7C51
  8
4
 10
2881.2348447197292
 20
5362.5271662508021
 30
0.0
 11
2881.2348447197292
 21
5573.3045230995049
 31
0.0
  0
LINE
  5
7C52
  8
4
 10
2881.2348447197292
 20
5573.3045230995049
 30
0.0
 11
3700.0
 21
5573.3045230995049
 31
0.0
  0
LINE
  5
7C53
  8
4
 10
3700.0
 20
5573.3045230995049
 30
0.0
 11
3700.0
 21
5362.5271662508021
 31
0.0
  0
LINE
  5
7C54
  8
4
 10
3700.0
 20
5362.5271662508021
 30
0.0
 11
2881.2348447197292
 21
5362.5271662508021
 31
0.0
  0
LINE
  5
7C55
  8
4
 10
0.0
 20
0.0
 30
0.0
 11
0.0
 21
5900.0
 31
0.0
  0
LINE
  5
7C56
  8
4
 10
0.0
 20
5900.0
 30
0.0
 11
4200.0
 21
5900.0
 31
0.0
  0
LINE
  5
7C57
  8
4
 10
4200.0
 20
5900.0
 30
0.0
 11
4200.0
 21
0.0
 31
0.0
  0
LINE
  5
7C58
  8
4
 10
4200.0
 20
0.0
 30
0.0
 11
0.0
 21
0.0
 31
0.0
  0
DIMENSION
  5
7C9B
  8
3
  2
*D1
 10
1488.1643135558329
 20
2403.1373467155399
 30
0.0
 11
1691.40181255785
 21
2403.1373467155399
 31
0.0
 70
   128
 13
1900.1643135558329
 23
2235.1730162464141
 33
0.0
 14
1488.1643135558329
 24
2235.1730162464141
 34
0.0
 50
180.0
1001
ACAD
1000
DSTYLE
1002
{
1070
   287
1070
     3
1070
   287
1070
     3
1070
    40
1040
20.0
1070
   143
1040
0.039
1070
   172
1070
     1
1070
   271
1070
     0
1070
   279
1070
     0
1070
   288
1070
     1
1002
}
  0
DIMENSION
  5
7CA8
  8
3
  2
*D2
 10
1476.1643135558329
 20
2529.7117078899332
 30
0.0
 11
1686.537112245662
 21
2529.7117078899332
 31
0.0
 70
   128
 13
1900.1643135558329
 23
2235.1730162464141
 33
0.0
 14
1476.1643135558329
 24
2263.9789307085448
 34
0.0
 50
180.0
1001
ACAD
1000
DSTYLE
1002
{
1070
   287
1070
     3
1070
   287
1070
     3
1070
    40
1040
20.0
1070
   143
1040
0.039
1070
   172
1070
     1
1070
   271
1070
     0
1070
   279
1070
     0
1070
   288
1070
     1
1002
}
  0
DIMENSION
  5
7CB4
  8
3
  2
*D3
 10
901.62562191231336
 20
1525.1730162464139
 30
0.0
 11
851.62562191231325
 21
1740.1730162464139
 31
0.0
 70
     0
 13
1167.3583990937011
 23
1955.1730162464139
 33
0.0
 14
1216.164313555832
 24
1525.1730162464139
 34
0.0
 50
270.0
1001
ACAD
1000
DSTYLE
1002
{
1070
   287
1070
     3
1070
   287
1070
     3
1070
    40
1040
20.0
1070
   143
1040
0.039
1070
   172
1070
     1
1070
   271
1070
     0
1070
   279
1070
     0
1070
   288
1070
     1
1002
}
  0
DIMENSION
  5
7DCB
  8
3
  2
*D5
 10
3372.4631095035111
 20
2364.4377439238469
 30
0.0
 11
3235.3202523606542
 21
2364.4377439238469
 31
0.0
 70
   128
 13
3072.4631095035111
 23
2224.687328828983
 33
0.0
 14
3372.4631095035111
 24
2227.1285462556052
 34
0.0
1001
ACAD
1000
DSTYLE
1002
{
1070
   287
1070
     3
1070
   287
1070
     3
1070
    40
1040
20.0
1070
   143
1040
0.039
1070
   172
1070
     1
1070
   271
1070
     0
1070
   279
1070
     0
1070
   288
1070
     1
1002
}
  0
DIMENSION
  5
7DE4
  8
3
  2
*D6
 10
3222.4631095035111
 20
2529.2720127030261
 30
0.0
 11
3300.5875751014751
 21
2585.6202838748941
 31
0.0
 70
   128
 13
3375.0631074010798
 23
2172.0676535247471
 33
0.0
 14
3222.4631095035111
 24
2438.457206041247
 34
0.0
1001
ACAD
1000
DSTYLE
1002
{
1070
   288
1070
     1
1070
   172
1070
     1
1070
    40
1040
20.0
1070
   271
1070
     0
1070
   143
1040
0.039
1002
}
  0
DIMENSION
  5
7E12
  8
3
  2
*D7
 10
2729.4005922901351
 20
2529.2720127030261
 30
0.0
 11
2975.9318508968231
 21
2629.2720127030261
 31
0.0
 70
     0
  1
MAX\P500
 13
3222.4631095035111
 23
2438.457206041247
 33
0.0
 14
2729.4005922901351
 24
2175.1730162464119
 34
0.0
1001
ACAD
1000
DSTYLE
1002
{
1070
   287
1070
     4
1070
   287
1070
     4
1070
    40
1040
20.0
1070
    75
1070
     1
1070
   143
1040
0.039
1070
   172
1070
     1
1070
   271
1070
     0
1070
   279
1070
     1
1070
   288
1070
     1
1002
}
  0
LINE
  5
7E54
  8
1
 10
2117.1643135558329
 20
3273.4213759109289
 30
0.0
 11
2216.164313555832
 21
3273.4213759109289
 31
0.0
  0
LINE
  5
7E55
  8
1
 10
2096.5545849354312
 20
3233.4213759109289
 30
0.0
 11
2216.164313555832
 21
3233.4213759109289
 31
0.0
  0
DIMENSION
  5
7E64
  8
3
  2
*D8
 10
3538.632966082343
 20
1755.1730162464139
 30
0.0
 11
3538.6329660823421
 21
1959.554907007956
 31
0.0
 70
   128
 13
3374.063109503511
 23
2155.1730162464141
 33
0.0
 14
3375.2631095035072
 24
1755.1730162464139
 34
0.0
 50
90.0
1001
ACAD
1000
DSTYLE
1002
{
1070
   287
1070
     3
1070
   287
1070
     3
1070
     3
1000
φ<>
1070
    40
1040
20.0
1070
   143
1040
0.039
1070
   172
1070
     1
1070
   271
1070
     0
1070
   279
1070
     0
1070
   288
1070
     1
1002
}
  0
DIMENSION
  5
7EAE
  8
3
  2
*D9
 10
1194.1643135558329
 20
2529.7117078899332
 30
0.0
 11
1335.1643135558329
 21
2579.7117078899319
 31
0.0
 70
     0
 13
1476.1643135558329
 23
2263.9789307085448
 33
0.0
 14
1194.1643135558329
 24
1932.173016246413
 34
0.0
1001
ACAD
1000
DSTYLE
1002
{
1070
   287
1070
     4
1070
   287
1070
     4
1070
    40
1040
20.0
1070
    75
1070
     1
1070
   143
1040
0.039
1070
   172
1070
     1
1070
   271
1070
     0
1070
   279
1070
     1
1070
   288
1070
     1
1002
}
  0
DIMENSION
  5
7EBA
  8
3
  2
*D10
 10
901.62562191231336
 20
2260.1730162464141
 30
0.0
 11
851.62562191231302
 21
2107.6730162464141
 31
0.0
 70
     0
 13
1167.3583990937011
 23
1955.1730162464139
 33
0.0
 14
1461.1643135558329
 24
2260.1730162464141
 34
0.0
 50
270.0
1001
ACAD
1000
DSTYLE
1002
{
1070
   287
1070
     4
1070
   287
1070
     4
1070
    40
1040
20.0
1070
    75
1070
     1
1070
   143
1040
0.039
1070
   172
1070
     1
1070
   271
1070
     0
1070
   279
1070
     1
1070
   288
1070
     1
1002
}
  0
LINE
  5
7EBB
  8
1
 10
3045.463109503512
 20
2260.1730162464141
 30
0.0
 11
3399.463109503512
 21
2260.1730162464141
 31
0.0
  0
LINE
  5
7EBC
  8
1
 10
3045.463109503512
 20
2235.1730162464132
 30
0.0
 11
3399.4631095035111
 21
2235.1730162464141
 31
0.0
  0
LINE
  5
7ED7
  8
1
 10
1194.164313555832
 20
3442.6213759109278
 30
0.0
 11
1194.164313555832
 21
3740.2213759109259
 31
0.0
  0
LINE
  5
7ED8
  8
1
 10
1900.164313555832
 20
3442.621375910931
 30
0.0
 11
1900.164313555832
 21
3740.22137591093
 31
0.0
  0
LINE
  5
7ED9
  8
1
 10
1216.164313555835
 20
3233.4213759109311
 30
0.0
 11
1216.164313555834
 21
3397.6213759109278
 31
0.0
  0
LINE
  5
7EDB
  8
1
 10
1924.664313555832
 20
3765.22137591093
 30
0.0
 11
1463.164313555832
 21
3765.2213759109281
 31
0.0
  0
LINE
  5
7EDC
  8
1
 10
1924.664313555832
 20
3417.621375910931
 30
0.0
 11
1463.164313555832
 21
3417.6213759109291
 31
0.0
  0
LINE
  5
7EDF
  8
1
 10
1488.164313555832
 20
3442.621375910931
 30
0.0
 11
1488.164313555832
 21
3740.22137591093
 31
0.0
  0
LINE
  5
7EE0
  8
1
 10
1925.164313555832
 20
3418.121375910931
 30
0.0
 11
1925.164313555832
 21
3764.72137591093
 31
0.0
  0
LINE
  5
7EE1
  8
1
 10
1924.664313555832
 20
3765.22137591093
 30
0.0
 11
1925.164313555832
 21
3764.72137591093
 31
0.0
  0
LINE
  5
7EE2
  8
1
 10
1924.664313555832
 20
3417.621375910931
 30
0.0
 11
1925.164313555832
 21
3418.121375910931
 31
0.0
  0
LINE
  5
7EE3
  8
1
 10
1463.164313555832
 20
3417.6213759109291
 30
0.0
 11
1463.164313555832
 21
3765.2213759109281
 31
0.0
  0
LINE
  5
7EE6
  8
1
 10
1463.164313555832
 20
3740.2213759109281
 30
0.0
 11
1194.164313555832
 21
3740.2213759109259
 31
0.0
  0
LINE
  5
7EE7
  8
1
 10
1925.164313555832
 20
3743.4213759109298
 30
0.0
 11
2216.164313555832
 21
3743.4213759109298
 31
0.0
  0
LINE
  5
7EE8
  8
1
 10
1463.164313555832
 20
3442.6213759109301
 30
0.0
 11
1194.164313555832
 21
3442.6213759109278
 31
0.0
  0
DIMENSION
  5
7F17
  8
3
  2
*D11
 10
1194.1643135558329
 20
2672.5263336184648
 30
0.0
 11
1688.42466567926
 21
2672.5263336184648
 31
0.0
 70
   128
 13
2216.164313555832
 23
1605.1730162464139
 33
0.0
 14
1194.1643135558329
 24
1932.173016246413
 34
0.0
1001
ACAD
1000
DSTYLE
1002
{
1070
   287
1070
     3
1070
   287
1070
     3
1070
    40
1040
20.0
1070
   143
1040
0.039
1070
   172
1070
     1
1070
   271
1070
     0
1070
   279
1070
     0
1070
   288
1070
     1
1002
}
  0
LINE
  5
7FD0
  8
1
 10
3070.543543454623
 20
1629.173016246413
 30
0.0
 11
3120.7429961460771
 21
1650.173016246413
 31
0.0
  0
LINE
  5
7FD1
  8
1
 10
3031.0631190494692
 20
1629.173016246413
 30
0.0
 11
3038.2457803775492
 21
1650.719241140979
 31
0.0
  0
LINE
  5
7FD2
  8
1
 10
2890.4125692285729
 20
1629.173016246413
 30
0.0
 11
2882.6937830575821
 21
1649.7827448668149
 31
0.0
  0
LINE
  5
7FD4
  8
1
 10
3070.543543454623
 20
1831.1730162464139
 30
0.0
 11
3070.543543454623
 21
1629.173016246413
 31
0.0
  0
LINE
  5
7FD5
  8
1
 10
3038.2457803775492
 20
1831.1730162464139
 30
0.0
 11
3038.2457803775492
 21
1629.173016246413
 31
0.0
  0
LINE
  5
7FD8
  8
2
 10
3167.128374498383
 20
1730.1730162464139
 30
0.0
 11
2747.131029271789
 21
1730.1730162464139
 31
0.0
  0
LINE
  5
7FD9
  8
1
 10
3038.2457803775492
 20
1831.1730162464139
 30
0.0
 11
3070.543543454623
 21
1831.1730162464139
 31
0.0
  0
LINE
  5
7FDA
  8
1
 10
3031.0631190494692
 20
1831.1730162464139
 30
0.0
 11
3038.2457803775492
 21
1809.6267913518491
 31
0.0
  0
LINE
  5
7FDB
  8
1
 10
2856.717097675632
 20
1810.5632876260131
 30
0.0
 11
2856.717097675632
 21
1730.173016246415
 31
0.0
  0
LINE
  5
7FDC
  8
1
 10
2882.6937830575821
 20
1810.5632876260131
 30
0.0
 11
2882.6937830575821
 21
1649.7827448668149
 31
0.0
  0
LINE
  5
7FDD
  8
1
 10
2890.412569228572
 20
1831.1730162464139
 30
0.0
 11
3031.0631190494692
 21
1831.1730162464139
 31
0.0
  0
LINE
  5
7FDE
  8
1
 10
2856.717097675632
 20
1810.5632876260131
 30
0.0
 11
2882.6937830575821
 21
1810.5632876260131
 31
0.0
  0
LINE
  5
7FDF
  8
1
 10
2890.4125692285729
 20
1831.1730162464139
 30
0.0
 11
2882.6937830575821
 21
1810.563287626012
 31
0.0
  0
LINE
  5
7FE1
  8
1
 10
2793.7429961460762
 20
1742.1730162464139
 30
0.0
 11
2843.7429961460762
 21
1742.1730162464139
 31
0.0
  0
LINE
  5
7FE2
  8
1
 10
2793.7429961460762
 20
1718.1730162464139
 30
0.0
 11
2843.7429961460762
 21
1718.1730162464139
 31
0.0
  0
LINE
  5
7FE4
  8
1
 10
2793.7429961460762
 20
1742.1730162464139
 30
0.0
 11
2793.7429961460762
 21
1718.1730162464139
 31
0.0
  0
LINE
  5
7FE5
  8
1
 10
2843.7429961460762
 20
1743.9770873600551
 30
0.0
 11
2843.7429961460762
 21
1718.1730162464139
 31
0.0
  0
LINE
  5
7FE6
  8
1
 10
2856.717097675632
 20
1649.7827448668149
 30
0.0
 11
2856.717097675632
 21
1730.173016246413
 31
0.0
  0
LINE
  5
7FE7
  8
1
 10
2848.7429961460762
 20
1784.6318002496871
 30
0.0
 11
2848.7429961460762
 21
1675.71423224314
 31
0.0
  0
LINE
  5
7FE8
  8
1
 10
2848.7429961460762
 20
1784.6318002496871
 30
0.0
 11
2856.717097675632
 21
1784.6318002496871
 31
0.0
  0
LINE
  5
7FE9
  8
1
 10
2848.7429961460762
 20
1743.9770873600551
 30
0.0
 11
2843.7429961460762
 21
1743.9770873600551
 31
0.0
  0
LINE
  5
7FEA
  8
1
 10
2848.7429961460762
 20
1716.3689451327739
 30
0.0
 11
2843.7429961460762
 21
1716.3689451327739
 31
0.0
  0
LINE
  5
7FEB
  8
1
 10
2848.7429961460762
 20
1675.71423224314
 30
0.0
 11
2856.717097675632
 21
1675.71423224314
 31
0.0
  0
LINE
  5
7FEC
  8
1
 10
2856.717097675632
 20
1649.7827448668149
 30
0.0
 11
2882.6937830575821
 21
1649.7827448668149
 31
0.0
  0
LINE
  5
7FED
  8
1
 10
3070.543543454623
 20
1831.1730162464139
 30
0.0
 11
3120.7429961460771
 21
1810.1730162464139
 31
0.0
  0
LINE
  5
7FEE
  8
1
 10
3052.1926543583108
 20
1821.6730162464139
 30
0.0
 11
3052.6926543583108
 21
1821.1730162464139
 31
0.0
  0
LINE
  5
7FEF
  8
1
 10
3120.7429961460771
 20
1810.1730162464139
 30
0.0
 11
3120.7429961460771
 21
1650.1730162464139
 31
0.0
  0
LINE
  5
7FF0
  8
1
 10
3038.2457803775492
 20
1629.173016246413
 30
0.0
 11
3070.543543454623
 21
1629.173016246413
 31
0.0
  0
LINE
  5
7FF3
  8
1
 10
2890.412569228572
 20
1629.173016246413
 30
0.0
 11
3031.0631190494692
 21
1629.173016246413
 31
0.0
  0
LINE
  5
7FF5
  8
1
 10
2864.4631095035111
 20
1649.7827448668149
 30
0.0
 11
2864.4631095035111
 21
1609.1730162464139
 31
0.0
  0
LINE
  5
7FF6
  8
1
 10
2864.463109503512
 20
1649.7827448668149
 30
0.0
 11
2864.4631095035111
 21
1605.1730162464139
 31
0.0
  0
LINE
  5
7FF7
  8
1
 10
3072.4631095035111
 20
1830.3700017738381
 30
0.0
 11
3072.4631095035111
 21
2235.1730162464141
 31
0.0
  0
LINE
  5
7FF8
  8
1
 10
3070.863109503513
 20
1831.0393317804121
 30
0.0
 11
3070.8631095035112
 21
2235.1730162464132
 31
0.0
  0
LINE
  5
7FF9
  8
1
 10
2899.3591424608012
 20
1629.1730162464139
 30
0.0
 11
2899.3591424608021
 21
1605.1730162464139
 31
0.0
  0
LINE
  5
7FFA
  8
1
 10
3051.1823541934382
 20
1629.1730162464139
 30
0.0
 11
3051.1823541934391
 21
1605.1730162464139
 31
0.0
  0
LINE
  5
8009
  8
1
 10
3375.0631074010798
 20
2155.1730162464141
 30
0.0
 11
3400.0631074010798
 21
2155.1730162464141
 31
0.0
  0
LINE
  5
800A
  8
1
 10
3400.0631074010798
 20
2155.1730162464141
 30
0.0
 11
3400.0631074010798
 21
2156.1730162464141
 31
0.0
  0
LINE
  5
800B
  8
1
 10
3382.0631074010798
 20
2158.1730162464141
 30
0.0
 11
3398.0631074010798
 21
2158.1730162464141
 31
0.0
  0
ARC
  5
800C
  8
1
 10
3398.0631074010798
 20
2156.1730162464141
 30
0.0
 40
2.0
 50
359.9999999999992
 51
89.999999999999588
  0
LINE
  5
800D
  8
1
 10
3375.0631074010798
 20
2155.1730162464141
 30
0.0
 11
3375.0631074010798
 21
2180.1730162464141
 31
0.0
  0
LINE
  5
800E
  8
1
 10
3378.0631074010798
 20
2162.1730162464141
 30
0.0
 11
3378.0631074010798
 21
2178.1730162464141
 31
0.0
  0
LINE
  5
800F
  8
1
 10
3375.0631074010798
 20
2180.1730162464141
 30
0.0
 11
3376.0631074010798
 21
2180.1730162464141
 31
0.0
  0
ARC
  5
8010
  8
1
 10
3376.0631074010798
 20
2178.1730162464141
 30
0.0
 40
2.0
 50
0.0
 51
90.00000000000081
  0
ARC
  5
8011
  8
1
 10
3382.0631074010798
 20
2162.1730162464141
 30
0.0
 40
4.0
 50
180.0
 51
270.0
  0
LINE
  5
8069
  8
1
 10
1746.1643135558329
 20
3407.6213759109301
 30
0.0
 11
1746.1643135558329
 21
3417.621375910931
 31
0.0
  0
LINE
  5
806A
  8
1
 10
1206.164313555832
 20
3407.6213759109301
 30
0.0
 11
1206.164313555832
 21
3442.6213759109301
 31
0.0
  0
LINE
  5
806B
  8
1
 10
1586.164313555832
 20
3362.6213759109291
 30
0.0
 11
1701.1643135558329
 21
3362.6213759109291
 31
0.0
  0
LINE
  5
806C
  8
1
 10
1653.4643135558319
 20
3235.3213759109281
 30
0.0
 11
1490.164313555832
 21
3235.3213759109281
 31
0.0
  0
LINE
  5
806D
  8
1
 10
1490.164313555832
 20
3173.3213759109271
 30
0.0
 11
1490.164313555832
 21
3362.6213759109291
 31
0.0
  0
LINE
  5
806E
  8
1
 10
1462.164313555832
 20
3173.3213759109271
 30
0.0
 11
1462.1643135558329
 21
3362.6213759109291
 31
0.0
  0
LINE
  5
806F
  8
1
 10
1489.164313555832
 20
3172.3213759109271
 30
0.0
 11
1490.164313555832
 21
3173.3213759109271
 31
0.0
  0
LINE
  5
8070
  8
1
 10
1463.164313555832
 20
3172.3213759109271
 30
0.0
 11
1462.164313555832
 21
3173.3213759109271
 31
0.0
  0
LINE
  5
8071
  8
1
 10
1463.164313555832
 20
3172.3213759109271
 30
0.0
 11
1489.164313555832
 21
3172.3213759109271
 31
0.0
  0
LINE
  5
8072
  8
1
 10
1366.164313555832
 20
3362.6213759109291
 30
0.0
 11
1586.164313555832
 21
3362.6213759109291
 31
0.0
  0
LINE
  5
8073
  8
1
 10
1462.164313555832
 20
3235.3213759109249
 30
0.0
 11
1298.864313555833
 21
3235.3213759109281
 31
0.0
  0
LINE
  5
8074
  8
1
 10
1261.1643135558329
 20
3246.6213759109278
 30
0.0
 11
1261.1643135558329
 21
3362.6213759109291
 31
0.0
  0
LINE
  5
8075
  8
1
 10
1298.864313555833
 20
3235.3213759109281
 30
0.0
 11
1298.864313555832
 21
3362.6213759109291
 31
0.0
  0
LINE
  5
8076
  8
1
 10
1261.1643135558329
 20
3246.6213759109278
 30
0.0
 11
1266.164313555832
 21
3241.6213759109278
 31
0.0
  0
LINE
  5
8077
  8
1
 10
1266.164313555832
 20
3241.6213759109278
 30
0.0
 11
1298.9036118554361
 21
3241.6213759109278
 31
0.0
  0
LINE
  5
8078
  8
1
 10
1251.164313555832
 20
3362.6213759109291
 30
0.0
 11
1366.164313555832
 21
3362.6213759109291
 31
0.0
  0
LINE
  5
8079
  8
1
 10
1251.164313555832
 20
3362.6213759109291
 30
0.0
 11
1206.164313555832
 21
3407.6213759109301
 31
0.0
  0
LINE
  5
807A
  8
1
 10
1691.164313555832
 20
3246.6213759109278
 30
0.0
 11
1691.164313555832
 21
3362.6213759109291
 31
0.0
  0
LINE
  5
807B
  8
1
 10
1653.4643135558319
 20
3235.3213759109281
 30
0.0
 11
1653.4643135558319
 21
3362.6213759109291
 31
0.0
  0
LINE
  5
807C
  8
1
 10
1686.164313555832
 20
3241.6213759109278
 30
0.0
 11
1691.164313555832
 21
3246.6213759109278
 31
0.0
  0
LINE
  5
807D
  8
1
 10
1653.425015256229
 20
3241.6213759109278
 30
0.0
 11
1686.164313555832
 21
3241.6213759109278
 31
0.0
  0
LINE
  5
807E
  8
1
 10
1746.1643135558329
 20
3407.6213759109301
 30
0.0
 11
1701.1643135558329
 21
3362.6213759109291
 31
0.0
  0
LINE
  5
807F
  8
1
 10
1206.164313555832
 20
3442.6213759109301
 30
0.0
 11
1463.164313555832
 21
3442.6213759109301
 31
0.0
  0
LINE
  5
8081
  8
1
 10
1256.164313555835
 20
3233.4213759109311
 30
0.0
 11
1256.164313555834
 21
3362.6213759109291
 31
0.0
  0
LINE
  5
8082
  8
1
 10
1216.164313555832
 20
3740.2213759109259
 30
0.0
 11
1216.164313555832
 21
3783.4213759109289
 31
0.0
  0
LINE
  5
8083
  8
1
 10
1256.164313555832
 20
3740.2213759109259
 30
0.0
 11
1256.164313555832
 21
3783.4213759109289
 31
0.0
  0
LINE
  5
8084
  8
1
 10
1691.164313555832
 20
3273.4213759109298
 30
0.0
 11
1915.164313555832
 21
3273.4213759109289
 31
0.0
  0
LINE
  5
8089
  8
1
 10
2689.4631095035111
 20
1325.1730162464139
 30
0.0
 11
3484.4631095035111
 21
1325.1730162464139
 31
0.0
  0
LINE
  5
808A
  8
1
 10
2689.4631095035111
 20
1325.1730162464139
 30
0.0
 11
2689.4631095035111
 21
1365.1730162464139
 31
0.0
  0
LINE
  5
808B
  8
1
 10
3484.4631095035111
 20
1325.1730162464139
 30
0.0
 11
3484.4631095035111
 21
1365.1730162464139
 31
0.0
  0
LINE
  5
808C
  8
1
 10
2220.164313555832
 20
1365.1730162464139
 30
0.0
 11
2220.164313555832
 21
1325.1730162464139
 31
0.0
  0
LINE
  5
808D
  8
1
 10
1212.164313555832
 20
1365.1730162464139
 30
0.0
 11
1212.164313555832
 21
1325.1730162464139
 31
0.0
  0
LINE
  5
808E
  8
1
 10
2140.164313555832
 20
1365.1730162464139
 30
0.0
 11
2140.164313555832
 21
1325.1730162464139
 31
0.0
  0
LINE
  5
808F
  8
1
 10
1292.164313555832
 20
1365.1730162464139
 30
0.0
 11
1292.164313555832
 21
1325.1730162464139
 31
0.0
  0
DIMENSION
  5
809C
  8
3
  2
*D12
 10
3222.4631095035111
 20
1212.832248405389
 30
0.0
 11
2955.9631095035111
 21
1262.832248405389
 31
0.0
 70
     0
 13
2689.4631095035111
 23
1325.1730162464139
 33
0.0
 14
3222.4631095035111
 24
1325.1730162464139
 34
0.0
1001
ACAD
1000
DSTYLE
1002
{
1070
   287
1070
     3
1070
   287
1070
     3
1070
    40
1040
20.0
1070
   143
1040
0.039
1070
   172
1070
     1
1070
   271
1070
     0
1070
   279
1070
     0
1002
}
  0
DIMENSION
  5
80AB
  8
3
  2
*D13
 10
3484.4631095035111
 20
1212.832248405389
 30
0.0
 11
3353.4631095035111
 21
1262.832248405389
 31
0.0
 70
     0
 13
3222.4631095035111
 23
1325.1730162464139
 33
0.0
 14
3484.4631095035111
 24
1325.1730162464139
 34
0.0
1001
ACAD
1000
DSTYLE
1002
{
1070
   287
1070
     3
1070
   287
1070
     3
1070
    40
1040
20.0
1070
   143
1040
0.039
1070
   172
1070
     1
1070
   271
1070
     0
1070
   279
1070
     0
1002
}
  0
DIMENSION
  5
80B8
  8
3
  2
*D14
 10
2220.164313555832
 20
1212.832248405389
 30
0.0
 11
1848.164313555832
 21
1262.832248405389
 31
0.0
 70
     0
 13
1476.164313555832
 23
1365.1730162464139
 33
0.0
 14
2220.164313555832
 24
1325.1730162464139
 34
0.0
1001
ACAD
1000
DSTYLE
1002
{
1070
   287
1070
     3
1070
   287
1070
     3
1070
    40
1040
20.0
1070
   143
1040
0.039
1070
   172
1070
     1
1070
   271
1070
     0
1070
   279
1070
     0
1002
}
  0
DIMENSION
  5
80C7
  8
3
  2
*D15
 10
1212.164313555832
 20
1212.832248405389
 30
0.0
 11
1344.164313555832
 21
1262.832248405389
 31
0.0
 70
     0
 13
1476.164313555832
 23
1365.1730162464139
 33
0.0
 14
1212.164313555832
 24
1325.1730162464139
 34
0.0
1001
ACAD
1000
DSTYLE
1002
{
1070
   287
1070
     3
1070
   287
1070
     3
1070
    40
1040
20.0
1070
   143
1040
0.039
1070
   172
1070
     1
1070
   271
1070
     0
1070
   279
1070
     0
1002
}
  0
DIMENSION
  5
80D6
  8
3
  2
*D16
 10
902.73368032577855
 20
1325.1730162464139
 30
0.0
 11
852.73368032577832
 21
1153.744444817843
 31
0.0
 70
     0
 13
1216.164313555832
 23
1430.1730162464139
 33
0.0
 14
1212.164313555832
 24
1325.1730162464139
 34
0.0
 50
90.0
1001
ACAD
1000
DSTYLE
1002
{
1070
   287
1070
     3
1070
   287
1070
     3
1070
    40
1040
20.0
1070
   143
1040
0.039
1070
   172
1070
     1
1070
   271
1070
     0
1070
   279
1070
     0
1070
     6
1000
DOT
1002
}
  0
LINE
  5
80E4
  8
1
 10
1212.164313555832
 20
3853.4213759109289
 30
0.0
 11
1292.164313555832
 21
3853.4213759109298
 31
0.0
  0
LINE
  5
80E6
  8
1
 10
1212.1643135558361
 20
3058.4213759109289
 30
0.0
 11
1292.1643135558361
 21
3058.4213759109289
 31
0.0
  0
LINE
  5
80E7
  8
1
 10
2220.164313555832
 20
3058.4213759109289
 30
0.0
 11
2220.164313555832
 21
3853.4213759109289
 31
0.0
  0
LINE
  5
80E8
  8
1
 10
1212.1643135558361
 20
3058.4213759109289
 30
0.0
 11
1212.164313555834
 21
3401.6213759109269
 31
0.0
  0
LINE
  5
80E9
  8
1
 10
2140.164313555832
 20
3058.4213759109289
 30
0.0
 11
2140.164313555832
 21
3233.4213759109289
 31
0.0
  0
LINE
  5
80EA
  8
1
 10
1292.1643135558361
 20
3058.4213759109298
 30
0.0
 11
1292.164313555835
 21
3233.4213759109311
 31
0.0
  0
LINE
  5
80EB
  8
1
 10
2140.164313555832
 20
3853.4213759109298
 30
0.0
 11
2220.164313555832
 21
3853.4213759109289
 31
0.0
  0
LINE
  5
80EC
  8
1
 10
2140.164313555832
 20
3058.4213759109289
 30
0.0
 11
2220.164313555832
 21
3058.4213759109289
 31
0.0
  0
LINE
  5
80ED
  8
1
 10
2140.164313555832
 20
3273.4213759109289
 30
0.0
 11
2140.164313555832
 21
3743.4213759109298
 31
0.0
  0
LINE
  5
80EE
  8
1
 10
2140.164313555832
 20
3783.4213759109289
 30
0.0
 11
2140.164313555832
 21
3853.4213759109289
 31
0.0
  0
LINE
  5
80EF
  8
1
 10
1292.164313555832
 20
3783.4213759109289
 30
0.0
 11
1292.164313555832
 21
3853.4213759109298
 31
0.0
  0
LINE
  5
80F0
  8
1
 10
1212.1643135558329
 20
3740.2213759109268
 30
0.0
 11
1212.164313555832
 21
3853.4213759109289
 31
0.0
  0
DIMENSION
  5
80FD
  8
3
  2
*D17
 10
2220.164313555832
 20
3979.128304826218
 30
0.0
 11
1716.164313555832
 21
4029.128304826218
 31
0.0
 70
     0
 13
1212.164313555832
 23
3853.4213759109289
 33
0.0
 14
2220.164313555832
 24
3853.4213759109289
 34
0.0
1001
ACAD
1000
DSTYLE
1002
{
1070
   287
1070
     3
1070
   287
1070
     3
1070
    40
1040
20.0
1070
   143
1040
0.039
1070
   172
1070
     1
1070
   271
1070
     0
1070
   279
1070
     0
1002
}
  0
DIMENSION
  5
810A
  8
3
  2
*D18
 10
1067.140738670925
 20
3058.4213759109289
 30
0.0
 11
1017.140738670924
 21
3455.9213759109298
 31
0.0
 70
     0
 13
1212.164313555832
 23
3853.4213759109289
 33
0.0
 14
1212.1643135558361
 24
3058.4213759109289
 34
0.0
 50
90.0
1001
ACAD
1000
DSTYLE
1002
{
1070
   287
1070
     3
1070
   287
1070
     3
1070
    40
1040
20.0
1070
   143
1040
0.039
1070
   172
1070
     1
1070
   271
1070
     0
1070
   279
1070
     0
1002
}
  0
DIMENSION
  5
811E
  8
3
  2
*D19
 10
900.61719649485894
 20
1525.1730162464139
 30
0.0
 11
804.90291078057328
 21
1477.6730162464139
 31
0.0
 70
     0
 13
1216.164313555832
 23
1430.1730162464139
 33
0.0
 14
1216.164313555832
 24
1525.1730162464139
 34
0.0
 50
90.0
1001
ACAD
1000
DSTYLE
1002
{
1070
   172
1070
     1
1070
    40
1040
20.0
1070
     3
1000
(<>)
1070
   271
1070
     0
1070
     6
1000
_DOT
1070
   143
1040
0.039
1002
}
  0
DIMENSION
  5
812B
  8
3
  2
*D20
 10
711.36104131265893
 20
1325.1730162464139
 30
0.0
 11
645.64675559837303
 21
1792.6730162464139
 31
0.0
 70
     0
 13
1461.1643135558329
 23
2260.1730162464141
 33
0.0
 14
1212.164313555832
 24
1325.1730162464139
 34
0.0
 50
90.0
1001
ACAD
1000
DSTYLE
1002
{
1070
   287
1070
     3
1070
   287
1070
     3
1070
     3
1000
(<>)
1070
    40
1040
20.0
1070
   143
1040
0.039
1070
   172
1070
     1
1070
   271
1070
     0
1070
   279
1070
     0
1002
}
  0
ENDSEC
  0
EOF
