  0
SECTION
  2
HEADER
  9
$ACADVER
  1
AC1009
  9
$INSBASE
 10
0.0
 20
0.0
 30
0.0
  9
$EXTMIN
 10
0.0
 20
0.0
 30
0.0
  9
$EXTMAX
 10
3150.0
 20
4425.0
 30
0.0
  9
$LIMMIN
 10
0.0
 20
0.0
  9
$LIMMAX
 10
297.0
 20
210.0
  9
$ORTHOMODE
 70
     0
  9
$REGENMODE
 70
     1
  9
$FILLMODE
 70
     0
  9
$QTEXTMODE
 70
     0
  9
$MIRRTEXT
 70
     1
  9
$DRAGMODE
 70
     2
  9
$LTSCALE
 40
100.0
  9
$OSMODE
 70
    37
  9
$ATTMODE
 70
     1
  9
$TEXTSIZE
 40
180.0
  9
$TRACEWID
 40
0.05
  9
$TEXTSTYLE
  7
STANDARD
  9
$CLAYER
  8
3
  9
$CELTYPE
  6
BYLAYER
  9
$CECOLOR
 62
   256
  9
$DIMSCALE
 40
15.0
  9
$DIMASZ
 40
2.0
  9
$DIMEXO
 40
0.5
  9
$DIMDLI
 40
10.0
  9
$DIMRND
 40
0.0
  9
$DIMDLE
 40
0.0
  9
$DIMEXE
 40
1.0
  9
$DIMTP
 40
1.0
  9
$DIMTM
 40
1.0
  9
$DIMTXT
 40
3.0
  9
$DIMCEN
 40
0.0
  9
$DIMTSZ
 40
0.0
  9
$DIMTOL
 70
     0
  9
$DIMLIM
 70
     0
  9
$DIMTIH
 70
     0
  9
$DIMTOH
 70
     0
  9
$DIMSE1
 70
     0
  9
$DIMSE2
 70
     0
  9
$DIMTAD
 70
     1
  9
$DIMZIN
 70
     8
  9
$DIMBLK
  1

  9
$DIMASO
 70
     1
  9
$DIMSHO
 70
     1
  9
$DIMPOST
  1

  9
$DIMAPOST
  1

  9
$DIMALT
 70
     0
  9
$DIMALTD
 70
     2
  9
$DIMALTF
 40
0.039
  9
$DIMLFAC
 40
1.0
  9
$DIMTOFL
 70
     1
  9
$DIMTVP
 40
0.0
  9
$DIMTIX
 70
     0
  9
$DIMSOXD
 70
     0
  9
$DIMSAH
 70
     1
  9
$DIMBLK1
  1
OPEN
  9
$DIMBLK2
  1
OPEN
  9
$DIMSTYLE
  2
IGA
  9
$DIMCLRD
 70
     0
  9
$DIMCLRE
 70
     0
  9
$DIMCLRT
 70
     0
  9
$DIMTFAC
 40
10.0
  9
$DIMGAP
 40
1.0
  9
$LUNITS
 70
     2
  9
$LUPREC
 70
     3
  9
$SKETCHINC
 40
0.1
  9
$FILLETRAD
 40
10.0
  9
$AUNITS
 70
     0
  9
$AUPREC
 70
     0
  9
$MENU
  1
acad
  9
$ELEVATION
 40
0.0
  9
$PELEVATION
 40
0.0
  9
$THICKNESS
 40
0.0
  9
$LIMCHECK
 70
     0
  9
$BLIPMODE
 70
     0
  9
$CHAMFERA
 40
0.5
  9
$CHAMFERB
 40
0.5
  9
$SKPOLY
 70
     0
  9
$TDCREATE
 40
2452811.6421113419
  9
$TDUPDATE
 40
2454953.8503803122
  9
$TDINDWG
 40
0.0406622685
  9
$TDUSRTIMER
 40
0.0406622685
  9
$USRTIMER
 70
     1
  9
$ANGBASE
 50
0.0
  9
$ANGDIR
 70
     0
  9
$PDMODE
 70
     0
  9
$PDSIZE
 40
0.0
  9
$PLINEWID
 40
0.0
  9
$COORDS
 70
     1
  9
$SPLFRAME
 70
     0
  9
$SPLINETYPE
 70
     6
  9
$SPLINESEGS
 70
     8
  9
$ATTDIA
 70
     0
  9
$ATTREQ
 70
     1
  9
$HANDLING
 70
 10241
  9
$HANDSEED
  5
818D
  9
$SURFTAB1
 70
     6
  9
$SURFTAB2
 70
     6
  9
$SURFTYPE
 70
     6
  9
$SURFU
 70
     6
  9
$SURFV
 70
     6
  9
$UCSNAME
  2

  9
$UCSORG
 10
0.0
 20
0.0
 30
0.0
  9
$UCSXDIR
 10
1.0
 20
0.0
 30
0.0
  9
$UCSYDIR
 10
0.0
 20
1.0
 30
0.0
  9
$PUCSNAME
  2

  9
$PUCSORG
 10
0.0
 20
0.0
 30
0.0
  9
$PUCSXDIR
 10
1.0
 20
0.0
 30
0.0
  9
$PUCSYDIR
 10
0.0
 20
1.0
 30
0.0
  9
$USERI1
 70
     0
  9
$USERI2
 70
     0
  9
$USERI3
 70
     0
  9
$USERI4
 70
     0
  9
$USERI5
 70
     0
  9
$USERR1
 40
0.0
  9
$USERR2
 40
0.0
  9
$USERR3
 40
0.0
  9
$USERR4
 40
0.0
  9
$USERR5
 40
0.0
  9
$WORLDVIEW
 70
     1
  9
$SHADEDGE
 70
     3
  9
$SHADEDIF
 70
    70
  9
$TILEMODE
 70
     1
  9
$MAXACTVP
 70
    16
  9
$PLIMCHECK
 70
     0
  9
$PEXTMIN
 10
1.0000000000000000E+020
 20
1.0000000000000000E+020
 30
1.0000000000000000E+020
  9
$PEXTMAX
 10
-1.0000000000000000E+020
 20
-1.0000000000000000E+020
 30
-1.0000000000000000E+020
  9
$PLIMMIN
 10
0.0
 20
0.0
  9
$PLIMMAX
 10
12.0
 20
9.0
  9
$UNITMODE
 70
     0
  9
$VISRETAIN
 70
     0
  9
$PLINEGEN
 70
     0
  9
$PSLTSCALE
 70
     1
  0
ENDSEC
  0
SECTION
  2
TABLES
  0
TABLE
  2
VPORT
 70
     2
  0
VPORT
  2
*ACTIVE
 70
     0
 10
0.0
 20
0.0
 11
1.0
 21
1.0
 12
4520.9869848156186
 22
3003.7483620440212
 13
0.0
 23
0.0
 14
10.0
 24
10.0
 15
10.0
 25
10.0
 16
0.0
 26
0.0
 36
1.0
 17
0.0
 27
0.0
 37
0.0
 40
6007.4967240880433
 41
1.5051150895140659
 42
50.0
 43
0.0
 44
0.0
 50
0.0
 51
0.0
 71
     0
 72
   100
 73
     1
 74
     0
 75
     0
 76
     0
 77
     0
 78
     0
  0
ENDTAB
  0
TABLE
  2
LTYPE
 70
     2
  0
LTYPE
  2
CONTINUOUS
 70
     0
  3
Solid line
 72
    65
 73
     0
 40
0.0
  0
LTYPE
  2
CENTER
 70
     0
  3
____ _ ____ _ ____ _ ____ _ ____ _ ____ _ ____ 
 72
    65
 73
     4
 40
2.0
 49
1.25
 49
-0.25
 49
0.25
 49
-0.25
  0
ENDTAB
  0
TABLE
  2
LAYER
 70
     6
  0
LAYER
  2
0
 70
     0
 62
     7
  6
CONTINUOUS
  0
LAYER
  2
3
 70
     0
 62
     2
  6
CONTINUOUS
  0
LAYER
  2
2
 70
     0
 62
     3
  6
CENTER
  0
LAYER
  2
1
 70
     0
 62
     4
  6
CONTINUOUS
  0
LAYER
  2
4
 70
     0
 62
     7
  6
CONTINUOUS
  0
LAYER
  2
DEFPOINTS
 70
     0
 62
     7
  6
CONTINUOUS
  0
ENDTAB
  0
TABLE
  2
STYLE
 70
     1
  0
STYLE
  2
STANDARD
 70
     0
 40
0.0
 41
1.0
 50
0.0
 71
     0
 42
180.0
  3
simplex.shx
  4
extfont.shx
  0
ENDTAB
  0
TABLE
  2
VIEW
 70
     0
  0
ENDTAB
  0
TABLE
  2
UCS
 70
     0
  0
ENDTAB
  0
TABLE
  2
APPID
 70
     1
  0
APPID
  2
ACAD
 70
     0
  0
ENDTAB
  0
TABLE
  2
DIMSTYLE
 70
     1
  0
DIMSTYLE
  2
IGA
 70
     0
  3

  4

  5

  6
OPEN
  7
OPEN
 40
2.0
 41
2.0
 42
0.5
 43
10.0
 44
1.0
 45
0.0
 46
0.0
 47
1.0
 48
1.0
140
3.0
141
0.0
142
0.0
143
0.03937
144
1.0
145
0.0
146
10.0
147
1.0
 71
     0
 72
     0
 73
     0
 74
     0
 75
     0
 76
     0
 77
     1
 78
     8
170
     0
171
     2
172
     0
173
     1
174
     0
175
     0
176
     0
177
     0
178
     0
  0
ENDTAB
  0
ENDSEC
  0
SECTION
  2
BLOCKS
  0
BLOCK
  8
0
  2
$MODEL_SPACE
 70
     0
 10
0.0
 20
0.0
 30
0.0
  3
$MODEL_SPACE
  1

  0
ENDBLK
  5
1B
  8
0
  0
BLOCK
 67
     1
  8
0
  2
$PAPER_SPACE
 70
     0
 10
0.0
 20
0.0
 30
0.0
  3
$PAPER_SPACE
  1

  0
ENDBLK
  5
18
 67
     1
  8
0
  0
BLOCK
  8
0
  2
_OPEN
 70
     0
 10
0.0
 20
0.0
 30
0.0
  3
_OPEN
  1

  0
LINE
  5
79FD
  8
0
  6
BYBLOCK
 62
     0
 10
-1.0
 20
0.1666666666666666
 30
0.0
 11
0.0
 21
0.0
 31
0.0
  0
LINE
  5
79FE
  8
0
  6
BYBLOCK
 62
     0
 10
0.0
 20
0.0
 30
0.0
 11
-1.0
 21
-0.1666666666666666
 31
0.0
  0
LINE
  5
79FF
  8
0
  6
BYBLOCK
 62
     0
 10
0.0
 20
0.0
 30
0.0
 11
-1.0
 21
0.0
 31
0.0
  0
ENDBLK
  5
7A01
  8
0
  0
BLOCK
  8
0
  2
*D1
 70
     1
 10
0.0
 20
0.0
 30
0.0
  3
*D1
  1

  0
LINE
  5
80EE
  8
3
 62
     0
 10
538.36404822480654
 20
2920.7727624560548
 30
0.0
 11
427.82198415991701
 21
2920.7727624560548
 31
0.0
  0
LINE
  5
80EF
  8
3
 62
     0
 10
538.36404822480654
 20
2605.7727624560539
 30
0.0
 11
427.82198415991689
 21
2605.7727624560539
 31
0.0
  0
LINE
  5
80F0
  8
3
 62
     0
 10
442.82198415991712
 20
2890.7727624560548
 30
0.0
 11
442.82198415991701
 21
2635.7727624560539
 31
0.0
  0
INSERT
  5
80F1
  8
3
 62
     0
  2
_OPEN
 10
442.82198415991712
 20
2920.7727624560548
 30
0.0
 41
30.0
 42
30.0
 43
30.0
 50
90.0
  0
INSERT
  5
80F2
  8
3
 62
     0
  2
_OPEN
 10
442.82198415991701
 20
2605.7727624560539
 30
0.0
 41
30.0
 42
30.0
 43
30.0
 50
270.0
  0
TEXT
  8
3
  40
45
  5
817F
  62
0
  72
0
  71
0
 10
315.322
 20
2678.74
 30
0.000000
  1
315
  0
POINT
  5
80F4
  8
DEFPOINTS
 62
     0
 10
545.86404822480654
 20
2920.7727624560548
 30
0.0
  0
POINT
  5
80F5
  8
DEFPOINTS
 62
     0
 10
545.86404822480654
 20
2605.7727624560539
 30
0.0
  0
POINT
  5
80F6
  8
DEFPOINTS
 62
     0
 10
442.82198415991701
 20
2605.7727624560539
 30
0.0
  0
ENDBLK
  5
7C95
  8
0
  0
BLOCK
  8
0
  2
*D2
 70
     1
 10
0.0
 20
0.0
 30
0.0
  3
*D2
  1

  0
LINE
  5
80F7
  8
3
 62
     0
 10
545.86404822480654
 20
2928.2727624560548
 30
0.0
 11
545.86404822480654
 21
3199.9564685086261
 31
0.0
  0
LINE
  5
80F8
  8
3
 62
     0
 10
1455.8640482248061
 20
2928.272762456053
 30
0.0
 11
1455.8640482248061
 21
3199.9564685086261
 31
0.0
  0
LINE
  5
80F9
  8
3
 62
     0
 10
575.86404822480654
 20
3184.9564685086261
 30
0.0
 11
1425.8640482248061
 21
3184.9564685086261
 31
0.0
  0
INSERT
  5
80FA
  8
3
 62
     0
  2
_OPEN
 10
545.86404822480654
 20
3184.9564685086261
 30
0.0
 41
30.0
 42
30.0
 43
30.0
 50
180.0
  0
INSERT
  5
80FB
  8
3
 62
     0
  2
_OPEN
 10
1455.8640482248061
 20
3184.9564685086261
 30
0.0
 41
30.0
 42
30.0
 43
30.0
  0
TEXT
  8
3
  40
45
  5
8180
  62
0
  72
0
  71
0
 10
923.490
 20
3142.81
 30
0.000000
  1
910
  0
POINT
  5
80FD
  8
DEFPOINTS
 62
     0
 10
545.86404822480654
 20
2920.7727624560548
 30
0.0
  0
POINT
  5
80FE
  8
DEFPOINTS
 62
     0
 10
1455.8640482248061
 20
2920.7727624560539
 30
0.0
  0
POINT
  5
80FF
  8
DEFPOINTS
 62
     0
 10
1455.8640482248061
 20
3184.9564685086261
 30
0.0
  0
ENDBLK
  5
7CA2
  8
0
  0
BLOCK
  8
0
  2
*D3
 70
     1
 10
0.0
 20
0.0
 30
0.0
  3
*D3
  1

  0
LINE
  5
8100
  8
3
 62
     0
 10
1471.1371326988169
 20
1704.1568537686339
 30
0.0
 11
1648.5254318274419
 21
1704.1568537686339
 31
0.0
  0
LINE
  5
8101
  8
3
 62
     0
 10
1433.3640038413421
 20
1304.1568537686369
 30
0.0
 11
1648.5254318274419
 21
1304.1568537686369
 31
0.0
  0
LINE
  5
8102
  8
3
 62
     0
 10
1633.5254318274419
 20
1674.1568537686339
 30
0.0
 11
1633.525431827441
 21
1334.1568537686369
 31
0.0
  0
INSERT
  5
8103
  8
3
 62
     0
  2
_OPEN
 10
1633.5254318274419
 20
1704.1568537686339
 30
0.0
 41
30.0
 42
30.0
 43
30.0
 50
90.0
  0
INSERT
  5
8104
  8
3
 62
     0
  2
_OPEN
 10
1633.525431827441
 20
1304.1568537686369
 30
0.0
 41
30.0
 42
30.0
 43
30.0
 50
270.0
  0
TEXT
  8
3
  40
45
  5
8181
  62
0
  72
0
  71
0
 10
1506.03
 20
1424.51
 30
0.000000
  1
400
  0
POINT
  5
8106
  8
DEFPOINTS
 62
     0
 10
1463.6371326988169
 20
1704.1568537686339
 30
0.0
  0
POINT
  5
8107
  8
DEFPOINTS
 62
     0
 10
1425.8640038413421
 20
1304.1568537686369
 30
0.0
  0
POINT
  5
8108
  8
DEFPOINTS
 62
     0
 10
1633.525431827441
 20
1304.1568537686369
 30
0.0
  0
ENDBLK
  5
7E83
  8
0
  0
BLOCK
  8
0
  2
*D4
 70
     1
 10
0.0
 20
0.0
 30
0.0
  3
*D4
  1

  0
LINE
  5
8109
  8
3
 62
     0
 10
1448.3640038413471
 20
2019.156853768636
 30
0.0
 11
1648.5254318274419
 21
2019.156853768636
 31
0.0
  0
LINE
  5
810A
  8
3
 62
     0
 10
1633.525431827441
 20
1734.1568537686369
 30
0.0
 11
1633.525431827441
 21
1989.156853768636
 31
0.0
  0
INSERT
  5
810B
  8
3
 62
     0
  2
_OPEN
 10
1633.525431827441
 20
1704.1568537686369
 30
0.0
 41
30.0
 42
30.0
 43
30.0
 50
270.0
  0
INSERT
  5
810C
  8
3
 62
     0
  2
_OPEN
 10
1633.525431827441
 20
2019.156853768636
 30
0.0
 41
30.0
 42
30.0
 43
30.0
 50
90.0
  0
TEXT
  8
3
  40
45
  5
8182
  62
0
  72
0
  71
0
 10
1506.03
 20
1782.01
 30
0.000000
  1
315
  0
POINT
  5
810E
  8
DEFPOINTS
 62
     0
 10
1494.2675979933799
 20
1704.1568537686369
 30
0.0
  0
POINT
  5
810F
  8
DEFPOINTS
 62
     0
 10
1440.8640038413459
 20
2019.156853768636
 30
0.0
  0
POINT
  5
8110
  8
DEFPOINTS
 62
     0
 10
1633.525431827441
 20
2019.156853768636
 30
0.0
  0
ENDBLK
  5
7E8D
  8
0
  0
BLOCK
  8
0
  2
*D5
 70
     1
 10
0.0
 20
0.0
 30
0.0
  3
*D5
  1

  0
LINE
  5
8111
  8
3
 62
     0
 10
2343.6884352772499
 20
2016.656853768633
 30
0.0
 11
2343.6884352772499
 21
2091.4413659339471
 31
0.0
  0
LINE
  5
8112
  8
3
 62
     0
 10
2567.6884352772499
 20
2016.656853768633
 30
0.0
 11
2567.6884352772499
 21
2091.4413659339471
 31
0.0
  0
LINE
  5
8113
  8
3
 62
     0
 10
2373.6884352772499
 20
2076.4413659339471
 30
0.0
 11
2537.6884352772499
 21
2076.4413659339471
 31
0.0
  0
INSERT
  5
8114
  8
3
 62
     0
  2
_OPEN
 10
2343.6884352772499
 20
2076.4413659339471
 30
0.0
 41
30.0
 42
30.0
 43
30.0
 50
180.0
  0
INSERT
  5
8115
  8
3
 62
     0
  2
_OPEN
 10
2567.6884352772499
 20
2076.4413659339471
 30
0.0
 41
30.0
 42
30.0
 43
30.0
  0
TEXT
  8
3
  40
45
  5
8183
  62
0
  72
0
  71
0
 10
2373.76
 20
2034.29
 30
0.000000
  1
224
  0
POINT
  5
8117
  8
DEFPOINTS
 62
     0
 10
2343.6884352772499
 20
2009.156853768633
 30
0.0
  0
POINT
  5
8118
  8
DEFPOINTS
 62
     0
 10
2567.6884352772499
 20
2009.156853768633
 30
0.0
  0
POINT
  5
8119
  8
DEFPOINTS
 62
     0
 10
2567.6884352772499
 20
2076.4413659339471
 30
0.0
  0
ENDBLK
  5
7F69
  8
0
  0
BLOCK
  8
0
  2
*D6
 70
     1
 10
0.0
 20
0.0
 30
0.0
  3
*D6
  1

  0
LINE
  5
811A
  8
3
 62
     0
 10
2576.688435277249
 20
1893.156853768633
 30
0.0
 11
2576.688435277249
 21
2203.4334803942502
 31
0.0
  0
LINE
  5
811B
  8
3
 62
     0
 10
2455.688435277249
 20
2155.8684642882208
 30
0.0
 11
2455.688435277249
 21
2203.4334803942502
 31
0.0
  0
LINE
  5
811C
  8
3
 62
     0
 10
2606.688435277249
 20
2188.4334803942502
 30
0.0
 11
2636.688435277249
 21
2188.4334803942502
 31
0.0
  0
LINE
  5
811D
  8
3
 62
     0
 10
2425.688435277249
 20
2188.4334803942502
 30
0.0
 11
2395.688435277249
 21
2188.4334803942502
 31
0.0
  0
LINE
  5
811E
  8
3
 62
     0
 10
2576.688435277249
 20
2188.4334803942502
 30
0.0
 11
2455.688435277249
 21
2188.4334803942502
 31
0.0
  0
INSERT
  5
811F
  8
3
 62
     0
  2
_OPEN
 10
2576.688435277249
 20
2188.4334803942502
 30
0.0
 41
30.0
 42
30.0
 43
30.0
 50
180.0
  0
INSERT
  5
8120
  8
3
 62
     0
  2
_OPEN
 10
2455.688435277249
 20
2188.4334803942502
 30
0.0
 41
30.0
 42
30.0
 43
30.0
  0
TEXT
  8
3
  40
45
  5
8184
  62
0
  72
0
  71
0
 10
2426.19
 20
2146.28
 30
0.000000
  1
121
  0
POINT
  5
8122
  8
DEFPOINTS
 62
     0
 10
2576.688435277249
 20
1885.656853768633
 30
0.0
  0
POINT
  5
8123
  8
DEFPOINTS
 62
     0
 10
2455.688435277249
 20
2148.3684642882208
 30
0.0
  0
POINT
  5
8124
  8
DEFPOINTS
 62
     0
 10
2455.688435277249
 20
2188.4334803942502
 30
0.0
  0
ENDBLK
  5
7EE0
  8
0
  0
BLOCK
  8
0
  2
*D7
 70
     1
 10
0.0
 20
0.0
 30
0.0
  3
*D7
  1

  0
LINE
  5
8125
  8
3
 62
     0
 10
2035.6884352772479
 20
1941.656853768633
 30
0.0
 11
2035.6884352772479
 21
2203.4334803942502
 31
0.0
  0
LINE
  5
8126
  8
3
 62
     0
 10
2425.688435277249
 20
2188.4334803942502
 30
0.0
 11
2065.6884352772481
 21
2188.4334803942502
 31
0.0
  0
INSERT
  5
8127
  8
3
 62
     0
  2
_OPEN
 10
2455.688435277249
 20
2188.4334803942502
 30
0.0
 41
30.0
 42
30.0
 43
30.0
  0
INSERT
  5
8128
  8
3
 62
     0
  2
_OPEN
 10
2035.6884352772479
 20
2188.4334803942502
 30
0.0
 41
30.0
 42
30.0
 43
30.0
 50
180.0
  0
TEXT
  8
3
  40
45
  5
8185
  62
0
  72
0
  71
0
 10
2155.69
 20
2183.78
 30
0.000000
  1
MAX
  0
TEXT
  8
3
  40
45
  5
8186
  62
0
  72
0
  71
0
 10
2155.69
 20
2125.28
 30
0.000000
  1
420
  0
POINT
  5
812A
  8
DEFPOINTS
 62
     0
 10
2455.688435277249
 20
2148.3684642882208
 30
0.0
  0
POINT
  5
812B
  8
DEFPOINTS
 62
     0
 10
2035.6884352772479
 20
1934.156853768633
 30
0.0
  0
POINT
  5
812C
  8
DEFPOINTS
 62
     0
 10
2035.6884352772479
 20
2188.4334803942502
 30
0.0
  0
ENDBLK
  5
7ED3
  8
0
  0
BLOCK
  8
0
  2
*D8
 70
     1
 10
0.0
 20
0.0
 30
0.0
  3
*D8
  1

  0
LINE
  5
812D
  8
3
 62
     0
 10
2584.188435277249
 20
1861.656853768633
 30
0.0
 11
2714.81729498912
 21
1861.656853768633
 31
0.0
  0
LINE
  5
812E
  8
3
 62
     0
 10
2584.188435277249
 20
1546.656853768633
 30
0.0
 11
2714.81729498912
 21
1546.656853768633
 31
0.0
  0
LINE
  5
812F
  8
3
 62
     0
 10
2699.81729498912
 20
1831.656853768633
 30
0.0
 11
2699.81729498912
 21
1576.656853768633
 31
0.0
  0
INSERT
  5
8130
  8
3
 62
     0
  2
_OPEN
 10
2699.81729498912
 20
1861.656853768633
 30
0.0
 41
30.0
 42
30.0
 43
30.0
 50
90.0
  0
INSERT
  5
8131
  8
3
 62
     0
  2
_OPEN
 10
2699.81729498912
 20
1546.656853768633
 30
0.0
 41
30.0
 42
30.0
 43
30.0
 50
270.0
  0
TEXT
  8
3
  40
45
  5
8187
  62
0
  72
0
  71
0
 10
2572.32
 20
1627.80
 30
0.000000
  1
φ315
  0
POINT
  5
8133
  8
DEFPOINTS
 62
     0
 10
2576.688435277249
 20
1861.656853768633
 30
0.0
  0
POINT
  5
8134
  8
DEFPOINTS
 62
     0
 10
2576.688435277249
 20
1546.656853768633
 30
0.0
  0
POINT
  5
8135
  8
DEFPOINTS
 62
     0
 10
2699.81729498912
 20
1546.656853768633
 30
0.0
  0
ENDBLK
  5
7E63
  8
0
  0
BLOCK
  8
0
  2
*D9
 70
     1
 10
0.0
 20
0.0
 30
0.0
  3
*D9
  1

  0
LINE
  5
814A
  8
3
 62
     0
 10
1440.8640038413459
 20
2047.656853768636
 30
0.0
 11
1440.8640038413459
 21
2163.1482906424421
 31
0.0
  0
LINE
  5
814B
  8
3
 62
     0
 10
1190.8640038413309
 20
2062.9664183051459
 30
0.0
 11
1190.8640038413309
 21
2163.1482906424421
 31
0.0
  0
LINE
  5
814C
  8
3
 62
     0
 10
1410.8640038413459
 20
2148.1482906424421
 30
0.0
 11
1220.8640038413309
 21
2148.1482906424421
 31
0.0
  0
INSERT
  5
814D
  8
3
 62
     0
  2
_OPEN
 10
1440.8640038413459
 20
2148.1482906424421
 30
0.0
 41
30.0
 42
30.0
 43
30.0
  0
INSERT
  5
814E
  8
3
 62
     0
  2
_OPEN
 10
1190.8640038413309
 20
2148.1482906424421
 30
0.0
 41
30.0
 42
30.0
 43
30.0
 50
180.0
  0
TEXT
  8
3
  40
45
  5
8188
  62
0
  72
0
  71
0
 10
1223.19
 20
2106.00
 30
0.000000
  1
250
  0
POINT
  5
8150
  8
DEFPOINTS
 62
     0
 10
1440.8640038413459
 20
2040.156853768636
 30
0.0
  0
POINT
  5
8151
  8
DEFPOINTS
 62
     0
 10
1190.8640038413309
 20
2055.4664183051459
 30
0.0
  0
POINT
  5
8152
  8
DEFPOINTS
 62
     0
 10
1190.8640038413309
 20
2148.1482906424421
 30
0.0
  0
ENDBLK
  5
7EBB
  8
0
  0
BLOCK
  8
0
  2
*D10
 70
     1
 10
0.0
 20
0.0
 30
0.0
  3
*D10
  1

  0
LINE
  5
8153
  8
3
 62
     0
 10
926.86400384133663
 20
1737.1568537686419
 30
0.0
 11
926.86400384133663
 21
2163.1482906424421
 31
0.0
  0
LINE
  5
8154
  8
3
 62
     0
 10
1160.8640038413309
 20
2148.1482906424421
 30
0.0
 11
956.86400384133663
 21
2148.1482906424421
 31
0.0
  0
INSERT
  5
8155
  8
3
 62
     0
  2
_OPEN
 10
1190.8640038413309
 20
2148.1482906424421
 30
0.0
 41
30.0
 42
30.0
 43
30.0
  0
INSERT
  5
8156
  8
3
 62
     0
  2
_OPEN
 10
926.86400384133663
 20
2148.1482906424421
 30
0.0
 41
30.0
 42
30.0
 43
30.0
 50
180.0
  0
TEXT
  8
3
  40
45
  5
8189
  62
0
  72
0
  71
0
 10
968.864
 20
2106.00
 30
0.000000
  1
264
  0
POINT
  5
8158
  8
DEFPOINTS
 62
     0
 10
1190.8640038413309
 20
2055.4664183051459
 30
0.0
  0
POINT
  5
8159
  8
DEFPOINTS
 62
     0
 10
926.86400384133663
 20
1729.6568537686419
 30
0.0
  0
POINT
  5
815A
  8
DEFPOINTS
 62
     0
 10
926.86400384133663
 20
2148.1482906424421
 30
0.0
  0
ENDBLK
  5
7EC7
  8
0
  0
BLOCK
  8
0
  2
*D11
 70
     1
 10
0.0
 20
0.0
 30
0.0
  3
*D11
  1

  0
LINE
  5
8164
  8
3
 62
     0
 10
575.86400384134322
 20
1296.6568537686251
 30
0.0
 11
575.86400384134322
 21
1178.794987466448
 31
0.0
  0
LINE
  5
8165
  8
3
 62
     0
 10
1190.8640038413421
 20
1296.6568537686339
 30
0.0
 11
1190.8640038413421
 21
1178.794987466448
 31
0.0
  0
LINE
  5
8166
  8
3
 62
     0
 10
605.86400384134322
 20
1193.794987466448
 30
0.0
 11
1160.8640038413421
 21
1193.794987466448
 31
0.0
  0
INSERT
  5
8167
  8
3
 62
     0
  2
_OPEN
 10
575.86400384134322
 20
1193.794987466448
 30
0.0
 41
30.0
 42
30.0
 43
30.0
 50
180.0
  0
INSERT
  5
8168
  8
3
 62
     0
  2
_OPEN
 10
1190.8640038413421
 20
1193.794987466448
 30
0.0
 41
30.0
 42
30.0
 43
30.0
  0
TEXT
  8
3
  40
45
  5
818A
  62
0
  72
0
  71
0
 10
793.364
 20
1151.64
 30
0.000000
  1
615
  0
POINT
  5
816A
  8
DEFPOINTS
 62
     0
 10
575.86400384134322
 20
1304.1568537686251
 30
0.0
  0
POINT
  5
816B
  8
DEFPOINTS
 62
     0
 10
1190.8640038413421
 20
1304.1568537686339
 30
0.0
  0
POINT
  5
816C
  8
DEFPOINTS
 62
     0
 10
1190.8640038413421
 20
1193.794987466448
 30
0.0
  0
ENDBLK
  5
7F94
  8
0
  0
BLOCK
  8
0
  2
*D12
 70
     1
 10
0.0
 20
0.0
 30
0.0
  3
*D12
  1

  0
LINE
  5
816D
  8
3
 62
     0
 10
1190.8640038413421
 20
1296.6568537686339
 30
0.0
 11
1190.8640038413421
 21
1178.794987466448
 31
0.0
  0
LINE
  5
816E
  8
3
 62
     0
 10
1425.8640038413421
 20
1296.6568537686369
 30
0.0
 11
1425.8640038413421
 21
1178.794987466448
 31
0.0
  0
LINE
  5
816F
  8
3
 62
     0
 10
1220.8640038413421
 20
1193.794987466448
 30
0.0
 11
1395.8640038413421
 21
1193.794987466448
 31
0.0
  0
INSERT
  5
8170
  8
3
 62
     0
  2
_OPEN
 10
1190.8640038413421
 20
1193.794987466448
 30
0.0
 41
30.0
 42
30.0
 43
30.0
 50
180.0
  0
INSERT
  5
8171
  8
3
 62
     0
  2
_OPEN
 10
1425.8640038413421
 20
1193.794987466448
 30
0.0
 41
30.0
 42
30.0
 43
30.0
  0
TEXT
  8
3
  40
45
  5
818B
  62
0
  72
0
  71
0
 10
1218.36
 20
1151.64
 30
0.000000
  1
235
  0
POINT
  5
8173
  8
DEFPOINTS
 62
     0
 10
1190.8640038413421
 20
1304.1568537686339
 30
0.0
  0
POINT
  5
8174
  8
DEFPOINTS
 62
     0
 10
1425.8640038413421
 20
1304.1568537686369
 30
0.0
  0
POINT
  5
8175
  8
DEFPOINTS
 62
     0
 10
1425.8640038413421
 20
1193.794987466448
 30
0.0
  0
ENDBLK
  5
7FA1
  8
0
  0
BLOCK
  8
0
  2
*D13
 70
     1
 10
0.0
 20
0.0
 30
0.0
  3
*D13
  1

  0
LINE
  5
8176
  8
3
 62
     0
 10
2140.688435277249
 20
1296.656853768633
 30
0.0
 11
2140.688435277249
 21
1178.794987466448
 31
0.0
  0
LINE
  5
8177
  8
3
 62
     0
 10
2455.688435277249
 20
1296.656853768633
 30
0.0
 11
2455.688435277249
 21
1178.794987466448
 31
0.0
  0
LINE
  5
8178
  8
3
 62
     0
 10
2170.688435277249
 20
1193.794987466448
 30
0.0
 11
2425.688435277249
 21
1193.794987466448
 31
0.0
  0
INSERT
  5
8179
  8
3
 62
     0
  2
_OPEN
 10
2140.688435277249
 20
1193.794987466448
 30
0.0
 41
30.0
 42
30.0
 43
30.0
 50
180.0
  0
INSERT
  5
817A
  8
3
 62
     0
  2
_OPEN
 10
2455.688435277249
 20
1193.794987466448
 30
0.0
 41
30.0
 42
30.0
 43
30.0
  0
TEXT
  8
3
  40
45
  5
818C
  62
0
  72
0
  71
0
 10
2208.19
 20
1151.64
 30
0.000000
  1
315
  0
POINT
  5
817C
  8
DEFPOINTS
 62
     0
 10
2140.688435277249
 20
1304.156853768633
 30
0.0
  0
POINT
  5
817D
  8
DEFPOINTS
 62
     0
 10
2455.688435277249
 20
1304.156853768633
 30
0.0
  0
POINT
  5
817E
  8
DEFPOINTS
 62
     0
 10
2455.688435277249
 20
1193.794987466448
 30
0.0
  0
ENDBLK
  5
7FAE
  8
0
  0
ENDSEC
  0
SECTION
  2
ENTITIES
  0
LINE
  5
7B4E
  8
2
 10
2455.688435277249
 20
2066.5909561062931
 30
0.0
 11
2455.688435277249
 21
1304.156853768633
 31
0.0
1001
ACAD
1000
ASC_BOUNDS
1002
{
1070
    19
1005
0
1005
0
1002
}
  0
LINE
  5
7B4F
  8
1
 10
577.07357506783489
 20
1396.0261840950559
 30
0.0
 11
733.63809899568685
 21
1374.1568537686269
 31
0.0
  0
LINE
  5
7B50
  8
1
 10
892.07357506783592
 20
1406.0261840950591
 30
0.0
 11
892.07357506783592
 21
1374.1568537686301
 31
0.0
  0
LINE
  5
7B51
  8
1
 10
575.8640038413414
 20
1374.1568537686251
 30
0.0
 11
575.86400384134322
 21
1304.1568537686251
 31
0.0
  0
LINE
  5
7B52
  8
1
 10
1425.8640038413409
 20
1374.1568537686369
 30
0.0
 11
1425.8640038413421
 21
1304.1568537686369
 31
0.0
  0
LINE
  5
7B53
  8
2
 10
1190.8640038413309
 20
2055.4664183051459
 30
0.0
 11
1190.8640038413421
 21
1304.1568537686339
 31
0.0
  0
LINE
  5
7B57
  8
1
 10
2140.688435277249
 20
1304.156853768633
 30
0.0
 11
2455.688435277249
 21
1304.156853768633
 31
0.0
  0
LINE
  5
7B6C
  8
1
 10
988.16400384132885
 20
1789.556853768634
 30
0.0
 11
988.16400384132783
 21
1657.6568537686339
 31
0.0
  0
LINE
  5
7B6D
  8
1
 10
1393.564003841328
 20
1789.5568537686349
 30
0.0
 11
1393.5640038413269
 21
1657.6568537686339
 31
0.0
  0
LINE
  5
7B6E
  8
1
 10
985.86400384132855
 20
1789.556853768634
 30
0.0
 11
985.86400384132855
 21
1374.1568537686339
 31
0.0
  0
LINE
  5
7B6F
  8
1
 10
1395.864003841328
 20
1789.5568537686349
 30
0.0
 11
1395.864003841328
 21
1374.1568537686339
 31
0.0
  0
CIRCLE
  5
7B70
  8
1
 10
1190.864003841335
 20
1704.1568537686339
 30
0.0
 40
117.3182567295291
  0
LINE
  5
7B71
  8
1
 10
1391.164003841335
 20
1774.1568537686389
 30
0.0
 11
1190.86400384133
 21
1934.1568537686339
 31
0.0
  0
LINE
  5
7B72
  8
1
 10
1190.86400384133
 20
1934.1568537686339
 30
0.0
 11
661.16400384134067
 21
1584.1568537686189
 31
0.0
  0
LINE
  5
7B73
  8
2
 10
1463.6371326988169
 20
1704.1568537686339
 30
0.0
 11
834.24105089280147
 21
1704.1568537686339
 31
0.0
  0
LINE
  5
7B74
  8
1
 10
1393.5640038413269
 20
1657.6568537686339
 30
0.0
 11
1355.864003841328
 21
1625.988853768634
 31
0.0
  0
LINE
  5
7B75
  8
1
 10
988.16400384132885
 20
1667.6568537686339
 30
0.0
 11
1393.564003841328
 21
1667.6568537686339
 31
0.0
  0
LINE
  5
7B76
  8
1
 10
1351.4370764670271
 20
1665.356853768634
 30
0.0
 11
1393.564003841328
 21
1665.356853768634
 31
0.0
  0
LINE
  5
7B77
  8
1
 10
1343.6768530033389
 20
1657.6568537686339
 30
0.0
 11
1393.5640038413269
 21
1657.6568537686339
 31
0.0
  0
LINE
  5
7B78
  8
1
 10
1357.8497181270429
 20
1627.6568537686339
 30
0.0
 11
1313.44221613183
 21
1627.6568537686339
 31
0.0
  0
LINE
  5
7B79
  8
1
 10
575.86400384134231
 20
1374.1568537686251
 30
0.0
 11
1425.8640038413409
 21
1374.1568537686369
 31
0.0
  0
LINE
  5
7B7A
  8
1
 10
661.16400384134067
 20
1584.1568537686189
 30
0.0
 11
661.16400384134613
 21
1374.156853768618
 31
0.0
  0
LINE
  5
7B7B
  8
1
 10
577.07357506783489
 20
1406.0261840950559
 30
0.0
 11
892.07357506783592
 21
1406.0261840950591
 31
0.0
  0
LINE
  5
7B7C
  8
1
 10
577.07357506783489
 20
1406.0261840950559
 30
0.0
 11
577.07357506783489
 21
1396.0261840950559
 31
0.0
  0
LINE
  5
7B7D
  8
1
 10
1028.1640038413279
 20
1491.1353437760911
 30
0.0
 11
1178.9464679153871
 21
1617.6568537686339
 31
0.0
  0
LINE
  5
7B7E
  8
1
 10
1353.564003841328
 20
1491.1353437760911
 30
0.0
 11
1202.78153976727
 21
1617.6568537686339
 31
0.0
  0
LINE
  5
7B7F
  8
1
 10
1025.864003841328
 20
1625.988853768634
 30
0.0
 11
1025.864003841328
 21
1374.1568537686339
 31
0.0
  0
LINE
  5
7B80
  8
1
 10
1355.864003841328
 20
1625.988853768634
 30
0.0
 11
1355.864003841328
 21
1374.1568537686339
 31
0.0
  0
LINE
  5
7B81
  8
1
 10
1391.164003841335
 20
1774.1568537686389
 30
0.0
 11
1391.1640038413459
 21
1374.1568537686389
 31
0.0
  0
LINE
  5
7B82
  8
1
 10
1027.9729423888141
 20
1667.6568537686339
 30
0.0
 11
1078.364003841328
 21
1617.6568537686339
 31
0.0
  0
LINE
  5
7B83
  8
1
 10
1023.878289555615
 20
1627.6568537686339
 30
0.0
 11
1068.285791550825
 21
1627.6568537686339
 31
0.0
  0
LINE
  5
7B84
  8
1
 10
1078.364003841328
 20
1617.6568537686339
 30
0.0
 11
1303.364003841328
 21
1617.6568537686339
 31
0.0
  0
LINE
  5
7B85
  8
1
 10
1303.364003841328
 20
1617.6568537686339
 30
0.0
 11
1353.7550652938421
 21
1667.6568537686339
 31
0.0
  0
LINE
  5
7B86
  8
1
 10
988.16400384132783
 20
1657.6568537686339
 30
0.0
 11
1038.051154679315
 21
1657.6568537686339
 31
0.0
  0
LINE
  5
7B87
  8
1
 10
988.16400384132783
 20
1657.6568537686339
 30
0.0
 11
1025.864003841328
 21
1625.988853768634
 31
0.0
  0
LINE
  5
7B88
  8
1
 10
1280.864003841328
 20
1884.1568537686339
 30
0.0
 11
1393.564003841328
 21
1789.556853768634
 31
0.0
  0
LINE
  5
7B89
  8
1
 10
1440.8640038413459
 20
2040.156853768636
 30
0.0
 11
1440.8640038413359
 21
1683.156853768636
 31
0.0
  0
LINE
  5
7B8A
  8
1
 10
1100.864003841328
 20
1884.1568537686339
 30
0.0
 11
988.16400384132783
 21
1789.5568537686349
 31
0.0
  0
LINE
  5
7B8B
  8
1
 10
1420.864003841345
 20
2002.756853768635
 30
0.0
 11
1420.8640038413371
 21
1720.5568537686349
 31
0.0
  0
LINE
  5
7B8C
  8
1
 10
1439.6640038413459
 20
2040.156853768636
 30
0.0
 11
1439.6640038413359
 21
1683.156853768636
 31
0.0
  0
LINE
  5
7B91
  8
1
 10
1100.864003841328
 20
1884.1568537686339
 30
0.0
 11
1280.864003841328
 21
1884.1568537686339
 31
0.0
  0
POLYLINE
  5
7B92
  8
1
 66
     1
 10
0.0
 20
0.0
 30
0.0
  0
VERTEX
  5
80C2
  8
1
 10
1416.374910844783
 20
1691.4925901546439
 30
0.0
 42
0.0934525219043797
  0
VERTEX
  5
80C3
  8
1
 10
1395.8640038413371
 20
1671.6024384762329
 30
0.0
 42
0.1987366729981355
  0
SEQEND
  5
80C4
  8
1
  0
LINE
  5
7B9A
  8
1
 10
1440.8640038413359
 20
1683.156853768636
 30
0.0
 11
1439.6640038413359
 21
1683.156853768636
 31
0.0
  0
LINE
  5
7B9B
  8
1
 10
1440.8640038413371
 20
1704.156853768636
 30
0.0
 11
1419.8640038413371
 21
1704.156853768636
 31
0.0
  0
LINE
  5
7B9C
  8
1
 10
1440.8640038413371
 20
1703.156853768636
 30
0.0
 11
1419.8640038413371
 21
1703.156853768636
 31
0.0
  0
LINE
  5
7B9D
  8
1
 10
1436.5640038413369
 20
1704.8568537686331
 30
0.0
 11
1420.8640038413371
 21
1720.5568537686329
 31
0.0
  0
ARC
  5
7B9E
  8
1
 10
1410.864003841338
 20
1699.8370436418049
 30
0.0
 40
10.0
 50
303.44187178948329
 51
359.99999999999841
  0
LINE
  5
7B9F
  8
1
 10
1420.8640038413359
 20
1703.1568537686289
 30
0.0
 11
1420.8640038413339
 21
1699.837043641799
 31
0.0
  0
POLYLINE
  5
7BA0
  8
1
 66
     1
 10
0.0
 20
0.0
 30
0.0
  0
VERTEX
  5
80C5
  8
1
 10
1419.864003841338
 20
1703.156853768636
 30
0.0
 42
0.101266720201501
  0
VERTEX
  5
80C6
  8
1
 10
1414.364593354574
 20
1702.031498785027
 30
0.0
 42
0.0681921917069782
  0
VERTEX
  5
80C7
  8
1
 10
1395.8640038413371
 20
1687.301762115063
 30
0.0
 42
0.2200089805681688
  0
SEQEND
  5
80C8
  8
1
  0
POINT
  5
7BA5
  8
1
 10
1440.8640038413359
 20
1704.156853768636
 30
0.0
 50
0.0000000000008142
  0
ARC
  5
7BA6
  8
1
 10
1435.864003841338
 20
1704.156853768636
 30
0.0
 40
1.0
 50
269.99999999999841
 51
53.130102354193461
  0
POINT
  5
7BA7
  8
1
 10
1033.3640038413359
 20
1954.1568537686451
 30
0.0
 50
0.0000000000008142
  0
POINT
  5
7BA8
  8
1
 10
1033.3640038413359
 20
1954.1568537686451
 30
0.0
 50
0.0000000000008142
  0
LINE
  5
7BA9
  8
1
 10
1436.564003841346
 20
2018.456853768635
 30
0.0
 11
1420.864003841345
 21
2002.756853768635
 31
0.0
  0
LINE
  5
7BAA
  8
1
 10
1420.8640038413459
 20
2030.1568537686351
 30
0.0
 11
1420.8640038413459
 21
2019.1568537686369
 31
0.0
  0
ARC
  5
7BAB
  8
1
 10
1435.8640038413471
 20
2019.156853768636
 30
0.0
 40
1.0
 50
306.86989764580329
 51
0.0
  0
POLYLINE
  5
7BAC
  8
1
 66
     1
 10
0.0
 20
0.0
 30
0.0
  0
VERTEX
  5
80C9
  8
1
 10
1440.864003841348
 20
2040.156853768636
 30
0.0
  0
VERTEX
  5
80CA
  8
1
 10
1439.6640038413491
 20
2040.156853768636
 30
0.0
 42
0.4696216166052111
  0
SEQEND
  5
80CB
  8
1
  0
LINE
  5
7BB0
  8
2
 10
2077.776880616897
 20
1832.4865233235489
 30
0.0
 11
2077.7768806168979
 21
1390.9995679926569
 31
0.0
  0
LINE
  5
7BB1
  8
1
 10
2322.6884352772499
 20
1816.9788049881449
 30
0.0
 11
2170.688435277249
 21
1657.656853768633
 31
0.0
  0
LINE
  5
7BB2
  8
1
 10
2094.6968586428989
 20
1821.4751104981619
 30
0.0
 11
2094.6968586429011
 21
1586.8385970391021
 31
0.0
  0
LINE
  5
7BB3
  8
1
 10
2060.8569025908919
 20
1821.4751104981619
 30
0.0
 11
2060.8569025908942
 21
1586.8385970391039
 31
0.0
  0
LINE
  5
7BB4
  8
1
 10
2120.6884352772481
 20
1934.156853768633
 30
0.0
 11
2120.6884352772481
 21
1379.4405990493631
 31
0.0
  0
LINE
  5
7BB5
  8
1
 10
2035.6884352772479
 20
1934.156853768633
 30
0.0
 11
2035.6884352772479
 21
1379.4405990493631
 31
0.0
  0
POLYLINE
  5
7BB6
  8
1
 66
     1
 10
0.0
 20
0.0
 30
0.0
  0
VERTEX
  5
80CC
  8
1
 10
2334.688435277249
 20
1885.6568537686319
 30
0.0
  0
VERTEX
  5
80CD
  8
1
 10
2334.6884352772481
 20
1704.1568537686319
 30
0.0
  0
VERTEX
  5
80CE
  8
1
 10
2334.6884352772481
 20
1683.826550988809
 30
0.0
  0
SEQEND
  5
80CF
  8
1
  0
POLYLINE
  5
7BBB
  8
1
 66
     1
 10
0.0
 20
0.0
 30
0.0
  0
VERTEX
  5
80D0
  8
1
 10
2576.688435277249
 20
1885.656853768633
 30
0.0
  0
VERTEX
  5
80D1
  8
1
 10
2576.6884352772499
 20
1704.156853768633
 30
0.0
  0
VERTEX
  5
80D2
  8
1
 10
2576.6884352772499
 20
1683.826550988809
 30
0.0
  0
SEQEND
  5
80D3
  8
1
  0
LINE
  5
7BC2
  8
1
 10
2140.688435277249
 20
1374.1568537686319
 30
0.0
 11
2455.688435277249
 21
1374.156853768633
 31
0.0
  0
LINE
  5
7BC3
  8
2
 10
2010.577649706818
 20
1704.156853768633
 30
0.0
 11
2604.9811472347442
 21
1704.156853768633
 31
0.0
  0
LINE
  5
7BC4
  8
1
 10
2094.6968586429002
 20
1560.0894801951331
 30
0.0
 11
2094.6968586428989
 21
1450.640867781377
 31
0.0
  0
LINE
  5
7BC5
  8
1
 10
2060.8569025908928
 20
1560.0894801951331
 30
0.0
 11
2060.8569025908919
 21
1450.640867781377
 31
0.0
  0
LINE
  5
7BC6
  8
1
 10
2120.6884352772481
 20
1379.4405990493631
 30
0.0
 11
2035.6884352772479
 21
1379.4405990493631
 31
0.0
  0
LINE
  5
7BC7
  8
1
 10
2060.8569025908942
 20
1586.8385970391039
 30
0.0
 11
2094.6968586429011
 21
1586.8385970391021
 31
0.0
  0
LINE
  5
7BC8
  8
1
 10
2077.776880616897
 20
1691.6568537686319
 30
0.0
 11
2203.1258989189
 21
1691.6568537686319
 31
0.0
  0
LINE
  5
7BC9
  8
1
 10
2077.776880616897
 20
1716.656853768633
 30
0.0
 11
2226.9769751259978
 21
1716.6568537686319
 31
0.0
  0
LINE
  5
7BCA
  8
1
 10
2077.776880616897
 20
1716.656853768633
 30
0.0
 11
2077.776880616897
 21
1691.6568537686319
 31
0.0
  0
POLYLINE
  5
7BCB
  8
1
 66
     1
 10
0.0
 20
0.0
 30
0.0
  0
VERTEX
  5
80D4
  8
1
 10
2334.6884352772481
 20
1683.826550988809
 30
0.0
  0
VERTEX
  5
80D5
  8
1
 10
2334.688435277249
 20
1374.1568537686319
 30
0.0
  0
SEQEND
  5
80D6
  8
1
  0
POLYLINE
  5
7BCF
  8
1
 66
     1
 10
0.0
 20
0.0
 30
0.0
  0
VERTEX
  5
80D7
  8
1
 10
2576.6884352772499
 20
1683.826550988809
 30
0.0
  0
VERTEX
  5
80D8
  8
1
 10
2576.688435277249
 20
1522.6568537686339
 30
0.0
  0
SEQEND
  5
80D9
  8
1
  0
LINE
  5
7BD3
  8
1
 10
2568.6884352772472
 20
1684.156853768633
 30
0.0
 11
2568.688435277249
 21
1496.1568537686339
 31
0.0
  0
LINE
  5
7BD4
  8
1
 10
2342.6884352772499
 20
1682.1568537686319
 30
0.0
 11
2342.688435277249
 21
1496.1568537686319
 31
0.0
  0
LINE
  5
7BD5
  8
1
 10
2357.688435277249
 20
1481.1568537686319
 30
0.0
 11
2553.688435277249
 21
1481.156853768633
 31
0.0
  0
ARC
  5
7BD6
  8
1
 10
2357.688435277249
 20
1496.1568537686319
 30
0.0
 40
15.0
 50
180.0
 51
270.0
  0
LINE
  5
7BD7
  8
1
 10
2342.688435277249
 20
1521.6568537686319
 30
0.0
 11
2335.688435277249
 21
1521.6568537686319
 31
0.0
  0
ARC
  5
7BD8
  8
1
 10
2335.688435277249
 20
1522.6568537686319
 30
0.0
 40
1.0
 50
179.99999999999989
 51
270.0
  0
ARC
  5
7BD9
  8
1
 10
2553.688435277249
 20
1496.156853768633
 30
0.0
 40
15.0
 50
270.0
 51
0.0
  0
LINE
  5
7BDA
  8
1
 10
2569.688435277249
 20
1521.6568537686339
 30
0.0
 11
2575.6884352772508
 21
1521.6568537686339
 31
0.0
  0
ARC
  5
7BDB
  8
1
 10
2575.688435277249
 20
1522.6568537686339
 30
0.0
 40
1.0
 50
270.0
 51
0.0000000000000799
  0
LINE
  5
7BDC
  8
1
 10
2568.688435277249
 20
1516.0697817418891
 30
0.0
 11
2568.688435277249
 21
1520.6568537686339
 31
0.0
  0
ARC
  5
7BDD
  8
1
 10
2569.688435277249
 20
1520.6568537686339
 30
0.0
 40
1.0
 50
90.0
 51
180.0
  0
LINE
  5
7BDF
  8
1
 10
2060.8569025908919
 20
1821.4751104981619
 30
0.0
 11
2094.6968586428989
 21
1821.4751104981619
 31
0.0
  0
LINE
  5
7BE0
  8
1
 10
2035.6884352772479
 20
1934.156853768633
 30
0.0
 11
2120.6884352772481
 21
1934.156853768633
 31
0.0
  0
POINT
  5
7BE1
  8
1
 10
2035.6884352772479
 20
1934.156853768633
 30
0.0
  0
LINE
  5
7BE4
  8
1
 10
2352.6884352772499
 20
2019.156853768633
 30
0.0
 11
2558.6884352772499
 21
2019.156853768633
 31
0.0
  0
ARC
  5
7BE5
  8
1
 10
2335.688435277249
 20
1885.6568537686319
 30
0.0
 40
1.0
 50
90.0
 51
180.0
  0
ARC
  5
7BE6
  8
1
 10
2341.6884352772508
 20
1887.6568537686319
 30
0.0
 40
1.0
 50
270.0
 51
0.0
  0
LINE
  5
7BE7
  8
1
 10
2341.6884352772508
 20
1886.6568537686319
 30
0.0
 11
2335.688435277249
 21
1886.6568537686319
 31
0.0
  0
LINE
  5
7BEA
  8
1
 10
2568.688435277249
 20
1892.2439257953761
 30
0.0
 11
2568.688435277249
 21
1887.6568537686319
 31
0.0
  0
ARC
  5
7BEB
  8
1
 10
2569.688435277249
 20
1887.6568537686319
 30
0.0
 40
1.0
 50
180.0
 51
270.0
  0
ARC
  5
7BEC
  8
1
 10
2575.688435277249
 20
1885.656853768633
 30
0.0
 40
1.0
 50
359.99999999999989
 51
90.0
  0
LINE
  5
7BED
  8
1
 10
2569.688435277249
 20
1886.6568537686319
 30
0.0
 11
2575.688435277249
 21
1886.656853768633
 31
0.0
  0
LINE
  5
7BF0
  8
2
 10
1190.8640038413321
 20
3108.2126207320398
 30
0.0
 11
1190.8640038413321
 21
2466.485857263126
 31
0.0
  0
LINE
  5
7BF1
  8
1
 10
545.86404822480654
 20
2920.7727624560548
 30
0.0
 11
545.86404822480654
 21
2890.772762456053
 31
0.0
  0
LINE
  5
7BF2
  8
1
 10
545.86404822480654
 20
2605.7727624560539
 30
0.0
 11
1178.3640038413321
 21
2605.7727624560539
 31
0.0
  0
LINE
  5
7BF3
  8
1
 10
545.86404822480654
 20
2890.772762456053
 30
0.0
 11
659.82265912802541
 21
2890.772762456053
 31
0.0
  0
LINE
  5
7BF4
  8
1
 10
545.86404822480654
 20
2635.7727624560539
 30
0.0
 11
649.99654888995417
 21
2635.7727624560539
 31
0.0
  0
LINE
  5
7BF5
  8
1
 10
545.86404822480654
 20
2920.7727624560548
 30
0.0
 11
926.86400384133231
 21
2920.7727624560548
 31
0.0
  0
POINT
  5
7BF6
  8
1
 10
557.86404822480654
 20
2920.7727624560539
 30
0.0
 50
180.0
  0
POINT
  5
7BF7
  8
1
 10
545.86404822480654
 20
2920.7727624560548
 30
0.0
 50
180.0
  0
LINE
  5
7BF8
  8
1
 10
545.86404822480654
 20
2635.7727624560539
 30
0.0
 11
545.86404822480654
 21
2605.7727624560548
 31
0.0
  0
LINE
  5
7BF9
  8
1
 10
575.86400384134322
 20
1304.1568537686251
 30
0.0
 11
1425.8640038413421
 21
1304.1568537686369
 31
0.0
1001
ACAD
1000
ASC_BOUNDS
1002
{
1070
    19
1002
}
  0
LINE
  5
7BFA
  8
1
 10
663.0735750678341
 20
1394.061948375117
 30
0.0
 11
663.0735750678341
 21
1426.728730367251
 31
0.0
  0
LINE
  5
7BFB
  8
2
 10
743.07357506783501
 20
1348.9876285177379
 30
0.0
 11
743.0735750678341
 21
1630.304960702372
 31
0.0
  0
LINE
  5
7BFC
  8
2
 10
577.07357506783399
 20
1506.026184095055
 30
0.0
 11
892.0735750678341
 21
1506.0261840950591
 31
0.0
  0
ARC
  5
7BFD
  8
1
 10
743.07357506783319
 20
1506.026184095057
 30
0.0
 40
106.0
 50
289.37003824554051
 51
250.6299617544604
  0
LINE
  5
7BFE
  8
1
 10
643.0735750678358
 20
1406.026184095057
 30
0.0
 11
643.0735750678358
 21
1418.026184095057
 31
0.0
  0
LINE
  5
7BFF
  8
1
 10
843.0735750678341
 20
1406.0261840950591
 30
0.0
 11
843.07357506783501
 21
1418.0261840950579
 31
0.0
  0
LINE
  5
7C00
  8
1
 10
643.0735750678358
 20
1418.026184095057
 30
0.0
 11
683.07357506783501
 21
1418.026184095057
 31
0.0
  0
LINE
  5
7C01
  8
1
 10
683.07357506783501
 20
1406.0261840950591
 30
0.0
 11
683.07357506783501
 21
1418.0261840950579
 31
0.0
  0
LINE
  5
7C02
  8
1
 10
803.07357506783489
 20
1406.02618409506
 30
0.0
 11
803.0735750678358
 21
1418.02618409506
 31
0.0
  0
LINE
  5
7C03
  8
1
 10
823.07357506783126
 20
1394.0619483751129
 30
0.0
 11
823.0735750678341
 21
1426.728730367247
 31
0.0
  0
LINE
  5
7C04
  8
1
 10
803.0735750678358
 20
1418.0261840950579
 30
0.0
 11
843.07357506783501
 21
1418.0261840950579
 31
0.0
  0
CIRCLE
  5
7C05
  8
1
 10
743.07357506783501
 20
1506.026184095057
 30
0.0
 40
55.0
  0
LINE
  5
7C06
  8
2
 10
1998.259607356807
 20
1505.365173988255
 30
0.0
 11
2194.6641816647789
 21
1505.365173988255
 31
0.0
  0
LINE
  5
7C07
  8
1
 10
2060.8569025908928
 20
1560.0894801951331
 30
0.0
 11
2094.6968586429002
 21
1560.0894801951331
 31
0.0
  0
LINE
  5
7C08
  8
1
 10
2060.8569025908919
 20
1450.640867781377
 30
0.0
 11
2094.6968586429002
 21
1450.640867781377
 31
0.0
  0
LINE
  5
7C09
  8
1
 10
2060.8569025908928
 20
1560.0894801951331
 30
0.0
 11
2060.8569025908942
 21
1586.8385970391039
 31
0.0
  0
LINE
  5
7C0A
  8
1
 10
2094.6968586429002
 20
1560.0894801951331
 30
0.0
 11
2094.6968586429011
 21
1586.8385970391021
 31
0.0
  0
LINE
  5
7C0B
  8
1
 10
716.3329916223438
 20
1554.0880317186641
 30
0.0
 11
1128.5692046329159
 21
1803.5697873016429
 31
0.0
  0
LINE
  5
7C0C
  8
1
 10
755.93860787716937
 20
1452.5519760054119
 30
0.0
 11
1225.3353372040499
 21
1592.0172062827769
 31
0.0
  0
POLYLINE
  5
7C14
  8
1
 66
     1
 10
0.0
 20
0.0
 30
0.0
  0
VERTEX
  5
80DA
  8
1
 10
1216.364003841348
 20
2030.156853768641
 30
0.0
 42
0.4695416999606029
  0
VERTEX
  5
80DB
  8
1
 10
920.99970309621949
 20
1674.3379614682081
 30
0.0
 42
0.1407141398147078
  0
VERTEX
  5
80DC
  8
1
 10
985.86400384133321
 20
1550.0568823237611
 30
0.0
 42
0.3154517505481823
  0
SEQEND
  5
80DD
  8
1
  0
POLYLINE
  5
7C19
  8
1
 66
     1
 10
0.0
 20
0.0
 30
0.0
  0
VERTEX
  5
80DE
  8
1
 10
1216.364003841343
 20
2019.156853768641
 30
0.0
 42
0.4694471174416981
  0
VERTEX
  5
80DF
  8
1
 10
931.79520008416955
 20
1676.451159259361
 30
0.0
 42
0.1293935334669464
  0
VERTEX
  5
80E0
  8
1
 10
986.61810220198993
 20
1565.5638102724361
 30
0.0
 42
0.1293935334669464
  0
SEQEND
  5
80E1
  8
1
  0
LINE
  5
7C1E
  8
1
 10
988.16400384132885
 20
1789.5568537686349
 30
0.0
 11
985.86400384132855
 21
1789.5568537686349
 31
0.0
  0
LINE
  5
7C1F
  8
1
 10
1393.564003841328
 20
1789.556853768634
 30
0.0
 11
1395.864003841328
 21
1789.556853768634
 31
0.0
  0
LINE
  5
7C23
  8
1
 10
2140.688435277249
 20
1374.1568537686319
 30
0.0
 11
2140.6884352772481
 21
1304.156853768633
 31
0.0
1001
ACAD
1000
ASC_BOUNDS
1002
{
1070
    19
1002
}
  0
POLYLINE
  5
7C24
  8
1
 66
     1
 10
0.0
 20
0.0
 30
0.0
  0
VERTEX
  5
80E2
  8
1
 10
2170.6884352772481
 20
1657.656853768631
 30
0.0
  0
VERTEX
  5
80E3
  8
1
 10
2170.6884352772481
 20
1374.1568537686319
 30
0.0
  0
SEQEND
  5
80E4
  8
1
  0
LINE
  5
7C28
  8
2
 10
1477.5938273378219
 20
2920.7727624560539
 30
0.0
 11
685.42312211089302
 21
2920.7727624560539
 31
0.0
1001
ACAD
1000
ASC_BOUNDS
1002
{
1070
    19
1005
0
1005
0
1002
}
  0
LINE
  5
7C29
  8
1
 10
611.86525484821129
 20
2605.7727624560539
 30
0.0
 11
790.86400384133321
 21
2605.772762456053
 31
0.0
1001
ACAD
1000
ASC_BOUNDS
1002
{
1070
    19
1002
}
  0
LINE
  5
7C2A
  8
1
 10
545.86404822480745
 20
2605.7727624560548
 30
0.0
 11
545.86404822480654
 21
2920.7727624560548
 31
0.0
1001
ACAD
1000
ASC_BOUNDS
1002
{
1070
    19
1002
}
  0
LINE
  5
7C2B
  8
1
 10
575.86404822480654
 20
2635.7727624560539
 30
0.0
 11
575.86404822480654
 21
2890.772762456053
 31
0.0
1001
ACAD
1000
ASC_BOUNDS
1002
{
1070
    19
1005
0
1005
0
1005
0
1005
0
1005
0
1002
}
  0
LINE
  5
7C2C
  8
1
 10
575.86404822480654
 20
2605.7727624560548
 30
0.0
 11
545.86404822480745
 21
2605.7727624560548
 31
0.0
1001
ACAD
1000
ASC_BOUNDS
1002
{
1070
    19
1002
}
  0
LINE
  5
7C2D
  8
1
 10
575.86404822480654
 20
2920.7727624560548
 30
0.0
 11
545.86404822480745
 21
2920.7727624560548
 31
0.0
1001
ACAD
1000
ASC_BOUNDS
1002
{
1070
    19
1002
}
  0
LINE
  5
7C2E
  8
1
 10
1439.8640038413321
 20
3033.7727624560548
 30
0.0
 11
1190.8640038413321
 21
3033.7727624560548
 31
0.0
  0
LINE
  5
7C2F
  8
1
 10
1439.8640038413321
 20
2807.7727624560548
 30
0.0
 11
1190.8640038413321
 21
2807.7727624560548
 31
0.0
  0
LINE
  5
7C30
  8
1
 10
1420.8640038413321
 20
2500.772762456053
 30
0.0
 11
617.14900012894213
 21
2500.772762456053
 31
0.0
  0
LINE
  5
7C31
  8
1
 10
1420.8640038413321
 20
2585.772762456053
 30
0.0
 11
617.14900012894213
 21
2585.772762456053
 31
0.0
  0
LINE
  5
7C32
  8
1
 10
1308.1822605708619
 20
2525.9412297696972
 30
0.0
 11
1073.5457471118041
 21
2525.941229769699
 31
0.0
  0
LINE
  5
7C33
  8
1
 10
1308.1822605708619
 20
2559.7811858217042
 30
0.0
 11
1073.545747111802
 21
2559.781185821706
 31
0.0
  0
LINE
  5
7C34
  8
2
 10
1319.193673396248
 20
2542.8612077957018
 30
0.0
 11
628.70796907223655
 21
2542.8612077957018
 31
0.0
  0
LINE
  5
7C35
  8
1
 10
797.79788127471147
 20
2525.9412297696981
 30
0.0
 11
688.34926886095582
 21
2525.9412297696972
 31
0.0
  0
LINE
  5
7C36
  8
1
 10
797.79788127471147
 20
2559.7811858217051
 30
0.0
 11
688.34926886095582
 21
2559.7811858217042
 31
0.0
  0
LINE
  5
7C37
  8
1
 10
617.14900012894213
 20
2585.772762456053
 30
0.0
 11
617.14900012894213
 21
2500.772762456053
 31
0.0
  0
LINE
  5
7C38
  8
1
 10
688.34926886095582
 20
2525.9412297696972
 30
0.0
 11
688.34926886095582
 21
2559.7811858217051
 31
0.0
  0
LINE
  5
7C39
  8
1
 10
797.79788127471147
 20
2559.7811858217051
 30
0.0
 11
1073.545747111802
 21
2559.781185821706
 31
0.0
  0
LINE
  5
7C3A
  8
1
 10
797.79788127471147
 20
2525.9412297696981
 30
0.0
 11
1073.5457471118041
 21
2525.941229769699
 31
0.0
  0
LINE
  5
7C3B
  8
1
 10
797.79788127471147
 20
2525.9412297696981
 30
0.0
 11
797.79788127471147
 21
2559.7811858217051
 31
0.0
  0
LINE
  5
7C3C
  8
1
 10
1073.5457471118041
 20
2525.941229769699
 30
0.0
 11
1073.545747111802
 21
2559.781185821706
 31
0.0
  0
LINE
  5
7C3D
  8
1
 10
1178.3640038413321
 20
2542.8612077957018
 30
0.0
 11
1178.3640038413321
 21
2807.7727624560548
 31
0.0
  0
LINE
  5
7C3E
  8
1
 10
1203.364003841333
 20
2542.8612077957018
 30
0.0
 11
1203.3640038413309
 21
2807.7727624560548
 31
0.0
  0
LINE
  5
7C3F
  8
1
 10
1203.364003841333
 20
2542.8612077957018
 30
0.0
 11
1178.3640038413321
 21
2542.8612077957018
 31
0.0
  0
LINE
  5
7C40
  8
1
 10
1190.864003841333
 20
3033.7727624560512
 30
0.0
 11
926.86400384133231
 21
3033.7727624560548
 31
0.0
  0
LINE
  5
7C41
  8
1
 10
1168.8640038413321
 20
2807.7727624560548
 30
0.0
 11
926.86400384133231
 21
2807.7727624560539
 31
0.0
  0
LINE
  5
7C42
  8
1
 10
1190.8640038413321
 20
2807.7727624560548
 30
0.0
 11
1168.8640038413321
 21
2807.7727624560548
 31
0.0
  0
LINE
  5
7C43
  8
1
 10
1308.1822605708619
 20
2525.9412297696972
 30
0.0
 11
1308.1822605708619
 21
2559.7811858217042
 31
0.0
  0
LINE
  5
7C44
  8
1
 10
1420.8640038413321
 20
2500.772762456053
 30
0.0
 11
1420.8640038413321
 21
2585.772762456053
 31
0.0
  0
POINT
  5
7C45
  8
1
 10
1420.8640038413321
 20
2500.772762456053
 30
0.0
  0
ARC
  5
7C46
  8
1
 10
1372.3640038413321
 20
2800.7727624560539
 30
0.0
 40
1.0
 50
269.99999999999989
 51
0.0
  0
LINE
  5
7C47
  8
1
 10
1373.3640038413309
 20
2806.7727624560562
 30
0.0
 11
1373.3640038413321
 21
2800.7727624560539
 31
0.0
  0
ARC
  5
7C48
  8
1
 10
1374.3640038413309
 20
2806.7727624560562
 30
0.0
 40
1.0
 50
90.0
 51
180.0
  0
LINE
  5
7C49
  8
1
 10
1373.3640038413309
 20
3034.7727624560539
 30
0.0
 11
1373.3640038413321
 21
3040.7727624560539
 31
0.0
  0
ARC
  5
7C4A
  8
1
 10
1372.3640038413321
 20
3040.7727624560539
 30
0.0
 40
1.0
 50
0.0
 51
90.000000000000071
  0
ARC
  5
7C4B
  8
1
 10
1374.3640038413309
 20
3034.7727624560539
 30
0.0
 40
1.0
 50
180.0
 51
270.0
  0
LINE
  5
7C4C
  8
1
 10
1378.951075868076
 20
3033.7727624560539
 30
0.0
 11
1374.3640038413309
 21
3033.7727624560539
 31
0.0
  0
LINE
  5
7C4D
  8
1
 10
985.86400384132855
 20
2635.772762456053
 30
0.0
 11
985.8640038413298
 21
2799.7727624560539
 31
0.0
  0
LINE
  5
7C4E
  8
1
 10
1395.8640038413359
 20
2635.772762456053
 30
0.0
 11
1395.8640038413359
 21
2799.7727624560539
 31
0.0
  0
LINE
  5
7C4F
  8
1
 10
1203.3640038413321
 20
2635.7727624560539
 30
0.0
 11
1455.8640482248061
 21
2635.7727624560539
 31
0.0
  0
LINE
  5
7C50
  8
1
 10
1203.3640038413309
 20
2605.7727624560539
 30
0.0
 11
1455.8640482248049
 21
2605.772762456053
 31
0.0
  0
LINE
  5
7C51
  8
1
 10
1425.8640482248079
 20
2635.7727624560539
 30
0.0
 11
1425.864048224807
 21
2807.7727624560548
 31
0.0
1001
ACAD
1000
ASC_BOUNDS
1002
{
1070
    19
1002
}
  0
LINE
  5
7C52
  8
1
 10
1455.8640482248049
 20
2605.772762456053
 30
0.0
 11
1455.8640482248061
 21
2920.7727624560539
 31
0.0
1001
ACAD
1000
ASC_BOUNDS
1002
{
1070
    19
1005
0
1005
0
1005
0
1005
0
1005
0
1002
}
  0
POLYLINE
  5
7C5A
  8
1
 66
     1
 10
0.0
 20
0.0
 30
0.0
  0
VERTEX
  5
80E5
  8
1
 10
1372.3640038413321
 20
3041.7727624560539
 30
0.0
  0
VERTEX
  5
80E6
  8
1
 10
1190.8640038413321
 20
3041.7727624560548
 30
0.0
  0
SEQEND
  5
80E7
  8
1
  0
LINE
  5
7C5E
  8
1
 10
1440.8640038413321
 20
2890.772762456053
 30
0.0
 11
1455.864048224807
 21
2890.772762456053
 31
0.0
  0
LINE
  5
7C64
  8
1
 10
844.07357506783399
 20
2640.468241374128
 30
0.0
 11
831.04918674912631
 21
2632.7494552031362
 31
0.0
  0
LINE
  5
7C65
  8
1
 10
844.07357506783399
 20
2806.235285286587
 30
0.0
 11
822.52735017326904
 21
2813.4179466146679
 31
0.0
  0
LINE
  5
7C66
  8
1
 10
844.07357506783399
 20
2813.4179466146679
 30
0.0
 11
743.0735750678341
 21
2813.4179466146679
 31
0.0
  0
LINE
  5
7C67
  8
1
 10
844.07357506783399
 20
2841.4938624902461
 30
0.0
 11
642.07357506783501
 21
2841.493862490247
 31
0.0
  0
LINE
  5
7C68
  8
1
 10
844.07357506783399
 20
2841.4938624902461
 30
0.0
 11
823.0735750678341
 21
2899.7986682916298
 31
0.0
  0
LINE
  5
7C69
  8
2
 10
743.0735750678341
 20
2913.1085315551222
 30
0.0
 11
743.0735750678341
 21
2499.868845983543
 31
0.0
  0
LINE
  5
7C6A
  8
1
 10
823.0735750678341
 20
2899.7986682916298
 30
0.0
 11
663.0735750678341
 21
2899.7986682916298
 31
0.0
  0
LINE
  5
7C6B
  8
1
 10
835.99361149961339
 20
2632.7494552031362
 30
0.0
 11
654.68330368823536
 21
2632.7494552031362
 31
0.0
  0
LINE
  5
7C6C
  8
1
 10
835.9936114996143
 20
2608.937696579671
 30
0.0
 11
654.68330368823615
 21
2608.937696579671
 31
0.0
  0
LINE
  5
7C6D
  8
1
 10
654.68330368823536
 20
2608.937696579671
 30
0.0
 11
654.68330368823536
 21
2632.7494552031362
 31
0.0
  0
LINE
  5
7C6E
  8
1
 10
785.34510046158618
 20
2608.937696579671
 30
0.0
 11
785.34510046158709
 21
2598.7986682916298
 31
0.0
  0
LINE
  5
7C6F
  8
1
 10
700.8020496740819
 20
2608.937696579671
 30
0.0
 11
700.80204967408099
 21
2598.7986682916298
 31
0.0
  0
LINE
  5
7C70
  8
1
 10
835.99361149961339
 20
2608.937696579671
 30
0.0
 11
835.99361149961339
 21
2632.7494552031362
 31
0.0
  0
LINE
  5
7C71
  8
1
 10
785.34510046158709
 20
2598.7986682916298
 30
0.0
 11
700.80204967408099
 21
2598.7986682916298
 31
0.0
  0
LINE
  5
7C72
  8
1
 10
729.0735750678341
 20
2533.7986682916298
 30
0.0
 11
729.0735750678341
 21
2593.7986682916298
 31
0.0
  0
LINE
  5
7C73
  8
1
 10
757.07357506783399
 20
2533.7986682916298
 30
0.0
 11
757.07357506783399
 21
2593.7986682916298
 31
0.0
  0
LINE
  5
7C74
  8
1
 10
727.26950395419397
 20
2598.7986682916298
 30
0.0
 11
727.26950395419397
 21
2593.7986682916298
 31
0.0
  0
LINE
  5
7C75
  8
1
 10
758.87764618147503
 20
2598.7986682916298
 30
0.0
 11
758.87764618147503
 21
2593.7986682916298
 31
0.0
  0
LINE
  5
7C76
  8
1
 10
758.87764618147503
 20
2593.7986682916298
 30
0.0
 11
727.26950395419397
 21
2593.7986682916298
 31
0.0
  0
LINE
  5
7C77
  8
1
 10
757.07357506783399
 20
2533.7986682916298
 30
0.0
 11
729.0735750678341
 21
2533.7986682916298
 31
0.0
  0
LINE
  5
7C78
  8
1
 10
844.07357506783399
 20
2640.4682413741261
 30
0.0
 11
844.07357506783399
 21
2806.235285286587
 31
0.0
  0
LINE
  5
7C79
  8
1
 10
844.07357506783399
 20
2813.4179466146679
 30
0.0
 11
844.07357506783399
 21
2841.4938624902461
 31
0.0
  0
LINE
  5
7C7A
  8
1
 10
642.0735750678341
 20
2813.4179466146679
 30
0.0
 11
743.0735750678341
 21
2813.4179466146679
 31
0.0
  0
LINE
  5
7C7B
  8
1
 10
642.0735750678341
 20
2806.235285286587
 30
0.0
 11
663.61979996239916
 21
2813.4179466146679
 31
0.0
  0
LINE
  5
7C7C
  8
1
 10
642.0735750678341
 20
2640.4682413741261
 30
0.0
 11
642.0735750678341
 21
2806.235285286587
 31
0.0
  0
LINE
  5
7C7D
  8
1
 10
642.0735750678341
 20
2640.468241374128
 30
0.0
 11
655.09796338654166
 21
2632.7494552031362
 31
0.0
  0
LINE
  5
7C7E
  8
1
 10
642.0735750678341
 20
2813.4179466146679
 30
0.0
 11
642.0735750678341
 21
2841.4938624902461
 31
0.0
  0
LINE
  5
7C7F
  8
1
 10
642.0735750678341
 20
2841.4938624902461
 30
0.0
 11
663.0735750678341
 21
2899.7986682916298
 31
0.0
  0
LINE
  5
7C80
  8
1
 10
826.32449100764086
 20
2890.772762456053
 30
0.0
 11
926.86400384133208
 21
2890.7727624560521
 31
0.0
  0
LINE
  5
7C81
  8
1
 10
836.15060124571482
 20
2635.7727624560539
 30
0.0
 11
1178.364003841333
 21
2635.7727624560539
 31
0.0
  0
POLYLINE
  5
7C82
  8
1
 66
     1
 10
0.0
 20
0.0
 30
0.0
  0
VERTEX
  5
80E8
  8
1
 10
649.99654888995417
 20
2635.772762456053
 30
0.0
  0
VERTEX
  5
80E9
  8
1
 10
611.86525484821129
 20
2635.772762456053
 30
0.0
  0
SEQEND
  5
80EA
  8
1
  0
POLYLINE
  5
7C86
  8
1
 66
     1
 10
0.0
 20
0.0
 30
0.0
  0
VERTEX
  5
80EB
  8
1
 10
1144.3640038413309
 20
2635.772762456053
 30
0.0
  0
VERTEX
  5
80EC
  8
1
 10
836.15060124571391
 20
2635.772762456053
 30
0.0
  0
SEQEND
  5
80ED
  8
1
  0
DIMENSION
  5
7C96
  8
3
  2
*D1
 10
442.82198415991701
 20
2605.7727624560539
 30
0.0
 11
442.8219841599165
 21
2758.3878534487299
 31
0.0
 70
   128
 13
545.86404822480654
 23
2920.7727624560548
 33
0.0
 14
545.86404822480654
 24
2605.7727624560539
 34
0.0
 50
90.0
1001
ACAD
1000
DSTYLE
1002
{
1070
   287
1070
     3
1070
   287
1070
     3
1070
    40
1040
15.0
1070
   143
1040
0.039
1070
   172
1070
     1
1070
   271
1070
     0
1070
   279
1070
     0
1070
   288
1070
     1
1002
}
  0
DIMENSION
  5
7CA3
  8
3
  2
*D2
 10
1455.8640482248061
 20
3184.9564685086261
 30
0.0
 11
1013.489530429888
 21
3184.9564685086261
 31
0.0
 70
   128
 13
545.86404822480654
 23
2920.7727624560548
 33
0.0
 14
1455.8640482248061
 24
2920.7727624560539
 34
0.0
1001
ACAD
1000
DSTYLE
1002
{
1070
   287
1070
     3
1070
   287
1070
     3
1070
    40
1040
15.0
1070
   143
1040
0.039
1070
   172
1070
     1
1070
   271
1070
     0
1070
   279
1070
     0
1070
   288
1070
     1
1002
}
  0
LINE
  5
7D01
  8
4
 10
2775.0
 20
750.0
 30
0.0
 11
2775.0
 21
450.0
 31
0.0
  0
LINE
  5
7D02
  8
4
 10
1725.0
 20
750.0
 30
0.0
 11
1725.0
 21
450.0
 31
0.0
  0
LINE
  5
7D03
  8
4
 10
975.0
 20
750.0
 30
0.0
 11
975.0
 21
450.0
 31
0.0
  0
LINE
  5
7D06
  8
4
 10
975.0
 20
450.0
 30
0.0
 11
2775.0
 21
450.0
 31
0.0
  0
LINE
  5
7D07
  8
4
 10
975.0
 20
600.0
 30
0.0
 11
2775.0
 21
600.0
 31
0.0
  0
TEXT
  5
7D08
  8
4
 10
1032.753121270352
 20
647.31453879991932
 30
0.0
 40
75.0
  1
機器名称
  0
TEXT
  5
7D09
  8
4
 10
1029.3871590371959
 20
482.46773509801642
 30
0.0
 40
75.0
  1
機器型番
  0
TEXT
  5
7D0A
  8
4
 10
1766.5181182314971
 20
633.85765343635285
 30
0.0
 40
75.0
  1
ミツヤ厨房用ファン
  0
TEXT
  5
7D0B
  8
4
 10
1779.9817433782209
 20
475.739376419915
 30
0.0
 40
75.0
  1
MFK#2-1
  0
TEXT
  5
7D0D
  8
4
 10
1183.3606647423139
 20
3575.1432619987731
 30
0.0
 40
80.999999999999986
  1
床置ベット
  0
TEXT
  5
7D0E
  8
4
 10
474.25138999416959
 20
3800.8214642989469
 30
0.0
 40
108.0
  1
ベルト駆動式片吸込片持多翼ファン
  0
LINE
  5
7D0F
  8
4
 10
375.0
 20
3704.1131313972069
 30
0.0
 11
2775.0
 21
3704.1131313972069
 31
0.0
  0
LINE
  5
7D10
  8
4
 10
375.0
 20
4004.1131313972069
 30
0.0
 11
2775.0
 21
4004.1131313972069
 31
0.0
  0
LINE
  5
7D11
  8
4
 10
975.0
 20
750.0
 30
0.0
 11
2775.0
 21
750.0
 31
0.0
  0
LINE
  5
7D12
  8
4
 10
375.0
 20
4004.1131313972069
 30
0.0
 11
375.0
 21
3704.1131313972069
 31
0.0
  0
TEXT
  5
7D13
  8
4
 10
529.57241637826155
 20
3573.4792163195152
 30
0.0
 40
80.999999999999986
  1
右回転右横向
  0
TEXT
  5
7D14
  8
4
 10
2203.4543388739339
 20
4059.0916222429628
 30
0.0
 40
84.000000000000014
  1
No.
  0
TEXT
  5
7D15
  8
4
 10
1966.944093900019
 20
3575.1432619987731
 30
0.0
 40
80.999999999999986
  1
縮尺：1/15
  0
LINE
  5
7D16
  8
4
 10
2775.0
 20
4004.1131313972069
 30
0.0
 11
2775.0
 21
3704.1131313972069
 31
0.0
  0
LINE
  5
7D17
  8
4
 10
3150.0
 20
4425.0
 30
0.0
 11
3150.0
 21
4425.0
 31
0.0
  0
LINE
  5
7D18
  8
4
 10
2160.9261335397969
 20
4021.895374688102
 30
0.0
 11
2160.9261335397969
 21
4179.9783923246277
 31
0.0
  0
LINE
  5
7D19
  8
4
 10
2160.9261335397969
 20
4179.9783923246277
 30
0.0
 11
2775.0
 21
4179.9783923246277
 31
0.0
  0
LINE
  5
7D1A
  8
4
 10
2775.0
 20
4179.9783923246277
 30
0.0
 11
2775.0
 21
4021.895374688102
 31
0.0
  0
LINE
  5
7D1B
  8
4
 10
2775.0
 20
4021.895374688102
 30
0.0
 11
2160.9261335397969
 21
4021.895374688102
 31
0.0
  0
LINE
  5
7D1C
  8
4
 10
0.0
 20
0.0
 30
0.0
 11
0.0
 21
4425.0
 31
0.0
  0
LINE
  5
7D1D
  8
4
 10
0.0
 20
4425.0
 30
0.0
 11
3150.0
 21
4425.0
 31
0.0
  0
LINE
  5
7D1E
  8
4
 10
3150.0
 20
4425.0
 30
0.0
 11
3150.0
 21
0.0
 31
0.0
  0
LINE
  5
7D1F
  8
4
 10
3150.0
 20
0.0
 30
0.0
 11
0.0
 21
0.0
 31
0.0
  0
DIMENSION
  5
7D3A
  8
3
  2
*D3
 10
1633.525431827441
 20
1304.1568537686369
 30
0.0
 11
1596.025431827441
 21
1504.156853768636
 31
0.0
 70
     0
 13
1463.6371326988169
 23
1704.1568537686339
 33
0.0
 14
1425.8640038413421
 24
1304.1568537686369
 34
0.0
 50
90.0
1001
ACAD
1000
DSTYLE
1002
{
1070
   287
1070
     3
1070
   287
1070
     3
1070
    40
1040
15.0
1070
   143
1040
0.039
1070
   172
1070
     1
1070
   271
1070
     0
1070
   279
1070
     0
1070
   288
1070
     1
1002
}
  0
DIMENSION
  5
7DCD
  8
3
  2
*D4
 10
1633.525431827441
 20
2019.156853768636
 30
0.0
 11
1596.025431827441
 21
1861.6568537686369
 31
0.0
 70
     0
 13
1494.2675979933799
 23
1704.1568537686369
 33
0.0
 14
1440.8640038413459
 24
2019.156853768636
 34
0.0
 50
270.0
1001
ACAD
1000
DSTYLE
1002
{
1070
   287
1070
     4
1070
   287
1070
     4
1070
    40
1040
15.0
1070
    75
1070
     1
1070
   143
1040
0.039
1070
   172
1070
     1
1070
   271
1070
     0
1070
   279
1070
     1
1070
   288
1070
     1
1002
}
  0
DIMENSION
  5
7E0A
  8
3
  2
*D5
 10
2567.6884352772499
 20
2076.4413659339471
 30
0.0
 11
2463.7598638486788
 21
2076.4413659339471
 31
0.0
 70
   128
 13
2343.6884352772499
 23
2009.156853768633
 33
0.0
 14
2567.6884352772499
 24
2009.156853768633
 34
0.0
1001
ACAD
1000
DSTYLE
1002
{
1070
   287
1070
     3
1070
   287
1070
     3
1070
    40
1040
15.0
1070
   143
1040
0.039
1070
   172
1070
     1
1070
   271
1070
     0
1070
   279
1070
     0
1070
   288
1070
     1
1002
}
  0
DIMENSION
  5
7E1A
  8
3
  2
*D6
 10
2455.688435277249
 20
2188.4334803942502
 30
0.0
 11
2516.188435277249
 21
2188.4334803942502
 31
0.0
 70
   128
 13
2576.688435277249
 23
1885.656853768633
 33
0.0
 14
2455.688435277249
 24
2148.3684642882208
 34
0.0
1001
ACAD
1000
DSTYLE
1002
{
1070
   287
1070
     3
1070
   287
1070
     3
1070
    40
1040
15.0
1070
   143
1040
0.039
1070
   172
1070
     1
1070
   271
1070
     0
1070
   279
1070
     0
1070
   288
1070
     1
1002
}
  0
DIMENSION
  5
7E26
  8
3
  2
*D7
 10
2035.6884352772479
 20
2188.4334803942502
 30
0.0
 11
2245.688435277249
 21
2263.4334803942502
 31
0.0
 70
     0
  1
MAX\P<>
 13
2455.688435277249
 23
2148.3684642882208
 33
0.0
 14
2035.6884352772479
 24
1934.156853768633
 34
0.0
1001
ACAD
1000
DSTYLE
1002
{
1070
   287
1070
     4
1070
   287
1070
     4
1070
    40
1040
15.0
1070
    75
1070
     1
1070
   143
1040
0.039
1070
   172
1070
     1
1070
   271
1070
     0
1070
   279
1070
     1
1070
   288
1070
     1
1002
}
  0
DIMENSION
  5
7E58
  8
3
  2
*D8
 10
2699.81729498912
 20
1546.656853768633
 30
0.0
 11
2699.8172949891191
 21
1707.4475016502211
 31
0.0
 70
   128
 13
2576.688435277249
 23
1861.656853768633
 33
0.0
 14
2576.688435277249
 24
1546.656853768633
 34
0.0
 50
90.0
1001
ACAD
1000
DSTYLE
1002
{
1070
   287
1070
     3
1070
   287
1070
     3
1070
     3
1000
φ<>
1070
    40
1040
15.0
1070
   143
1040
0.039
1070
   172
1070
     1
1070
   271
1070
     0
1070
   279
1070
     0
1070
   288
1070
     1
1002
}
  0
POLYLINE
  5
7E8E
  8
1
 66
     1
 10
0.0
 20
0.0
 30
0.0
  0
VERTEX
  5
8136
  8
1
 10
1440.8640038413459
 20
2019.156853768636
 30
0.0
  0
VERTEX
  5
8137
  8
1
 10
1216.364003841345
 20
2019.156853768641
 30
0.0
 42
0.2294041480982971
  0
SEQEND
  5
8138
  8
1
  0
POLYLINE
  5
7E92
  8
1
 66
     1
 10
0.0
 20
0.0
 30
0.0
  0
VERTEX
  5
8139
  8
1
 10
1420.8640038413471
 20
2030.1568537686351
 30
0.0
  0
VERTEX
  5
813A
  8
1
 10
1216.3640038413471
 20
2030.156853768641
 30
0.0
 42
0.2369453676414515
  0
SEQEND
  5
813B
  8
1
  0
POLYLINE
  5
7E96
  8
1
 66
     1
 10
0.0
 20
0.0
 30
0.0
  0
VERTEX
  5
813C
  8
1
 10
1044.0788378207369
 20
1504.4894750984599
 30
0.0
 42
0.1679214192521515
  0
VERTEX
  5
813D
  8
1
 10
1207.1662341548069
 20
1473.9108714850629
 30
0.0
 42
0.1402058305592064
  0
VERTEX
  5
813E
  8
1
 10
1314.214409723221
 20
1524.153573687569
 30
0.0
 42
0.3154517505481823
  0
SEQEND
  5
813F
  8
1
  0
POLYLINE
  5
7E9F
  8
1
 66
     1
 10
0.0
 20
0.0
 30
0.0
  0
VERTEX
  5
8140
  8
1
 10
1052.2705051971641
 20
1511.363100172746
 30
0.0
 42
0.1639447918540961
  0
VERTEX
  5
8141
  8
1
 10
1205.63402912163
 20
1483.793009559434
 30
0.0
 42
0.1381794525024617
  0
VERTEX
  5
8142
  8
1
 10
1306.456081226178
 20
1530.6635842679909
 30
0.0
 42
0.3153658436290411
  0
SEQEND
  5
8143
  8
1
  0
POLYLINE
  5
7EA8
  8
1
 66
     1
 10
0.0
 20
0.0
 30
0.0
  0
VERTEX
  5
8144
  8
1
 10
1395.8640038413371
 20
1687.301762115063
 30
0.0
 42
0.0697634348982244
  0
VERTEX
  5
8145
  8
1
 10
1381.752655778939
 20
1667.6568537686339
 30
0.0
 42
0.2200089805681688
  0
SEQEND
  5
8146
  8
1
  0
POLYLINE
  5
7EAC
  8
1
 66
     1
 10
0.0
 20
0.0
 30
0.0
  0
VERTEX
  5
8147
  8
1
 10
1395.8640038413371
 20
1671.6024384762329
 30
0.0
 42
0.0153361963151358
  0
VERTEX
  5
8148
  8
1
 10
1393.2579065637181
 20
1667.6568537686339
 30
0.0
 42
0.1987366729981355
  0
SEQEND
  5
8149
  8
1
  0
DIMENSION
  5
7EBC
  8
3
  2
*D9
 10
1190.8640038413309
 20
2148.1482906424421
 30
0.0
 11
1313.188229685072
 21
2148.1482906424421
 31
0.0
 70
   128
 13
1440.8640038413459
 23
2040.156853768636
 33
0.0
 14
1190.8640038413309
 24
2055.4664183051459
 34
0.0
1001
ACAD
1000
DSTYLE
1002
{
1070
   287
1070
     3
1070
   287
1070
     3
1070
    40
1040
15.0
1070
   143
1040
0.039
1070
   172
1070
     1
1070
   271
1070
     0
1070
   279
1070
     0
1070
   288
1070
     1
1002
}
  0
DIMENSION
  5
7EC8
  8
3
  2
*D10
 10
926.86400384133663
 20
2148.1482906424421
 30
0.0
 11
1058.8640038413339
 21
2185.6482906424421
 31
0.0
 70
     0
 13
1190.8640038413309
 23
2055.4664183051459
 33
0.0
 14
926.86400384133663
 24
1729.6568537686419
 34
0.0
1001
ACAD
1000
DSTYLE
1002
{
1070
   287
1070
     4
1070
   287
1070
     4
1070
    40
1040
15.0
1070
    75
1070
     1
1070
   143
1040
0.039
1070
   172
1070
     1
1070
   271
1070
     0
1070
   279
1070
     1
1070
   288
1070
     1
1002
}
  0
LINE
  5
7EE1
  8
1
 10
2337.6884352772499
 20
2039.156853768633
 30
0.0
 11
2573.6884352772499
 21
2039.156853768633
 31
0.0
  0
LINE
  5
7EE2
  8
1
 10
2322.6884352772499
 20
2024.156853768633
 30
0.0
 11
2322.6884352772499
 21
1699.156853768633
 31
0.0
  0
LINE
  5
7EE3
  8
1
 10
2588.6884352772499
 20
2024.156853768633
 30
0.0
 11
2588.6884352772499
 21
1699.156853768633
 31
0.0
  0
LINE
  5
7EE4
  8
1
 10
2337.6884352772499
 20
1684.156853768633
 30
0.0
 11
2573.6884352772499
 21
1684.156853768633
 31
0.0
  0
LINE
  5
7EF9
  8
1
 10
2352.6884352772499
 20
1704.156853768633
 30
0.0
 11
2558.6884352772499
 21
1704.156853768633
 31
0.0
  0
ARC
  5
7EFD
  8
1
 10
2337.6884352772499
 20
2024.156853768633
 30
0.0
 40
15.0
 50
90.000000000000099
 51
180.0
  0
ARC
  5
7EFE
  8
1
 10
2573.6884352772499
 20
2024.156853768633
 30
0.0
 40
15.0
 50
0.0
 51
90.000000000000156
  0
ARC
  5
7EFF
  8
1
 10
2337.6884352772499
 20
1699.156853768633
 30
0.0
 40
15.0
 50
180.0
 51
270.0
  0
ARC
  5
7F00
  8
1
 10
2573.6884352772499
 20
1699.156853768633
 30
0.0
 40
15.0
 50
270.0
 51
0.0
  0
ARC
  5
7F01
  8
1
 10
2352.6884352772499
 20
2009.156853768633
 30
0.0
 40
10.0
 50
90.000000000000057
 51
154.15806723684059
  0
ARC
  5
7F02
  8
1
 10
2558.6884352772499
 20
2009.156853768633
 30
0.0
 40
10.0
 50
25.84193276316174
 51
90.000000000000057
  0
ARC
  5
7F03
  8
1
 10
2558.6884352772499
 20
1714.1568537686339
 30
0.0
 40
10.0
 50
270.0
 51
334.15806723684051
  0
ARC
  5
7F05
  8
1
 10
2352.6884352772499
 20
1714.156853768633
 30
0.0
 40
10.0
 50
205.84193276316171
 51
270.0
  0
LINE
  5
7F2C
  8
1
 10
1440.8640038413321
 20
3053.7727624560562
 30
0.0
 11
1440.8640038413321
 21
2787.7727624560548
 31
0.0
  0
LINE
  5
7F2D
  8
1
 10
926.86400384133231
 20
3033.7727624560548
 30
0.0
 11
926.86400384133231
 21
2807.7727624560539
 31
0.0
  0
POLYLINE
  5
7F32
  8
1
 66
     1
 10
0.0
 20
0.0
 30
0.0
  0
VERTEX
  5
815B
  8
1
 10
1395.8640038413359
 20
2799.7727624560539
 30
0.0
  0
VERTEX
  5
815C
  8
1
 10
1203.3640038413309
 20
2799.7727624560539
 30
0.0
  0
SEQEND
  5
815D
  8
1
  0
POLYLINE
  5
7F36
  8
1
 66
     1
 10
0.0
 20
0.0
 30
0.0
  0
VERTEX
  5
815E
  8
1
 10
1178.3640038413321
 20
2799.7727624560539
 30
0.0
  0
VERTEX
  5
815F
  8
1
 10
985.86400384132958
 20
2799.772762456053
 30
0.0
  0
SEQEND
  5
8160
  8
1
  0
ARC
  5
7F3A
  8
1
 10
1007.364003841333
 20
2806.7727624560562
 30
0.0
 40
1.0
 50
0.0
 51
90.0
  0
LINE
  5
7F3B
  8
1
 10
1008.364003841333
 20
2806.7727624560562
 30
0.0
 11
1008.364003841332
 21
2800.7727624560539
 31
0.0
  0
ARC
  5
7F3C
  8
1
 10
1009.364003841332
 20
2800.7727624560539
 30
0.0
 40
1.0
 50
180.0
 51
270.0
  0
POLYLINE
  5
7F3D
  8
1
 66
     1
 10
0.0
 20
0.0
 30
0.0
  0
VERTEX
  5
8161
  8
1
 10
1009.364003841332
 20
3041.7727624560539
 30
0.0
  0
VERTEX
  5
8162
  8
1
 10
1190.8640038413321
 20
3041.7727624560548
 30
0.0
  0
SEQEND
  5
8163
  8
1
  0
LINE
  5
7F41
  8
1
 10
1002.776931814588
 20
3033.7727624560539
 30
0.0
 11
1007.364003841333
 21
3033.7727624560539
 31
0.0
  0
ARC
  5
7F42
  8
1
 10
1007.364003841333
 20
3034.7727624560539
 30
0.0
 40
1.0
 50
270.0
 51
0.0
  0
ARC
  5
7F43
  8
1
 10
1009.364003841332
 20
3040.7727624560539
 30
0.0
 40
1.0
 50
89.999999999999915
 51
180.0
  0
LINE
  5
7F44
  8
1
 10
1008.364003841333
 20
3034.7727624560539
 30
0.0
 11
1008.364003841332
 21
3040.7727624560539
 31
0.0
  0
LINE
  5
7F45
  8
1
 10
1440.8640038413321
 20
3053.7727624560562
 30
0.0
 11
1439.8640038413321
 21
3053.7727624560562
 31
0.0
  0
LINE
  5
7F46
  8
1
 10
1440.8640038413321
 20
2787.7727624560548
 30
0.0
 11
1439.8640038413321
 21
2787.7727624560548
 31
0.0
  0
LINE
  5
7F47
  8
1
 10
1439.8640038413321
 20
3053.7727624560562
 30
0.0
 11
1439.8640038413321
 21
2787.7727624560548
 31
0.0
  0
LINE
  5
7F52
  8
1
 10
2343.6884352772499
 20
2013.5157527121739
 30
0.0
 11
2343.6884352772499
 21
1709.7979548250919
 31
0.0
  0
LINE
  5
7F53
  8
1
 10
2567.6884352772499
 20
2013.5157527121739
 30
0.0
 11
2567.6884352772499
 21
1709.7979548250919
 31
0.0
  0
DIMENSION
  5
7F95
  8
3
  2
*D11
 10
1190.8640038413421
 20
1193.794987466448
 30
0.0
 11
883.36400384134265
 21
1231.294987466448
 31
0.0
 70
     0
 13
575.86400384134322
 23
1304.1568537686251
 33
0.0
 14
1190.8640038413421
 24
1304.1568537686339
 34
0.0
1001
ACAD
1000
DSTYLE
1002
{
1070
   287
1070
     3
1070
   287
1070
     3
1070
    40
1040
15.0
1070
   143
1040
0.039
1070
   172
1070
     1
1070
   271
1070
     0
1070
   279
1070
     0
1002
}
  0
DIMENSION
  5
7FA2
  8
3
  2
*D12
 10
1425.8640038413421
 20
1193.794987466448
 30
0.0
 11
1308.3640038413421
 21
1231.294987466448
 31
0.0
 70
     0
 13
1190.8640038413421
 23
1304.1568537686339
 33
0.0
 14
1425.8640038413421
 24
1304.1568537686369
 34
0.0
1001
ACAD
1000
DSTYLE
1002
{
1070
   287
1070
     3
1070
   287
1070
     3
1070
    40
1040
15.0
1070
   143
1040
0.039
1070
   172
1070
     1
1070
   271
1070
     0
1070
   279
1070
     0
1002
}
  0
DIMENSION
  5
7FAF
  8
3
  2
*D13
 10
2455.688435277249
 20
1193.794987466448
 30
0.0
 11
2298.188435277249
 21
1231.294987466448
 31
0.0
 70
     0
 13
2140.688435277249
 23
1304.156853768633
 33
0.0
 14
2455.688435277249
 24
1304.156853768633
 34
0.0
1001
ACAD
1000
DSTYLE
1002
{
1070
   287
1070
     3
1070
   287
1070
     3
1070
    40
1040
15.0
1070
   143
1040
0.039
1070
   172
1070
     1
1070
   271
1070
     0
1070
   279
1070
     0
1002
}
  0
ENDSEC
  0
EOF
